  0
SECTION
  2
HEADER
  9
$ACADVER
  1
AC1012
  9
$DWGCODEPAGE
  3
ansi_932
  9
$INSBASE
 10
0.0
 20
0.0
 30
0.0
  9
$EXTMIN
 10
-9637.500000000004
 20
-7355.000000000004
 30
0.0
  9
$EXTMAX
 10
9637.499999999996
 20
7360.000000000002
 30
0.0
  9
$LIMMIN
 10
-3712.5
 20
-2625.0
  9
$LIMMAX
 10
3712.5
 20
2625.0
  9
$ORTHOMODE
 70
     0
  9
$REGENMODE
 70
     1
  9
$FILLMODE
 70
     1
  9
$QTEXTMODE
 70
     0
  9
$MIRRTEXT
 70
     1
  9
$DRAGMODE
 70
     2
  9
$LTSCALE
 40
6.25
  9
$OSMODE
 70
    37
  9
$ATTMODE
 70
     1
  9
$TEXTSIZE
 40
0.2
  9
$TRACEWID
 40
0.05
  9
$TEXTSTYLE
  7
STANDARD
  9
$CLAYER
  8
0
  9
$CELTYPE
  6
BYLAYER
  9
$CECOLOR
 62
   256
  9
$CELTSCALE
 40
1.0
  9
$DELOBJ
 70
     1
  9
$DISPSILH
 70
     0
  9
$DIMSCALE
 40
1.0
  9
$DIMASZ
 40
75.00004768371582
  9
$DIMEXO
 40
1.0
  9
$DIMDLI
 40
10.0
  9
$DIMRND
 40
0.0
  9
$DIMDLE
 40
0.0
  9
$DIMEXE
 40
1.0
  9
$DIMTP
 40
0.0
  9
$DIMTM
 40
0.0
  9
$DIMTXT
 40
87.5
  9
$DIMCEN
 40
0.0
  9
$DIMTSZ
 40
0.0
  9
$DIMTOL
 70
     0
  9
$DIMLIM
 70
     0
  9
$DIMTIH
 70
     0
  9
$DIMTOH
 70
     0
  9
$DIMSE1
 70
     0
  9
$DIMSE2
 70
     0
  9
$DIMTAD
 70
     1
  9
$DIMZIN
 70
     8
  9
$DIMBLK
  1

  9
$DIMASO
 70
     1
  9
$DIMSHO
 70
     1
  9
$DIMPOST
  1

  9
$DIMAPOST
  1

  9
$DIMALT
 70
     0
  9
$DIMALTD
 70
     2
  9
$DIMALTF
 40
0.0393700787401575
  9
$DIMLFAC
 40
1.0
  9
$DIMTOFL
 70
     0
  9
$DIMTVP
 40
0.0
  9
$DIMTIX
 70
     0
  9
$DIMSOXD
 70
     0
  9
$DIMSAH
 70
     0
  9
$DIMBLK1
  1

  9
$DIMBLK2
  1

  9
$DIMSTYLE
  2
STANDARD
  9
$DIMCLRD
 70
     0
  9
$DIMCLRE
 70
     0
  9
$DIMCLRT
 70
     0
  9
$DIMTFAC
 40
0.65
  9
$DIMGAP
 40
0.09
  9
$DIMJUST
 70
     0
  9
$DIMSD1
 70
     0
  9
$DIMSD2
 70
     0
  9
$DIMTOLJ
 70
     0
  9
$DIMTZIN
 70
     0
  9
$DIMALTZ
 70
     0
  9
$DIMALTTZ
 70
     0
  9
$DIMFIT
 70
     3
  9
$DIMUPT
 70
     0
  9
$DIMUNIT
 70
     2
  9
$DIMDEC
 70
     2
  9
$DIMTDEC
 70
     2
  9
$DIMALTU
 70
     2
  9
$DIMALTTD
 70
     2
  9
$DIMTXSTY
  7
STANDARD
  9
$DIMAUNIT
 70
     0
  9
$LUNITS
 70
     2
  9
$LUPREC
 70
     4
  9
$SKETCHINC
 40
0.1
  9
$FILLETRAD
 40
0.5
  9
$AUNITS
 70
     0
  9
$AUPREC
 70
     0
  9
$MENU
  1
.
  9
$ELEVATION
 40
0.0
  9
$PELEVATION
 40
0.0
  9
$THICKNESS
 40
0.0
  9
$LIMCHECK
 70
     0
  9
$CHAMFERA
 40
0.0
  9
$CHAMFERB
 40
0.0
  9
$CHAMFERC
 40
0.0
  9
$CHAMFERD
 40
0.0
  9
$SKPOLY
 70
     0
  9
$TDCREATE
 40
2459688.445358333
  9
$TDUPDATE
 40
2459688.445358889
  9
$TDINDWG
 40
0.0000000116
  9
$TDUSRTIMER
 40
0.0000000116
  9
$USRTIMER
 70
     1
  9
$ANGBASE
 50
0.0
  9
$ANGDIR
 70
     0
  9
$PDMODE
 70
     0
  9
$PDSIZE
 40
1.0
  9
$PLINEWID
 40
0.0
  9
$COORDS
 70
     1
  9
$SPLFRAME
 70
     0
  9
$SPLINETYPE
 70
     6
  9
$SPLINESEGS
 70
     8
  9
$ATTDIA
 70
     0
  9
$ATTREQ
 70
     1
  9
$HANDLING
 70
     1
  9
$HANDSEED
  5
5F7
  9
$SURFTAB1
 70
     6
  9
$SURFTAB2
 70
     6
  9
$SURFTYPE
 70
     6
  9
$SURFU
 70
     6
  9
$SURFV
 70
     6
  9
$UCSNAME
  2

  9
$UCSORG
 10
0.0
 20
0.0
 30
0.0
  9
$UCSXDIR
 10
1.0
 20
0.0
 30
0.0
  9
$UCSYDIR
 10
0.0
 20
1.0
 30
0.0
  9
$PUCSNAME
  2

  9
$PUCSORG
 10
0.0
 20
0.0
 30
0.0
  9
$PUCSXDIR
 10
1.0
 20
0.0
 30
0.0
  9
$PUCSYDIR
 10
0.0
 20
1.0
 30
0.0
  9
$USERI1
 70
     0
  9
$USERI2
 70
     0
  9
$USERI3
 70
     0
  9
$USERI4
 70
     0
  9
$USERI5
 70
     0
  9
$USERR1
 40
0.0
  9
$USERR2
 40
0.0
  9
$USERR3
 40
0.0
  9
$USERR4
 40
0.0
  9
$USERR5
 40
0.0
  9
$WORLDVIEW
 70
     1
  9
$SHADEDGE
 70
     3
  9
$SHADEDIF
 70
    70
  9
$TILEMODE
 70
     1
  9
$MAXACTVP
 70
    64
  9
$PINSBASE
 10
0.0
 20
0.0
 30
0.0
  9
$PLIMCHECK
 70
     0
  9
$PEXTMIN
 10
1.000000000000000E+20
 20
1.000000000000000E+20
 30
1.000000000000000E+20
  9
$PEXTMAX
 10
-1.000000000000000E+20
 20
-1.000000000000000E+20
 30
-1.000000000000000E+20
  9
$PLIMMIN
 10
0.0
 20
0.0
  9
$PLIMMAX
 10
12.0
 20
9.0
  9
$UNITMODE
 70
     0
  9
$VISRETAIN
 70
     0
  9
$PLINEGEN
 70
     1
  9
$PSLTSCALE
 70
     0
  9
$TREEDEPTH
 70
  3020
  9
$PICKSTYLE
 70
     1
  9
$CMLSTYLE
  2
STANDARD
  9
$CMLJUST
 70
     0
  9
$CMLSCALE
 40
1.0
  9
$SAVEIMAGES
 70
     0
  0
ENDSEC
  0
SECTION
  2
CLASSES
  0
CLASS
  1
ACDBDICTIONARYWDFLT
  2
AcDbDictionaryWithDefault
  3
ObjectDBX Classes
 90
    32768
280
     0
281
     0
  0
CLASS
  1
VISUALSTYLE
  2
AcDbVisualStyle
  3
ObjectDBX Classes
 90
     4095
280
     0
281
     0
  0
CLASS
  1
MATERIAL
  2
AcDbMaterial
  3
ObjectDBX Classes
 90
     1153
280
     0
281
     0
  0
CLASS
  1
SCALE
  2
AcDbScale
  3
ObjectDBX Classes
 90
     1153
280
     0
281
     0
  0
CLASS
  1
TABLESTYLE
  2
AcDbTableStyle
  3
ObjectDBX Classes
 90
     4095
280
     0
281
     0
  0
CLASS
  1
MLEADERSTYLE
  2
AcDbMLeaderStyle
  3
ACDB_MLEADERSTYLE_CLASS
 90
     4095
280
     0
281
     0
  0
CLASS
  1
SUN
  2
AcDbSun
  3
SCENEOE
 90
     1153
280
     0
281
     0
  0
CLASS
  1
DICTIONARYVAR
  2
AcDbDictionaryVar
  3
ObjectDBX Classes
 90
        0
280
     0
281
     0
  0
CLASS
  1
XRECORD
  2
AcDbXrecord
  3
ObjectDBX Classes
 90
    32768
280
     0
281
     0
  0
CLASS
  1
LWPOLYLINE
  2
AcDbPolyline
  3
ObjectDBX Classes
 90
    32768
280
     0
281
     1
  0
CLASS
  1
HATCH
  2
AcDbHatch
  3
ObjectDBX Classes
 90
    32768
280
     0
281
     1
  0
CLASS
  1
ACDBPLACEHOLDER
  2
AcDbPlaceHolder
  3
ObjectDBX Classes
 90
        0
280
     0
281
     0
  0
CLASS
  1
LAYOUT
  2
AcDbLayout
  3
ObjectDBX Classes
 90
        0
280
     0
281
     0
  0
ENDSEC
  0
SECTION
  2
TABLES
  0
TABLE
  2
VPORT
  5
8
330
0
100
AcDbSymbolTable
 70
     1
  0
VPORT
  5
29
330
8
100
AcDbSymbolTableRecord
100
AcDbViewportTableRecord
  2
*ACTIVE
 70
     0
 10
0.0
 20
0.0
 11
1.0
 21
1.0
 12
-0.0000000000035278
 22
-6.637020132550788
 13
0.0
 23
0.0
 14
0.5
 24
0.5
 15
0.5
 25
0.5
 16
0.0
 26
0.0
 36
1.0
 17
0.0
 27
0.0
 37
0.0
 40
5021.739521070403
 41
1.305025872509432
 42
50.0
 43
0.0
 44
0.0
 50
0.0
 51
0.0
 71
     0
 72
  1000
 73
     1
 74
     1
 75
     0
 76
     0
 77
     0
 78
     0
  0
ENDTAB
  0
TABLE
  2
LTYPE
  5
5
330
0
100
AcDbSymbolTable
 70
    67
  0
LTYPE
  5
14
330
5
100
AcDbSymbolTableRecord
100
AcDbLinetypeTableRecord
  2
BYBLOCK
 70
     0
  3

 72
    65
 73
     0
 40
0.0
  0
LTYPE
  5
15
330
5
100
AcDbSymbolTableRecord
100
AcDbLinetypeTableRecord
  2
BYLAYER
 70
     0
  3

 72
    65
 73
     0
 40
0.0
  0
LTYPE
  5
16
330
5
100
AcDbSymbolTableRecord
100
AcDbLinetypeTableRecord
  2
CONTINUOUS
 70
     0
  3
Solid line
 72
    65
 73
     0
 40
0.0
  0
LTYPE
  5
6F
330
5
100
AcDbSymbolTableRecord
100
AcDbLinetypeTableRecord
  2
HIDDENX2
 70
     0
  3
Hidden (2x) ____ ____ ____ ____ ____ ____ ____ 
 72
    65
 73
     2
 40
19.05
 49
12.7
 74
     0
 49
-6.35
 74
     0
  0
LTYPE
  5
70
330
5
100
AcDbSymbolTableRecord
100
AcDbLinetypeTableRecord
  2
HIDDEN
 70
     0
  3
Hidden __ __ __ __ __ __ __ __ __ __ __ __ __ __
 72
    65
 73
     2
 40
9.524999999999999
 49
6.35
 74
     0
 49
-3.175
 74
     0
  0
LTYPE
  5
71
330
5
100
AcDbSymbolTableRecord
100
AcDbLinetypeTableRecord
  2
HIDDEN2
 70
     0
  3
Hidden (.5x) _ _ _ _ _ _ _ _ _ _ _ _ _ _ _ _ _ 
 72
    65
 73
     2
 40
4.762499999999999
 49
3.175
 74
     0
 49
-1.5875
 74
     0
  0
LTYPE
  5
72
330
5
100
AcDbSymbolTableRecord
100
AcDbLinetypeTableRecord
  2
DASHED
 70
     0
  3
Dashed __ __ __ __ __ __ __ __ __ __ __ __ __ _
 72
    65
 73
     2
 40
19.05
 49
12.7
 74
     0
 49
-6.35
 74
     0
  0
LTYPE
  5
73
330
5
100
AcDbSymbolTableRecord
100
AcDbLinetypeTableRecord
  2
DASHED2
 70
     0
  3
Dashed (.5x) _ _ _ _ _ _ _ _ _ _ _ _ _ _ _ _ _ 
 72
    65
 73
     2
 40
9.524999999999999
 49
6.35
 74
     0
 49
-3.175
 74
     0
  0
LTYPE
  5
74
330
5
100
AcDbSymbolTableRecord
100
AcDbLinetypeTableRecord
  2
DASHEDX2
 70
     0
  3
Dashed (2x) ____  ____  ____  ____  ____  ___
 72
    65
 73
     2
 40
38.09999999999999
 49
25.4
 74
     0
 49
-12.7
 74
     0
  0
LTYPE
  5
75
330
5
100
AcDbSymbolTableRecord
100
AcDbLinetypeTableRecord
  2
DOTX2
 70
     0
  3
Dot (2x) .  .  .  .  .  .  .  .  .  .  .  .  .  .
 72
    65
 73
     2
 40
12.7
 49
0.0
 74
     0
 49
-12.7
 74
     0
  0
LTYPE
  5
76
330
5
100
AcDbSymbolTableRecord
100
AcDbLinetypeTableRecord
  2
DOT
 70
     0
  3
Dot . . . . . . . . . . . . . . . . . . . . . . . .
 72
    65
 73
     2
 40
6.35
 49
0.0
 74
     0
 49
-6.35
 74
     0
  0
LTYPE
  5
77
330
5
100
AcDbSymbolTableRecord
100
AcDbLinetypeTableRecord
  2
DOT2
 70
     0
  3
Dot (.5x) ........................................
 72
    65
 73
     2
 40
3.175
 49
0.0
 74
     0
 49
-3.175
 74
     0
  0
LTYPE
  5
78
330
5
100
AcDbSymbolTableRecord
100
AcDbLinetypeTableRecord
  2
CENTERX2
 70
     0
  3
Center (2x) ________  __  ________  __  _____
 72
    65
 73
     4
 40
101.6
 49
63.5
 74
     0
 49
-12.7
 74
     0
 49
12.7
 74
     0
 49
-12.7
 74
     0
  0
LTYPE
  5
79
330
5
100
AcDbSymbolTableRecord
100
AcDbLinetypeTableRecord
  2
CENTER
 70
     0
  3
Center ____ _ ____ _ ____ _ ____ _ ____ _ ____
 72
    65
 73
     4
 40
50.8
 49
31.75
 74
     0
 49
-6.35
 74
     0
 49
6.35
 74
     0
 49
-6.35
 74
     0
  0
LTYPE
  5
7A
330
5
100
AcDbSymbolTableRecord
100
AcDbLinetypeTableRecord
  2
CENTER2
 70
     0
  3
Center (.5x) ___ _ ___ _ ___ _ ___ _ ___ _ ___
 72
    65
 73
     4
 40
28.575
 49
19.05
 74
     0
 49
-3.175
 74
     0
 49
3.175
 74
     0
 49
-3.175
 74
     0
  0
LTYPE
  5
7B
330
5
100
AcDbSymbolTableRecord
100
AcDbLinetypeTableRecord
  2
DASHDOTX2
 70
     0
  3
Dash dot (2x) ____  .  ____  .  ____  .  ___
 72
    65
 73
     4
 40
50.8
 49
25.4
 74
     0
 49
-12.7
 74
     0
 49
0.0
 74
     0
 49
-12.7
 74
     0
  0
LTYPE
  5
7C
330
5
100
AcDbSymbolTableRecord
100
AcDbLinetypeTableRecord
  2
DASHDOT
 70
     0
  3
Dash dot __ . __ . __ . __ . __ . __ . __ . __
 72
    65
 73
     4
 40
25.4
 49
12.7
 74
     0
 49
-6.35
 74
     0
 49
0.0
 74
     0
 49
-6.35
 74
     0
  0
LTYPE
  5
7D
330
5
100
AcDbSymbolTableRecord
100
AcDbLinetypeTableRecord
  2
DASHDOT2
 70
     0
  3
Dash dot (.5x) _._._._._._._._._._._._._._._.
 72
    65
 73
     4
 40
12.7
 49
6.35
 74
     0
 49
-3.175
 74
     0
 49
0.0
 74
     0
 49
-3.175
 74
     0
  0
LTYPE
  5
7E
330
5
100
AcDbSymbolTableRecord
100
AcDbLinetypeTableRecord
  2
DIVIDEX2
 70
     0
  3
Divide (2x) ________  .  .  ________  .  .  _
 72
    65
 73
     6
 40
63.5
 49
25.4
 74
     0
 49
-12.7
 74
     0
 49
0.0
 74
     0
 49
-12.7
 74
     0
 49
0.0
 74
     0
 49
-12.7
 74
     0
  0
LTYPE
  5
7F
330
5
100
AcDbSymbolTableRecord
100
AcDbLinetypeTableRecord
  2
DIVIDE
 70
     0
  3
Divide ____ . . ____ . . ____ . . ____ . . ____
 72
    65
 73
     6
 40
31.75
 49
12.7
 74
     0
 49
-6.35
 74
     0
 49
0.0
 74
     0
 49
-6.35
 74
     0
 49
0.0
 74
     0
 49
-6.35
 74
     0
  0
LTYPE
  5
80
330
5
100
AcDbSymbolTableRecord
100
AcDbLinetypeTableRecord
  2
DIVIDE2
 70
     0
  3
Divide (.5x) __..__..__..__..__..__..__..__.._
 72
    65
 73
     6
 40
15.875
 49
6.35
 74
     0
 49
-3.175
 74
     0
 49
0.0
 74
     0
 49
-3.175
 74
     0
 49
0.0
 74
     0
 49
-3.175
 74
     0
  0
LTYPE
  5
81
330
5
100
AcDbSymbolTableRecord
100
AcDbLinetypeTableRecord
  2
BORDERX2
 70
     0
  3
Border (2x) ____  ____  .  ____  ____  .  ___
 72
    65
 73
     6
 40
88.89999999999999
 49
25.4
 74
     0
 49
-12.7
 74
     0
 49
25.4
 74
     0
 49
-12.7
 74
     0
 49
0.0
 74
     0
 49
-12.7
 74
     0
  0
LTYPE
  5
82
330
5
100
AcDbSymbolTableRecord
100
AcDbLinetypeTableRecord
  2
BORDER
 70
     0
  3
Border __ __ . __ __ . __ __ . __ __ . __ __ .
 72
    65
 73
     6
 40
44.45
 49
12.7
 74
     0
 49
-6.35
 74
     0
 49
12.7
 74
     0
 49
-6.35
 74
     0
 49
0.0
 74
     0
 49
-6.35
 74
     0
  0
LTYPE
  5
83
330
5
100
AcDbSymbolTableRecord
100
AcDbLinetypeTableRecord
  2
BORDER2
 70
     0
  3
Border (.5x) __.__.__.__.__.__.__.__.__.__.__.
 72
    65
 73
     6
 40
22.225
 49
6.35
 74
     0
 49
-3.175
 74
     0
 49
6.35
 74
     0
 49
-3.175
 74
     0
 49
0.0
 74
     0
 49
-3.175
 74
     0
  0
LTYPE
  5
84
330
5
100
AcDbSymbolTableRecord
100
AcDbLinetypeTableRecord
  2
PHANTOMX2
 70
     0
  3
Phantom (2x) ____________    ____    ____   _
 72
    65
 73
     6
 40
127.0
 49
63.5
 74
     0
 49
-12.7
 74
     0
 49
12.7
 74
     0
 49
-12.7
 74
     0
 49
12.7
 74
     0
 49
-12.7
 74
     0
  0
LTYPE
  5
85
330
5
100
AcDbSymbolTableRecord
100
AcDbLinetypeTableRecord
  2
PHANTOM
 70
     0
  3
Phantom ______  __  __  ______  __  __  ______ 
 72
    65
 73
     6
 40
63.5
 49
31.75
 74
     0
 49
-6.35
 74
     0
 49
6.35
 74
     0
 49
-6.35
 74
     0
 49
6.35
 74
     0
 49
-6.35
 74
     0
  0
LTYPE
  5
86
330
5
100
AcDbSymbolTableRecord
100
AcDbLinetypeTableRecord
  2
PHANTOM2
 70
     0
  3
Phantom (.5x) ___ _ _ ___ _ _ ___ _ _ ___ _ _
 72
    65
 73
     6
 40
31.75
 49
15.875
 74
     0
 49
-3.175
 74
     0
 49
3.175
 74
     0
 49
-3.175
 74
     0
 49
3.175
 74
     0
 49
-3.175
 74
     0
  0
LTYPE
  5
87
330
5
100
AcDbSymbolTableRecord
100
AcDbLinetypeTableRecord
  2
ACAD_ISO06W100
 70
     0
  3
ISO long-dash triple-dot ____ ... ____ ... ____
 72
    65
 73
     8
 40
36.0
 49
24.0
 74
     0
 49
-3.0
 74
     0
 49
0.0
 74
     0
 49
-3.0
 74
     0
 49
0.0
 74
     0
 49
-3.0
 74
     0
 49
0.0
 74
     0
 49
-3.0
 74
     0
  0
LTYPE
  5
88
330
5
100
AcDbSymbolTableRecord
100
AcDbLinetypeTableRecord
  2
ACAD_ISO13W100
 70
     0
  3
ISO double-dash double-dot __ __ . . __ __ . . _
 72
    65
 73
     8
 40
36.0
 49
12.0
 74
     0
 49
-3.0
 74
     0
 49
12.0
 74
     0
 49
-3.0
 74
     0
 49
0.0
 74
     0
 49
-3.0
 74
     0
 49
0.0
 74
     0
 49
-3.0
 74
     0
  0
LTYPE
  5
89
330
5
100
AcDbSymbolTableRecord
100
AcDbLinetypeTableRecord
  2
ACAD_ISO14W100
 70
     0
  3
ISO dash triple-dot __ . . . __ . . . __ . . . _
 72
    65
 73
     8
 40
24.0
 49
12.0
 74
     0
 49
-3.0
 74
     0
 49
0.0
 74
     0
 49
-3.0
 74
     0
 49
0.0
 74
     0
 49
-3.0
 74
     0
 49
0.0
 74
     0
 49
-3.0
 74
     0
  0
LTYPE
  5
8A
330
5
100
AcDbSymbolTableRecord
100
AcDbLinetypeTableRecord
  2
ACAD_ISO02W100
 70
     0
  3
ISO dash __ __ __ __ __ __ __ __ __ __ __ __ __
 72
    65
 73
     2
 40
15.0
 49
12.0
 74
     0
 49
-3.0
 74
     0
  0
LTYPE
  5
8B
330
5
100
AcDbSymbolTableRecord
100
AcDbLinetypeTableRecord
  2
ACAD_ISO03W100
 70
     0
  3
ISO dash space __    __    __    __    __    __
 72
    65
 73
     2
 40
30.0
 49
12.0
 74
     0
 49
-18.0
 74
     0
  0
LTYPE
  5
8C
330
5
100
AcDbSymbolTableRecord
100
AcDbLinetypeTableRecord
  2
ACAD_ISO04W100
 70
     0
  3
ISO long-dash dot ____ . ____ . ____ . ____ . _
 72
    65
 73
     4
 40
30.0
 49
24.0
 74
     0
 49
-3.0
 74
     0
 49
0.0
 74
     0
 49
-3.0
 74
     0
  0
LTYPE
  5
8D
330
5
100
AcDbSymbolTableRecord
100
AcDbLinetypeTableRecord
  2
ACAD_ISO05W100
 70
     0
  3
ISO long-dash double-dot ____ .. ____ .. ____ . 
 72
    65
 73
     6
 40
33.0
 49
24.0
 74
     0
 49
-3.0
 74
     0
 49
0.0
 74
     0
 49
-3.0
 74
     0
 49
0.0
 74
     0
 49
-3.0
 74
     0
  0
LTYPE
  5
8E
330
5
100
AcDbSymbolTableRecord
100
AcDbLinetypeTableRecord
  2
ACAD_ISO07W100
 70
     0
  3
ISO dot . . . . . . . . . . . . . . . . . . . . 
 72
    65
 73
     2
 40
3.0
 49
0.0
 74
     0
 49
-3.0
 74
     0
  0
LTYPE
  5
8F
330
5
100
AcDbSymbolTableRecord
100
AcDbLinetypeTableRecord
  2
ACAD_ISO08W100
 70
     0
  3
ISO long-dash short-dash ____ __ ____ __ ____ _
 72
    65
 73
     4
 40
36.0
 49
24.0
 74
     0
 49
-3.0
 74
     0
 49
6.0
 74
     0
 49
-3.0
 74
     0
  0
LTYPE
  5
90
330
5
100
AcDbSymbolTableRecord
100
AcDbLinetypeTableRecord
  2
ACAD_ISO09W100
 70
     0
  3
ISO long-dash double-short-dash ____ __ __ ____
 72
    65
 73
     6
 40
45.0
 49
24.0
 74
     0
 49
-3.0
 74
     0
 49
6.0
 74
     0
 49
-3.0
 74
     0
 49
6.0
 74
     0
 49
-3.0
 74
     0
  0
LTYPE
  5
91
330
5
100
AcDbSymbolTableRecord
100
AcDbLinetypeTableRecord
  2
ACAD_ISO10W100
 70
     0
  3
ISO dash dot __ . __ . __ . __ . __ . __ . __ . 
 72
    65
 73
     4
 40
18.0
 49
12.0
 74
     0
 49
-3.0
 74
     0
 49
0.0
 74
     0
 49
-3.0
 74
     0
  0
LTYPE
  5
92
330
5
100
AcDbSymbolTableRecord
100
AcDbLinetypeTableRecord
  2
ACAD_ISO11W100
 70
     0
  3
ISO double-dash dot __ __ . __ __ . __ __ . __ _
 72
    65
 73
     6
 40
33.0
 49
12.0
 74
     0
 49
-3.0
 74
     0
 49
12.0
 74
     0
 49
-3.0
 74
     0
 49
0.0
 74
     0
 49
-3.0
 74
     0
  0
LTYPE
  5
93
330
5
100
AcDbSymbolTableRecord
100
AcDbLinetypeTableRecord
  2
ACAD_ISO12W100
 70
     0
  3
ISO dash double-dot __ . . __ . . __ . . __ . . 
 72
    65
 73
     6
 40
21.0
 49
12.0
 74
     0
 49
-3.0
 74
     0
 49
0.0
 74
     0
 49
-3.0
 74
     0
 49
0.0
 74
     0
 49
-3.0
 74
     0
  0
LTYPE
  5
94
330
5
100
AcDbSymbolTableRecord
100
AcDbLinetypeTableRecord
  2
ACAD_ISO15W100
 70
     0
  3
ISO double-dash triple-dot __ __ . . . __ __ . .
 72
    65
 73
    10
 40
39.0
 49
12.0
 74
     0
 49
-3.0
 74
     0
 49
12.0
 74
     0
 49
-3.0
 74
     0
 49
0.0
 74
     0
 49
-3.0
 74
     0
 49
0.0
 74
     0
 49
-3.0
 74
     0
 49
0.0
 74
     0
 49
-3.0
 74
     0
  0
LTYPE
  5
95
330
5
100
AcDbSymbolTableRecord
100
AcDbLinetypeTableRecord
  2
JIS_02_0_7
 70
     0
  3
HIDDEN0.75 _ _ _ _ _ _ _ _ _ _ _ _ _ _ _ _ _ 
 72
    65
 73
     2
 40
1.35
 49
0.75
 74
     0
 49
-0.6
 74
     0
  0
LTYPE
  5
96
330
5
100
AcDbSymbolTableRecord
100
AcDbLinetypeTableRecord
  2
JIS_02_1_0
 70
     0
  3
HIDDEN01 _ _ _ _ _ _ _ _ _ _ _ _ _ _ _ _ _ 
 72
    65
 73
     2
 40
2.0
 49
1.0
 74
     0
 49
-1.0
 74
     0
  0
LTYPE
  5
97
330
5
100
AcDbSymbolTableRecord
100
AcDbLinetypeTableRecord
  2
JIS_02_1_2
 70
     0
  3
HIDDEN01.25  _ _ _ _ _ _ _ _ _ _ _ _ _ _ _ _ _ 
 72
    65
 73
     2
 40
2.5
 49
1.25
 74
     0
 49
-1.25
 74
     0
  0
LTYPE
  5
98
330
5
100
AcDbSymbolTableRecord
100
AcDbLinetypeTableRecord
  2
JIS_02_2_0
 70
     0
  3
HIDDEN02 __ __ __ __ __ __ __ __ __ __ __ 
 72
    65
 73
     2
 40
3.0
 49
2.0
 74
     0
 49
-1.0
 74
     0
  0
LTYPE
  5
99
330
5
100
AcDbSymbolTableRecord
100
AcDbLinetypeTableRecord
  2
JIS_02_4_0
 70
     0
  3
HIDDEN04 ____ ____ ____ ____ ____ ____ ____ 
 72
    65
 73
     2
 40
5.5
 49
4.0
 74
     0
 49
-1.5
 74
     0
  0
LTYPE
  5
9A
330
5
100
AcDbSymbolTableRecord
100
AcDbLinetypeTableRecord
  2
JIS_08_11
 70
     0
  3
1SASEN11 ___ _ ___ _ ___ _ ___ _ ___ _ ___
 72
    65
 73
     4
 40
12.8
 49
11.0
 74
     0
 49
-0.6
 74
     0
 49
0.6
 74
     0
 49
-0.6
 74
     0
  0
LTYPE
  5
9B
330
5
100
AcDbSymbolTableRecord
100
AcDbLinetypeTableRecord
  2
JIS_08_15
 70
     0
  3
1SASEN15 ____ _ ____ _ ____ _ ____ _ ____ 
 72
    65
 73
     4
 40
17.25
 49
15.0
 74
     0
 49
-0.75
 74
     0
 49
0.75
 74
     0
 49
-0.75
 74
     0
  0
LTYPE
  5
9C
330
5
100
AcDbSymbolTableRecord
100
AcDbLinetypeTableRecord
  2
JIS_08_25
 70
     0
  3
1SASEN25 ________  __  ________  __  _____
 72
    65
 73
     4
 40
28.0
 49
25.0
 74
     0
 49
-1.125
 74
     0
 49
0.75
 74
     0
 49
-1.125
 74
     0
  0
LTYPE
  5
9D
330
5
100
AcDbSymbolTableRecord
100
AcDbLinetypeTableRecord
  2
JIS_08_37
 70
     0
  3
1SASEN37 ________  __  ________  __  _____
 72
    65
 73
     4
 40
40.5
 49
37.5
 74
     0
 49
-1.125
 74
     0
 49
0.75
 74
     0
 49
-1.125
 74
     0
  0
LTYPE
  5
9E
330
5
100
AcDbSymbolTableRecord
100
AcDbLinetypeTableRecord
  2
JIS_08_50
 70
     0
  3
1SASEN50 _______________  __  ____________
 72
    65
 73
     4
 40
53.0
 49
50.0
 74
     0
 49
-1.125
 74
     0
 49
0.75
 74
     0
 49
-1.125
 74
     0
  0
LTYPE
  5
9F
330
5
100
AcDbSymbolTableRecord
100
AcDbLinetypeTableRecord
  2
JIS_09_08
 70
     0
  3
2SASEN8 __ _ _ __ _ _ __ _ _ __ _ _ __ _ _ 
 72
    65
 73
     6
 40
10.75
 49
8.0
 74
     0
 49
-0.55
 74
     0
 49
0.55
 74
     0
 49
-0.55
 74
     0
 49
0.55
 74
     0
 49
-0.55
 74
     0
  0
LTYPE
  5
A0
330
5
100
AcDbSymbolTableRecord
100
AcDbLinetypeTableRecord
  2
JIS_09_15
 70
     0
  3
2SASEN15 ___ _ _ ___ _ _ ___ _ _ ___ _ _ ___ 
 72
    65
 73
     6
 40
18.9
 49
15.0
 74
     0
 49
-0.9
 74
     0
 49
0.6
 74
     0
 49
-0.9
 74
     0
 49
0.6
 74
     0
 49
-0.9
 74
     0
  0
LTYPE
  5
A1
330
5
100
AcDbSymbolTableRecord
100
AcDbLinetypeTableRecord
  2
JIS_09_29
 70
     0
  3
2SASEN29 ______　__  __  ______　__  __  ___
 72
    65
 73
     6
 40
34.0
 49
29.0
 74
     0
 49
-1.2
 74
     0
 49
0.7
 74
     0
 49
-1.2
 74
     0
 49
0.7
 74
     0
 49
-1.2
 74
     0
  0
LTYPE
  5
A2
330
5
100
AcDbSymbolTableRecord
100
AcDbLinetypeTableRecord
  2
JIS_09_50
 70
     0
  3
2SASEN50 ____________　__  __  _____________
 72
    65
 73
     6
 40
55.0
 49
50.0
 74
     0
 49
-1.2
 74
     0
 49
0.7
 74
     0
 49
-1.2
 74
     0
 49
0.7
 74
     0
 49
-1.2
 74
     0
  0
LTYPE
  5
A3
330
5
100
AcDbSymbolTableRecord
100
AcDbLinetypeTableRecord
  2
SXF_破線
 70
     0
  3
02 dashed -- -- -- -- -- --
 72
    65
 73
     2
 40
7.5
 49
6.0
 74
     0
 49
-1.5
 74
     0
  0
LTYPE
  5
A4
330
5
100
AcDbSymbolTableRecord
100
AcDbLinetypeTableRecord
  2
SXF_跳び破線
 70
     0
  3
03 dashed_spaced --  --  --  --
 72
    65
 73
     2
 40
12.0
 49
6.0
 74
     0
 49
-6.0
 74
     0
  0
LTYPE
  5
A5
330
5
100
AcDbSymbolTableRecord
100
AcDbLinetypeTableRecord
  2
SXF_一点長鎖線
 70
     0
  3
04 long_dashed_dotted ---- . ---- . ----
 72
    65
 73
     4
 40
15.25
 49
12.0
 74
     0
 49
-1.5
 74
     0
 49
0.25
 74
     0
 49
-1.5
 74
     0
  0
LTYPE
  5
A6
330
5
100
AcDbSymbolTableRecord
100
AcDbLinetypeTableRecord
  2
SXF_二点長鎖線
 70
     0
  3
05 long_dashed_double-dotted ---- . . ---- 
 72
    65
 73
     6
 40
17.0
 49
12.0
 74
     0
 49
-1.5
 74
     0
 49
0.25
 74
     0
 49
-1.5
 74
     0
 49
0.25
 74
     0
 49
-1.5
 74
     0
  0
LTYPE
  5
A7
330
5
100
AcDbSymbolTableRecord
100
AcDbLinetypeTableRecord
  2
SXF_三点長鎖線
 70
     0
  3
06 long_dashed_triplicate-dotted ---- ... ---- 
 72
    65
 73
     8
 40
18.75
 49
12.0
 74
     0
 49
-1.5
 74
     0
 49
0.25
 74
     0
 49
-1.5
 74
     0
 49
0.25
 74
     0
 49
-1.5
 74
     0
 49
0.25
 74
     0
 49
-1.5
 74
     0
  0
LTYPE
  5
A8
330
5
100
AcDbSymbolTableRecord
100
AcDbLinetypeTableRecord
  2
SXF_点線
 70
     0
  3
07 dotted . . . . . . . . . . . . 
 72
    65
 73
     2
 40
1.75
 49
0.25
 74
     0
 49
-1.5
 74
     0
  0
LTYPE
  5
A9
330
5
100
AcDbSymbolTableRecord
100
AcDbLinetypeTableRecord
  2
SXF_一点鎖線
 70
     0
  3
08 chain ---- - --- - --- - ---
 72
    65
 73
     4
 40
18.5
 49
12.0
 74
     0
 49
-1.5
 74
     0
 49
3.5
 74
     0
 49
-1.5
 74
     0
  0
LTYPE
  5
AA
330
5
100
AcDbSymbolTableRecord
100
AcDbLinetypeTableRecord
  2
SXF_二点鎖線
 70
     0
  3
09 chain_double_dash ---- - - ---- - - ----
 72
    65
 73
     6
 40
23.5
 49
12.0
 74
     0
 49
-1.5
 74
     0
 49
3.5
 74
     0
 49
-1.5
 74
     0
 49
3.5
 74
     0
 49
-1.5
 74
     0
  0
LTYPE
  5
AB
330
5
100
AcDbSymbolTableRecord
100
AcDbLinetypeTableRecord
  2
SXF_一点短鎖線
 70
     0
  3
10 dashed_dotted -- . -- . -- . --
 72
    65
 73
     4
 40
9.25
 49
6.0
 74
     0
 49
-1.5
 74
     0
 49
0.25
 74
     0
 49
-1.5
 74
     0
  0
LTYPE
  5
AC
330
5
100
AcDbSymbolTableRecord
100
AcDbLinetypeTableRecord
  2
SXF_一点二短鎖線
 70
     0
  3
11 double-dashed_dotted -- -- . -- --
 72
    65
 73
     6
 40
16.75
 49
6.0
 74
     0
 49
-1.5
 74
     0
 49
6.0
 74
     0
 49
-1.5
 74
     0
 49
0.25
 74
     0
 49
-1.5
 74
     0
  0
LTYPE
  5
AD
330
5
100
AcDbSymbolTableRecord
100
AcDbLinetypeTableRecord
  2
SXF_二点短鎖線
 70
     0
  3
12 dashed_double_dotted -- . . -- . . --
 72
    65
 73
     6
 40
11.0
 49
6.0
 74
     0
 49
-1.5
 74
     0
 49
0.25
 74
     0
 49
-1.5
 74
     0
 49
0.25
 74
     0
 49
-1.5
 74
     0
  0
LTYPE
  5
AE
330
5
100
AcDbSymbolTableRecord
100
AcDbLinetypeTableRecord
  2
SXF_二点二短鎖線
 70
     0
  3
13 double-dashed_double-dotted -- -- . . -- --
 72
    65
 73
     8
 40
18.5
 49
6.0
 74
     0
 49
-1.5
 74
     0
 49
6.0
 74
     0
 49
-1.5
 74
     0
 49
0.25
 74
     0
 49
-1.5
 74
     0
 49
0.25
 74
     0
 49
-1.5
 74
     0
  0
LTYPE
  5
AF
330
5
100
AcDbSymbolTableRecord
100
AcDbLinetypeTableRecord
  2
SXF_三点短鎖線
 70
     0
  3
14 dashed triplicate-dotted -- . . . -- . . . --
 72
    65
 73
     8
 40
12.75
 49
6.0
 74
     0
 49
-1.5
 74
     0
 49
0.25
 74
     0
 49
-1.5
 74
     0
 49
0.25
 74
     0
 49
-1.5
 74
     0
 49
0.25
 74
     0
 49
-1.5
 74
     0
  0
LTYPE
  5
B0
330
5
100
AcDbSymbolTableRecord
100
AcDbLinetypeTableRecord
  2
SXF_三点二短鎖線
 70
     0
  3
15 double-dashed triplicate-dotted -- -- . . . -- -- 
 72
    65
 73
    10
 40
20.25
 49
6.0
 74
     0
 49
-1.5
 74
     0
 49
6.0
 74
     0
 49
-1.5
 74
     0
 49
0.25
 74
     0
 49
-1.5
 74
     0
 49
0.25
 74
     0
 49
-1.5
 74
     0
 49
0.25
 74
     0
 49
-1.5
 74
     0
  0
ENDTAB
  0
TABLE
  2
LAYER
  5
2
330
0
100
AcDbSymbolTable
 70
     6
  0
LAYER
  5
10
330
2
100
AcDbSymbolTableRecord
100
AcDbLayerTableRecord
  2
0
 70
     0
 62
     7
  6
CONTINUOUS
  0
LAYER
  5
B1
330
2
100
AcDbSymbolTableRecord
100
AcDbLayerTableRecord
  2
MAINS
 70
     0
 62
     7
  6
CONTINUOUS
  0
LAYER
  5
B2
330
2
100
AcDbSymbolTableRecord
100
AcDbLayerTableRecord
  2
LAYER0016
 70
     0
 62
     7
  6
CONTINUOUS
  0
LAYER
  5
B3
330
2
100
AcDbSymbolTableRecord
100
AcDbLayerTableRecord
  2
LAYER0017
 70
     0
 62
     7
  6
CONTINUOUS
  0
LAYER
  5
B4
330
2
100
AcDbSymbolTableRecord
100
AcDbLayerTableRecord
  2
LAYER0048
 70
     0
 62
     7
  6
CONTINUOUS
  0
LAYER
  5
B5
330
2
100
AcDbSymbolTableRecord
100
AcDbLayerTableRecord
  2
1-2
 70
     0
 62
     7
  6
CONTINUOUS
  0
ENDTAB
  0
TABLE
  2
STYLE
  5
3
330
0
100
AcDbSymbolTable
 70
     5
  0
STYLE
  5
11
330
3
100
AcDbSymbolTableRecord
100
AcDbTextStyleTableRecord
  2
STANDARD
 70
     0
 40
0.0
 41
1.0
 50
0.0
 71
     0
 42
0.2
  3
txt.shx
  4
bigfont.shx
  0
STYLE
  5
177
330
3
100
AcDbSymbolTableRecord
100
AcDbTextStyleTableRecord
  2
DCSTYLE0
 70
     0
 40
0.0
 41
0.8
 50
0.0
 71
     0
 42
0.2
  3
ＭＳ Ｐゴシック
  4

1001
ACAD
1000
ＭＳ Ｐゴシック
1071
    32802
  0
STYLE
  5
295
330
3
100
AcDbSymbolTableRecord
100
AcDbTextStyleTableRecord
  2
DCSTYLE1
 70
     0
 40
0.0
 41
0.8
 50
0.0
 71
     0
 42
0.2
  3
ＭＳ ゴシック
  4

1001
ACAD
1000
ＭＳ ゴシック
1071
    32802
  0
STYLE
  5
297
330
3
100
AcDbSymbolTableRecord
100
AcDbTextStyleTableRecord
  2
DCSTYLE3
 70
     0
 40
0.0
 41
0.5
 50
0.0
 71
     0
 42
0.2
  3
txt.shx
  4
bigfont
  0
STYLE
  5
38D
330
3
100
AcDbSymbolTableRecord
100
AcDbTextStyleTableRecord
  2
DCSTYLE2
 70
     0
 40
0.0
 41
0.8
 50
0.0
 71
     0
 42
0.2
  3
HGRSGU.TTC
  4

1001
ACAD
1000
HGP創英角ｺﾞｼｯｸUB
1071
    32802
  0
ENDTAB
  0
TABLE
  2
VIEW
  5
6
330
0
100
AcDbSymbolTable
 70
     0
  0
ENDTAB
  0
TABLE
  2
UCS
  5
7
330
0
100
AcDbSymbolTable
 70
     0
  0
ENDTAB
  0
TABLE
  2
APPID
  5
9
330
0
100
AcDbSymbolTable
 70
     3
  0
APPID
  5
12
330
9
100
AcDbSymbolTableRecord
100
AcDbRegAppTableRecord
  2
ACAD
 70
     0
  0
APPID
  5
6E
330
9
100
AcDbSymbolTableRecord
100
AcDbRegAppTableRecord
  2
DAFUSIONOUT
 70
     0
  0
APPID
  5
5F5
330
9
100
AcDbSymbolTableRecord
100
AcDbRegAppTableRecord
  2
ACAD_MLEADERVER
 70
     0
  0
ENDTAB
  0
TABLE
  2
DIMSTYLE
  5
A
330
0
100
AcDbSymbolTable
 70
     2
  0
DIMSTYLE
105
27
330
A
100
AcDbSymbolTableRecord
100
AcDbDimStyleTableRecord
  2
STANDARD
 70
     0
  3

  4

  5

  6

  7

 40
1.0
 41
0.18
 42
0.0625
 43
0.38
 44
0.18
 45
0.0
 46
0.0
 47
0.0
 48
0.0
140
0.18
141
0.09
142
0.0
143
25.4
144
1.0
145
0.0
146
1.0
147
0.09
 71
     0
 72
     0
 73
     1
 74
     1
 75
     0
 76
     0
 77
     0
 78
     0
170
     0
171
     2
172
     0
173
     0
174
     0
175
     0
176
     0
177
     0
178
     0
270
     2
271
     4
272
     4
273
     2
274
     2
340
11
275
     0
280
     0
281
     0
282
     0
283
     1
284
     0
285
     0
286
     0
287
     3
288
     0
  0
DIMSTYLE
105
37A
102
{ACAD_REACTORS
330
379
330
37B
330
37C
330
381
330
382
330
5D1
330
5E3
102
}
330
A
100
AcDbSymbolTableRecord
100
AcDbDimStyleTableRecord
  2
DC_ROTATED
 70
     0
  3

  4

  5

  6
OPEN30
  7
OPEN30
 40
1.0
 41
75.00004768371582
 42
25.0
 43
0.38
 44
25.0
 45
0.0
 46
0.0
 47
0.0
 48
0.0
140
75.0
141
0.09
142
0.0
143
25.4
144
1.0
145
0.0
146
1.0
147
25.0
 71
     0
 72
     0
 73
     0
 74
     0
 75
     0
 76
     0
 77
     3
 78
     8
170
     0
171
     2
172
     1
173
     1
174
     0
175
     0
176
     4
177
     4
178
     4
270
     2
271
     2
272
     4
273
     2
274
     4
340
177
275
     0
280
     0
281
     0
282
     0
283
     0
284
     8
285
     0
286
     0
287
     3
288
     1
  0
ENDTAB
  0
TABLE
  2
BLOCK_RECORD
  5
1
330
0
100
AcDbSymbolTable
 70
    41
  0
BLOCK_RECORD
  5
1F
330
1
100
AcDbSymbolTableRecord
100
AcDbBlockTableRecord
  2
*MODEL_SPACE
  0
BLOCK_RECORD
  5
1B
330
1
100
AcDbSymbolTableRecord
100
AcDbBlockTableRecord
  2
*PAPER_SPACE
  0
BLOCK_RECORD
  5
B7
330
1
100
AcDbSymbolTableRecord
100
AcDbBlockTableRecord
  2
DC_GROUP_1
  0
BLOCK_RECORD
  5
BA
330
1
100
AcDbSymbolTableRecord
100
AcDbBlockTableRecord
  2
DC_GROUP_2
  0
BLOCK_RECORD
  5
BD
330
1
100
AcDbSymbolTableRecord
100
AcDbBlockTableRecord
  2
DC_GROUP_3
  0
BLOCK_RECORD
  5
C0
330
1
100
AcDbSymbolTableRecord
100
AcDbBlockTableRecord
  2
DC_GROUP_4
  0
BLOCK_RECORD
  5
C3
330
1
100
AcDbSymbolTableRecord
100
AcDbBlockTableRecord
  2
*D5
  0
BLOCK_RECORD
  5
C6
330
1
100
AcDbSymbolTableRecord
100
AcDbBlockTableRecord
  2
*D6
  0
BLOCK_RECORD
  5
C9
330
1
100
AcDbSymbolTableRecord
100
AcDbBlockTableRecord
  2
*D7
  0
BLOCK_RECORD
  5
CC
330
1
100
AcDbSymbolTableRecord
100
AcDbBlockTableRecord
  2
DC_GROUP_5
  0
BLOCK_RECORD
  5
CF
330
1
100
AcDbSymbolTableRecord
100
AcDbBlockTableRecord
  2
DC_GROUP_6
  0
BLOCK_RECORD
  5
D2
330
1
100
AcDbSymbolTableRecord
100
AcDbBlockTableRecord
  2
DC_GROUP_7
  0
BLOCK_RECORD
  5
D5
330
1
100
AcDbSymbolTableRecord
100
AcDbBlockTableRecord
  2
DC_GROUP_8
  0
BLOCK_RECORD
  5
D8
330
1
100
AcDbSymbolTableRecord
100
AcDbBlockTableRecord
  2
*D12
  0
BLOCK_RECORD
  5
DB
330
1
100
AcDbSymbolTableRecord
100
AcDbBlockTableRecord
  2
*D13
  0
BLOCK_RECORD
  5
DE
330
1
100
AcDbSymbolTableRecord
100
AcDbBlockTableRecord
  2
*D14
  0
BLOCK_RECORD
  5
E1
330
1
100
AcDbSymbolTableRecord
100
AcDbBlockTableRecord
  2
DC_GROUP_9
  0
BLOCK_RECORD
  5
E4
330
1
100
AcDbSymbolTableRecord
100
AcDbBlockTableRecord
  2
DC_GROUP_10
  0
BLOCK_RECORD
  5
E7
330
1
100
AcDbSymbolTableRecord
100
AcDbBlockTableRecord
  2
DC_GROUP_11
  0
BLOCK_RECORD
  5
EA
330
1
100
AcDbSymbolTableRecord
100
AcDbBlockTableRecord
  2
DC_GROUP_12
  0
BLOCK_RECORD
  5
ED
330
1
100
AcDbSymbolTableRecord
100
AcDbBlockTableRecord
  2
DC_GROUP_13
  0
BLOCK_RECORD
  5
F0
330
1
100
AcDbSymbolTableRecord
100
AcDbBlockTableRecord
  2
DC_GROUP_14
  0
BLOCK_RECORD
  5
F3
330
1
100
AcDbSymbolTableRecord
100
AcDbBlockTableRecord
  2
DC_GROUP_15
  0
BLOCK_RECORD
  5
F6
330
1
100
AcDbSymbolTableRecord
100
AcDbBlockTableRecord
  2
DC_GROUP_16
  0
BLOCK_RECORD
  5
F9
330
1
100
AcDbSymbolTableRecord
100
AcDbBlockTableRecord
  2
DC_GROUP_17
  0
BLOCK_RECORD
  5
FC
330
1
100
AcDbSymbolTableRecord
100
AcDbBlockTableRecord
  2
DC_GROUP_18
  0
BLOCK_RECORD
  5
FF
330
1
100
AcDbSymbolTableRecord
100
AcDbBlockTableRecord
  2
DC_GROUP_19
  0
BLOCK_RECORD
  5
102
330
1
100
AcDbSymbolTableRecord
100
AcDbBlockTableRecord
  2
DC_GROUP_20
  0
BLOCK_RECORD
  5
105
330
1
100
AcDbSymbolTableRecord
100
AcDbBlockTableRecord
  2
DC_GROUP_21
  0
BLOCK_RECORD
  5
108
330
1
100
AcDbSymbolTableRecord
100
AcDbBlockTableRecord
  2
DC_GROUP_22
  0
BLOCK_RECORD
  5
10B
330
1
100
AcDbSymbolTableRecord
100
AcDbBlockTableRecord
  2
DC_GROUP_23
  0
BLOCK_RECORD
  5
10E
330
1
100
AcDbSymbolTableRecord
100
AcDbBlockTableRecord
  2
DC_GROUP_24
  0
BLOCK_RECORD
  5
111
330
1
100
AcDbSymbolTableRecord
100
AcDbBlockTableRecord
  2
DC_GROUP_25
  0
BLOCK_RECORD
  5
114
330
1
100
AcDbSymbolTableRecord
100
AcDbBlockTableRecord
  2
DC_GROUP_26
  0
BLOCK_RECORD
  5
117
330
1
100
AcDbSymbolTableRecord
100
AcDbBlockTableRecord
  2
DC_GROUP_27
  0
BLOCK_RECORD
  5
11A
330
1
100
AcDbSymbolTableRecord
100
AcDbBlockTableRecord
  2
DC_GROUP_28
  0
BLOCK_RECORD
  5
11D
330
1
100
AcDbSymbolTableRecord
100
AcDbBlockTableRecord
  2
DC_GROUP_29
  0
BLOCK_RECORD
  5
120
330
1
100
AcDbSymbolTableRecord
100
AcDbBlockTableRecord
  2
DC_GROUP_30
  0
BLOCK_RECORD
  5
123
330
1
100
AcDbSymbolTableRecord
100
AcDbBlockTableRecord
  2
DC_GROUP_31
  0
BLOCK_RECORD
  5
126
330
1
100
AcDbSymbolTableRecord
100
AcDbBlockTableRecord
  2
DC_GROUP_32
  0
BLOCK_RECORD
  5
129
330
1
100
AcDbSymbolTableRecord
100
AcDbBlockTableRecord
  2
*D39
  0
BLOCK_RECORD
  5
170
330
1
100
AcDbSymbolTableRecord
100
AcDbBlockTableRecord
  2
_OPEN30
  0
BLOCK_RECORD
  5
17A
330
1
100
AcDbSymbolTableRecord
100
AcDbBlockTableRecord
  2
_DOT
  0
ENDTAB
  0
ENDSEC
  0
SECTION
  2
BLOCKS
  0
BLOCK
  5
20
330
1F
100
AcDbEntity
  8
0
100
AcDbBlockBegin
  2
*MODEL_SPACE
 70
     0
 10
0.0
 20
0.0
 30
0.0
  3
*MODEL_SPACE
  1

  0
ENDBLK
  5
21
330
1F
100
AcDbEntity
  8
0
100
AcDbBlockEnd
  0
BLOCK
  5
1C
330
1B
100
AcDbEntity
 67
     1
  8
0
100
AcDbBlockBegin
  2
*PAPER_SPACE
 70
     0
 10
0.0
 20
0.0
 30
0.0
  3
*PAPER_SPACE
  1

  0
ENDBLK
  5
1D
330
1B
100
AcDbEntity
 67
     1
  8
0
100
AcDbBlockEnd
  0
BLOCK
  5
B8
330
B7
100
AcDbEntity
  8
0
100
AcDbBlockBegin
  2
DC_GROUP_1
 70
     0
 10
0.0
 20
0.0
 30
0.0
  3
DC_GROUP_1
  1

  0
LINE
  5
12C
330
B7
100
AcDbEntity
  8
LAYER0016
  6
CONTINUOUS
 62
     2
100
AcDbLine
 10
-91.7870635020774
 20
-31.37069210760694
 30
0.0
 11
-97.89217058483355
 21
-31.37069210760694
 31
0.0
  0
LINE
  5
12D
330
B7
100
AcDbEntity
  8
LAYER0016
  6
CONTINUOUS
 62
     2
100
AcDbLine
 10
-91.7870635020774
 20
-36.27816939571881
 30
0.0
 11
-97.89217058483355
 21
-36.27816939571881
 31
0.0
  0
LINE
  5
12E
330
B7
100
AcDbEntity
  8
LAYER0016
  6
CONTINUOUS
 62
     2
100
AcDbLine
 10
-98.78706350207763
 20
-33.82443075166293
 30
0.0
 11
-98.78706350207763
 21
-48.51695346355109
 31
0.0
  0
LINE
  5
12F
330
B7
100
AcDbEntity
  8
LAYER0016
  6
CONTINUOUS
 62
     2
100
AcDbLine
 10
-91.7870635020774
 20
-50.97069210760708
 30
0.0
 11
-97.89217058483355
 21
-50.97069210760708
 31
0.0
  0
LINE
  5
130
330
B7
100
AcDbEntity
  8
LAYER0016
  6
CONTINUOUS
 62
     2
100
AcDbLine
 10
-91.7870635020774
 20
-46.06321481949522
 30
0.0
 11
-97.89217058483355
 21
-46.06321481949522
 31
0.0
  0
ARC
  5
131
330
B7
100
AcDbEntity
  8
LAYER0016
  6
CONTINUOUS
 62
     2
100
AcDbCircle
 10
-94.97562051531436
 20
-33.82443075166293
 30
0.0
 40
3.811442986763139
100
AcDbArc
 50
139.9255796616137
 51
220.0744203383862
  0
ARC
  5
132
330
B7
100
AcDbEntity
  8
LAYER0016
  6
CONTINUOUS
 62
     2
100
AcDbCircle
 10
-94.97562051531436
 20
-48.51695346355109
 30
0.0
 40
3.811442986763139
100
AcDbArc
 50
139.9255796616137
 51
220.0744203383862
  0
ARC
  5
133
330
B7
100
AcDbEntity
  8
LAYER0016
  6
CONTINUOUS
 62
     2
100
AcDbCircle
 10
-84.96551494414412
 20
-41.17069210760701
 30
0.0
 40
13.82154855793339
100
AcDbArc
 50
159.2691848585842
 51
200.7308151414158
  0
LINE
  5
134
330
B7
100
AcDbEntity
  8
LAYER0016
  6
CONTINUOUS
 62
     2
100
AcDbLine
 10
-89.7870635020774
 20
-51.67069210760701
 30
0.0
 11
-91.7870635020774
 21
-51.67069210760701
 31
0.0
  0
LINE
  5
135
330
B7
100
AcDbEntity
  8
LAYER0016
  6
CONTINUOUS
 62
     2
100
AcDbLine
 10
-89.7870635020774
 20
-30.67069210760701
 30
0.0
 11
-89.7870635020774
 21
-51.67069210760701
 31
0.0
  0
LINE
  5
136
330
B7
100
AcDbEntity
  8
LAYER0016
  6
CONTINUOUS
 62
     2
100
AcDbLine
 10
-89.7870635020774
 20
-30.67069210760701
 30
0.0
 11
-91.7870635020774
 21
-30.67069210760701
 31
0.0
  0
LINE
  5
137
330
B7
100
AcDbEntity
  8
LAYER0016
  6
CONTINUOUS
 62
     2
100
AcDbLine
 10
-91.7870635020774
 20
-30.67069210760701
 30
0.0
 11
-91.7870635020774
 21
-51.67069210760701
 31
0.0
  0
LINE
  5
138
330
B7
100
AcDbEntity
  8
LAYER0016
  6
DASHED2
 62
     3
100
AcDbLine
 10
-68.2870635020774
 20
-36.17069210760701
 30
0.0
 11
-68.2870635020774
 21
-46.17069210760701
 31
0.0
  0
LINE
  5
139
330
B7
100
AcDbEntity
  8
LAYER0016
  6
DASHED2
 62
     3
100
AcDbLine
 10
-66.7870635020774
 20
-37.67069210760712
 30
0.0
 11
-66.7870635020774
 21
-44.67069210760701
 31
0.0
  0
LINE
  5
13A
330
B7
100
AcDbEntity
  8
LAYER0016
  6
DASHED2
 62
     3
100
AcDbLine
 10
-68.2870635020774
 20
-36.17069210760701
 30
0.0
 11
-66.7870635020774
 21
-37.67069210760712
 31
0.0
  0
LINE
  5
13B
330
B7
100
AcDbEntity
  8
LAYER0016
  6
DASHED2
 62
     3
100
AcDbLine
 10
-68.2870635020774
 20
-46.17069210760701
 30
0.0
 11
-66.7870635020774
 21
-44.67069210760701
 31
0.0
  0
LINE
  5
13C
330
B7
100
AcDbEntity
  8
LAYER0016
  6
DASHED2
 62
     3
100
AcDbLine
 10
-73.38706350207708
 20
-36.1706921076069
 30
0.0
 11
-68.2870635020774
 21
-36.1706921076069
 31
0.0
  0
LINE
  5
13D
330
B7
100
AcDbEntity
  8
LAYER0016
  6
DASHED2
 62
     3
100
AcDbLine
 10
-73.38706350207708
 20
-36.92069210760701
 30
0.0
 11
-67.53706350207763
 21
-36.92069210760701
 31
0.0
  0
LINE
  5
13E
330
B7
100
AcDbEntity
  8
LAYER0016
  6
DASHED2
 62
     3
100
AcDbLine
 10
-73.38706350207708
 20
-45.42069210760701
 30
0.0
 11
-67.53706350207763
 21
-45.42069210760701
 31
0.0
  0
LINE
  5
13F
330
B7
100
AcDbEntity
  8
LAYER0016
  6
DASHED2
 62
     3
100
AcDbLine
 10
-73.38706350207708
 20
-46.1706921076069
 30
0.0
 11
-68.2870635020774
 21
-46.1706921076069
 31
0.0
  0
ENDBLK
  5
B9
330
B7
100
AcDbEntity
  8
0
100
AcDbBlockEnd
  0
BLOCK
  5
BB
330
BA
100
AcDbEntity
  8
0
100
AcDbBlockBegin
  2
DC_GROUP_2
 70
     0
 10
0.0
 20
0.0
 30
0.0
  3
DC_GROUP_2
  1

  0
LINE
  5
140
330
BA
100
AcDbEntity
  8
LAYER0016
  6
CONTINUOUS
 62
     2
100
AcDbLine
 10
-91.7870635020774
 20
-61.37069210760694
 30
0.0
 11
-97.89217058483355
 21
-61.37069210760694
 31
0.0
  0
LINE
  5
141
330
BA
100
AcDbEntity
  8
LAYER0016
  6
CONTINUOUS
 62
     2
100
AcDbLine
 10
-91.7870635020774
 20
-66.2781693957188
 30
0.0
 11
-97.89217058483355
 21
-66.2781693957188
 31
0.0
  0
LINE
  5
142
330
BA
100
AcDbEntity
  8
LAYER0016
  6
CONTINUOUS
 62
     2
100
AcDbLine
 10
-98.78706350207763
 20
-63.82443075166293
 30
0.0
 11
-98.78706350207763
 21
-78.51695346355109
 31
0.0
  0
LINE
  5
143
330
BA
100
AcDbEntity
  8
LAYER0016
  6
CONTINUOUS
 62
     2
100
AcDbLine
 10
-91.7870635020774
 20
-80.97069210760708
 30
0.0
 11
-97.89217058483355
 21
-80.97069210760708
 31
0.0
  0
LINE
  5
144
330
BA
100
AcDbEntity
  8
LAYER0016
  6
CONTINUOUS
 62
     2
100
AcDbLine
 10
-91.7870635020774
 20
-76.0632148194951
 30
0.0
 11
-97.89217058483355
 21
-76.0632148194951
 31
0.0
  0
ARC
  5
145
330
BA
100
AcDbEntity
  8
LAYER0016
  6
CONTINUOUS
 62
     2
100
AcDbCircle
 10
-94.97562051531436
 20
-63.82443075166293
 30
0.0
 40
3.811442986763139
100
AcDbArc
 50
139.9255796616137
 51
220.0744203383862
  0
ARC
  5
146
330
BA
100
AcDbEntity
  8
LAYER0016
  6
CONTINUOUS
 62
     2
100
AcDbCircle
 10
-94.97562051531436
 20
-78.51695346355109
 30
0.0
 40
3.811442986763139
100
AcDbArc
 50
139.9255796616137
 51
220.0744203383862
  0
ARC
  5
147
330
BA
100
AcDbEntity
  8
LAYER0016
  6
CONTINUOUS
 62
     2
100
AcDbCircle
 10
-84.96551494414412
 20
-71.17069210760701
 30
0.0
 40
13.82154855793339
100
AcDbArc
 50
159.2691848585842
 51
200.7308151414158
  0
LINE
  5
148
330
BA
100
AcDbEntity
  8
LAYER0016
  6
CONTINUOUS
 62
     2
100
AcDbLine
 10
-89.7870635020774
 20
-81.6706921076069
 30
0.0
 11
-91.7870635020774
 21
-81.6706921076069
 31
0.0
  0
LINE
  5
149
330
BA
100
AcDbEntity
  8
LAYER0016
  6
CONTINUOUS
 62
     2
100
AcDbLine
 10
-89.7870635020774
 20
-60.67069210760701
 30
0.0
 11
-89.7870635020774
 21
-81.6706921076069
 31
0.0
  0
LINE
  5
14A
330
BA
100
AcDbEntity
  8
LAYER0016
  6
CONTINUOUS
 62
     2
100
AcDbLine
 10
-89.7870635020774
 20
-60.67069210760701
 30
0.0
 11
-91.7870635020774
 21
-60.67069210760701
 31
0.0
  0
LINE
  5
14B
330
BA
100
AcDbEntity
  8
LAYER0016
  6
CONTINUOUS
 62
     2
100
AcDbLine
 10
-91.7870635020774
 20
-60.67069210760701
 30
0.0
 11
-91.7870635020774
 21
-81.6706921076069
 31
0.0
  0
LINE
  5
14C
330
BA
100
AcDbEntity
  8
LAYER0016
  6
DASHED2
 62
     3
100
AcDbLine
 10
-68.2870635020774
 20
-66.17069210760701
 30
0.0
 11
-68.2870635020774
 21
-76.1706921076069
 31
0.0
  0
LINE
  5
14D
330
BA
100
AcDbEntity
  8
LAYER0016
  6
DASHED2
 62
     3
100
AcDbLine
 10
-66.7870635020774
 20
-67.67069210760712
 30
0.0
 11
-66.7870635020774
 21
-74.6706921076069
 31
0.0
  0
LINE
  5
14E
330
BA
100
AcDbEntity
  8
LAYER0016
  6
DASHED2
 62
     3
100
AcDbLine
 10
-68.2870635020774
 20
-66.17069210760701
 30
0.0
 11
-66.7870635020774
 21
-67.67069210760712
 31
0.0
  0
LINE
  5
14F
330
BA
100
AcDbEntity
  8
LAYER0016
  6
DASHED2
 62
     3
100
AcDbLine
 10
-68.2870635020774
 20
-76.1706921076069
 30
0.0
 11
-66.7870635020774
 21
-74.6706921076069
 31
0.0
  0
LINE
  5
150
330
BA
100
AcDbEntity
  8
LAYER0016
  6
DASHED2
 62
     3
100
AcDbLine
 10
-73.38706350207708
 20
-66.1706921076069
 30
0.0
 11
-68.2870635020774
 21
-66.1706921076069
 31
0.0
  0
LINE
  5
151
330
BA
100
AcDbEntity
  8
LAYER0016
  6
DASHED2
 62
     3
100
AcDbLine
 10
-73.38706350207708
 20
-66.92069210760701
 30
0.0
 11
-67.53706350207763
 21
-66.92069210760701
 31
0.0
  0
LINE
  5
152
330
BA
100
AcDbEntity
  8
LAYER0016
  6
DASHED2
 62
     3
100
AcDbLine
 10
-73.38706350207708
 20
-76.1706921076069
 30
0.0
 11
-68.2870635020774
 21
-76.1706921076069
 31
0.0
  0
LINE
  5
153
330
BA
100
AcDbEntity
  8
LAYER0016
  6
DASHED2
 62
     3
100
AcDbLine
 10
-73.38706350207708
 20
-75.4206921076069
 30
0.0
 11
-67.53706350207763
 21
-75.4206921076069
 31
0.0
  0
ENDBLK
  5
BC
330
BA
100
AcDbEntity
  8
0
100
AcDbBlockEnd
  0
BLOCK
  5
BE
330
BD
100
AcDbEntity
  8
0
100
AcDbBlockBegin
  2
DC_GROUP_3
 70
     0
 10
0.0
 20
0.0
 30
0.0
  3
DC_GROUP_3
  1

  0
LINE
  5
154
330
BD
100
AcDbEntity
  8
LAYER0016
  6
DASHED2
 62
     3
100
AcDbLine
 10
-81.38706350207708
 20
-31.37069210760694
 30
0.0
 11
-74.28195641932116
 21
-31.37069210760694
 31
0.0
  0
LINE
  5
155
330
BD
100
AcDbEntity
  8
LAYER0016
  6
DASHED2
 62
     3
100
AcDbLine
 10
-74.28195641932116
 20
-36.27816939571881
 30
0.0
 11
-81.38706350207708
 21
-36.27816939571881
 31
0.0
  0
LINE
  5
156
330
BD
100
AcDbEntity
  8
LAYER0016
  6
DASHED2
 62
     3
100
AcDbLine
 10
-73.38706350207708
 20
-33.82443075166293
 30
0.0
 11
-73.38706350207708
 21
-48.51695346355109
 31
0.0
  0
LINE
  5
157
330
BD
100
AcDbEntity
  8
LAYER0016
  6
DASHED2
 62
     3
100
AcDbLine
 10
-81.38706350207708
 20
-50.97069210760708
 30
0.0
 11
-74.28195641932116
 21
-50.97069210760708
 31
0.0
  0
LINE
  5
158
330
BD
100
AcDbEntity
  8
LAYER0016
  6
DASHED2
 62
     3
100
AcDbLine
 10
-81.38706350207708
 20
-46.06321481949522
 30
0.0
 11
-74.28195641932116
 21
-46.06321481949522
 31
0.0
  0
ARC
  5
159
330
BD
100
AcDbEntity
  8
LAYER0016
  6
DASHED2
 62
     3
100
AcDbCircle
 10
-77.19850648884035
 20
-33.82443075166293
 30
0.0
 40
3.811442986763139
100
AcDbArc
 50
319.9255796616138
 51
40.07442033838626
  0
ARC
  5
15A
330
BD
100
AcDbEntity
  8
LAYER0016
  6
DASHED2
 62
     3
100
AcDbCircle
 10
-77.19850648884035
 20
-48.51695346355109
 30
0.0
 40
3.811442986763139
100
AcDbArc
 50
319.9255796616138
 51
40.07442033838626
  0
ARC
  5
15B
330
BD
100
AcDbEntity
  8
LAYER0016
  6
DASHED2
 62
     3
100
AcDbCircle
 10
-87.2086120600106
 20
-41.17069210760701
 30
0.0
 40
13.82154855793339
100
AcDbArc
 50
339.2691848585843
 51
20.73081514141578
  0
LINE
  5
15C
330
BD
100
AcDbEntity
  8
LAYER0016
  6
DASHED2
 62
     3
100
AcDbLine
 10
-81.38706350207708
 20
-51.67069210760701
 30
0.0
 11
-83.38706350207708
 21
-51.67069210760701
 31
0.0
  0
LINE
  5
15D
330
BD
100
AcDbEntity
  8
LAYER0016
  6
DASHED2
 62
     3
100
AcDbLine
 10
-83.38706350207708
 20
-51.67069210760701
 30
0.0
 11
-83.38706350207708
 21
-30.67069210760701
 31
0.0
  0
LINE
  5
15E
330
BD
100
AcDbEntity
  8
LAYER0016
  6
DASHED2
 62
     3
100
AcDbLine
 10
-83.38706350207708
 20
-30.67069210760701
 30
0.0
 11
-81.38706350207708
 21
-30.67069210760701
 31
0.0
  0
LINE
  5
15F
330
BD
100
AcDbEntity
  8
LAYER0016
  6
DASHED2
 62
     3
100
AcDbLine
 10
-81.38706350207708
 20
-51.67069210760701
 30
0.0
 11
-81.38706350207708
 21
-30.67069210760701
 31
0.0
  0
ENDBLK
  5
BF
330
BD
100
AcDbEntity
  8
0
100
AcDbBlockEnd
  0
BLOCK
  5
C1
330
C0
100
AcDbEntity
  8
0
100
AcDbBlockBegin
  2
DC_GROUP_4
 70
     0
 10
0.0
 20
0.0
 30
0.0
  3
DC_GROUP_4
  1

  0
LINE
  5
160
330
C0
100
AcDbEntity
  8
LAYER0016
  6
DASHED2
 62
     3
100
AcDbLine
 10
-81.38706350207708
 20
-61.37069210760694
 30
0.0
 11
-74.28195641932116
 21
-61.37069210760694
 31
0.0
  0
LINE
  5
161
330
C0
100
AcDbEntity
  8
LAYER0016
  6
DASHED2
 62
     3
100
AcDbLine
 10
-74.28195641932116
 20
-66.2781693957188
 30
0.0
 11
-81.38706350207708
 21
-66.2781693957188
 31
0.0
  0
LINE
  5
162
330
C0
100
AcDbEntity
  8
LAYER0016
  6
DASHED2
 62
     3
100
AcDbLine
 10
-73.38706350207708
 20
-63.82443075166293
 30
0.0
 11
-73.38706350207708
 21
-78.51695346355109
 31
0.0
  0
LINE
  5
163
330
C0
100
AcDbEntity
  8
LAYER0016
  6
DASHED2
 62
     3
100
AcDbLine
 10
-81.38706350207708
 20
-80.97069210760708
 30
0.0
 11
-74.28195641932116
 21
-80.97069210760708
 31
0.0
  0
LINE
  5
164
330
C0
100
AcDbEntity
  8
LAYER0016
  6
DASHED2
 62
     3
100
AcDbLine
 10
-81.38706350207708
 20
-76.0632148194951
 30
0.0
 11
-74.28195641932116
 21
-76.0632148194951
 31
0.0
  0
ARC
  5
165
330
C0
100
AcDbEntity
  8
LAYER0016
  6
DASHED2
 62
     3
100
AcDbCircle
 10
-77.19850648884035
 20
-63.82443075166293
 30
0.0
 40
3.811442986763139
100
AcDbArc
 50
319.9255796616138
 51
40.07442033838626
  0
ARC
  5
166
330
C0
100
AcDbEntity
  8
LAYER0016
  6
DASHED2
 62
     3
100
AcDbCircle
 10
-77.19850648884035
 20
-78.51695346355109
 30
0.0
 40
3.811442986763139
100
AcDbArc
 50
319.9255796616138
 51
40.07442033838626
  0
ARC
  5
167
330
C0
100
AcDbEntity
  8
LAYER0016
  6
DASHED2
 62
     3
100
AcDbCircle
 10
-87.2086120600106
 20
-71.17069210760701
 30
0.0
 40
13.82154855793339
100
AcDbArc
 50
339.2691848585843
 51
20.73081514141578
  0
LINE
  5
168
330
C0
100
AcDbEntity
  8
LAYER0016
  6
DASHED2
 62
     3
100
AcDbLine
 10
-81.38706350207708
 20
-81.6706921076069
 30
0.0
 11
-83.38706350207708
 21
-81.6706921076069
 31
0.0
  0
LINE
  5
169
330
C0
100
AcDbEntity
  8
LAYER0016
  6
DASHED2
 62
     3
100
AcDbLine
 10
-83.38706350207708
 20
-81.6706921076069
 30
0.0
 11
-83.38706350207708
 21
-60.67069210760701
 31
0.0
  0
LINE
  5
16A
330
C0
100
AcDbEntity
  8
LAYER0016
  6
DASHED2
 62
     3
100
AcDbLine
 10
-83.38706350207708
 20
-60.67069210760701
 30
0.0
 11
-81.38706350207708
 21
-60.67069210760701
 31
0.0
  0
LINE
  5
16B
330
C0
100
AcDbEntity
  8
LAYER0016
  6
DASHED2
 62
     3
100
AcDbLine
 10
-81.38706350207708
 20
-81.6706921076069
 30
0.0
 11
-81.38706350207708
 21
-60.67069210760701
 31
0.0
  0
ENDBLK
  5
C2
330
C0
100
AcDbEntity
  8
0
100
AcDbBlockEnd
  0
BLOCK
  5
C4
330
C3
100
AcDbEntity
  8
0
100
AcDbBlockBegin
  2
*D5
 70
     1
 10
0.0
 20
0.0
 30
0.0
  3
*D5
  1

  0
LINE
  5
16C
330
C3
100
AcDbEntity
  8
LAYER0016
  6
CONTINUOUS
 62
     4
100
AcDbLine
 10
1604.113110747904
 20
-731.1706251076081
 30
0.0
 11
1604.113110747904
 21
-611.1741487946493
 31
0.0
  0
LINE
  5
16D
330
C3
100
AcDbEntity
  8
LAYER0016
  6
CONTINUOUS
 62
     4
100
AcDbLine
 10
1323.110338028684
 20
-731.1706251076081
 30
0.0
 11
1629.113110747904
 21
-731.1706251076081
 31
0.0
  0
LINE
  5
16E
330
C3
100
AcDbEntity
  8
LAYER0016
  6
CONTINUOUS
 62
     4
100
AcDbLine
 10
1310.673481670835
 20
-611.1741487946493
 30
0.0
 11
1629.113110747904
 21
-611.1741487946493
 31
0.0
  0
LINE
  5
16F
330
C3
100
AcDbEntity
  8
LAYER0016
  6
CONTINUOUS
 62
     4
100
AcDbLine
 10
1604.113110747904
 20
-1036.170625107608
 30
0.0
 11
1604.113110747904
 21
-731.1706251076081
 31
0.0
  0
INSERT
  5
176
330
C3
100
AcDbEntity
  8
LAYER0016
 62
     4
100
AcDbBlockReference
  2
_OPEN30
 10
1604.113110747904
 20
-731.1706251076081
 30
0.0
 41
75.00007019038215
 42
74.99973420559108
 50
90.0
  0
TEXT
  5
178
330
C3
100
AcDbEntity
  8
LAYER0016
 62
     4
100
AcDbText
 10
1579.113110747904
 20
-1011.170625107608
 30
0.0
 40
75.0
  1
120
 50
90.0
 41
1.1
  7
DCSTYLE0
 72
     5
 11
1579.113110747904
 21
-831.1706251076081
 31
0.0
100
AcDbText
  0
ENDBLK
  5
C5
330
C3
100
AcDbEntity
  8
0
100
AcDbBlockEnd
  0
BLOCK
  5
C7
330
C6
100
AcDbEntity
  8
0
100
AcDbBlockBegin
  2
*D6
 70
     1
 10
0.0
 20
0.0
 30
0.0
  3
*D6
  1

  0
LINE
  5
179
330
C6
100
AcDbEntity
  8
LAYER0016
  6
CONTINUOUS
 62
     4
100
AcDbLine
 10
1604.113110747904
 20
-611.1741487946493
 30
0.0
 11
1604.113110747904
 21
-411.1741487946492
 31
0.0
  0
INSERT
  5
17F
330
C6
100
AcDbEntity
  8
LAYER0016
 62
     4
100
AcDbBlockReference
  2
_DOT
 10
1604.113110747904
 20
-611.1741487946493
 30
0.0
 41
62.5
 42
62.5
 50
270.0
  0
LINE
  5
180
330
C6
100
AcDbEntity
  8
LAYER0016
  6
CONTINUOUS
 62
     4
100
AcDbLine
 10
1310.673481670835
 20
-611.1741487946493
 30
0.0
 11
1629.113110747904
 21
-611.1741487946493
 31
0.0
  0
LINE
  5
181
330
C6
100
AcDbEntity
  8
LAYER0016
  6
CONTINUOUS
 62
     4
100
AcDbLine
 10
1310.673481670835
 20
-411.1741487946492
 30
0.0
 11
1629.113110747904
 21
-411.1741487946492
 31
0.0
  0
LINE
  5
182
330
C6
100
AcDbEntity
  8
LAYER0016
  6
CONTINUOUS
 62
     4
100
AcDbLine
 10
1604.113110747904
 20
253.8258512053507
 30
0.0
 11
1604.113110747904
 21
-411.1741487946492
 31
0.0
  0
INSERT
  5
183
330
C6
100
AcDbEntity
  8
LAYER0016
 62
     4
100
AcDbBlockReference
  2
_OPEN30
 10
1604.113110747904
 20
-411.1741487946492
 30
0.0
 41
75.00007019038215
 42
74.99973420559108
 50
270.0
  0
TEXT
  5
184
330
C6
100
AcDbEntity
  8
LAYER0016
 62
     4
100
AcDbText
 10
1579.113110747904
 20
-311.1741487946492
 30
0.0
 40
75.0
  1
100×2＝200
 50
90.0
 41
0.9000000000000006
  7
DCSTYLE0
 72
     5
 11
1579.113110747904
 21
228.825851205351
 31
0.0
100
AcDbText
  0
ENDBLK
  5
C8
330
C6
100
AcDbEntity
  8
0
100
AcDbBlockEnd
  0
BLOCK
  5
CA
330
C9
100
AcDbEntity
  8
0
100
AcDbBlockBegin
  2
*D7
 70
     1
 10
0.0
 20
0.0
 30
0.0
  3
*D7
  1

  0
LINE
  5
185
330
C9
100
AcDbEntity
  8
LAYER0016
  6
CONTINUOUS
 62
     4
100
AcDbLine
 10
-195.8872346905368
 20
1519.425219157024
 30
0.0
 11
1404.113110747904
 21
1519.425219157024
 31
0.0
  0
INSERT
  5
186
330
C9
100
AcDbEntity
  8
LAYER0016
 62
     4
100
AcDbBlockReference
  2
_OPEN30
 10
-195.8872346905368
 20
1519.425219157024
 30
0.0
 41
75.00007019038215
 42
74.99973420559108
 50
180.0
  0
INSERT
  5
187
330
C9
100
AcDbEntity
  8
LAYER0016
 62
     4
100
AcDbBlockReference
  2
_OPEN30
 10
1404.113110747904
 20
1519.425219157024
 30
0.0
 41
75.00007019038215
 42
74.99973420559108
 50
360.0
  0
LINE
  5
188
330
C9
100
AcDbEntity
  8
LAYER0016
  6
CONTINUOUS
 62
     4
100
AcDbLine
 10
-195.8872346905368
 20
1296.825219157024
 30
0.0
 11
-195.8872346905368
 21
1544.425219157024
 31
0.0
  0
LINE
  5
189
330
C9
100
AcDbEntity
  8
LAYER0016
  6
CONTINUOUS
 62
     4
100
AcDbLine
 10
1404.113110747904
 20
1296.825219157024
 30
0.0
 11
1404.113110747904
 21
1544.425219157024
 31
0.0
  0
TEXT
  5
18A
330
C9
100
AcDbEntity
  8
LAYER0016
 62
     4
100
AcDbText
 10
484.1129380286837
 20
1544.425219157024
 30
0.0
 40
75.0
  1
1600
 41
1.1
  7
DCSTYLE0
 72
     5
 11
724.1129380286837
 21
1544.425219157024
 31
0.0
100
AcDbText
  0
ENDBLK
  5
CB
330
C9
100
AcDbEntity
  8
0
100
AcDbBlockEnd
  0
BLOCK
  5
CD
330
CC
100
AcDbEntity
  8
0
100
AcDbBlockBegin
  2
DC_GROUP_5
 70
     0
 10
0.0
 20
0.0
 30
0.0
  3
DC_GROUP_5
  1

  0
LINE
  5
18B
330
CC
100
AcDbEntity
  8
LAYER0016
  6
CONTINUOUS
 62
     2
100
AcDbLine
 10
1300.012939559444
 20
-31.37069210760694
 30
0.0
 11
1306.1180466422
 21
-31.37069210760694
 31
0.0
  0
LINE
  5
18C
330
CC
100
AcDbEntity
  8
LAYER0016
  6
CONTINUOUS
 62
     2
100
AcDbLine
 10
1300.012939559444
 20
-36.27816939571881
 30
0.0
 11
1306.1180466422
 21
-36.27816939571881
 31
0.0
  0
LINE
  5
18D
330
CC
100
AcDbEntity
  8
LAYER0016
  6
CONTINUOUS
 62
     2
100
AcDbLine
 10
1307.012939559444
 20
-33.82443075166293
 30
0.0
 11
1307.012939559444
 21
-48.51695346355109
 31
0.0
  0
LINE
  5
18E
330
CC
100
AcDbEntity
  8
LAYER0016
  6
CONTINUOUS
 62
     2
100
AcDbLine
 10
1300.012939559444
 20
-50.97069210760708
 30
0.0
 11
1306.1180466422
 21
-50.97069210760708
 31
0.0
  0
LINE
  5
18F
330
CC
100
AcDbEntity
  8
LAYER0016
  6
CONTINUOUS
 62
     2
100
AcDbLine
 10
1300.012939559444
 20
-46.06321481949522
 30
0.0
 11
1306.1180466422
 21
-46.06321481949522
 31
0.0
  0
ARC
  5
190
330
CC
100
AcDbEntity
  8
LAYER0016
  6
CONTINUOUS
 62
     2
100
AcDbCircle
 10
1303.201496572681
 20
-33.82443075166293
 30
0.0
 40
3.811442986763139
100
AcDbArc
 50
319.9255796616138
 51
40.07442033838626
  0
ARC
  5
191
330
CC
100
AcDbEntity
  8
LAYER0016
  6
CONTINUOUS
 62
     2
100
AcDbCircle
 10
1303.201496572681
 20
-48.51695346355109
 30
0.0
 40
3.811442986763139
100
AcDbArc
 50
319.9255796616138
 51
40.07442033838626
  0
ARC
  5
192
330
CC
100
AcDbEntity
  8
LAYER0016
  6
CONTINUOUS
 62
     2
100
AcDbCircle
 10
1293.191391001511
 20
-41.17069210760701
 30
0.0
 40
13.82154855793339
100
AcDbArc
 50
339.2691848585843
 51
20.73081514141578
  0
LINE
  5
193
330
CC
100
AcDbEntity
  8
LAYER0016
  6
CONTINUOUS
 62
     2
100
AcDbLine
 10
1298.012939559444
 20
-51.67069210760701
 30
0.0
 11
1300.012939559444
 21
-51.67069210760701
 31
0.0
  0
LINE
  5
194
330
CC
100
AcDbEntity
  8
LAYER0016
  6
CONTINUOUS
 62
     2
100
AcDbLine
 10
1298.012939559444
 20
-30.67069210760701
 30
0.0
 11
1298.012939559444
 21
-51.67069210760701
 31
0.0
  0
LINE
  5
195
330
CC
100
AcDbEntity
  8
LAYER0016
  6
CONTINUOUS
 62
     2
100
AcDbLine
 10
1298.012939559444
 20
-30.67069210760701
 30
0.0
 11
1300.012939559444
 21
-30.67069210760701
 31
0.0
  0
LINE
  5
196
330
CC
100
AcDbEntity
  8
LAYER0016
  6
CONTINUOUS
 62
     2
100
AcDbLine
 10
1300.012939559444
 20
-30.67069210760701
 30
0.0
 11
1300.012939559444
 21
-51.67069210760701
 31
0.0
  0
LINE
  5
197
330
CC
100
AcDbEntity
  8
LAYER0016
  6
DASHED2
 62
     3
100
AcDbLine
 10
1276.512939559444
 20
-36.17069210760701
 30
0.0
 11
1276.512939559444
 21
-46.17069210760701
 31
0.0
  0
LINE
  5
198
330
CC
100
AcDbEntity
  8
LAYER0016
  6
DASHED2
 62
     3
100
AcDbLine
 10
1275.012939559444
 20
-37.67069210760712
 30
0.0
 11
1275.012939559444
 21
-44.67069210760701
 31
0.0
  0
LINE
  5
199
330
CC
100
AcDbEntity
  8
LAYER0016
  6
DASHED2
 62
     3
100
AcDbLine
 10
1276.512939559444
 20
-36.17069210760701
 30
0.0
 11
1275.012939559444
 21
-37.67069210760712
 31
0.0
  0
LINE
  5
19A
330
CC
100
AcDbEntity
  8
LAYER0016
  6
DASHED2
 62
     3
100
AcDbLine
 10
1276.512939559444
 20
-46.17069210760701
 30
0.0
 11
1275.012939559444
 21
-44.67069210760701
 31
0.0
  0
LINE
  5
19B
330
CC
100
AcDbEntity
  8
LAYER0016
  6
DASHED2
 62
     3
100
AcDbLine
 10
1281.612939559444
 20
-36.1706921076069
 30
0.0
 11
1276.512939559444
 21
-36.1706921076069
 31
0.0
  0
LINE
  5
19C
330
CC
100
AcDbEntity
  8
LAYER0016
  6
DASHED2
 62
     3
100
AcDbLine
 10
1281.612939559444
 20
-36.92069210760701
 30
0.0
 11
1275.762939559444
 21
-36.92069210760701
 31
0.0
  0
LINE
  5
19D
330
CC
100
AcDbEntity
  8
LAYER0016
  6
DASHED2
 62
     3
100
AcDbLine
 10
1281.612939559444
 20
-45.42069210760701
 30
0.0
 11
1275.762939559444
 21
-45.42069210760701
 31
0.0
  0
LINE
  5
19E
330
CC
100
AcDbEntity
  8
LAYER0016
  6
DASHED2
 62
     3
100
AcDbLine
 10
1281.612939559444
 20
-46.1706921076069
 30
0.0
 11
1276.512939559444
 21
-46.1706921076069
 31
0.0
  0
ENDBLK
  5
CE
330
CC
100
AcDbEntity
  8
0
100
AcDbBlockEnd
  0
BLOCK
  5
D0
330
CF
100
AcDbEntity
  8
0
100
AcDbBlockBegin
  2
DC_GROUP_6
 70
     0
 10
0.0
 20
0.0
 30
0.0
  3
DC_GROUP_6
  1

  0
LINE
  5
19F
330
CF
100
AcDbEntity
  8
LAYER0016
  6
CONTINUOUS
 62
     2
100
AcDbLine
 10
1300.012939559444
 20
-61.37069210760694
 30
0.0
 11
1306.1180466422
 21
-61.37069210760694
 31
0.0
  0
LINE
  5
1A0
330
CF
100
AcDbEntity
  8
LAYER0016
  6
CONTINUOUS
 62
     2
100
AcDbLine
 10
1300.012939559444
 20
-66.2781693957188
 30
0.0
 11
1306.1180466422
 21
-66.2781693957188
 31
0.0
  0
LINE
  5
1A1
330
CF
100
AcDbEntity
  8
LAYER0016
  6
CONTINUOUS
 62
     2
100
AcDbLine
 10
1307.012939559444
 20
-63.82443075166293
 30
0.0
 11
1307.012939559444
 21
-78.51695346355109
 31
0.0
  0
LINE
  5
1A2
330
CF
100
AcDbEntity
  8
LAYER0016
  6
CONTINUOUS
 62
     2
100
AcDbLine
 10
1300.012939559444
 20
-80.97069210760708
 30
0.0
 11
1306.1180466422
 21
-80.97069210760708
 31
0.0
  0
LINE
  5
1A3
330
CF
100
AcDbEntity
  8
LAYER0016
  6
CONTINUOUS
 62
     2
100
AcDbLine
 10
1300.012939559444
 20
-76.0632148194951
 30
0.0
 11
1306.1180466422
 21
-76.0632148194951
 31
0.0
  0
ARC
  5
1A4
330
CF
100
AcDbEntity
  8
LAYER0016
  6
CONTINUOUS
 62
     2
100
AcDbCircle
 10
1303.201496572681
 20
-63.82443075166293
 30
0.0
 40
3.811442986763139
100
AcDbArc
 50
319.9255796616138
 51
40.07442033838626
  0
ARC
  5
1A5
330
CF
100
AcDbEntity
  8
LAYER0016
  6
CONTINUOUS
 62
     2
100
AcDbCircle
 10
1303.201496572681
 20
-78.51695346355109
 30
0.0
 40
3.811442986763139
100
AcDbArc
 50
319.9255796616138
 51
40.07442033838626
  0
ARC
  5
1A6
330
CF
100
AcDbEntity
  8
LAYER0016
  6
CONTINUOUS
 62
     2
100
AcDbCircle
 10
1293.191391001511
 20
-71.17069210760701
 30
0.0
 40
13.82154855793339
100
AcDbArc
 50
339.2691848585843
 51
20.73081514141578
  0
LINE
  5
1A7
330
CF
100
AcDbEntity
  8
LAYER0016
  6
CONTINUOUS
 62
     2
100
AcDbLine
 10
1298.012939559444
 20
-81.6706921076069
 30
0.0
 11
1300.012939559444
 21
-81.6706921076069
 31
0.0
  0
LINE
  5
1A8
330
CF
100
AcDbEntity
  8
LAYER0016
  6
CONTINUOUS
 62
     2
100
AcDbLine
 10
1298.012939559444
 20
-60.67069210760701
 30
0.0
 11
1298.012939559444
 21
-81.6706921076069
 31
0.0
  0
LINE
  5
1A9
330
CF
100
AcDbEntity
  8
LAYER0016
  6
CONTINUOUS
 62
     2
100
AcDbLine
 10
1298.012939559444
 20
-60.67069210760701
 30
0.0
 11
1300.012939559444
 21
-60.67069210760701
 31
0.0
  0
LINE
  5
1AA
330
CF
100
AcDbEntity
  8
LAYER0016
  6
CONTINUOUS
 62
     2
100
AcDbLine
 10
1300.012939559444
 20
-60.67069210760701
 30
0.0
 11
1300.012939559444
 21
-81.6706921076069
 31
0.0
  0
LINE
  5
1AB
330
CF
100
AcDbEntity
  8
LAYER0016
  6
DASHED2
 62
     3
100
AcDbLine
 10
1276.512939559444
 20
-66.17069210760701
 30
0.0
 11
1276.512939559444
 21
-76.1706921076069
 31
0.0
  0
LINE
  5
1AC
330
CF
100
AcDbEntity
  8
LAYER0016
  6
DASHED2
 62
     3
100
AcDbLine
 10
1275.012939559444
 20
-67.67069210760712
 30
0.0
 11
1275.012939559444
 21
-74.6706921076069
 31
0.0
  0
LINE
  5
1AD
330
CF
100
AcDbEntity
  8
LAYER0016
  6
DASHED2
 62
     3
100
AcDbLine
 10
1276.512939559444
 20
-66.17069210760701
 30
0.0
 11
1275.012939559444
 21
-67.67069210760712
 31
0.0
  0
LINE
  5
1AE
330
CF
100
AcDbEntity
  8
LAYER0016
  6
DASHED2
 62
     3
100
AcDbLine
 10
1276.512939559444
 20
-76.1706921076069
 30
0.0
 11
1275.012939559444
 21
-74.6706921076069
 31
0.0
  0
LINE
  5
1AF
330
CF
100
AcDbEntity
  8
LAYER0016
  6
DASHED2
 62
     3
100
AcDbLine
 10
1281.612939559444
 20
-66.1706921076069
 30
0.0
 11
1276.512939559444
 21
-66.1706921076069
 31
0.0
  0
LINE
  5
1B0
330
CF
100
AcDbEntity
  8
LAYER0016
  6
DASHED2
 62
     3
100
AcDbLine
 10
1281.612939559444
 20
-66.92069210760701
 30
0.0
 11
1275.762939559444
 21
-66.92069210760701
 31
0.0
  0
LINE
  5
1B1
330
CF
100
AcDbEntity
  8
LAYER0016
  6
DASHED2
 62
     3
100
AcDbLine
 10
1281.612939559444
 20
-76.1706921076069
 30
0.0
 11
1276.512939559444
 21
-76.1706921076069
 31
0.0
  0
LINE
  5
1B2
330
CF
100
AcDbEntity
  8
LAYER0016
  6
DASHED2
 62
     3
100
AcDbLine
 10
1281.612939559444
 20
-75.4206921076069
 30
0.0
 11
1275.762939559444
 21
-75.4206921076069
 31
0.0
  0
ENDBLK
  5
D1
330
CF
100
AcDbEntity
  8
0
100
AcDbBlockEnd
  0
BLOCK
  5
D3
330
D2
100
AcDbEntity
  8
0
100
AcDbBlockBegin
  2
DC_GROUP_7
 70
     0
 10
0.0
 20
0.0
 30
0.0
  3
DC_GROUP_7
  1

  0
LINE
  5
1B3
330
D2
100
AcDbEntity
  8
LAYER0016
  6
DASHED2
 62
     3
100
AcDbLine
 10
1289.612939559444
 20
-31.37069210760694
 30
0.0
 11
1282.507832476688
 21
-31.37069210760694
 31
0.0
  0
LINE
  5
1B4
330
D2
100
AcDbEntity
  8
LAYER0016
  6
DASHED2
 62
     3
100
AcDbLine
 10
1282.507832476688
 20
-36.27816939571881
 30
0.0
 11
1289.612939559444
 21
-36.27816939571881
 31
0.0
  0
LINE
  5
1B5
330
D2
100
AcDbEntity
  8
LAYER0016
  6
DASHED2
 62
     3
100
AcDbLine
 10
1281.612939559444
 20
-33.82443075166293
 30
0.0
 11
1281.612939559444
 21
-48.51695346355109
 31
0.0
  0
LINE
  5
1B6
330
D2
100
AcDbEntity
  8
LAYER0016
  6
DASHED2
 62
     3
100
AcDbLine
 10
1289.612939559444
 20
-50.97069210760708
 30
0.0
 11
1282.507832476688
 21
-50.97069210760708
 31
0.0
  0
LINE
  5
1B7
330
D2
100
AcDbEntity
  8
LAYER0016
  6
DASHED2
 62
     3
100
AcDbLine
 10
1289.612939559444
 20
-46.06321481949522
 30
0.0
 11
1282.507832476688
 21
-46.06321481949522
 31
0.0
  0
ARC
  5
1B8
330
D2
100
AcDbEntity
  8
LAYER0016
  6
DASHED2
 62
     3
100
AcDbCircle
 10
1285.424382546207
 20
-33.82443075166293
 30
0.0
 40
3.811442986763139
100
AcDbArc
 50
139.9255796616138
 51
220.0744203383862
  0
ARC
  5
1B9
330
D2
100
AcDbEntity
  8
LAYER0016
  6
DASHED2
 62
     3
100
AcDbCircle
 10
1285.424382546207
 20
-48.51695346355109
 30
0.0
 40
3.811442986763139
100
AcDbArc
 50
139.9255796616138
 51
220.0744203383862
  0
ARC
  5
1BA
330
D2
100
AcDbEntity
  8
LAYER0016
  6
DASHED2
 62
     3
100
AcDbCircle
 10
1295.434488117377
 20
-41.17069210760701
 30
0.0
 40
13.82154855793339
100
AcDbArc
 50
159.2691848585842
 51
200.7308151414158
  0
LINE
  5
1BB
330
D2
100
AcDbEntity
  8
LAYER0016
  6
DASHED2
 62
     3
100
AcDbLine
 10
1289.612939559444
 20
-51.67069210760701
 30
0.0
 11
1291.612939559444
 21
-51.67069210760701
 31
0.0
  0
LINE
  5
1BC
330
D2
100
AcDbEntity
  8
LAYER0016
  6
DASHED2
 62
     3
100
AcDbLine
 10
1291.612939559444
 20
-51.67069210760701
 30
0.0
 11
1291.612939559444
 21
-30.67069210760701
 31
0.0
  0
LINE
  5
1BD
330
D2
100
AcDbEntity
  8
LAYER0016
  6
DASHED2
 62
     3
100
AcDbLine
 10
1291.612939559444
 20
-30.67069210760701
 30
0.0
 11
1289.612939559444
 21
-30.67069210760701
 31
0.0
  0
LINE
  5
1BE
330
D2
100
AcDbEntity
  8
LAYER0016
  6
DASHED2
 62
     3
100
AcDbLine
 10
1289.612939559444
 20
-51.67069210760701
 30
0.0
 11
1289.612939559444
 21
-30.67069210760701
 31
0.0
  0
ENDBLK
  5
D4
330
D2
100
AcDbEntity
  8
0
100
AcDbBlockEnd
  0
BLOCK
  5
D6
330
D5
100
AcDbEntity
  8
0
100
AcDbBlockBegin
  2
DC_GROUP_8
 70
     0
 10
0.0
 20
0.0
 30
0.0
  3
DC_GROUP_8
  1

  0
LINE
  5
1BF
330
D5
100
AcDbEntity
  8
LAYER0016
  6
DASHED2
 62
     3
100
AcDbLine
 10
1289.612939559444
 20
-61.37069210760694
 30
0.0
 11
1282.507832476688
 21
-61.37069210760694
 31
0.0
  0
LINE
  5
1C0
330
D5
100
AcDbEntity
  8
LAYER0016
  6
DASHED2
 62
     3
100
AcDbLine
 10
1282.507832476688
 20
-66.2781693957188
 30
0.0
 11
1289.612939559444
 21
-66.2781693957188
 31
0.0
  0
LINE
  5
1C1
330
D5
100
AcDbEntity
  8
LAYER0016
  6
DASHED2
 62
     3
100
AcDbLine
 10
1281.612939559444
 20
-63.82443075166293
 30
0.0
 11
1281.612939559444
 21
-78.51695346355109
 31
0.0
  0
LINE
  5
1C2
330
D5
100
AcDbEntity
  8
LAYER0016
  6
DASHED2
 62
     3
100
AcDbLine
 10
1289.612939559444
 20
-80.97069210760708
 30
0.0
 11
1282.507832476688
 21
-80.97069210760708
 31
0.0
  0
LINE
  5
1C3
330
D5
100
AcDbEntity
  8
LAYER0016
  6
DASHED2
 62
     3
100
AcDbLine
 10
1289.612939559444
 20
-76.0632148194951
 30
0.0
 11
1282.507832476688
 21
-76.0632148194951
 31
0.0
  0
ARC
  5
1C4
330
D5
100
AcDbEntity
  8
LAYER0016
  6
DASHED2
 62
     3
100
AcDbCircle
 10
1285.424382546207
 20
-63.82443075166293
 30
0.0
 40
3.811442986763139
100
AcDbArc
 50
139.9255796616138
 51
220.0744203383862
  0
ARC
  5
1C5
330
D5
100
AcDbEntity
  8
LAYER0016
  6
DASHED2
 62
     3
100
AcDbCircle
 10
1285.424382546207
 20
-78.51695346355109
 30
0.0
 40
3.811442986763139
100
AcDbArc
 50
139.9255796616138
 51
220.0744203383862
  0
ARC
  5
1C6
330
D5
100
AcDbEntity
  8
LAYER0016
  6
DASHED2
 62
     3
100
AcDbCircle
 10
1295.434488117377
 20
-71.17069210760701
 30
0.0
 40
13.82154855793339
100
AcDbArc
 50
159.2691848585842
 51
200.7308151414158
  0
LINE
  5
1C7
330
D5
100
AcDbEntity
  8
LAYER0016
  6
DASHED2
 62
     3
100
AcDbLine
 10
1289.612939559444
 20
-81.6706921076069
 30
0.0
 11
1291.612939559444
 21
-81.6706921076069
 31
0.0
  0
LINE
  5
1C8
330
D5
100
AcDbEntity
  8
LAYER0016
  6
DASHED2
 62
     3
100
AcDbLine
 10
1291.612939559444
 20
-81.6706921076069
 30
0.0
 11
1291.612939559444
 21
-60.67069210760701
 31
0.0
  0
LINE
  5
1C9
330
D5
100
AcDbEntity
  8
LAYER0016
  6
DASHED2
 62
     3
100
AcDbLine
 10
1291.612939559444
 20
-60.67069210760701
 30
0.0
 11
1289.612939559444
 21
-60.67069210760701
 31
0.0
  0
LINE
  5
1CA
330
D5
100
AcDbEntity
  8
LAYER0016
  6
DASHED2
 62
     3
100
AcDbLine
 10
1289.612939559444
 20
-81.6706921076069
 30
0.0
 11
1289.612939559444
 21
-60.67069210760701
 31
0.0
  0
ENDBLK
  5
D7
330
D5
100
AcDbEntity
  8
0
100
AcDbBlockEnd
  0
BLOCK
  5
D9
330
D8
100
AcDbEntity
  8
0
100
AcDbBlockBegin
  2
*D12
 70
     1
 10
0.0
 20
0.0
 30
0.0
  3
*D12
  1

  0
LINE
  5
1CB
330
D8
100
AcDbEntity
  8
LAYER0016
  6
CONTINUOUS
 62
     4
100
AcDbLine
 10
-345.8872346905371
 20
671.8252191570223
 30
0.0
 11
-345.8872346905371
 21
1369.425219157024
 31
0.0
  0
INSERT
  5
1CC
330
D8
100
AcDbEntity
  8
LAYER0016
 62
     4
100
AcDbBlockReference
  2
_OPEN30
 10
-345.8872346905371
 20
671.8252191570223
 30
0.0
 41
75.00007019038215
 42
74.99973420559108
 50
270.0
  0
INSERT
  5
1CD
330
D8
100
AcDbEntity
  8
LAYER0016
 62
     4
100
AcDbBlockReference
  2
_OPEN30
 10
-345.8872346905371
 20
1369.425219157024
 30
0.0
 41
75.00007019038215
 42
74.99973420559108
 50
90.0
  0
LINE
  5
1CE
330
D8
100
AcDbEntity
  8
LAYER0016
  6
CONTINUOUS
 62
     4
100
AcDbLine
 10
-220.8872346905371
 20
671.8252191570223
 30
0.0
 11
-370.8872346905372
 21
671.8252191570223
 31
0.0
  0
LINE
  5
1CF
330
D8
100
AcDbEntity
  8
LAYER0016
  6
CONTINUOUS
 62
     4
100
AcDbLine
 10
-220.8872346905371
 20
1369.425219157024
 30
0.0
 11
-370.8872346905372
 21
1369.425219157024
 31
0.0
  0
TEXT
  5
1D0
330
D8
100
AcDbEntity
  8
LAYER0016
 62
     4
100
AcDbText
 10
-370.8872346905372
 20
870.6252191570229
 30
0.0
 40
75.0
  1
697.5
 50
90.0
 41
1.248360911645332
  7
DCSTYLE0
 72
     5
 11
-370.8872346905372
 21
1170.625219157023
 31
0.0
100
AcDbText
  0
ENDBLK
  5
DA
330
D8
100
AcDbEntity
  8
0
100
AcDbBlockEnd
  0
BLOCK
  5
DC
330
DB
100
AcDbEntity
  8
0
100
AcDbBlockBegin
  2
*D13
 70
     1
 10
0.0
 20
0.0
 30
0.0
  3
*D13
  1

  0
LINE
  5
1D1
330
DB
100
AcDbEntity
  8
LAYER0016
  6
CONTINUOUS
 62
     4
100
AcDbLine
 10
-345.8872346905375
 20
-731.170625107608
 30
0.0
 11
-345.8872346905375
 21
142.5617316988582
 31
0.0
  0
INSERT
  5
1D2
330
DB
100
AcDbEntity
  8
LAYER0016
 62
     4
100
AcDbBlockReference
  2
_OPEN30
 10
-345.8872346905375
 20
-731.170625107608
 30
0.0
 41
75.00007019038215
 42
74.99973420559108
 50
270.0
  0
INSERT
  5
1D3
330
DB
100
AcDbEntity
  8
LAYER0016
 62
     4
100
AcDbBlockReference
  2
_OPEN30
 10
-345.8872346905375
 20
142.5617316988582
 30
0.0
 41
75.00007019038215
 42
74.99973420559108
 50
90.0
  0
LINE
  5
1D4
330
DB
100
AcDbEntity
  8
LAYER0016
  6
CONTINUOUS
 62
     4
100
AcDbLine
 10
-111.5870635020776
 20
-731.170625107608
 30
0.0
 11
-370.8872346905375
 21
-731.170625107608
 31
0.0
  0
LINE
  5
1D5
330
DB
100
AcDbEntity
  8
LAYER0016
  6
CONTINUOUS
 62
     4
100
AcDbLine
 10
-220.8872346905375
 20
142.5617316988582
 30
0.0
 11
-370.8872346905375
 21
142.5617316988582
 31
0.0
  0
TEXT
  5
1D6
330
DB
100
AcDbEntity
  8
LAYER0016
 62
     4
100
AcDbText
 10
-370.8872346905375
 20
-444.3044467043749
 30
0.0
 40
75.0
  1
(874)
 50
90.0
 41
1.303716987283991
  7
DCSTYLE0
 72
     5
 11
-370.8872346905375
 21
-144.3044467043749
 31
0.0
100
AcDbText
  0
ENDBLK
  5
DD
330
DB
100
AcDbEntity
  8
0
100
AcDbBlockEnd
  0
BLOCK
  5
DF
330
DE
100
AcDbEntity
  8
0
100
AcDbBlockBegin
  2
*D14
 70
     1
 10
0.0
 20
0.0
 30
0.0
  3
*D14
  1

  0
LINE
  5
1D7
330
DE
100
AcDbEntity
  8
LAYER0017
  6
CONTINUOUS
 62
     4
100
AcDbLine
 10
2315.356236411532
 20
389.1658317491101
 30
0.0
 11
2525.356236411537
 21
389.1658317491101
 31
0.0
  0
LINE
  5
1D8
330
DE
100
AcDbEntity
  8
LAYER0017
  6
CONTINUOUS
 62
     4
100
AcDbLine
 10
2315.356236411532
 20
82.02937489239127
 30
0.0
 11
2315.356236411532
 21
414.1658317491101
 31
0.0
  0
LINE
  5
1D9
330
DE
100
AcDbEntity
  8
LAYER0017
  6
CONTINUOUS
 62
     4
100
AcDbLine
 10
2525.356236411537
 20
82.02937489239127
 30
0.0
 11
2525.356236411537
 21
414.1658317491101
 31
0.0
  0
LINE
  5
1DA
330
DE
100
AcDbEntity
  8
LAYER0017
  6
CONTINUOUS
 62
     4
100
AcDbLine
 10
2190.356236411532
 20
389.1658317491101
 30
0.0
 11
2315.356236411532
 21
389.1658317491101
 31
0.0
  0
INSERT
  5
1DB
330
DE
100
AcDbEntity
  8
LAYER0017
 62
     4
100
AcDbBlockReference
  2
_OPEN30
 10
2315.356236411532
 20
389.1658317491101
 30
0.0
 41
75.00007019038215
 42
74.99973420559108
 50
360.0
  0
LINE
  5
1DC
330
DE
100
AcDbEntity
  8
LAYER0017
  6
CONTINUOUS
 62
     4
100
AcDbLine
 10
3127.800736411537
 20
389.1658317491101
 30
0.0
 11
2525.356236411537
 21
389.1658317491101
 31
0.0
  0
INSERT
  5
1DD
330
DE
100
AcDbEntity
  8
LAYER0017
 62
     4
100
AcDbBlockReference
  2
_OPEN30
 10
2525.356236411537
 20
389.1658317491101
 30
0.0
 41
75.00007019038215
 42
74.99973420559108
 50
180.0
  0
TEXT
  5
1DE
330
DE
100
AcDbEntity
  8
LAYER0017
 62
     4
100
AcDbText
 10
2622.800736411537
 20
414.1658317491101
 30
0.0
 40
75.0
  1
30×7=210
 41
0.9777777777777777
  7
DCSTYLE0
 72
     5
 11
3102.800736411537
 21
414.1658317491101
 31
0.0
100
AcDbText
  0
ENDBLK
  5
E0
330
DE
100
AcDbEntity
  8
0
100
AcDbBlockEnd
  0
BLOCK
  5
E2
330
E1
100
AcDbEntity
  8
0
100
AcDbBlockBegin
  2
DC_GROUP_9
 70
     0
 10
0.0
 20
0.0
 30
0.0
  3
DC_GROUP_9
  1

  0
ARC
  5
1DF
330
E1
100
AcDbEntity
  8
1-2
  6
CONTINUOUS
 62
     2
100
AcDbCircle
 10
-653.6526465673285
 20
-1219.4413587045
 30
0.0
 40
100.0
100
AcDbArc
 50
181.5023947370662
 51
88.4976052628927
  0
ENDBLK
  5
E3
330
E1
100
AcDbEntity
  8
0
100
AcDbBlockEnd
  0
BLOCK
  5
E5
330
E4
100
AcDbEntity
  8
0
100
AcDbBlockBegin
  2
DC_GROUP_10
 70
     0
 10
0.0
 20
0.0
 30
0.0
  3
DC_GROUP_10
  1

  0
ARC
  5
1E0
330
E4
100
AcDbEntity
  8
1-2
  6
CONTINUOUS
 62
     2
100
AcDbCircle
 10
-753.6526465672964
 20
-1119.44135870446
 30
0.0
 40
81.25
100
AcDbArc
 50
13.58512001842445
 51
256.4148799815342
  0
ENDBLK
  5
E6
330
E4
100
AcDbEntity
  8
0
100
AcDbBlockEnd
  0
BLOCK
  5
E8
330
E7
100
AcDbEntity
  8
0
100
AcDbBlockBegin
  2
DC_GROUP_11
 70
     0
 10
0.0
 20
0.0
 30
0.0
  3
DC_GROUP_11
  1

  0
INSERT
  5
1E1
330
E7
100
AcDbEntity
  8
0
  6
CONTINUOUS
100
AcDbBlockReference
  2
DC_GROUP_12
 10
0.0
 20
0.0
 30
0.0
  0
INSERT
  5
1E2
330
E7
100
AcDbEntity
  8
0
  6
CONTINUOUS
100
AcDbBlockReference
  2
DC_GROUP_15
 10
0.0
 20
0.0
 30
0.0
  0
INSERT
  5
1E3
330
E7
100
AcDbEntity
  8
0
  6
CONTINUOUS
100
AcDbBlockReference
  2
DC_GROUP_18
 10
0.0
 20
0.0
 30
0.0
  0
ENDBLK
  5
E9
330
E7
100
AcDbEntity
  8
0
100
AcDbBlockEnd
  0
BLOCK
  5
EB
330
EA
100
AcDbEntity
  8
0
100
AcDbBlockBegin
  2
DC_GROUP_12
 70
     0
 10
0.0
 20
0.0
 30
0.0
  3
DC_GROUP_12
  1

  0
ARC
  5
1E4
330
EA
100
AcDbEntity
  8
0
  6
CONTINUOUS
 62
     2
100
AcDbCircle
 10
-64.88362580216852
 20
-419.4363360947469
 30
0.0
 40
2.0
100
AcDbArc
 50
1.5023947371075
 51
76.4148799815755
  0
ARC
  5
1E5
330
EA
100
AcDbEntity
  8
0
  6
CONTINUOUS
 62
     2
100
AcDbCircle
 10
-54.6248762019838
 20
-409.1775864945546
 30
0.0
 40
2.0
100
AcDbArc
 50
193.5851200184655
 51
268.497605262934
  0
INSERT
  5
1E6
330
EA
100
AcDbEntity
  8
0
  6
CONTINUOUS
100
AcDbBlockReference
  2
DC_GROUP_13
 10
0.0
 20
0.0
 30
0.0
  0
INSERT
  5
1E7
330
EA
100
AcDbEntity
  8
0
  6
CONTINUOUS
100
AcDbBlockReference
  2
DC_GROUP_14
 10
0.0
 20
0.0
 30
0.0
  0
ENDBLK
  5
EC
330
EA
100
AcDbEntity
  8
0
100
AcDbBlockEnd
  0
BLOCK
  5
EE
330
ED
100
AcDbEntity
  8
0
100
AcDbBlockBegin
  2
DC_GROUP_13
 70
     0
 10
0.0
 20
0.0
 30
0.0
  3
DC_GROUP_13
  1

  0
LINE
  5
1E8
330
ED
100
AcDbEntity
  8
0
  6
CENTER
 62
     6
100
AcDbLine
 10
-62.88706350207752
 20
-403.3741487946517
 30
0.0
 11
-62.88706350207752
 21
-418.9741487946517
 31
0.0
  0
LINE
  5
1E9
330
ED
100
AcDbEntity
  8
0
  6
CENTER
 62
     6
100
AcDbLine
 10
-70.68706350207748
 20
-411.1741487946517
 30
0.0
 11
-55.08706350207757
 21
-411.1741487946517
 31
0.0
  0
ARC
  5
1EA
330
ED
100
AcDbEntity
  8
0
  6
CONTINUOUS
 62
     2
100
AcDbCircle
 10
-62.88706350207752
 20
-411.1741487946517
 30
0.0
 40
6.5
100
AcDbArc
 50
13.5851200184658
 51
256.4148799815756
  0
ENDBLK
  5
EF
330
ED
100
AcDbEntity
  8
0
100
AcDbBlockEnd
  0
BLOCK
  5
F1
330
F0
100
AcDbEntity
  8
0
100
AcDbBlockBegin
  2
DC_GROUP_14
 70
     0
 10
0.0
 20
0.0
 30
0.0
  3
DC_GROUP_14
  1

  0
LINE
  5
1EB
330
F0
100
AcDbEntity
  8
0
  6
CENTER
 62
     6
100
AcDbLine
 10
-54.88706350207434
 20
-409.5741487946491
 30
0.0
 11
-54.88706350207434
 21
-428.7741487946491
 31
0.0
  0
LINE
  5
1EC
330
F0
100
AcDbEntity
  8
0
  6
CENTER
 62
     6
100
AcDbLine
 10
-64.48706350207448
 20
-419.1741487946491
 30
0.0
 11
-45.2870635020742
 21
-419.1741487946491
 31
0.0
  0
ARC
  5
1ED
330
F0
100
AcDbEntity
  8
0
  6
CONTINUOUS
 62
     2
100
AcDbCircle
 10
-54.88706350207434
 20
-419.1741487946491
 30
0.0
 40
8.0
100
AcDbArc
 50
181.5023947371073
 51
88.49760526293382
  0
ENDBLK
  5
F2
330
F0
100
AcDbEntity
  8
0
100
AcDbBlockEnd
  0
BLOCK
  5
F4
330
F3
100
AcDbEntity
  8
0
100
AcDbBlockBegin
  2
DC_GROUP_15
 70
     0
 10
0.0
 20
0.0
 30
0.0
  3
DC_GROUP_15
  1

  0
ARC
  5
1EE
330
F3
100
AcDbEntity
  8
0
  6
CONTINUOUS
 62
     2
100
AcDbCircle
 10
-64.88362580216852
 20
-519.4363360947469
 30
0.0
 40
2.0
100
AcDbArc
 50
1.5023947371075
 51
76.4148799815755
  0
ARC
  5
1EF
330
F3
100
AcDbEntity
  8
0
  6
CONTINUOUS
 62
     2
100
AcDbCircle
 10
-54.6248762019838
 20
-509.1775864945546
 30
0.0
 40
2.0
100
AcDbArc
 50
193.5851200184655
 51
268.497605262934
  0
INSERT
  5
1F0
330
F3
100
AcDbEntity
  8
0
  6
CONTINUOUS
100
AcDbBlockReference
  2
DC_GROUP_16
 10
0.0
 20
0.0
 30
0.0
  0
INSERT
  5
1F1
330
F3
100
AcDbEntity
  8
0
  6
CONTINUOUS
100
AcDbBlockReference
  2
DC_GROUP_17
 10
0.0
 20
0.0
 30
0.0
  0
ENDBLK
  5
F5
330
F3
100
AcDbEntity
  8
0
100
AcDbBlockEnd
  0
BLOCK
  5
F7
330
F6
100
AcDbEntity
  8
0
100
AcDbBlockBegin
  2
DC_GROUP_16
 70
     0
 10
0.0
 20
0.0
 30
0.0
  3
DC_GROUP_16
  1

  0
LINE
  5
1F2
330
F6
100
AcDbEntity
  8
0
  6
CENTER
 62
     6
100
AcDbLine
 10
-62.88706350207752
 20
-503.3741487946517
 30
0.0
 11
-62.88706350207752
 21
-518.9741487946517
 31
0.0
  0
LINE
  5
1F3
330
F6
100
AcDbEntity
  8
0
  6
CENTER
 62
     6
100
AcDbLine
 10
-70.68706350207748
 20
-511.1741487946517
 30
0.0
 11
-55.08706350207757
 21
-511.1741487946517
 31
0.0
  0
ARC
  5
1F4
330
F6
100
AcDbEntity
  8
0
  6
CONTINUOUS
 62
     2
100
AcDbCircle
 10
-62.88706350207752
 20
-511.1741487946517
 30
0.0
 40
6.5
100
AcDbArc
 50
13.5851200184658
 51
256.4148799815756
  0
ENDBLK
  5
F8
330
F6
100
AcDbEntity
  8
0
100
AcDbBlockEnd
  0
BLOCK
  5
FA
330
F9
100
AcDbEntity
  8
0
100
AcDbBlockBegin
  2
DC_GROUP_17
 70
     0
 10
0.0
 20
0.0
 30
0.0
  3
DC_GROUP_17
  1

  0
LINE
  5
1F5
330
F9
100
AcDbEntity
  8
0
  6
CENTER
 62
     6
100
AcDbLine
 10
-54.88706350207434
 20
-509.5741487946491
 30
0.0
 11
-54.88706350207434
 21
-528.7741487946491
 31
0.0
  0
LINE
  5
1F6
330
F9
100
AcDbEntity
  8
0
  6
CENTER
 62
     6
100
AcDbLine
 10
-64.48706350207448
 20
-519.1741487946491
 30
0.0
 11
-45.2870635020742
 21
-519.1741487946491
 31
0.0
  0
ARC
  5
1F7
330
F9
100
AcDbEntity
  8
0
  6
CONTINUOUS
 62
     2
100
AcDbCircle
 10
-54.88706350207434
 20
-519.1741487946491
 30
0.0
 40
8.0
100
AcDbArc
 50
181.5023947371073
 51
88.49760526293382
  0
ENDBLK
  5
FB
330
F9
100
AcDbEntity
  8
0
100
AcDbBlockEnd
  0
BLOCK
  5
FD
330
FC
100
AcDbEntity
  8
0
100
AcDbBlockBegin
  2
DC_GROUP_18
 70
     0
 10
0.0
 20
0.0
 30
0.0
  3
DC_GROUP_18
  1

  0
ARC
  5
1F8
330
FC
100
AcDbEntity
  8
0
  6
CONTINUOUS
 62
     2
100
AcDbCircle
 10
-64.88362580216852
 20
-619.4363360947469
 30
0.0
 40
2.0
100
AcDbArc
 50
1.5023947371075
 51
76.4148799815755
  0
ARC
  5
1F9
330
FC
100
AcDbEntity
  8
0
  6
CONTINUOUS
 62
     2
100
AcDbCircle
 10
-54.6248762019838
 20
-609.1775864945546
 30
0.0
 40
2.0
100
AcDbArc
 50
193.5851200184655
 51
268.497605262934
  0
INSERT
  5
1FA
330
FC
100
AcDbEntity
  8
0
  6
CONTINUOUS
100
AcDbBlockReference
  2
DC_GROUP_19
 10
0.0
 20
0.0
 30
0.0
  0
INSERT
  5
1FB
330
FC
100
AcDbEntity
  8
0
  6
CONTINUOUS
100
AcDbBlockReference
  2
DC_GROUP_20
 10
0.0
 20
0.0
 30
0.0
  0
ENDBLK
  5
FE
330
FC
100
AcDbEntity
  8
0
100
AcDbBlockEnd
  0
BLOCK
  5
100
330
FF
100
AcDbEntity
  8
0
100
AcDbBlockBegin
  2
DC_GROUP_19
 70
     0
 10
0.0
 20
0.0
 30
0.0
  3
DC_GROUP_19
  1

  0
LINE
  5
1FC
330
FF
100
AcDbEntity
  8
0
  6
CENTER
 62
     6
100
AcDbLine
 10
-62.88706350207752
 20
-603.3741487946518
 30
0.0
 11
-62.88706350207752
 21
-618.9741487946517
 31
0.0
  0
LINE
  5
1FD
330
FF
100
AcDbEntity
  8
0
  6
CENTER
 62
     6
100
AcDbLine
 10
-70.68706350207748
 20
-611.1741487946517
 30
0.0
 11
-55.08706350207757
 21
-611.1741487946517
 31
0.0
  0
ARC
  5
1FE
330
FF
100
AcDbEntity
  8
0
  6
CONTINUOUS
 62
     2
100
AcDbCircle
 10
-62.88706350207752
 20
-611.1741487946517
 30
0.0
 40
6.5
100
AcDbArc
 50
13.5851200184658
 51
256.4148799815756
  0
ENDBLK
  5
101
330
FF
100
AcDbEntity
  8
0
100
AcDbBlockEnd
  0
BLOCK
  5
103
330
102
100
AcDbEntity
  8
0
100
AcDbBlockBegin
  2
DC_GROUP_20
 70
     0
 10
0.0
 20
0.0
 30
0.0
  3
DC_GROUP_20
  1

  0
LINE
  5
1FF
330
102
100
AcDbEntity
  8
0
  6
CENTER
 62
     6
100
AcDbLine
 10
-54.88706350207434
 20
-609.5741487946492
 30
0.0
 11
-54.88706350207434
 21
-628.7741487946491
 31
0.0
  0
LINE
  5
200
330
102
100
AcDbEntity
  8
0
  6
CENTER
 62
     6
100
AcDbLine
 10
-64.48706350207448
 20
-619.1741487946491
 30
0.0
 11
-45.2870635020742
 21
-619.1741487946491
 31
0.0
  0
ARC
  5
201
330
102
100
AcDbEntity
  8
0
  6
CONTINUOUS
 62
     2
100
AcDbCircle
 10
-54.88706350207434
 20
-619.1741487946491
 30
0.0
 40
8.0
100
AcDbArc
 50
181.5023947371073
 51
88.49760526293382
  0
ENDBLK
  5
104
330
102
100
AcDbEntity
  8
0
100
AcDbBlockEnd
  0
BLOCK
  5
106
330
105
100
AcDbEntity
  8
0
100
AcDbBlockBegin
  2
DC_GROUP_21
 70
     0
 10
0.0
 20
0.0
 30
0.0
  3
DC_GROUP_21
  1

  0
INSERT
  5
202
330
105
100
AcDbEntity
  8
0
  6
CONTINUOUS
100
AcDbBlockReference
  2
DC_GROUP_22
 10
0.0
 20
0.0
 30
0.0
  0
INSERT
  5
203
330
105
100
AcDbEntity
  8
0
  6
CONTINUOUS
100
AcDbBlockReference
  2
DC_GROUP_25
 10
0.0
 20
0.0
 30
0.0
  0
INSERT
  5
204
330
105
100
AcDbEntity
  8
0
  6
CONTINUOUS
100
AcDbBlockReference
  2
DC_GROUP_28
 10
0.0
 20
0.0
 30
0.0
  0
ENDBLK
  5
107
330
105
100
AcDbEntity
  8
0
100
AcDbBlockEnd
  0
BLOCK
  5
109
330
108
100
AcDbEntity
  8
0
100
AcDbBlockBegin
  2
DC_GROUP_22
 70
     0
 10
0.0
 20
0.0
 30
0.0
  3
DC_GROUP_22
  1

  0
ARC
  5
205
330
108
100
AcDbEntity
  8
0
  6
CONTINUOUS
 62
     2
100
AcDbCircle
 10
1273.109501859535
 20
-419.4363360947469
 30
0.0
 40
2.0
100
AcDbArc
 50
103.5851200184245
 51
178.4976052628925
  0
ARC
  5
206
330
108
100
AcDbEntity
  8
0
  6
CONTINUOUS
 62
     2
100
AcDbCircle
 10
1262.850752259351
 20
-409.1775864945546
 30
0.0
 40
2.0
100
AcDbArc
 50
271.502394737066
 51
346.4148799815344
  0
INSERT
  5
207
330
108
100
AcDbEntity
  8
0
  6
CONTINUOUS
100
AcDbBlockReference
  2
DC_GROUP_23
 10
0.0
 20
0.0
 30
0.0
  0
INSERT
  5
208
330
108
100
AcDbEntity
  8
0
  6
CONTINUOUS
100
AcDbBlockReference
  2
DC_GROUP_24
 10
0.0
 20
0.0
 30
0.0
  0
ENDBLK
  5
10A
330
108
100
AcDbEntity
  8
0
100
AcDbBlockEnd
  0
BLOCK
  5
10C
330
10B
100
AcDbEntity
  8
0
100
AcDbBlockBegin
  2
DC_GROUP_23
 70
     0
 10
0.0
 20
0.0
 30
0.0
  3
DC_GROUP_23
  1

  0
LINE
  5
209
330
10B
100
AcDbEntity
  8
0
  6
CENTER
 62
     6
100
AcDbLine
 10
1271.112939559444
 20
-403.3741487946517
 30
0.0
 11
1271.112939559444
 21
-418.9741487946517
 31
0.0
  0
LINE
  5
20A
330
10B
100
AcDbEntity
  8
0
  6
CENTER
 62
     6
100
AcDbLine
 10
1278.912939559444
 20
-411.1741487946517
 30
0.0
 11
1263.312939559444
 21
-411.1741487946517
 31
0.0
  0
ARC
  5
20B
330
10B
100
AcDbEntity
  8
0
  6
CONTINUOUS
 62
     2
100
AcDbCircle
 10
1271.112939559444
 20
-411.1741487946517
 30
0.0
 40
6.5
100
AcDbArc
 50
283.5851200184244
 51
166.4148799815342
  0
ENDBLK
  5
10D
330
10B
100
AcDbEntity
  8
0
100
AcDbBlockEnd
  0
BLOCK
  5
10F
330
10E
100
AcDbEntity
  8
0
100
AcDbBlockBegin
  2
DC_GROUP_24
 70
     0
 10
0.0
 20
0.0
 30
0.0
  3
DC_GROUP_24
  1

  0
LINE
  5
20C
330
10E
100
AcDbEntity
  8
0
  6
CENTER
 62
     6
100
AcDbLine
 10
1263.112939559441
 20
-409.5741487946491
 30
0.0
 11
1263.112939559441
 21
-428.7741487946491
 31
0.0
  0
LINE
  5
20D
330
10E
100
AcDbEntity
  8
0
  6
CENTER
 62
     6
100
AcDbLine
 10
1272.712939559441
 20
-419.1741487946491
 30
0.0
 11
1253.512939559441
 21
-419.1741487946491
 31
0.0
  0
ARC
  5
20E
330
10E
100
AcDbEntity
  8
0
  6
CONTINUOUS
 62
     2
100
AcDbCircle
 10
1263.112939559441
 20
-419.1741487946491
 30
0.0
 40
8.0
100
AcDbArc
 50
91.50239473706618
 51
358.4976052628927
  0
ENDBLK
  5
110
330
10E
100
AcDbEntity
  8
0
100
AcDbBlockEnd
  0
BLOCK
  5
112
330
111
100
AcDbEntity
  8
0
100
AcDbBlockBegin
  2
DC_GROUP_25
 70
     0
 10
0.0
 20
0.0
 30
0.0
  3
DC_GROUP_25
  1

  0
ARC
  5
20F
330
111
100
AcDbEntity
  8
0
  6
CONTINUOUS
 62
     2
100
AcDbCircle
 10
1273.109501859535
 20
-519.4363360947469
 30
0.0
 40
2.0
100
AcDbArc
 50
103.5851200184245
 51
178.4976052628925
  0
ARC
  5
210
330
111
100
AcDbEntity
  8
0
  6
CONTINUOUS
 62
     2
100
AcDbCircle
 10
1262.850752259351
 20
-509.1775864945546
 30
0.0
 40
2.0
100
AcDbArc
 50
271.502394737066
 51
346.4148799815344
  0
INSERT
  5
211
330
111
100
AcDbEntity
  8
0
  6
CONTINUOUS
100
AcDbBlockReference
  2
DC_GROUP_26
 10
0.0
 20
0.0
 30
0.0
  0
INSERT
  5
212
330
111
100
AcDbEntity
  8
0
  6
CONTINUOUS
100
AcDbBlockReference
  2
DC_GROUP_27
 10
0.0
 20
0.0
 30
0.0
  0
ENDBLK
  5
113
330
111
100
AcDbEntity
  8
0
100
AcDbBlockEnd
  0
BLOCK
  5
115
330
114
100
AcDbEntity
  8
0
100
AcDbBlockBegin
  2
DC_GROUP_26
 70
     0
 10
0.0
 20
0.0
 30
0.0
  3
DC_GROUP_26
  1

  0
LINE
  5
213
330
114
100
AcDbEntity
  8
0
  6
CENTER
 62
     6
100
AcDbLine
 10
1271.112939559444
 20
-503.3741487946517
 30
0.0
 11
1271.112939559444
 21
-518.9741487946517
 31
0.0
  0
LINE
  5
214
330
114
100
AcDbEntity
  8
0
  6
CENTER
 62
     6
100
AcDbLine
 10
1278.912939559444
 20
-511.1741487946517
 30
0.0
 11
1263.312939559444
 21
-511.1741487946517
 31
0.0
  0
ARC
  5
215
330
114
100
AcDbEntity
  8
0
  6
CONTINUOUS
 62
     2
100
AcDbCircle
 10
1271.112939559444
 20
-511.1741487946517
 30
0.0
 40
6.5
100
AcDbArc
 50
283.5851200184244
 51
166.4148799815342
  0
ENDBLK
  5
116
330
114
100
AcDbEntity
  8
0
100
AcDbBlockEnd
  0
BLOCK
  5
118
330
117
100
AcDbEntity
  8
0
100
AcDbBlockBegin
  2
DC_GROUP_27
 70
     0
 10
0.0
 20
0.0
 30
0.0
  3
DC_GROUP_27
  1

  0
LINE
  5
216
330
117
100
AcDbEntity
  8
0
  6
CENTER
 62
     6
100
AcDbLine
 10
1263.112939559441
 20
-509.5741487946491
 30
0.0
 11
1263.112939559441
 21
-528.7741487946491
 31
0.0
  0
LINE
  5
217
330
117
100
AcDbEntity
  8
0
  6
CENTER
 62
     6
100
AcDbLine
 10
1272.712939559441
 20
-519.1741487946491
 30
0.0
 11
1253.512939559441
 21
-519.1741487946491
 31
0.0
  0
ARC
  5
218
330
117
100
AcDbEntity
  8
0
  6
CONTINUOUS
 62
     2
100
AcDbCircle
 10
1263.112939559441
 20
-519.1741487946491
 30
0.0
 40
8.0
100
AcDbArc
 50
91.50239473706618
 51
358.4976052628927
  0
ENDBLK
  5
119
330
117
100
AcDbEntity
  8
0
100
AcDbBlockEnd
  0
BLOCK
  5
11B
330
11A
100
AcDbEntity
  8
0
100
AcDbBlockBegin
  2
DC_GROUP_28
 70
     0
 10
0.0
 20
0.0
 30
0.0
  3
DC_GROUP_28
  1

  0
ARC
  5
219
330
11A
100
AcDbEntity
  8
0
  6
CONTINUOUS
 62
     2
100
AcDbCircle
 10
1273.109501859535
 20
-619.4363360947469
 30
0.0
 40
2.0
100
AcDbArc
 50
103.5851200184245
 51
178.4976052628925
  0
ARC
  5
21A
330
11A
100
AcDbEntity
  8
0
  6
CONTINUOUS
 62
     2
100
AcDbCircle
 10
1262.850752259351
 20
-609.1775864945546
 30
0.0
 40
2.0
100
AcDbArc
 50
271.502394737066
 51
346.4148799815344
  0
INSERT
  5
21B
330
11A
100
AcDbEntity
  8
0
  6
CONTINUOUS
100
AcDbBlockReference
  2
DC_GROUP_29
 10
0.0
 20
0.0
 30
0.0
  0
INSERT
  5
21C
330
11A
100
AcDbEntity
  8
0
  6
CONTINUOUS
100
AcDbBlockReference
  2
DC_GROUP_30
 10
0.0
 20
0.0
 30
0.0
  0
ENDBLK
  5
11C
330
11A
100
AcDbEntity
  8
0
100
AcDbBlockEnd
  0
BLOCK
  5
11E
330
11D
100
AcDbEntity
  8
0
100
AcDbBlockBegin
  2
DC_GROUP_29
 70
     0
 10
0.0
 20
0.0
 30
0.0
  3
DC_GROUP_29
  1

  0
LINE
  5
21D
330
11D
100
AcDbEntity
  8
0
  6
CENTER
 62
     6
100
AcDbLine
 10
1271.112939559444
 20
-603.3741487946518
 30
0.0
 11
1271.112939559444
 21
-618.9741487946517
 31
0.0
  0
LINE
  5
21E
330
11D
100
AcDbEntity
  8
0
  6
CENTER
 62
     6
100
AcDbLine
 10
1278.912939559444
 20
-611.1741487946517
 30
0.0
 11
1263.312939559444
 21
-611.1741487946517
 31
0.0
  0
ARC
  5
21F
330
11D
100
AcDbEntity
  8
0
  6
CONTINUOUS
 62
     2
100
AcDbCircle
 10
1271.112939559444
 20
-611.1741487946517
 30
0.0
 40
6.5
100
AcDbArc
 50
283.5851200184244
 51
166.4148799815342
  0
ENDBLK
  5
11F
330
11D
100
AcDbEntity
  8
0
100
AcDbBlockEnd
  0
BLOCK
  5
121
330
120
100
AcDbEntity
  8
0
100
AcDbBlockBegin
  2
DC_GROUP_30
 70
     0
 10
0.0
 20
0.0
 30
0.0
  3
DC_GROUP_30
  1

  0
LINE
  5
220
330
120
100
AcDbEntity
  8
0
  6
CENTER
 62
     6
100
AcDbLine
 10
1263.112939559441
 20
-609.5741487946492
 30
0.0
 11
1263.112939559441
 21
-628.7741487946491
 31
0.0
  0
LINE
  5
221
330
120
100
AcDbEntity
  8
0
  6
CENTER
 62
     6
100
AcDbLine
 10
1272.712939559441
 20
-619.1741487946491
 30
0.0
 11
1253.512939559441
 21
-619.1741487946491
 31
0.0
  0
ARC
  5
222
330
120
100
AcDbEntity
  8
0
  6
CONTINUOUS
 62
     2
100
AcDbCircle
 10
1263.112939559441
 20
-619.1741487946491
 30
0.0
 40
8.0
100
AcDbArc
 50
91.50239473706618
 51
358.4976052628927
  0
ENDBLK
  5
122
330
120
100
AcDbEntity
  8
0
100
AcDbBlockEnd
  0
BLOCK
  5
124
330
123
100
AcDbEntity
  8
0
100
AcDbBlockBegin
  2
DC_GROUP_31
 70
     0
 10
0.0
 20
0.0
 30
0.0
  3
DC_GROUP_31
  1

  0
LINE
  5
223
330
123
100
AcDbEntity
  8
LAYER0048
  6
CONTINUOUS
 62
     4
100
AcDbLine
 10
-794.7000025111374
 20
-1072.310004278562
 30
0.0
 11
-982.2501524390269
 21
-856.9613567073169
 31
0.0
  0
INSERT
  5
224
330
123
100
AcDbEntity
  8
LAYER0048
 62
     4
100
AcDbBlockReference
  2
_OPEN30
 10
-794.7000025111374
 20
-1072.310004278562
 30
0.0
 41
75.00007019038215
 42
74.99973420559108
 50
311.0530624576899
  0
LINE
  5
225
330
123
100
AcDbEntity
  8
LAYER0048
  6
CONTINUOUS
 62
     4
100
AcDbLine
 10
-982.2501524390269
 20
-856.9613567073169
 30
0.0
 11
-1802.250152439027
 21
-856.9613567073169
 31
0.0
  0
TEXT
  5
226
330
123
100
AcDbEntity
  8
LAYER0048
 62
     4
100
AcDbText
 10
-1777.250152439027
 20
-844.4613567073169
 30
0.0
 40
87.5
  1
M10ボルトの取付位置
 41
0.6474827027822759
  7
DCSTYLE0
 72
     5
 11
-1007.250152439027
 21
-844.4613567073169
 31
0.0
100
AcDbText
  0
ENDBLK
  5
125
330
123
100
AcDbEntity
  8
0
100
AcDbBlockEnd
  0
BLOCK
  5
127
330
126
100
AcDbEntity
  8
0
100
AcDbBlockBegin
  2
DC_GROUP_32
 70
     0
 10
0.0
 20
0.0
 30
0.0
  3
DC_GROUP_32
  1

  0
LINE
  5
227
330
126
100
AcDbEntity
  8
LAYER0048
  6
CONTINUOUS
 62
     4
100
AcDbLine
 10
-609.1327805240331
 20
-1279.798475331183
 30
0.0
 11
-454.3960365853683
 21
-1489.580411585366
 31
0.0
  0
INSERT
  5
228
330
126
100
AcDbEntity
  8
LAYER0048
 62
     4
100
AcDbBlockReference
  2
_OPEN30
 10
-609.1327805240331
 20
-1279.798475331183
 30
0.0
 41
75.00007019038215
 42
74.99973420559108
 50
126.4127663325929
  0
LINE
  5
229
330
126
100
AcDbEntity
  8
LAYER0048
  6
CONTINUOUS
 62
     4
100
AcDbLine
 10
-454.3960365853683
 20
-1489.580411585366
 30
0.0
 11
365.6039634146317
 21
-1489.580411585366
 31
0.0
  0
TEXT
  5
22A
330
126
100
AcDbEntity
  8
LAYER0048
 62
     4
100
AcDbText
 10
-429.3960365853683
 20
-1477.080411585366
 30
0.0
 40
87.5
  1
M12ボルトの取付位置
 41
0.6474827027822759
  7
DCSTYLE0
 72
     5
 11
340.6039634146317
 21
-1477.080411585366
 31
0.0
100
AcDbText
  0
ENDBLK
  5
128
330
126
100
AcDbEntity
  8
0
100
AcDbBlockEnd
  0
BLOCK
  5
12A
330
129
100
AcDbEntity
  8
0
100
AcDbBlockBegin
  2
*D39
 70
     1
 10
0.0
 20
0.0
 30
0.0
  3
*D39
  1

  0
LINE
  5
22B
330
129
100
AcDbEntity
  8
MAINS
  6
CONTINUOUS
 62
     4
100
AcDbLine
 10
-62.88706350207752
 20
-1005.582564271589
 30
0.0
 11
1271.112939559444
 21
-1005.582564271589
 31
0.0
  0
INSERT
  5
22C
330
129
100
AcDbEntity
  8
MAINS
 62
     4
100
AcDbBlockReference
  2
_OPEN30
 10
-62.88706350207752
 20
-1005.582564271589
 30
0.0
 41
75.00007019038215
 42
74.99973420559108
 50
180.0
  0
INSERT
  5
22D
330
129
100
AcDbEntity
  8
MAINS
 62
     4
100
AcDbBlockReference
  2
_OPEN30
 10
1271.112939559444
 20
-1005.582564271589
 30
0.0
 41
75.00007019038215
 42
74.99973420559108
 50
360.0
  0
LINE
  5
22E
330
129
100
AcDbEntity
  8
MAINS
  6
CONTINUOUS
 62
     4
100
AcDbLine
 10
-62.88706350207752
 20
-628.3741487946518
 30
0.0
 11
-62.88706350207752
 21
-1030.582564271589
 31
0.0
  0
LINE
  5
22F
330
129
100
AcDbEntity
  8
MAINS
  6
CONTINUOUS
 62
     4
100
AcDbLine
 10
1271.112939559444
 20
-628.3741487946518
 30
0.0
 11
1271.112939559444
 21
-1030.582564271589
 31
0.0
  0
TEXT
  5
230
330
129
100
AcDbEntity
  8
MAINS
 62
     4
100
AcDbText
 10
334.1129380286834
 20
-980.5825642715888
 30
0.0
 40
75.0
  1
1319～1465
 41
0.9899999999999999
  7
DCSTYLE0
 72
     5
 11
874.1129380286834
 21
-980.5825642715888
 31
0.0
100
AcDbText
  0
ENDBLK
  5
12B
330
129
100
AcDbEntity
  8
0
100
AcDbBlockEnd
  0
BLOCK
  5
171
330
170
100
AcDbEntity
  8
0
100
AcDbBlockBegin
  2
_OPEN30
 70
     0
 10
0.0
 20
0.0
 30
0.0
  3
_OPEN30
  1

  0
LINE
  5
173
330
170
100
AcDbEntity
  8
0
  6
BYBLOCK
 62
     0
100
AcDbLine
 10
-1.0
 20
0.267949
 30
0.0
 11
0.0
 21
0.0
 31
0.0
  0
LINE
  5
174
330
170
100
AcDbEntity
  8
0
  6
BYBLOCK
 62
     0
100
AcDbLine
 10
0.0
 20
0.0
 30
0.0
 11
-1.0
 21
-0.267949
 31
0.0
  0
LINE
  5
175
330
170
100
AcDbEntity
  8
0
  6
BYBLOCK
 62
     0
100
AcDbLine
 10
0.0
 20
0.0
 30
0.0
 11
-1.0
 21
0.0
 31
0.0
  0
ENDBLK
  5
172
330
170
100
AcDbEntity
  8
0
100
AcDbBlockEnd
  0
BLOCK
  5
17B
330
17A
100
AcDbEntity
  8
0
100
AcDbBlockBegin
  2
_DOT
 70
     0
 10
0.0
 20
0.0
 30
0.0
  3
_DOT
  1

  0
POLYLINE
  5
17D
330
17A
100
AcDbEntity
  8
0
  6
BYBLOCK
 62
     0
100
AcDb2dPolyline
 66
     1
 10
0.0
 20
0.0
 30
0.0
 70
     1
 40
0.5
 41
0.5
  0
VERTEX
  5
5EB
330
17D
100
AcDbEntity
  8
0
  6
BYBLOCK
 62
     0
100
AcDbVertex
100
AcDb2dVertex
 10
-0.25
 20
0.0
 30
0.0
 42
1.0
  0
VERTEX
  5
5EC
330
17D
100
AcDbEntity
  8
0
  6
BYBLOCK
 62
     0
100
AcDbVertex
100
AcDb2dVertex
 10
0.25
 20
0.0
 30
0.0
 42
1.0
  0
SEQEND
  5
5F6
330
17D
100
AcDbEntity
  8
0
  6
BYBLOCK
 62
     0
  0
LINE
  5
17E
330
17A
100
AcDbEntity
  8
0
  6
BYBLOCK
 62
     0
100
AcDbLine
 10
-0.5
 20
0.0
 30
0.0
 11
-1.0
 21
0.0
 31
0.0
  0
ENDBLK
  5
17C
330
17A
100
AcDbEntity
  8
0
100
AcDbBlockEnd
  0
ENDSEC
  0
SECTION
  2
ENTITIES
  0
LINE
  5
231
330
1F
100
AcDbEntity
  8
LAYER0048
  6
CONTINUOUS
 62
     7
100
AcDbLine
 10
-3212.500000000004
 20
2454.999999999999
 30
0.0
 11
3212.499999999996
 21
2455.0
 31
0.0
  0
LINE
  5
232
330
1F
100
AcDbEntity
  8
LAYER0048
  6
CONTINUOUS
 62
     7
100
AcDbLine
 10
3212.499999999996
 20
2455.0
 30
0.0
 11
3212.499999999996
 21
-2320.000000000002
 31
0.0
  0
LINE
  5
233
330
1F
100
AcDbEntity
  8
LAYER0048
  6
CONTINUOUS
 62
     7
100
AcDbLine
 10
-3212.500000000004
 20
-2320.000000000002
 30
0.0
 11
-3212.500000000004
 21
2455.0
 31
0.0
  0
LINE
  5
234
330
1F
100
AcDbEntity
  8
LAYER0048
  6
CONTINUOUS
 62
     7
100
AcDbLine
 10
-2807.123311297832
 20
860.5764354901848
 30
0.0
 11
-970.6917315879871
 21
860.5764354901863
 31
0.0
  0
LINE
  5
235
330
1F
100
AcDbEntity
  8
LAYER0048
  6
CONTINUOUS
 62
     7
100
AcDbLine
 10
-970.6917315879871
 20
1273.514482680686
 30
0.0
 11
-970.6917315879871
 21
-222.0697645074353
 31
0.0
  0
LINE
  5
236
330
1F
100
AcDbEntity
  8
LAYER0048
  6
CONTINUOUS
 62
     7
100
AcDbLine
 10
-970.6917315879871
 20
-222.0697645074353
 30
0.0
 11
-2807.123311297832
 21
-222.0697645074353
 31
0.0
  0
LINE
  5
237
330
1F
100
AcDbEntity
  8
LAYER0048
  6
CONTINUOUS
 62
     7
100
AcDbLine
 10
-2807.123311297832
 20
-222.0697645074353
 30
0.0
 11
-2807.123311297832
 21
1273.514482680684
 31
0.0
  0
LINE
  5
238
330
1F
100
AcDbEntity
  8
LAYER0048
  6
CONTINUOUS
 62
     7
100
AcDbLine
 10
-2257.123311297832
 20
-222.0697645074353
 30
0.0
 11
-2257.123311297832
 21
1273.514482680684
 31
0.0
  0
LINE
  5
239
330
1F
100
AcDbEntity
  8
LAYER0048
  6
CONTINUOUS
 62
     7
100
AcDbLine
 10
-2807.123311297832
 20
1273.514482680684
 30
0.0
 11
-970.6917315879871
 21
1273.514482680686
 31
0.0
  0
LINE
  5
23A
330
1F
100
AcDbEntity
  8
LAYER0048
  6
CONTINUOUS
 62
     7
100
AcDbLine
 10
-2807.123311297832
 20
244.7742932998972
 30
0.0
 11
-970.6917315879871
 21
244.7742932998986
 31
0.0
  0
LINE
  5
23B
330
1F
100
AcDbEntity
  8
LAYER0048
  6
CONTINUOUS
 62
     7
100
AcDbLine
 10
3212.499999999996
 20
-2320.000000000002
 30
0.0
 11
-3212.500000000004
 21
-2320.000000000002
 31
0.0
  0
LINE
  5
23C
330
1F
100
AcDbEntity
  8
LAYER0048
  6
CONTINUOUS
 62
     7
100
AcDbLine
 10
-2910.543171483707
 20
-1973.32999252974
 30
0.0
 11
-2904.935057828791
 21
-1967.721878874823
 31
0.0
  0
LINE
  5
23D
330
1F
100
AcDbEntity
  8
LAYER0048
  6
CONTINUOUS
 62
     7
100
AcDbLine
 10
-2912.953645633345
 20
-1977.154680241752
 30
0.0
 11
-2901.11037011678
 21
-1965.311404725187
 31
0.0
  0
LINE
  5
23E
330
1F
100
AcDbEntity
  8
LAYER0048
  6
CONTINUOUS
 62
     7
100
AcDbLine
 10
-2914.153508189525
 20
-1979.768756360304
 30
0.0
 11
-2898.49629399823
 21
-1964.111542169009
 31
0.0
  0
LINE
  5
23F
330
1F
100
AcDbEntity
  8
LAYER0048
  6
CONTINUOUS
 62
     7
100
AcDbLine
 10
-2914.919749240855
 20
-1981.949210974007
 30
0.0
 11
-2896.315839384526
 21
-1963.345301117678
 31
0.0
  0
LINE
  5
240
330
1F
100
AcDbEntity
  8
LAYER0048
  6
CONTINUOUS
 62
     7
100
AcDbLine
 10
-2915.433749867104
 20
-1983.87742516263
 30
0.0
 11
-2894.387625195903
 21
-1962.831300491429
 31
0.0
  0
LINE
  5
241
330
1F
100
AcDbEntity
  8
LAYER0048
  6
CONTINUOUS
 62
     7
100
AcDbLine
 10
-2915.776932164604
 20
-1985.634821022503
 30
0.0
 11
-2892.630229336031
 21
-1962.488118193929
 31
0.0
  0
LINE
  5
242
330
1F
100
AcDbEntity
  8
LAYER0048
  6
CONTINUOUS
 62
     7
100
AcDbLine
 10
-2915.99313531552
 20
-1987.265237735792
 30
0.0
 11
-2890.999812622741
 21
-1962.271915043013
 31
0.0
  0
LINE
  5
243
330
1F
100
AcDbEntity
  8
LAYER0048
  6
CONTINUOUS
 62
     7
100
AcDbLine
 10
-2916.107556441969
 20
-1988.793872424615
 30
0.0
 11
-2889.47117793392
 21
-1962.157493916565
 31
0.0
  0
LINE
  5
244
330
1F
100
AcDbEntity
  8
LAYER0048
  6
CONTINUOUS
 62
     7
100
AcDbLine
 10
-2916.139065832768
 20
-1990.239595377785
 30
0.0
 11
-2888.025454980746
 21
-1962.125984525763
 31
0.0
  0
LINE
  5
245
330
1F
100
AcDbEntity
  8
LAYER0048
  6
CONTINUOUS
 62
     7
100
AcDbLine
 10
-2916.100191835904
 20
-1991.614934943295
 30
0.0
 11
-2886.650115415239
 21
-1962.16485852263
 31
0.0
  0
LINE
  5
246
330
1F
100
AcDbEntity
  8
LAYER0048
  6
CONTINUOUS
 62
     7
100
AcDbLine
 10
-2915.998637006774
 20
-1992.927593676536
 30
0.0
 11
-2885.337456681994
 21
-1962.266413351759
 31
0.0
  0
LINE
  5
247
330
1F
100
AcDbEntity
  8
LAYER0048
  6
CONTINUOUS
 62
     7
100
AcDbLine
 10
-2915.843009842682
 20
-1994.186180074819
 30
0.0
 11
-2884.078870283716
 21
-1962.422040515853
 31
0.0
  0
LINE
  5
248
330
1F
100
AcDbEntity
  8
LAYER0048
  6
CONTINUOUS
 62
     7
100
AcDbLine
 10
-2915.638859126975
 20
-1995.396242921485
 30
0.0
 11
-2882.86880743705
 21
-1962.62619123156
 31
0.0
  0
LINE
  5
249
330
1F
100
AcDbEntity
  8
LAYER0048
  6
CONTINUOUS
 62
     7
100
AcDbLine
 10
-2915.389436272557
 20
-1996.56103362944
 30
0.0
 11
-2881.704016729092
 21
-1962.875614085976
 31
0.0
  0
LINE
  5
24A
330
1F
100
AcDbEntity
  8
LAYER0048
  6
CONTINUOUS
 62
     7
100
AcDbLine
 10
-2915.099169232891
 20
-1997.684980152149
 30
0.0
 11
-2880.580070206385
 21
-1963.165881125641
 31
0.0
  0
LINE
  5
24B
330
1F
100
AcDbEntity
  8
LAYER0048
  6
CONTINUOUS
 62
     7
100
AcDbLine
 10
-2914.771515206226
 20
-1998.771539687855
 30
0.0
 11
-2879.493510670678
 21
-1963.493535152308
 31
0.0
  0
LINE
  5
24C
330
1F
100
AcDbEntity
  8
LAYER0048
  6
CONTINUOUS
 62
     7
100
AcDbLine
 10
-2914.406788384637
 20
-1999.82102642864
 30
0.0
 11
-2878.444023929893
 21
-1963.858261973897
 31
0.0
  0
LINE
  5
24D
330
1F
100
AcDbEntity
  8
LAYER0048
  6
CONTINUOUS
 62
     7
100
AcDbLine
 10
-2914.008748557916
 20
-2000.837200164292
 30
0.0
 11
-2877.427850194241
 21
-1964.256301800616
 31
0.0
  0
LINE
  5
24E
330
1F
100
AcDbEntity
  8
LAYER0048
  6
CONTINUOUS
 62
     7
100
AcDbLine
 10
-2913.578965767594
 20
-2001.821630936344
 30
0.0
 11
-2876.44341942219
 21
-1964.686084590939
 31
0.0
  0
LINE
  5
24F
330
1F
100
AcDbEntity
  8
LAYER0048
  6
CONTINUOUS
 62
     7
100
AcDbLine
 10
-2913.118721207748
 20
-2002.775599938871
 30
0.0
 11
-2875.489450419662
 21
-1965.146329150785
 31
0.0
  0
LINE
  5
250
330
1F
100
AcDbEntity
  8
LAYER0048
  6
CONTINUOUS
 62
     7
100
AcDbLine
 10
-2912.629108369676
 20
-2003.700200663171
 30
0.0
 11
-2874.564849695362
 21
-1965.635941988857
 31
0.0
  0
LINE
  5
251
330
1F
100
AcDbEntity
  8
LAYER0048
  6
CONTINUOUS
 62
     7
100
AcDbLine
 10
-2912.110351365614
 20
-2004.595657221481
 30
0.0
 11
-2873.669393137052
 21
-1966.154698992919
 31
0.0
  0
LINE
  5
252
330
1F
100
AcDbEntity
  8
LAYER0048
  6
CONTINUOUS
 62
     7
100
AcDbLine
 10
-2911.564102894944
 20
-2005.463622313184
 30
0.0
 11
-2872.801428045348
 21
-1966.700947463588
 31
0.0
  0
LINE
  5
253
330
1F
100
AcDbEntity
  8
LAYER0048
  6
CONTINUOUS
 62
     7
100
AcDbLine
 10
-2910.991004320669
 20
-2006.304737301282
 30
0.0
 11
-2871.960313057251
 21
-1967.274046037865
 31
0.0
  0
LINE
  5
254
330
1F
100
AcDbEntity
  8
LAYER0048
  6
CONTINUOUS
 62
     7
100
AcDbLine
 10
-2910.391579363114
 20
-2007.119525906101
 30
0.0
 11
-2871.145524452432
 21
-1967.873470995419
 31
0.0
  0
LINE
  5
255
330
1F
100
AcDbEntity
  8
LAYER0048
  6
CONTINUOUS
 62
     7
100
AcDbLine
 10
-2909.766242065707
 20
-2007.908402171068
 30
0.0
 11
-2870.356648187467
 21
-1968.498808292826
 31
0.0
  0
LINE
  5
256
330
1F
100
AcDbEntity
  8
LAYER0048
  6
CONTINUOUS
 62
     7
100
AcDbLine
 10
-2909.115302964589
 20
-2008.671676632323
 30
0.0
 11
-2869.593373726212
 21
-1969.149747393945
 31
0.0
  0
LINE
  5
257
330
1F
100
AcDbEntity
  8
LAYER0048
  6
CONTINUOUS
 62
     7
100
AcDbLine
 10
-2908.438973642252
 20
-2009.409560872358
 30
0.0
 11
-2868.855489486176
 21
-1969.826076716281
 31
0.0
  0
LINE
  5
258
330
1F
100
AcDbEntity
  8
LAYER0048
  6
CONTINUOUS
 62
     7
100
AcDbLine
 10
-2907.737369795436
 20
-2010.122170587916
 30
0.0
 11
-2868.142879770616
 21
-1970.527680563097
 31
0.0
  0
LINE
  5
259
330
1F
100
AcDbEntity
  8
LAYER0048
  6
CONTINUOUS
 62
     7
100
AcDbLine
 10
-2907.010512903788
 20
-2010.80952725864
 30
0.0
 11
-2867.455523099893
 21
-1971.254537454745
 31
0.0
  0
LINE
  5
25A
330
1F
100
AcDbEntity
  8
LAYER0048
  6
CONTINUOUS
 62
     7
100
AcDbLine
 10
-2906.258330545861
 20
-2011.471558463085
 30
0.0
 11
-2866.793491895447
 21
-1972.006719812672
 31
0.0
  0
LINE
  5
25B
330
1F
100
AcDbEntity
  8
LAYER0048
  6
CONTINUOUS
 62
     7
100
AcDbLine
 10
-2905.480655371437
 20
-2012.108096851035
 30
0.0
 11
-2866.156953507498
 21
-1972.784394987097
 31
0.0
  0
LINE
  5
25C
330
1F
100
AcDbEntity
  8
LAYER0048
  6
CONTINUOUS
 62
     7
100
AcDbLine
 10
-2904.677222701665
 20
-2012.718877743635
 30
0.0
 11
-2865.546172614896
 21
-1973.587827656868
 31
0.0
  0
LINE
  5
25D
330
1F
100
AcDbEntity
  8
LAYER0048
  6
CONTINUOUS
 62
     7
100
AcDbLine
 10
-2903.847666690049
 20
-2013.303535294394
 30
0.0
 11
-2864.961515064139
 21
-1974.417383668484
 31
0.0
  0
LINE
  5
25E
330
1F
100
AcDbEntity
  8
LAYER0048
  6
CONTINUOUS
 62
     7
100
AcDbLine
 10
-2902.991514935595
 20
-2013.861597102313
 30
0.0
 11
-2864.40345325622
 21
-1975.273535422937
 31
0.0
  0
LINE
  5
25F
330
1F
100
AcDbEntity
  8
LAYER0048
  6
CONTINUOUS
 62
     7
100
AcDbLine
 10
-2902.107707488243
 20
-2014.392003217334
 30
0.0
 11
-2863.8730471412
 21
-1976.157342870291
 31
0.0
  0
LINE
  5
260
330
1F
100
AcDbEntity
  8
LAYER0048
  6
CONTINUOUS
 62
     7
100
AcDbLine
 10
-2901.195657067549
 20
-2014.894166359012
 30
0.0
 11
-2863.37088399952
 21
-1977.069393290984
 31
0.0
  0
LINE
  5
261
330
1F
100
AcDbEntity
  8
LAYER0048
  6
CONTINUOUS
 62
     7
100
AcDbLine
 10
-2900.254696950507
 20
-2015.367419804343
 30
0.0
 11
-2862.897630554189
 21
-1978.010353408025
 31
0.0
  0
LINE
  5
262
330
1F
100
AcDbEntity
  8
LAYER0048
  6
CONTINUOUS
 62
     7
100
AcDbLine
 10
-2899.283801962035
 20
-2015.810738378246
 30
0.0
 11
-2862.454311980288
 21
-1978.981248396499
 31
0.0
  0
LINE
  5
263
330
1F
100
AcDbEntity
  8
LAYER0048
  6
CONTINUOUS
 62
     7
100
AcDbLine
 10
-2898.281777004174
 20
-2016.222926982757
 30
0.0
 11
-2862.042123375775
 21
-1979.983273354359
 31
0.0
  0
LINE
  5
264
330
1F
100
AcDbEntity
  8
LAYER0048
  6
CONTINUOUS
 62
     7
100
AcDbLine
 10
-2897.247107660086
 20
-2016.602471201043
 30
0.0
 11
-2861.662579157491
 21
-1981.017942698448
 31
0.0
  0
LINE
  5
265
330
1F
100
AcDbEntity
  8
LAYER0048
  6
CONTINUOUS
 62
     7
100
AcDbLine
 10
-2896.176395577141
 20
-2016.94597268047
 30
0.0
 11
-2861.319077678063
 21
-1982.088654781393
 31
0.0
  0
LINE
  5
266
330
1F
100
AcDbEntity
  8
LAYER0048
  6
CONTINUOUS
 62
     7
100
AcDbLine
 10
-2895.069283651835
 20
-2017.253074317539
 30
0.0
 11
-2861.011976040996
 21
-1983.195766706698
 31
0.0
  0
LINE
  5
267
330
1F
100
AcDbEntity
  8
LAYER0048
  6
CONTINUOUS
 62
     7
100
AcDbLine
 10
-2893.922970778131
 20
-2017.520975006207
 30
0.0
 11
-2860.744075352326
 21
-1984.342079580402
 31
0.0
  0
LINE
  5
268
330
1F
100
AcDbEntity
  8
LAYER0048
  6
CONTINUOUS
 62
     7
100
AcDbLine
 10
-2892.732515793557
 20
-2017.744733584005
 30
0.0
 11
-2860.520316774526
 21
-1985.532534564975
 31
0.0
  0
LINE
  5
269
330
1F
100
AcDbEntity
  8
LAYER0048
  6
CONTINUOUS
 62
     7
100
AcDbLine
 10
-2891.496244235502
 20
-2017.922675588324
 30
0.0
 11
-2860.342374770207
 21
-1986.76880612303
 31
0.0
  0
LINE
  5
26A
330
1F
100
AcDbEntity
  8
LAYER0048
  6
CONTINUOUS
 62
     7
100
AcDbLine
 10
-2890.207167136283
 20
-2018.047812051477
 30
0.0
 11
-2860.217238307055
 21
-1988.05788322225
 31
0.0
  0
LINE
  5
26B
330
1F
100
AcDbEntity
  8
LAYER0048
  6
CONTINUOUS
 62
     7
100
AcDbLine
 10
-2888.859810354335
 20
-2018.114668831902
 30
0.0
 11
-2860.150381526629
 21
-1989.405240004198
 31
0.0
  0
LINE
  5
26C
330
1F
100
AcDbEntity
  8
LAYER0048
  6
CONTINUOUS
 62
     7
100
AcDbLine
 10
-2887.446276440711
 20
-2018.115348480652
 30
0.0
 11
-2860.149701877881
 21
-1990.818773917822
 31
0.0
  0
LINE
  5
26D
330
1F
100
AcDbEntity
  8
LAYER0048
  6
CONTINUOUS
 62
     7
100
AcDbLine
 10
-2885.955263116303
 20
-2018.038548718617
 30
0.0
 11
-2860.226501639916
 21
-1992.309787242232
 31
0.0
  0
LINE
  5
26E
330
1F
100
AcDbEntity
  8
LAYER0048
  6
CONTINUOUS
 62
     7
100
AcDbLine
 10
-2884.371937126745
 20
-2017.869436291433
 30
0.0
 11
-2860.395614067099
 21
-1993.893113231788
 31
0.0
  0
LINE
  5
26F
330
1F
100
AcDbEntity
  8
LAYER0048
  6
CONTINUOUS
 62
     7
100
AcDbLine
 10
-2882.673653310928
 20
-2017.585366037989
 30
0.0
 11
-2860.679684320544
 21
-1995.591397047605
 31
0.0
  0
LINE
  5
270
330
1F
100
AcDbEntity
  8
LAYER0048
  6
CONTINUOUS
 62
     7
100
AcDbLine
 10
-2880.826503148983
 20
-2017.152429438417
 30
0.0
 11
-2861.112620920115
 21
-1997.438547209549
 31
0.0
  0
LINE
  5
271
330
1F
100
AcDbEntity
  8
LAYER0048
  6
CONTINUOUS
 62
     7
100
AcDbLine
 10
-2878.769013181323
 20
-2016.50915303313
 30
0.0
 11
-2861.755897325404
 21
-1999.496037177211
 31
0.0
  0
LINE
  5
272
330
1F
100
AcDbEntity
  8
LAYER0048
  6
CONTINUOUS
 62
     7
100
AcDbLine
 10
-2876.381155226936
 20
-2015.535508641114
 30
0.0
 11
-2862.729541717419
 21
-2001.883895131598
 31
0.0
  0
LINE
  5
273
330
1F
100
AcDbEntity
  8
LAYER0048
  6
CONTINUOUS
 62
     7
100
AcDbLine
 10
-2873.300776512679
 20
-2013.869343489231
 30
0.0
 11
-2864.395706869303
 21
-2004.964273845855
 31
0.0
  0
LINE
  5
274
330
1F
100
AcDbEntity
  8
LAYER0048
  6
CONTINUOUS
 62
     7
100
AcDbLine
 10
-2910.579244077847
 20
-1969.027039206254
 30
0.0
 11
-2930.140066028228
 21
-1912.624984330306
 31
0.0
  0
LINE
  5
275
330
1F
100
AcDbEntity
  8
LAYER0048
  6
CONTINUOUS
 62
     7
100
AcDbLine
 10
-2910.579244077847
 20
-2011.222929454355
 30
0.0
 11
-2930.140066028227
 21
-2060.124984330305
 31
0.0
  0
LINE
  5
276
330
1F
100
AcDbEntity
  8
LAYER0048
  6
CONTINUOUS
 62
     7
100
AcDbLine
 10
-2846.140066028227
 20
-2060.124984330305
 30
0.0
 11
-2865.700887978605
 21
-2011.222929454355
 31
0.0
  0
LINE
  5
277
330
1F
100
AcDbEntity
  8
LAYER0048
  6
CONTINUOUS
 62
     7
100
AcDbLine
 10
-2846.140066028229
 20
-1912.624984330306
 30
0.0
 11
-2865.700887978605
 21
-1969.027039206254
 31
0.0
  0
LINE
  5
278
330
1F
100
AcDbEntity
  8
LAYER0048
  6
CONTINUOUS
 62
     7
100
AcDbLine
 10
-2930.140066028227
 20
-2060.124984330305
 30
0.0
 11
-2958.140066028228
 21
-1990.124984330306
 31
0.0
  0
LINE
  5
279
330
1F
100
AcDbEntity
  8
LAYER0048
  6
CONTINUOUS
 62
     7
100
AcDbLine
 10
-2930.140066028228
 20
-1912.624984330306
 30
0.0
 11
-2958.140066028228
 21
-1990.124984330306
 31
0.0
  0
LINE
  5
27A
330
1F
100
AcDbEntity
  8
LAYER0048
  6
CONTINUOUS
 62
     7
100
AcDbLine
 10
-2818.140066028227
 20
-1990.124984330306
 30
0.0
 11
-2846.140066028227
 21
-2060.124984330305
 31
0.0
  0
LINE
  5
27B
330
1F
100
AcDbEntity
  8
LAYER0048
  6
CONTINUOUS
 62
     7
100
AcDbLine
 10
-2818.140066028227
 20
-1990.124984330306
 30
0.0
 11
-2846.140066028229
 21
-1912.624984330306
 31
0.0
  0
ARC
  5
27C
330
1F
100
AcDbEntity
  8
LAYER0048
  6
CONTINUOUS
 62
     7
100
AcDbCircle
 10
-2888.140066028227
 20
-1990.124984330306
 30
0.0
 40
30.79999999999886
100
AcDbArc
 50
223.2354670295921
 51
316.7645329704119
  0
ARC
  5
27D
330
1F
100
AcDbEntity
  8
LAYER0048
  6
CONTINUOUS
 62
     7
100
AcDbCircle
 10
-2888.140066028227
 20
-1990.124984330306
 30
0.0
 40
30.80000000000177
100
AcDbArc
 50
43.23546702959138
 51
136.7645329704061
  0
CIRCLE
  5
27E
330
1F
100
AcDbEntity
  8
LAYER0048
  6
CONTINUOUS
 62
     7
100
AcDbCircle
 10
-2888.140066028227
 20
-1990.124984330306
 30
0.0
 40
28.0
  0
LINE
  5
27F
330
1F
100
AcDbEntity
  8
LAYER0048
  6
CONTINUOUS
 62
     7
100
AcDbLine
 10
-2245.702654700004
 20
2258.500761796448
 30
0.0
 11
-2245.702654700004
 21
1898.501481796449
 31
0.0
  0
LINE
  5
280
330
1F
100
AcDbEntity
  8
LAYER0048
  6
CONTINUOUS
 62
     7
100
AcDbLine
 10
2245.702654699997
 20
2258.500761796448
 30
0.0
 11
-2245.702654700004
 21
2258.500761796448
 31
0.0
  0
LINE
  5
281
330
1F
100
AcDbEntity
  8
LAYER0048
  6
CONTINUOUS
 62
     7
100
AcDbLine
 10
2245.702654699997
 20
1898.501481796449
 30
0.0
 11
2245.702654699997
 21
2258.500761796448
 31
0.0
  0
LINE
  5
282
330
1F
100
AcDbEntity
  8
LAYER0048
  6
CONTINUOUS
 62
     7
100
AcDbLine
 10
-2245.702654700004
 20
1898.501481796449
 30
0.0
 11
2245.702654699997
 21
1898.501481796449
 31
0.0
  0
TEXT
  5
283
330
1F
100
AcDbEntity
  8
LAYER0048
 62
     4
100
AcDbText
 10
-2757.123311297832
 20
681.9837488707076
 30
0.0
 40
87.5
  1
ルーフ材質
 41
0.7419437972908892
  7
DCSTYLE0
 72
     5
 11
-2307.123311297832
 21
681.9837488707076
 31
0.0
100
AcDbText
  0
TEXT
  5
284
330
1F
100
AcDbEntity
  8
LAYER0048
 62
     4
100
AcDbText
 10
-2757.123311297832
 20
561.983748870708
 30
0.0
 40
87.5
  1
ルーフ板厚
 41
0.7419437972908892
  7
DCSTYLE0
 72
     5
 11
-2307.123311297832
 21
561.983748870708
 31
0.0
100
AcDbText
  0
TEXT
  5
285
330
1F
100
AcDbEntity
  8
LAYER0048
 62
     4
100
AcDbText
 10
-2747.123311297832
 20
446.983748870707
 30
0.0
 40
87.5
  1
支柱材質
 41
0.8446428571428571
  7
DCSTYLE0
 72
     5
 11
-2317.123311297832
 21
446.983748870707
 31
0.0
100
AcDbText
  0
TEXT
  5
286
330
1F
100
AcDbEntity
  8
LAYER0048
 62
     4
100
AcDbText
 10
-2747.123311297832
 20
326.9837488707063
 30
0.0
 40
87.5
  1
支柱板厚
 41
0.8446428571428571
  7
DCSTYLE0
 72
     5
 11
-2317.123311297832
 21
326.9837488707063
 31
0.0
100
AcDbText
  0
TEXT
  5
287
330
1F
100
AcDbEntity
  8
LAYER0048
 62
     4
100
AcDbText
 10
-2747.123311297832
 20
-166.1292905578408
 30
0.0
 40
87.5
  1
完成重量
 41
0.8446428571428571
  7
DCSTYLE0
 72
     5
 11
-2317.123311297832
 21
-166.1292905578408
 31
0.0
100
AcDbText
  0
TEXT
  5
288
330
1F
100
AcDbEntity
  8
LAYER0048
 62
     4
100
AcDbText
 10
-2158.079242815396
 20
681.9837488707069
 30
0.0
 40
87.5
  1
亜鉛メッキ鋼板
 41
0.7288708985631568
  7
DCSTYLE0
 72
     5
 11
-1563.079242815396
 21
681.9837488707069
 31
0.0
100
AcDbText
  0
TEXT
  5
289
330
1F
100
AcDbEntity
  8
LAYER0048
 62
     4
100
AcDbText
 10
-2155.734757305396
 20
561.9837488707074
 30
0.0
 40
87.5
  1
１．０ｍｍ
 41
0.8447535211267604
  7
DCSTYLE0
 72
     5
 11
-1735.734757305396
 21
561.9837488707074
 31
0.0
100
AcDbText
  0
TEXT
  5
28A
330
1F
100
AcDbEntity
  8
LAYER0048
 62
     4
100
AcDbText
 10
-2157.699326185397
 20
446.983748870707
 30
0.0
 40
87.5
  1
溶融亜鉛メッキ鋼板
 41
0.7190371096942946
  7
DCSTYLE0
 72
     5
 11
-1387.699326185397
 21
446.983748870707
 31
0.0
100
AcDbText
  0
TEXT
  5
28B
330
1F
100
AcDbEntity
  8
LAYER0048
 62
     4
100
AcDbText
 10
-2155.734757305396
 20
326.9837488707063
 30
0.0
 40
87.5
  1
３．２ｍｍ
 41
0.8447535211267604
  7
DCSTYLE0
 72
     5
 11
-1735.734757305396
 21
326.9837488707063
 31
0.0
100
AcDbText
  0
TEXT
  5
28C
330
1F
100
AcDbEntity
  8
LAYER0048
 62
     4
100
AcDbText
 10
-2157.784307535396
 20
-166.1292905578407
 30
0.0
 40
87.5
  1
約１7ｋｇ
 41
0.9834392293502766
  7
DCSTYLE0
 72
     5
 11
-1737.784307535396
 21
-166.1292905578407
 31
0.0
100
AcDbText
  0
TEXT
  5
28D
330
1F
100
AcDbEntity
  8
LAYER0048
 62
     4
100
AcDbText
 10
-2749.623311297832
 20
-39.13091272445853
 30
0.0
 40
87.5
  1
塗装色
 41
1.139285714285714
  7
DCSTYLE0
 72
     5
 11
-2314.623311297832
 21
-39.13091272445853
 31
0.0
100
AcDbText
  0
TEXT
  5
28E
330
1F
100
AcDbEntity
  8
LAYER0048
 62
     4
100
AcDbText
 10
-2155.734757305396
 20
-39.13091272445853
 30
0.0
 40
87.5
  1
ライトベージュ21
 41
0.8771263336324658
  7
DCSTYLE0
 72
     5
 11
-1385.734757305396
 21
-39.13091272445853
 31
0.0
100
AcDbText
  0
TEXT
  5
28F
330
1F
100
AcDbEntity
  8
LAYER0048
 62
     4
100
AcDbText
 10
-2749.623311297832
 20
87.86908727554143
 30
0.0
 40
87.5
  1
塗　装
 41
1.282799247732133
  7
DCSTYLE0
 72
     5
 11
-2314.623311297832
 21
87.86908727554143
 31
0.0
100
AcDbText
  0
TEXT
  5
290
330
1F
100
AcDbEntity
  8
LAYER0048
 62
     4
100
AcDbText
 10
-2155.734757305396
 20
87.86908727554143
 30
0.0
 40
87.5
  1
ポリエステル樹脂静電粉体塗装
 41
0.6707562787692806
  7
DCSTYLE0
 72
     5
 11
-1013.234757305396
 21
87.86908727554143
 31
0.0
100
AcDbText
  0
TEXT
  5
291
330
1F
100
AcDbEntity
  8
LAYER0048
 62
     4
100
AcDbText
 10
-1052.023298577111
 20
-2180.928157309844
 30
0.0
 40
78.26784471685188
  1
　
 41
0.8169540699575024
  7
DCSTYLE0
 72
     5
 11
-990.2328948532802
 21
-2180.928157309844
 31
0.0
100
AcDbText
  0
TEXT
  5
292
330
1F
100
AcDbEntity
  8
LAYER0048
 62
     2
100
AcDbText
 10
-2101.407521442909
 20
1004.545459085435
 30
0.0
 40
125.0
  1
490P-72B
 41
1.260642683912692
  7
DCSTYLE0
 72
     5
 11
-1126.407521442909
 21
1004.545459085435
 31
0.0
100
AcDbText
  0
TEXT
  5
293
330
1F
100
AcDbEntity
  8
LAYER0048
 62
     2
100
AcDbText
 10
-2698.660619720463
 20
1000.960193508465
 30
0.0
 40
125.0
  1
型　式
 41
0.7224961280330408
  7
DCSTYLE0
 72
     5
 11
-2348.660619720463
 21
1000.960193508465
 31
0.0
100
AcDbText
  0
TEXT
  5
294
330
1F
100
AcDbEntity
  8
LAYER0048
 62
     2
100
AcDbText
 10
971.1526576019746
 20
-1387.345488257108
 30
0.0
 40
125.0
  1
※高さ寸法はルーフの角度により異なります。
 41
0.600117924528302
  7
DCSTYLE0
 72
     5
 11
3071.152657601975
 21
-1387.345488257108
 31
0.0
100
AcDbText
  0
TEXT
  5
296
330
1F
100
AcDbEntity
  8
LAYER0048
 62
     2
100
AcDbText
 10
2052.499999999996
 20
-2450.000000000002
 30
0.0
 40
100.0
  1
96472-58005-03
 41
1.230307692307692
  7
DCSTYLE1
 72
     5
 11
3172.499999999996
 21
-2450.000000000002
 31
0.0
100
AcDbText
  0
TEXT
  5
298
330
1F
100
AcDbEntity
  8
LAYER0048
 62
     2
100
AcDbText
 10
656.3382167703311
 20
1954.993192741954
 30
0.0
 40
175.0
  1
（片屋根）
 41
0.7413793103448277
  7
DCSTYLE3
 72
     5
 11
1193.838216770331
 21
1954.993192741954
 31
0.0
100
AcDbText
  0
LINE
  5
299
330
1F
100
AcDbEntity
  8
LAYER0016
  6
CONTINUOUS
 62
     2
100
AcDbLine
 10
-195.8870619713169
 20
82.8284408923945
 30
0.0
 11
1404.112938028683
 21
82.8284408923945
 31
0.0
  0
LINE
  5
29A
330
1F
100
AcDbEntity
  8
LAYER0016
  6
CONTINUOUS
 62
     2
100
AcDbLine
 10
-34.58706350207758
 20
-21.17069210760758
 30
0.0
 11
-34.58706350207758
 21
-731.170625107608
 31
0.0
  0
LINE
  5
29B
330
1F
100
AcDbEntity
  8
LAYER0016
  6
CONTINUOUS
 62
     2
100
AcDbLine
 10
-34.58706350207758
 20
-21.17069210760758
 30
0.0
 11
-86.58706350207758
 21
-21.17069210760758
 31
0.0
  0
LINE
  5
29C
330
1F
100
AcDbEntity
  8
LAYER0016
  6
CONTINUOUS
 62
     2
100
AcDbLine
 10
-34.58706350207758
 20
-731.170625107608
 30
0.0
 11
-86.58706350207758
 21
-731.170625107608
 31
0.0
  0
LINE
  5
29D
330
1F
100
AcDbEntity
  8
LAYER0016
  6
CONTINUOUS
 62
     2
100
AcDbLine
 10
-86.58706350207758
 20
-731.170625107608
 30
0.0
 11
-86.58706350207758
 21
-21.17069210760758
 31
0.0
  0
LINE
  5
29E
330
1F
100
AcDbEntity
  8
LAYER0016
  6
CONTINUOUS
 62
     2
100
AcDbLine
 10
2395.795383452459
 20
57.02937489239264
 30
0.0
 11
2400.702860740571
 21
65.52937489239264
 31
0.0
  0
LINE
  5
29F
330
1F
100
AcDbEntity
  8
LAYER0016
  6
CONTINUOUS
 62
     2
100
AcDbLine
 10
2400.702860740571
 20
65.52937489239264
 30
0.0
 11
2410.517815316794
 21
65.52937489239264
 31
0.0
  0
LINE
  5
2A0
330
1F
100
AcDbEntity
  8
LAYER0016
  6
CONTINUOUS
 62
     2
100
AcDbLine
 10
2410.517815316794
 20
65.52937489239264
 30
0.0
 11
2415.425292604906
 21
57.02937489239264
 31
0.0
  0
LINE
  5
2A1
330
1F
100
AcDbEntity
  8
LAYER0016
  6
CONTINUOUS
 62
     2
100
AcDbLine
 10
2415.425292604906
 20
57.02937489239264
 30
0.0
 11
2410.517815316794
 21
48.52937489239264
 31
0.0
  0
LINE
  5
2A2
330
1F
100
AcDbEntity
  8
LAYER0016
  6
CONTINUOUS
 62
     2
100
AcDbLine
 10
2410.517815316794
 20
48.52937489239264
 30
0.0
 11
2400.702860740571
 21
48.52937489239264
 31
0.0
  0
LINE
  5
2A3
330
1F
100
AcDbEntity
  8
LAYER0016
  6
CONTINUOUS
 62
     2
100
AcDbLine
 10
2400.702860740571
 20
48.52937489239264
 30
0.0
 11
2395.795383452459
 21
57.02937489239264
 31
0.0
  0
CIRCLE
  5
2A4
330
1F
100
AcDbEntity
  8
LAYER0016
  6
CONTINUOUS
 62
     2
100
AcDbCircle
 10
2405.610338028682
 20
57.02937489239264
 30
0.0
 40
8.5
  0
LINE
  5
2A5
330
1F
100
AcDbEntity
  8
LAYER0016
  6
CONTINUOUS
 62
     2
100
AcDbLine
 10
2355.425292604906
 20
57.02937489239264
 30
0.0
 11
2350.517815316794
 21
65.52937489239264
 31
0.0
  0
LINE
  5
2A6
330
1F
100
AcDbEntity
  8
LAYER0016
  6
CONTINUOUS
 62
     2
100
AcDbLine
 10
2350.517815316794
 20
65.52937489239264
 30
0.0
 11
2340.702860740571
 21
65.52937489239264
 31
0.0
  0
LINE
  5
2A7
330
1F
100
AcDbEntity
  8
LAYER0016
  6
CONTINUOUS
 62
     2
100
AcDbLine
 10
2340.702860740571
 20
65.52937489239264
 30
0.0
 11
2335.795383452459
 21
57.02937489239264
 31
0.0
  0
LINE
  5
2A8
330
1F
100
AcDbEntity
  8
LAYER0016
  6
CONTINUOUS
 62
     2
100
AcDbLine
 10
2335.795383452459
 20
57.02937489239264
 30
0.0
 11
2340.702860740571
 21
48.52937489239264
 31
0.0
  0
LINE
  5
2A9
330
1F
100
AcDbEntity
  8
LAYER0016
  6
CONTINUOUS
 62
     2
100
AcDbLine
 10
2340.702860740571
 20
48.52937489239264
 30
0.0
 11
2350.517815316794
 21
48.52937489239264
 31
0.0
  0
LINE
  5
2AA
330
1F
100
AcDbEntity
  8
LAYER0016
  6
CONTINUOUS
 62
     2
100
AcDbLine
 10
2350.517815316794
 20
48.52937489239264
 30
0.0
 11
2355.425292604906
 21
57.02937489239264
 31
0.0
  0
CIRCLE
  5
2AB
330
1F
100
AcDbEntity
  8
LAYER0016
  6
CONTINUOUS
 62
     2
100
AcDbCircle
 10
2345.610338028682
 20
57.02937489239264
 30
0.0
 40
8.5
  0
LINE
  5
2AC
330
1F
100
AcDbEntity
  8
LAYER0016
  6
CONTINUOUS
 62
     2
100
AcDbLine
 10
2385.425292604906
 20
-71.17062510760786
 30
0.0
 11
2380.517815316794
 21
-62.67062510760786
 31
0.0
  0
LINE
  5
2AD
330
1F
100
AcDbEntity
  8
LAYER0016
  6
CONTINUOUS
 62
     2
100
AcDbLine
 10
2380.517815316794
 20
-62.67062510760786
 30
0.0
 11
2370.702860740571
 21
-62.67062510760786
 31
0.0
  0
LINE
  5
2AE
330
1F
100
AcDbEntity
  8
LAYER0016
  6
CONTINUOUS
 62
     2
100
AcDbLine
 10
2370.702860740571
 20
-62.67062510760786
 30
0.0
 11
2365.795383452459
 21
-71.17062510760786
 31
0.0
  0
LINE
  5
2AF
330
1F
100
AcDbEntity
  8
LAYER0016
  6
CONTINUOUS
 62
     2
100
AcDbLine
 10
2365.795383452459
 20
-71.17062510760786
 30
0.0
 11
2370.702860740571
 21
-79.67062510760786
 31
0.0
  0
LINE
  5
2B0
330
1F
100
AcDbEntity
  8
LAYER0016
  6
CONTINUOUS
 62
     2
100
AcDbLine
 10
2370.702860740571
 20
-79.67062510760786
 30
0.0
 11
2380.517815316794
 21
-79.67062510760786
 31
0.0
  0
LINE
  5
2B1
330
1F
100
AcDbEntity
  8
LAYER0016
  6
CONTINUOUS
 62
     2
100
AcDbLine
 10
2380.517815316794
 20
-79.67062510760786
 30
0.0
 11
2385.425292604906
 21
-71.17062510760786
 31
0.0
  0
CIRCLE
  5
2B2
330
1F
100
AcDbEntity
  8
LAYER0016
  6
CONTINUOUS
 62
     2
100
AcDbCircle
 10
2375.610338028682
 20
-71.17062510760786
 30
0.0
 40
8.5
  0
LINE
  5
2B3
330
1F
100
AcDbEntity
  8
LAYER0016
  6
CONTINUOUS
 62
     2
100
AcDbLine
 10
2385.425292604906
 20
-41.17062510760786
 30
0.0
 11
2380.517815316794
 21
-32.67062510760786
 31
0.0
  0
LINE
  5
2B4
330
1F
100
AcDbEntity
  8
LAYER0016
  6
CONTINUOUS
 62
     2
100
AcDbLine
 10
2380.517815316794
 20
-32.67062510760786
 30
0.0
 11
2370.702860740571
 21
-32.67062510760786
 31
0.0
  0
LINE
  5
2B5
330
1F
100
AcDbEntity
  8
LAYER0016
  6
CONTINUOUS
 62
     2
100
AcDbLine
 10
2370.702860740571
 20
-32.67062510760786
 30
0.0
 11
2365.795383452459
 21
-41.17062510760786
 31
0.0
  0
LINE
  5
2B6
330
1F
100
AcDbEntity
  8
LAYER0016
  6
CONTINUOUS
 62
     2
100
AcDbLine
 10
2365.795383452459
 20
-41.17062510760786
 30
0.0
 11
2370.702860740571
 21
-49.67062510760786
 31
0.0
  0
LINE
  5
2B7
330
1F
100
AcDbEntity
  8
LAYER0016
  6
CONTINUOUS
 62
     2
100
AcDbLine
 10
2370.702860740571
 20
-49.67062510760786
 30
0.0
 11
2380.517815316794
 21
-49.67062510760786
 31
0.0
  0
LINE
  5
2B8
330
1F
100
AcDbEntity
  8
LAYER0016
  6
CONTINUOUS
 62
     2
100
AcDbLine
 10
2380.517815316794
 20
-49.67062510760786
 30
0.0
 11
2385.425292604906
 21
-41.17062510760786
 31
0.0
  0
CIRCLE
  5
2B9
330
1F
100
AcDbEntity
  8
LAYER0016
  6
CONTINUOUS
 62
     2
100
AcDbCircle
 10
2375.610338028682
 20
-41.17062510760786
 30
0.0
 40
8.5
  0
CIRCLE
  5
2BA
330
1F
100
AcDbEntity
  8
LAYER0016
  6
CONTINUOUS
 62
     2
100
AcDbCircle
 10
2375.610338028682
 20
-71.17062510760786
 30
0.0
 40
10.5
  0
CIRCLE
  5
2BB
330
1F
100
AcDbEntity
  8
LAYER0016
  6
CONTINUOUS
 62
     2
100
AcDbCircle
 10
2375.610338028682
 20
-41.17062510760786
 30
0.0
 40
10.5
  0
CIRCLE
  5
2BC
330
1F
100
AcDbEntity
  8
LAYER0016
  6
CONTINUOUS
 62
     2
100
AcDbCircle
 10
2345.610338028682
 20
57.02937489239275
 30
0.0
 40
10.5
  0
CIRCLE
  5
2BD
330
1F
100
AcDbEntity
  8
LAYER0016
  6
CONTINUOUS
 62
     2
100
AcDbCircle
 10
2405.610338028683
 20
57.02937489239275
 30
0.0
 40
10.5
  0
LINE
  5
2BE
330
1F
100
AcDbEntity
  8
LAYER0016
  6
CONTINUOUS
 62
     2
100
AcDbLine
 10
2435.610338028682
 20
15.22937489239212
 30
0.0
 11
2435.610338028682
 21
12.02937489239207
 31
0.0
  0
LINE
  5
2BF
330
1F
100
AcDbEntity
  8
LAYER0016
  6
CONTINUOUS
 62
     2
100
AcDbLine
 10
2315.610338028682
 20
12.02937489239207
 30
0.0
 11
2315.610338028682
 21
15.22937489239212
 31
0.0
  0
LINE
  5
2C0
330
1F
100
AcDbEntity
  8
LAYER0016
  6
CONTINUOUS
 62
     2
100
AcDbLine
 10
2315.610338028682
 20
15.22937489239189
 30
0.0
 11
2315.610338028682
 21
33.89034638072678
 31
0.0
  0
LINE
  5
2C1
330
1F
100
AcDbEntity
  8
LAYER0016
  6
CONTINUOUS
 62
     2
100
AcDbLine
 10
2435.610338028682
 20
41.12937489239198
 30
0.0
 11
2435.610338028682
 21
15.22937489239189
 31
0.0
  0
LINE
  5
2C2
330
1F
100
AcDbEntity
  8
LAYER0016
  6
CONTINUOUS
 62
     2
100
AcDbLine
 10
2435.610338028682
 20
12.02937489239207
 30
0.0
 11
2315.610338028682
 21
12.02937489239218
 31
0.0
  0
LINE
  5
2C3
330
1F
100
AcDbEntity
  8
LAYER0016
  6
CONTINUOUS
 62
     2
100
AcDbLine
 10
2393.110338028682
 20
-731.1706251076081
 30
0.0
 11
2358.110338028682
 21
-731.1706251076081
 31
0.0
  0
LINE
  5
2C4
330
1F
100
AcDbEntity
  8
LAYER0016
  6
CONTINUOUS
 62
     2
100
AcDbLine
 10
2315.610338028682
 20
12.02937489239207
 30
0.0
 11
2315.610338028682
 21
-46.17062510760786
 31
0.0
  0
LINE
  5
2C5
330
1F
100
AcDbEntity
  8
LAYER0016
  6
CONTINUOUS
 62
     2
100
AcDbLine
 10
2355.610338028682
 20
-86.17062510760786
 30
0.0
 11
2395.610338028682
 21
-86.17062510760798
 31
0.0
  0
LINE
  5
2C6
330
1F
100
AcDbEntity
  8
LAYER0016
  6
CONTINUOUS
 62
     2
100
AcDbLine
 10
2435.610338028682
 20
-46.17062510760798
 30
0.0
 11
2435.610338028682
 21
12.02937489239207
 31
0.0
  0
ARC
  5
2C7
330
1F
100
AcDbEntity
  8
LAYER0016
  6
CONTINUOUS
 62
     2
100
AcDbCircle
 10
2375.610338028682
 20
-41.17015810760847
 30
0.0
 40
24.00046699999942
100
AcDbArc
 50
230.0
 51
251.5208944662829
  0
ARC
  5
2C8
330
1F
100
AcDbEntity
  8
LAYER0016
  6
CONTINUOUS
 62
     2
100
AcDbCircle
 10
2375.610338028682
 20
-41.17015810760847
 30
0.0
 40
36.00046699999942
100
AcDbArc
 50
230.0
 51
254.9337649468645
  0
ARC
  5
2C9
330
1F
100
AcDbEntity
  8
LAYER0016
  6
CONTINUOUS
 62
     2
100
AcDbCircle
 10
2356.326409556273
 20
-64.15184914393228
 30
0.0
 40
6.000000000000001
100
AcDbArc
 50
49.99999999999997
 51
230.0
  0
LINE
  5
2CA
330
1F
100
AcDbEntity
  8
LAYER0016
  6
CONTINUOUS
 62
     2
100
AcDbLine
 10
2355.610338028682
 20
-86.17062510760786
 30
0.0
 11
2315.610338028682
 21
-46.17062510760786
 31
0.0
  0
LINE
  5
2CB
330
1F
100
AcDbEntity
  8
LAYER0016
  6
CONTINUOUS
 62
     2
100
AcDbLine
 10
2395.610338028682
 20
-86.17062510760798
 30
0.0
 11
2435.610338028682
 21
-46.17062510760798
 31
0.0
  0
LINE
  5
2CC
330
1F
100
AcDbEntity
  8
LAYER0016
  6
CONTINUOUS
 62
     2
100
AcDbLine
 10
2393.110338028682
 20
-86.17062510760786
 30
0.0
 11
2393.110338028682
 21
-731.1706251076081
 31
0.0
  0
LINE
  5
2CD
330
1F
100
AcDbEntity
  8
LAYER0016
  6
CONTINUOUS
 62
     2
100
AcDbLine
 10
2358.110338028682
 20
-731.1706251076081
 30
0.0
 11
2358.110338028682
 21
-86.17062510760786
 31
0.0
  0
LINE
  5
2CE
330
1F
100
AcDbEntity
  8
LAYER0016
  6
CONTINUOUS
 62
     2
100
AcDbLine
 10
2358.110338028682
 20
-58.42318444739726
 30
0.0
 11
2358.110338028682
 21
-72.63098492792653
 31
0.0
  0
ARC
  5
2CF
330
1F
100
AcDbEntity
  8
LAYER0016
  6
CONTINUOUS
 62
     2
100
AcDbCircle
 10
2394.894266501092
 20
-64.15184914393228
 30
0.0
 40
6.000000000000001
100
AcDbArc
 50
310.0
 51
130.0000000000001
  0
ARC
  5
2D0
330
1F
100
AcDbEntity
  8
LAYER0016
  6
CONTINUOUS
 62
     2
100
AcDbCircle
 10
2375.610338028682
 20
-41.17015810760847
 30
0.0
 40
24.00046699999942
100
AcDbArc
 50
288.4791055337171
 51
310.0
  0
ARC
  5
2D1
330
1F
100
AcDbEntity
  8
LAYER0016
  6
CONTINUOUS
 62
     2
100
AcDbCircle
 10
2375.610338028682
 20
-41.17015810760847
 30
0.0
 40
36.00046699999942
100
AcDbArc
 50
285.0662350531355
 51
310.0
  0
LINE
  5
2D2
330
1F
100
AcDbEntity
  8
LAYER0016
  6
CONTINUOUS
 62
     2
100
AcDbLine
 10
2393.110338028682
 20
-58.42318444739726
 30
0.0
 11
2393.110338028682
 21
-72.63098492792665
 31
0.0
  0
LINE
  5
2D3
330
1F
100
AcDbEntity
  8
LAYER0016
  6
CONTINUOUS
 62
     2
100
AcDbLine
 10
-89.78706350207737
 20
-86.17115910760549
 30
0.0
 11
-89.78706350207737
 21
5.82844089239461
 31
0.0
  0
LINE
  5
2D4
330
1F
100
AcDbEntity
  8
LAYER0016
  6
CONTINUOUS
 62
     2
100
AcDbLine
 10
-86.58706350207733
 20
5.82884089239451
 30
0.0
 11
-86.58706350207736
 21
-86.17115910760549
 31
0.0
  0
LINE
  5
2D5
330
1F
100
AcDbEntity
  8
LAYER0016
  6
CONTINUOUS
 62
     2
100
AcDbLine
 10
-86.58706350207736
 20
-86.17115910760549
 30
0.0
 11
-89.78706350207737
 21
-86.17115910760549
 31
0.0
  0
LINE
  5
2D6
330
1F
100
AcDbEntity
  8
LAYER0016
  6
CONTINUOUS
 62
     2
100
AcDbLine
 10
-86.58706350207733
 20
-46.17115910760549
 30
0.0
 11
-89.78706350207737
 21
-46.17115910760549
 31
0.0
  0
LINE
  5
2D7
330
1F
100
AcDbEntity
  8
LAYER0016
  6
CONTINUOUS
 62
     2
100
AcDbLine
 10
1242.812939559444
 20
-731.170625107608
 30
0.0
 11
1294.812939559444
 21
-731.170625107608
 31
0.0
  0
LINE
  5
2D8
330
1F
100
AcDbEntity
  8
LAYER0016
  6
CONTINUOUS
 62
     2
100
AcDbLine
 10
1294.812939559444
 20
-86.17115910760549
 30
0.0
 11
1298.012939559444
 21
-86.17115910760549
 31
0.0
  0
LINE
  5
2D9
330
1F
100
AcDbEntity
  8
LAYER0016
  6
CONTINUOUS
 62
     2
100
AcDbLine
 10
1294.812939559444
 20
-46.17115910760549
 30
0.0
 11
1298.012939559444
 21
-46.17115910760549
 31
0.0
  0
LINE
  5
2DA
330
1F
100
AcDbEntity
  8
LAYER0016
  6
CONTINUOUS
 62
     2
100
AcDbLine
 10
1242.812939559444
 20
-21.17069210760758
 30
0.0
 11
1242.812939559444
 21
-731.170625107608
 31
0.0
  0
LINE
  5
2DB
330
1F
100
AcDbEntity
  8
LAYER0016
  6
CONTINUOUS
 62
     2
100
AcDbLine
 10
1294.812939559444
 20
-731.170625107608
 30
0.0
 11
1294.812939559444
 21
-21.17069210760758
 31
0.0
  0
LINE
  5
2DC
330
1F
100
AcDbEntity
  8
LAYER0016
  6
CONTINUOUS
 62
     2
100
AcDbLine
 10
1298.012939559444
 20
-86.17115910760549
 30
0.0
 11
1298.012939559444
 21
5.82844089239461
 31
0.0
  0
LINE
  5
2DD
330
1F
100
AcDbEntity
  8
LAYER0016
  6
CONTINUOUS
 62
     2
100
AcDbLine
 10
1294.812939559444
 20
5.82884089239451
 30
0.0
 11
1294.812939559444
 21
-86.17115910760549
 31
0.0
  0
LINE
  5
2DE
330
1F
100
AcDbEntity
  8
LAYER0016
  6
CONTINUOUS
 62
     2
100
AcDbLine
 10
1242.812939559444
 20
-21.17069210760758
 30
0.0
 11
1294.812939559444
 21
-21.17069210760758
 31
0.0
  0
LINE
  5
2DF
330
1F
100
AcDbEntity
  8
LAYER0016
  6
CONTINUOUS
 62
     2
100
AcDbLine
 10
-195.8872346905371
 20
1030.865219157025
 30
0.0
 11
-195.8872346905371
 21
1369.425219157024
 31
0.0
  0
LINE
  5
2E0
330
1F
100
AcDbEntity
  8
LAYER0016
  6
CONTINUOUS
 62
     2
100
AcDbLine
 10
1404.113110747904
 20
1369.425219157024
 30
0.0
 11
1404.113110747905
 21
1030.865219157023
 31
0.0
  0
LINE
  5
2E1
330
1F
100
AcDbEntity
  8
LAYER0016
  6
CONTINUOUS
 62
     2
100
AcDbLine
 10
-195.8872346905371
 20
1030.865219157022
 30
0.0
 11
-195.8872346905371
 21
671.8252191570223
 31
0.0
  0
LINE
  5
2E2
330
1F
100
AcDbEntity
  8
LAYER0016
  6
CONTINUOUS
 62
     2
100
AcDbLine
 10
1404.113110747904
 20
671.8252191570223
 30
0.0
 11
1404.113110747905
 21
1030.865219157024
 31
0.0
  0
LINE
  5
2E3
330
1F
100
AcDbEntity
  8
LAYER0016
  6
CONTINUOUS
 62
     2
100
AcDbLine
 10
-195.8872346905371
 20
1369.425219157024
 30
0.0
 11
1404.113110747904
 21
1369.425219157024
 31
0.0
  0
LINE
  5
2E4
330
1F
100
AcDbEntity
  8
LAYER0016
  6
CONTINUOUS
 62
     2
100
AcDbLine
 10
-195.8872346905371
 20
1361.425219157024
 30
0.0
 11
1404.113110747904
 21
1361.425219157024
 31
0.0
  0
LINE
  5
2E5
330
1F
100
AcDbEntity
  8
LAYER0016
  6
CONTINUOUS
 62
     2
100
AcDbLine
 10
-195.8872346905371
 20
671.8252191570223
 30
0.0
 11
1404.113110747904
 21
671.8252191570223
 31
0.0
  0
LINE
  5
2E6
330
1F
100
AcDbEntity
  8
LAYER0016
  6
CONTINUOUS
 62
     2
100
AcDbLine
 10
-195.8872346905372
 20
1313.865219157024
 30
0.0
 11
1404.113110747904
 21
1313.865219157024
 31
0.0
  0
LINE
  5
2E7
330
1F
100
AcDbEntity
  8
LAYER0016
  6
CONTINUOUS
 62
     2
100
AcDbLine
 10
1404.113110747904
 20
747.8652191570231
 30
0.0
 11
-195.8872346905372
 21
747.8652191570231
 31
0.0
  0
LINE
  5
2E8
330
1F
100
AcDbEntity
  8
LAYER0016
  6
CONTINUOUS
 62
     2
100
AcDbLine
 10
2104.23456705373
 20
77.88610055051049
 30
0.0
 11
2031.469625039875
 21
-8.831780509409327
 31
0.0
  0
LINE
  5
2E9
330
1F
100
AcDbEntity
  8
LAYER0016
  6
CONTINUOUS
 62
     2
100
AcDbLine
 10
2105.000611496851
 20
77.24331294082549
 30
0.0
 11
2032.235669482995
 21
-9.474568119095238
 31
0.0
  0
ARC
  5
2EA
330
1F
100
AcDbEntity
  8
LAYER0016
  6
CONTINUOUS
 62
     2
100
AcDbCircle
 10
2034.533802812352
 20
-11.40293094815479
 30
0.0
 40
3.999999999999998
100
AcDbArc
 50
139.9999999999993
 51
98.5903778907401
  0
ARC
  5
2EB
330
1F
100
AcDbEntity
  8
LAYER0016
  6
CONTINUOUS
 62
     2
100
AcDbCircle
 10
2034.533802812352
 20
-11.40293094815479
 30
0.0
 40
2.999999999999998
100
AcDbArc
 50
139.9999999999999
 51
98.590377890734
  0
LINE
  5
2EC
330
1F
100
AcDbEntity
  8
LAYER0016
  6
CONTINUOUS
 62
     2
100
AcDbLine
 10
2033.93632570097
 20
-7.447805406117368
 30
0.0
 11
2034.08569493613
 21
-8.436586509074004
 31
0.0
  0
LINE
  5
2ED
330
1F
100
AcDbEntity
  8
LAYER0016
  6
CONTINUOUS
 62
     2
100
AcDbLine
 10
2116.030338032704
 20
79.0293748923923
 30
0.0
 11
2116.030338032704
 21
59.0293748923923
 31
0.0
  0
ARC
  5
2EE
330
1F
100
AcDbEntity
  8
LAYER0016
  6
CONTINUOUS
 62
     2
100
AcDbCircle
 10
2108.830833712444
 20
74.0293748923923
 30
0.0
 40
5.0
100
AcDbArc
 50
89.99999999999837
 51
139.9999999999873
  0
ARC
  5
2EF
330
1F
100
AcDbEntity
  8
LAYER0016
  6
CONTINUOUS
 62
     2
100
AcDbCircle
 10
2108.830833712444
 20
74.02937489239139
 30
0.0
 40
6.0
100
AcDbArc
 50
89.99999999999889
 51
140.0000000000032
  0
LINE
  5
2F0
330
1F
100
AcDbEntity
  8
LAYER0016
  6
CONTINUOUS
 62
     2
100
AcDbLine
 10
2673.642714301192
 20
81.8154368439591
 30
0.0
 11
2721.067265521227
 21
138.3338161376023
 31
0.0
  0
LINE
  5
2F1
330
1F
100
AcDbEntity
  8
LAYER0016
  6
CONTINUOUS
 62
     2
100
AcDbLine
 10
2674.408758744312
 20
81.1726492342732
 30
0.0
 11
2721.833309964346
 21
137.6910285279155
 31
0.0
  0
ARC
  5
2F2
330
1F
100
AcDbEntity
  8
LAYER0016
  6
CONTINUOUS
 62
     2
100
AcDbCircle
 10
2724.131443293702
 20
135.7626656988559
 30
0.0
 40
2.999999999999998
100
AcDbArc
 50
181.4096221092713
 51
140.0000000000031
  0
ARC
  5
2F3
330
1F
100
AcDbEntity
  8
LAYER0016
  6
CONTINUOUS
 62
     2
100
AcDbCircle
 10
2724.131443293702
 20
135.7626656988559
 30
0.0
 40
3.999999999999998
100
AcDbArc
 50
181.4096221092715
 51
139.999999999999
  0
LINE
  5
2F4
330
1F
100
AcDbEntity
  8
LAYER0016
  6
CONTINUOUS
 62
     2
100
AcDbLine
 10
2720.132653803282
 20
135.6642654382003
 30
0.0
 11
2721.132351175887
 21
135.6888655033636
 31
0.0
  0
LINE
  5
2F5
330
1F
100
AcDbEntity
  8
LAYER0016
  6
CONTINUOUS
 62
     2
100
AcDbLine
 10
2662.610338028684
 20
79.02937489239048
 30
0.0
 11
2662.610338028683
 21
59.02937489238866
 31
0.0
  0
ARC
  5
2F6
330
1F
100
AcDbEntity
  8
LAYER0016
  6
CONTINUOUS
 62
     2
100
AcDbCircle
 10
2642.610338028683
 20
59.02937489239048
 30
0.0
 40
20.0
100
AcDbArc
 50
269.9999999999997
 51
359.9999999999944
  0
ARC
  5
2F7
330
1F
100
AcDbEntity
  8
LAYER0016
  6
CONTINUOUS
 62
     2
100
AcDbCircle
 10
2669.812492085596
 20
85.02937489238957
 30
0.0
 40
5.0
100
AcDbArc
 50
269.999999999995
 51
320.0000000000272
  0
ARC
  5
2F8
330
1F
100
AcDbEntity
  8
LAYER0016
  6
CONTINUOUS
 62
     2
100
AcDbCircle
 10
2669.812492085597
 20
85.02937489239048
 30
0.0
 40
6.0
100
AcDbArc
 50
270.0000000000037
 51
320.0000000000154
  0
LINE
  5
2F9
330
1F
100
AcDbEntity
  8
LAYER0016
  6
CONTINUOUS
 62
     2
100
AcDbLine
 10
2669.812492085595
 20
80.02937489238957
 30
0.0
 11
2108.830833712444
 21
80.02937489239139
 31
0.0
  0
LINE
  5
2FA
330
1F
100
AcDbEntity
  8
LAYER0016
  6
CONTINUOUS
 62
     2
100
AcDbLine
 10
2108.830833712445
 20
79.0293748923923
 30
0.0
 11
2669.812492085597
 21
79.02937489239048
 31
0.0
  0
LINE
  5
2FB
330
1F
100
AcDbEntity
  8
LAYER0016
  6
CONTINUOUS
 62
     2
100
AcDbLine
 10
2116.030338028684
 20
75.82937489239248
 30
0.0
 11
2662.610338028684
 21
75.82937489238975
 31
0.0
  0
LINE
  5
2FC
330
1F
100
AcDbEntity
  8
LAYER0016
  6
CONTINUOUS
 62
     2
100
AcDbLine
 10
2136.030338024663
 20
39.0293748923923
 30
0.0
 11
2642.610338028683
 21
39.02937489239048
 31
0.0
  0
ARC
  5
2FD
330
1F
100
AcDbEntity
  8
LAYER0016
  6
CONTINUOUS
 62
     2
100
AcDbCircle
 10
2136.030338024663
 20
59.0293748923923
 30
0.0
 40
20.0
100
AcDbArc
 50
180.0
 51
270.0
  0
LINE
  5
2FE
330
1F
100
AcDbEntity
  8
LAYER0016
  6
CONTINUOUS
 62
     2
100
AcDbLine
 10
-195.8872346905375
 20
-12.60386494815339
 30
0.0
 11
-195.8872346905375
 21
142.5617316988573
 31
0.0
  0
LINE
  5
2FF
330
1F
100
AcDbEntity
  8
LAYER0016
  6
CONTINUOUS
 62
     2
100
AcDbLine
 10
1404.113110747904
 20
-12.60386494815339
 30
0.0
 11
1404.113110747904
 21
142.5617316988582
 31
0.0
  0
LINE
  5
300
330
1F
100
AcDbEntity
  8
LAYER0016
  6
CONTINUOUS
 62
     2
100
AcDbLine
 10
-195.8872346905375
 20
-12.60386494815339
 30
0.0
 11
1404.113110747904
 21
-12.60386494815339
 31
0.0
  0
LINE
  5
301
330
1F
100
AcDbEntity
  8
LAYER0016
  6
CONTINUOUS
 62
     2
100
AcDbLine
 10
-195.8872346905375
 20
142.5617316988582
 30
0.0
 11
1404.113110747904
 21
142.5617316988582
 31
0.0
  0
CIRCLE
  5
302
330
1F
100
AcDbEntity
  8
LAYER0016
  6
CONTINUOUS
 62
     2
100
AcDbCircle
 10
2375.356236411532
 20
57.02937489239127
 30
0.0
 40
5.999999999999999
  0
CIRCLE
  5
303
330
1F
100
AcDbEntity
  8
LAYER0016
  6
CONTINUOUS
 62
     2
100
AcDbCircle
 10
2315.356236411532
 20
57.02937489239127
 30
0.0
 40
5.999999999999999
  0
CIRCLE
  5
304
330
1F
100
AcDbEntity
  8
LAYER0016
  6
CONTINUOUS
 62
     2
100
AcDbCircle
 10
2435.356236411537
 20
57.02937489239127
 30
0.0
 40
5.999999999999999
  0
CIRCLE
  5
305
330
1F
100
AcDbEntity
  8
LAYER0016
  6
CONTINUOUS
 62
     2
100
AcDbCircle
 10
2465.356236411537
 20
57.02937489239127
 30
0.0
 40
5.999999999999999
  0
CIRCLE
  5
306
330
1F
100
AcDbEntity
  8
LAYER0016
  6
CONTINUOUS
 62
     2
100
AcDbCircle
 10
2495.356236411537
 20
57.02937489239127
 30
0.0
 40
5.999999999999999
  0
CIRCLE
  5
307
330
1F
100
AcDbEntity
  8
LAYER0016
  6
CONTINUOUS
 62
     2
100
AcDbCircle
 10
2525.356236411537
 20
57.02937489239127
 30
0.0
 40
5.999999999999999
  0
LINE
  5
308
330
1F
100
AcDbEntity
  8
LAYER0016
  6
DASHED2
 62
     3
100
AcDbLine
 10
-83.38706350207754
 20
-21.17069210760758
 30
0.0
 11
-83.38706350207754
 21
-731.170625107608
 31
0.0
  0
LINE
  5
309
330
1F
100
AcDbEntity
  8
LAYER0016
  6
DASHED2
 62
     3
100
AcDbLine
 10
2320.610338028682
 20
72.02937489239196
 30
0.0
 11
2430.610338028682
 21
72.02937489239196
 31
0.0
  0
LINE
  5
30A
330
1F
100
AcDbEntity
  8
LAYER0016
  6
DASHED2
 62
     3
100
AcDbLine
 10
2430.610338028682
 20
72.02937489239196
 30
0.0
 11
2435.610338028682
 21
67.02937489239196
 31
0.0
  0
LINE
  5
30B
330
1F
100
AcDbEntity
  8
LAYER0016
  6
DASHED2
 62
     3
100
AcDbLine
 10
2320.610338028682
 20
72.02937489239196
 30
0.0
 11
2315.610338028682
 21
67.02937489239196
 31
0.0
  0
LINE
  5
30C
330
1F
100
AcDbEntity
  8
LAYER0016
  6
DASHED2
 62
     3
100
AcDbLine
 10
2315.610338028682
 20
33.89034638072678
 30
0.0
 11
2315.610338028682
 21
67.02937489239196
 31
0.0
  0
LINE
  5
30D
330
1F
100
AcDbEntity
  8
LAYER0016
  6
DASHED2
 62
     3
100
AcDbLine
 10
2435.610338028682
 20
67.02937489239196
 30
0.0
 11
2435.610338028682
 21
41.12937489239198
 31
0.0
  0
LINE
  5
30E
330
1F
100
AcDbEntity
  8
LAYER0016
  6
DASHED2
 62
     3
100
AcDbLine
 10
2358.110338028682
 20
-21.17062510760798
 30
0.0
 11
2393.110338028682
 21
-21.17062510760798
 31
0.0
  0
LINE
  5
30F
330
1F
100
AcDbEntity
  8
LAYER0016
  6
DASHED2
 62
     3
100
AcDbLine
 10
2361.310338028683
 20
-731.1706251076081
 30
0.0
 11
2361.310338028682
 21
-21.17062510760798
 31
0.0
  0
LINE
  5
310
330
1F
100
AcDbEntity
  8
LAYER0016
  6
DASHED2
 62
     3
100
AcDbLine
 10
2361.310338028683
 20
-618.1741487946492
 30
0.0
 11
2358.110338028682
 21
-618.1741487946492
 31
0.0
  0
LINE
  5
311
330
1F
100
AcDbEntity
  8
LAYER0016
  6
DASHED2
 62
     3
100
AcDbLine
 10
2358.110338028682
 20
-72.63098492792653
 30
0.0
 11
2358.110338028682
 21
-86.17062510760786
 31
0.0
  0
LINE
  5
312
330
1F
100
AcDbEntity
  8
LAYER0016
  6
DASHED2
 62
     3
100
AcDbLine
 10
2358.110338028682
 20
-21.17062510760798
 30
0.0
 11
2358.110338028682
 21
-58.42318444739726
 31
0.0
  0
LINE
  5
313
330
1F
100
AcDbEntity
  8
LAYER0016
  6
DASHED2
 62
     3
100
AcDbLine
 10
2393.110338028682
 20
-72.63098492792665
 30
0.0
 11
2393.110338028682
 21
-86.17062510760786
 31
0.0
  0
LINE
  5
314
330
1F
100
AcDbEntity
  8
LAYER0016
  6
DASHED2
 62
     3
100
AcDbLine
 10
2393.110338028682
 20
-21.17062510760798
 30
0.0
 11
2393.110338028682
 21
-58.42318444739726
 31
0.0
  0
LINE
  5
315
330
1F
100
AcDbEntity
  8
LAYER0016
  6
DASHED2
 62
     3
100
AcDbLine
 10
-83.58706350207736
 20
12.02844089239454
 30
0.0
 11
-41.58706350207736
 21
12.02844089239454
 31
0.0
  0
LINE
  5
316
330
1F
100
AcDbEntity
  8
LAYER0016
  6
DASHED2
 62
     3
100
AcDbLine
 10
-41.58706350207736
 20
12.02844089239454
 30
0.0
 11
-41.58706350207736
 21
8.82884089239451
 31
0.0
  0
LINE
  5
317
330
1F
100
AcDbEntity
  8
LAYER0016
  6
DASHED2
 62
     3
100
AcDbLine
 10
-50.58706350207733
 20
12.02844089239454
 30
0.0
 11
-50.58706350207733
 21
8.82884089239451
 31
0.0
  0
LINE
  5
318
330
1F
100
AcDbEntity
  8
LAYER0016
  6
DASHED2
 62
     3
100
AcDbLine
 10
-86.58706350207736
 20
-77.17069210760599
 30
0.0
 11
-89.7870635020776
 21
-77.17069210760599
 31
0.0
  0
LINE
  5
319
330
1F
100
AcDbEntity
  8
LAYER0016
  6
DASHED2
 62
     3
100
AcDbLine
 10
-41.58706350207736
 20
8.82884089239451
 30
0.0
 11
-83.58706350207733
 21
8.82884089239451
 31
0.0
  0
LINE
  5
31A
330
1F
100
AcDbEntity
  8
LAYER0016
  6
DASHED2
 62
     3
100
AcDbLine
 10
-46.58706350207733
 20
8.82884089239451
 30
0.0
 11
-46.58706350207733
 21
12.02844089239454
 31
0.0
  0
ARC
  5
31B
330
1F
100
AcDbEntity
  8
LAYER0016
  6
DASHED2
 62
     3
100
AcDbCircle
 10
-83.58706350207733
 20
5.82884089239451
 30
0.0
 40
3.0
100
AcDbArc
 50
90.0
 51
180.0
  0
ARC
  5
31C
330
1F
100
AcDbEntity
  8
LAYER0016
  6
DASHED2
 62
     3
100
AcDbCircle
 10
-83.58706350207736
 20
5.82844089239461
 30
0.0
 40
6.2
100
AcDbArc
 50
90.0
 51
180.0
  0
LINE
  5
31D
330
1F
100
AcDbEntity
  8
LAYER0016
  6
DASHED2
 62
     3
100
AcDbLine
 10
-86.58706350207733
 20
-35.1706921076061
 30
0.0
 11
-89.78706350207737
 21
-35.1706921076061
 31
0.0
  0
LINE
  5
31E
330
1F
100
AcDbEntity
  8
LAYER0016
  6
DASHED2
 62
     3
100
AcDbLine
 10
-86.58706350207733
 20
-47.1706921076061
 30
0.0
 11
-89.78706350207737
 21
-47.1706921076061
 31
0.0
  0
LINE
  5
31F
330
1F
100
AcDbEntity
  8
LAYER0016
  6
DASHED2
 62
     3
100
AcDbLine
 10
-86.58706350207733
 20
-58.15238314392991
 30
0.0
 11
-89.78706350207737
 21
-58.15238314392991
 31
0.0
  0
LINE
  5
320
330
1F
100
AcDbEntity
  8
LAYER0016
  6
DASHED2
 62
     3
100
AcDbLine
 10
1294.812939559444
 20
-77.17069210760599
 30
0.0
 11
1298.012939559444
 21
-77.17069210760599
 31
0.0
  0
LINE
  5
321
330
1F
100
AcDbEntity
  8
LAYER0016
  6
DASHED2
 62
     3
100
AcDbLine
 10
1294.812939559444
 20
-35.1706921076061
 30
0.0
 11
1298.012939559444
 21
-35.1706921076061
 31
0.0
  0
LINE
  5
322
330
1F
100
AcDbEntity
  8
LAYER0016
  6
DASHED2
 62
     3
100
AcDbLine
 10
1294.812939559444
 20
-47.1706921076061
 30
0.0
 11
1298.012939559444
 21
-47.1706921076061
 31
0.0
  0
LINE
  5
323
330
1F
100
AcDbEntity
  8
LAYER0016
  6
DASHED2
 62
     3
100
AcDbLine
 10
1294.812939559444
 20
-58.15238314392991
 30
0.0
 11
1298.012939559444
 21
-58.15238314392991
 31
0.0
  0
LINE
  5
324
330
1F
100
AcDbEntity
  8
LAYER0016
  6
DASHED2
 62
     3
100
AcDbLine
 10
1291.812939559444
 20
12.02844089239454
 30
0.0
 11
1249.812939559444
 21
12.02844089239454
 31
0.0
  0
LINE
  5
325
330
1F
100
AcDbEntity
  8
LAYER0016
  6
DASHED2
 62
     3
100
AcDbLine
 10
1249.812939559444
 20
12.02844089239454
 30
0.0
 11
1249.812939559444
 21
8.82884089239451
 31
0.0
  0
LINE
  5
326
330
1F
100
AcDbEntity
  8
LAYER0016
  6
DASHED2
 62
     3
100
AcDbLine
 10
1278.812939559444
 20
12.02844089239454
 30
0.0
 11
1278.812939559444
 21
8.82884089239451
 31
0.0
  0
LINE
  5
327
330
1F
100
AcDbEntity
  8
LAYER0016
  6
DASHED2
 62
     3
100
AcDbLine
 10
1258.812939559444
 20
12.02844089239454
 30
0.0
 11
1258.812939559444
 21
8.82884089239451
 31
0.0
  0
LINE
  5
328
330
1F
100
AcDbEntity
  8
LAYER0016
  6
DASHED2
 62
     3
100
AcDbLine
 10
1249.812939559444
 20
8.82884089239451
 30
0.0
 11
1291.812939559444
 21
8.82884089239451
 31
0.0
  0
LINE
  5
329
330
1F
100
AcDbEntity
  8
LAYER0016
  6
DASHED2
 62
     3
100
AcDbLine
 10
1254.812939559444
 20
8.82884089239451
 30
0.0
 11
1254.812939559444
 21
12.02844089239454
 31
0.0
  0
ARC
  5
32A
330
1F
100
AcDbEntity
  8
LAYER0016
  6
DASHED2
 62
     3
100
AcDbCircle
 10
1291.812939559444
 20
5.82884089239451
 30
0.0
 40
3.0
100
AcDbArc
 50
0.0
 51
90.0
  0
LINE
  5
32B
330
1F
100
AcDbEntity
  8
LAYER0016
  6
DASHED2
 62
     3
100
AcDbLine
 10
1291.612939559444
 20
-21.17069210760758
 30
0.0
 11
1291.612939559444
 21
-731.170625107608
 31
0.0
  0
ARC
  5
32C
330
1F
100
AcDbEntity
  8
LAYER0016
  6
DASHED2
 62
     3
100
AcDbCircle
 10
1291.812939559444
 20
5.82844089239461
 30
0.0
 40
6.2
100
AcDbArc
 50
0.0
 51
90.0
  0
LINE
  5
32D
330
1F
100
AcDbEntity
  8
LAYER0016
  6
DASHED2
 62
     3
100
AcDbLine
 10
-195.8872346905371
 20
679.8252191570223
 30
0.0
 11
1404.113110747904
 21
679.8252191570223
 31
0.0
  0
LINE
  5
32E
330
1F
100
AcDbEntity
  8
LAYER0016
  6
DASHED2
 62
     3
100
AcDbLine
 10
1397.113110747905
 20
1303.905219153003
 30
0.0
 11
1397.113110747905
 21
757.3252191563784
 31
0.0
  0
LINE
  5
32F
330
1F
100
AcDbEntity
  8
LAYER0016
  6
DASHED2
 62
     3
100
AcDbLine
 10
1369.413410747905
 20
1303.905219153003
 30
0.0
 11
1369.413410747905
 21
757.3252191563784
 31
0.0
  0
LINE
  5
330
330
1F
100
AcDbEntity
  8
LAYER0016
  6
DASHED2
 62
     3
100
AcDbLine
 10
1367.113110747905
 20
1303.905219153003
 30
0.0
 11
1367.113110747905
 21
757.3252191563784
 31
0.0
  0
LINE
  5
331
330
1F
100
AcDbEntity
  8
LAYER0016
  6
DASHED2
 62
     3
100
AcDbLine
 10
854.1114946477293
 20
1303.905219153003
 30
0.0
 11
854.1114946477293
 21
757.3252191563784
 31
0.0
  0
LINE
  5
332
330
1F
100
AcDbEntity
  8
LAYER0016
  6
DASHED2
 62
     3
100
AcDbLine
 10
856.4117946477287
 20
1303.905219153003
 30
0.0
 11
856.4117946477287
 21
757.3252191563784
 31
0.0
  0
LINE
  5
333
330
1F
100
AcDbEntity
  8
LAYER0016
  6
DASHED2
 62
     3
100
AcDbLine
 10
884.1114946477293
 20
1303.905219153003
 30
0.0
 11
884.1114946477293
 21
757.3252191563784
 31
0.0
  0
LINE
  5
334
330
1F
100
AcDbEntity
  8
LAYER0016
  6
DASHED2
 62
     3
100
AcDbLine
 10
324.1143814096378
 20
1303.905219153003
 30
0.0
 11
324.1143814096378
 21
757.3252191563784
 31
0.0
  0
LINE
  5
335
330
1F
100
AcDbEntity
  8
LAYER0016
  6
DASHED2
 62
     3
100
AcDbLine
 10
351.8140814096383
 20
1303.905219153003
 30
0.0
 11
351.8140814096383
 21
757.3252191563784
 31
0.0
  0
LINE
  5
336
330
1F
100
AcDbEntity
  8
LAYER0016
  6
DASHED2
 62
     3
100
AcDbLine
 10
354.1143814096381
 20
1303.905219153003
 30
0.0
 11
354.1143814096381
 21
757.3252191563784
 31
0.0
  0
LINE
  5
337
330
1F
100
AcDbEntity
  8
LAYER0016
  6
DASHED2
 62
     3
100
AcDbLine
 10
-188.8872346905363
 20
1303.905219153003
 30
0.0
 11
-188.8872346905363
 21
757.3252191563784
 31
0.0
  0
LINE
  5
338
330
1F
100
AcDbEntity
  8
LAYER0016
  6
DASHED2
 62
     3
100
AcDbLine
 10
-161.1875346905358
 20
1303.905219153003
 30
0.0
 11
-161.1875346905358
 21
757.3252191563784
 31
0.0
  0
LINE
  5
339
330
1F
100
AcDbEntity
  8
LAYER0016
  6
DASHED2
 62
     3
100
AcDbLine
 10
-158.8872346905362
 20
1303.905219153003
 30
0.0
 11
-158.8872346905362
 21
757.3252191563784
 31
0.0
  0
LINE
  5
33A
330
1F
100
AcDbEntity
  8
LAYER0016
  6
DASHED2
 62
     3
100
AcDbLine
 10
-188.8872346905362
 20
1303.905219153003
 30
0.0
 11
-158.8872346905362
 21
1303.905219153003
 31
0.0
  0
LINE
  5
33B
330
1F
100
AcDbEntity
  8
LAYER0016
  6
DASHED2
 62
     3
100
AcDbLine
 10
324.1143814096378
 20
1303.905219153003
 30
0.0
 11
354.1143814096381
 21
1303.905219153003
 31
0.0
  0
LINE
  5
33C
330
1F
100
AcDbEntity
  8
LAYER0016
  6
DASHED2
 62
     3
100
AcDbLine
 10
854.1114946477293
 20
1303.905219153003
 30
0.0
 11
884.1114946477293
 21
1303.905219153003
 31
0.0
  0
LINE
  5
33D
330
1F
100
AcDbEntity
  8
LAYER0016
  6
DASHED2
 62
     3
100
AcDbLine
 10
1367.113110747905
 20
1303.905219153003
 30
0.0
 11
1397.113110747905
 21
1303.905219153003
 31
0.0
  0
LINE
  5
33E
330
1F
100
AcDbEntity
  8
LAYER0016
  6
DASHED2
 62
     3
100
AcDbLine
 10
854.1114946477293
 20
757.3252191563784
 30
0.0
 11
884.1114946477293
 21
757.3252191563784
 31
0.0
  0
LINE
  5
33F
330
1F
100
AcDbEntity
  8
LAYER0016
  6
DASHED2
 62
     3
100
AcDbLine
 10
1367.113110747905
 20
757.3252191563784
 30
0.0
 11
1397.113110747905
 21
757.3252191563784
 31
0.0
  0
LINE
  5
340
330
1F
100
AcDbEntity
  8
LAYER0016
  6
DASHED2
 62
     3
100
AcDbLine
 10
324.1143814096378
 20
757.3252191563784
 30
0.0
 11
354.1143814096381
 21
757.3252191563784
 31
0.0
  0
LINE
  5
341
330
1F
100
AcDbEntity
  8
LAYER0016
  6
DASHED2
 62
     3
100
AcDbLine
 10
-188.8872346905362
 20
757.3252191563784
 30
0.0
 11
-158.8872346905362
 21
757.3252191563784
 31
0.0
  0
LINE
  5
342
330
1F
100
AcDbEntity
  8
LAYER0016
  6
DASHED2
 62
     3
100
AcDbLine
 10
1404.113110747904
 20
-4.603864948153387
 30
0.0
 11
-195.8872346905375
 21
-4.603864948153387
 31
0.0
  0
LINE
  5
343
330
1F
100
AcDbEntity
  8
LAYER0016
  6
DASHED2
 62
     3
100
AcDbLine
 10
1404.113110747904
 20
134.5617316988573
 30
0.0
 11
-195.8872346905375
 21
134.5617316988573
 31
0.0
  0
LINE
  5
344
330
1F
100
AcDbEntity
  8
LAYER0016
  6
DASHED2
 62
     3
100
AcDbLine
 10
1404.113110747904
 20
81.8284408923937
 30
0.0
 11
-195.8872346905375
 21
81.8284408923937
 31
0.0
  0
LINE
  5
345
330
1F
100
AcDbEntity
  8
LAYER0016
  6
DASHED2
 62
     3
100
AcDbLine
 10
-155.5868892520957
 20
51.02844089239443
 30
0.0
 11
-152.3868892520954
 21
51.02844089239443
 31
0.0
  0
LINE
  5
346
330
1F
100
AcDbEntity
  8
LAYER0016
  6
DASHED2
 62
     3
100
AcDbLine
 10
-155.5868892520957
 20
63.02844089239443
 30
0.0
 11
-152.3868892520954
 21
63.02844089239443
 31
0.0
  0
LINE
  5
347
330
1F
100
AcDbEntity
  8
LAYER0016
  6
DASHED2
 62
     3
100
AcDbLine
 10
-152.3868892520954
 20
67.02844089239352
 30
0.0
 11
-155.5868892520957
 21
67.02844089239352
 31
0.0
  0
LINE
  5
348
330
1F
100
AcDbEntity
  8
LAYER0016
  6
DASHED2
 62
     3
100
AcDbLine
 10
-155.5868892520957
 20
72.02844089239352
 30
0.0
 11
-155.5868892520957
 21
18.22844089239425
 31
0.0
  0
LINE
  5
349
330
1F
100
AcDbEntity
  8
LAYER0016
  6
DASHED2
 62
     3
100
AcDbLine
 10
-152.3868892520954
 20
72.02844089239352
 30
0.0
 11
-152.3868892520954
 21
18.22844089239425
 31
0.0
  0
LINE
  5
34A
330
1F
100
AcDbEntity
  8
LAYER0016
  6
DASHED2
 62
     3
100
AcDbLine
 10
-155.5868892520957
 20
72.02844089239352
 30
0.0
 11
-152.3868892520954
 21
72.02844089239352
 31
0.0
  0
LINE
  5
34B
330
1F
100
AcDbEntity
  8
LAYER0016
  6
DASHED2
 62
     3
100
AcDbLine
 10
-133.5543738928014
 20
15.22844089239425
 30
0.0
 11
-133.5543738928014
 21
12.02844089239443
 31
0.0
  0
ARC
  5
34C
330
1F
100
AcDbEntity
  8
LAYER0016
  6
DASHED2
 62
     3
100
AcDbCircle
 10
-149.3868892520957
 20
18.22844089239425
 30
0.0
 40
6.2
100
AcDbArc
 50
180.0
 51
270.0
  0
ARC
  5
34D
330
1F
100
AcDbEntity
  8
LAYER0016
  6
DASHED2
 62
     3
100
AcDbCircle
 10
-149.3868892520954
 20
18.22844089239425
 30
0.0
 40
3.0
100
AcDbArc
 50
180.0
 51
270.0
  0
LINE
  5
34E
330
1F
100
AcDbEntity
  8
LAYER0016
  6
DASHED2
 62
     3
100
AcDbLine
 10
1363.813110747904
 20
72.02844089239352
 30
0.0
 11
1363.813110747904
 21
18.22844089239425
 31
0.0
  0
LINE
  5
34F
330
1F
100
AcDbEntity
  8
LAYER0016
  6
DASHED2
 62
     3
100
AcDbLine
 10
1360.613110747903
 20
72.02844089239352
 30
0.0
 11
1360.613110747903
 21
18.22844089239425
 31
0.0
  0
ARC
  5
350
330
1F
100
AcDbEntity
  8
LAYER0016
  6
DASHED2
 62
     3
100
AcDbCircle
 10
1357.613110747903
 20
18.22844089239425
 30
0.0
 40
6.2
100
AcDbArc
 50
270.0
 51
0.0
  0
ARC
  5
351
330
1F
100
AcDbEntity
  8
LAYER0016
  6
DASHED2
 62
     3
100
AcDbCircle
 10
1357.613110747903
 20
18.22844089239425
 30
0.0
 40
3.0
100
AcDbArc
 50
270.0
 51
0.0
  0
LINE
  5
352
330
1F
100
AcDbEntity
  8
LAYER0016
  6
DASHED2
 62
     3
100
AcDbLine
 10
1363.813110747904
 20
51.02844089239443
 30
0.0
 11
1360.613110747903
 21
51.02844089239443
 31
0.0
  0
LINE
  5
353
330
1F
100
AcDbEntity
  8
LAYER0016
  6
DASHED2
 62
     3
100
AcDbLine
 10
1363.813110747904
 20
63.02844089239443
 30
0.0
 11
1360.613110747903
 21
63.02844089239443
 31
0.0
  0
LINE
  5
354
330
1F
100
AcDbEntity
  8
LAYER0016
  6
DASHED2
 62
     3
100
AcDbLine
 10
1360.613110747903
 20
67.02844089239352
 30
0.0
 11
1363.813110747904
 21
67.02844089239352
 31
0.0
  0
LINE
  5
355
330
1F
100
AcDbEntity
  8
LAYER0016
  6
DASHED2
 62
     3
100
AcDbLine
 10
1363.813110747904
 20
72.02844089239352
 30
0.0
 11
1360.613110747903
 21
72.02844089239352
 31
0.0
  0
LINE
  5
356
330
1F
100
AcDbEntity
  8
LAYER0016
  6
DASHED2
 62
     3
100
AcDbLine
 10
1341.780595388609
 20
15.22844089239425
 30
0.0
 11
1341.780595388609
 21
12.02844089239443
 31
0.0
  0
LINE
  5
357
330
1F
100
AcDbEntity
  8
LAYER0016
  6
DASHED2
 62
     3
100
AcDbLine
 10
-149.3868892520957
 20
12.02844089239443
 30
0.0
 11
-45.58688925209522
 21
12.02844089239443
 31
0.0
  0
LINE
  5
358
330
1F
100
AcDbEntity
  8
LAYER0016
  6
DASHED2
 62
     3
100
AcDbLine
 10
-149.3868892520954
 20
15.22844089239425
 30
0.0
 11
-45.58688925209522
 21
15.22844089239425
 31
0.0
  0
LINE
  5
359
330
1F
100
AcDbEntity
  8
LAYER0016
  6
DASHED2
 62
     3
100
AcDbLine
 10
-45.58688925209567
 20
15.22844089239425
 30
0.0
 11
-45.58688925209567
 21
12.02844089239443
 31
0.0
  0
LINE
  5
35A
330
1F
100
AcDbEntity
  8
LAYER0016
  6
DASHED2
 62
     3
100
AcDbLine
 10
-50.58688925209522
 20
15.22844089239425
 30
0.0
 11
-50.58688925209522
 21
12.02844089239443
 31
0.0
  0
LINE
  5
35B
330
1F
100
AcDbEntity
  8
LAYER0016
  6
DASHED2
 62
     3
100
AcDbLine
 10
-60.58688925209567
 20
15.22844089239425
 30
0.0
 11
-60.58688925209567
 21
12.02844089239443
 31
0.0
  0
LINE
  5
35C
330
1F
100
AcDbEntity
  8
LAYER0016
  6
DASHED2
 62
     3
100
AcDbLine
 10
1357.613110747903
 20
12.02844089239443
 30
0.0
 11
1253.813110747903
 21
12.02844089239443
 31
0.0
  0
LINE
  5
35D
330
1F
100
AcDbEntity
  8
LAYER0016
  6
DASHED2
 62
     3
100
AcDbLine
 10
1357.613110747903
 20
15.22844089239425
 30
0.0
 11
1253.813110747903
 21
15.22844089239425
 31
0.0
  0
LINE
  5
35E
330
1F
100
AcDbEntity
  8
LAYER0016
  6
DASHED2
 62
     3
100
AcDbLine
 10
1253.813110747904
 20
15.22844089239425
 30
0.0
 11
1253.813110747904
 21
12.02844089239443
 31
0.0
  0
LINE
  5
35F
330
1F
100
AcDbEntity
  8
LAYER0016
  6
DASHED2
 62
     3
100
AcDbLine
 10
1258.813110747903
 20
15.22844089239425
 30
0.0
 11
1258.813110747903
 21
12.02844089239443
 31
0.0
  0
LINE
  5
360
330
1F
100
AcDbEntity
  8
LAYER0016
  6
DASHED2
 62
     3
100
AcDbLine
 10
1268.813110747904
 20
15.22844089239425
 30
0.0
 11
1268.813110747904
 21
12.02844089239443
 31
0.0
  0
LINE
  5
361
330
1F
100
AcDbEntity
  8
LAYER0016
  6
DASHED2
 62
     3
100
AcDbLine
 10
854.1832834671251
 20
39.0293748923923
 30
0.0
 11
857.3832834671249
 21
39.0293748923923
 31
0.0
  0
LINE
  5
362
330
1F
100
AcDbEntity
  8
LAYER0016
  6
DASHED2
 62
     3
100
AcDbLine
 10
857.3832834671249
 20
39.0293748923923
 30
0.0
 11
857.3832834671249
 21
80.52844089239466
 31
0.0
  0
LINE
  5
363
330
1F
100
AcDbEntity
  8
LAYER0016
  6
DASHED2
 62
     3
100
AcDbLine
 10
857.3832834671249
 20
80.52844089239466
 30
0.0
 11
884.1832834671251
 21
80.52844089239466
 31
0.0
  0
LINE
  5
364
330
1F
100
AcDbEntity
  8
LAYER0016
  6
DASHED2
 62
     3
100
AcDbLine
 10
854.1832834671251
 20
39.0293748923923
 30
0.0
 11
854.1832834671251
 21
82.8284408923945
 31
0.0
  0
LINE
  5
365
330
1F
100
AcDbEntity
  8
LAYER0016
  6
DASHED2
 62
     3
100
AcDbLine
 10
884.1832834671251
 20
80.52844089239466
 30
0.0
 11
884.1832834671251
 21
82.8284408923937
 31
0.0
  0
LINE
  5
366
330
1F
100
AcDbEntity
  8
LAYER0016
  6
DASHED2
 62
     3
100
AcDbLine
 10
354.0425925902413
 20
39.0293748923923
 30
0.0
 11
350.8425925902415
 21
39.0293748923923
 31
0.0
  0
LINE
  5
367
330
1F
100
AcDbEntity
  8
LAYER0016
  6
DASHED2
 62
     3
100
AcDbLine
 10
350.8425925902415
 20
39.0293748923923
 30
0.0
 11
350.8425925902415
 21
80.52844089239466
 31
0.0
  0
LINE
  5
368
330
1F
100
AcDbEntity
  8
LAYER0016
  6
DASHED2
 62
     3
100
AcDbLine
 10
350.8425925902415
 20
80.52844089239466
 30
0.0
 11
324.0425925902413
 21
80.52844089239466
 31
0.0
  0
LINE
  5
369
330
1F
100
AcDbEntity
  8
LAYER0016
  6
DASHED2
 62
     3
100
AcDbLine
 10
354.0425925902413
 20
39.0293748923923
 30
0.0
 11
354.0425925902413
 21
82.8284408923945
 31
0.0
  0
LINE
  5
36A
330
1F
100
AcDbEntity
  8
LAYER0016
  6
DASHED2
 62
     3
100
AcDbLine
 10
324.0425925902413
 20
80.52844089239466
 30
0.0
 11
324.0425925902413
 21
82.8284408923937
 31
0.0
  0
LINE
  5
36B
330
1F
100
AcDbEntity
  8
LAYER0016
  6
DASHED2
 62
     3
100
AcDbLine
 10
1363.813110747904
 20
38.02937489239241
 30
0.0
 11
1367.013110747904
 21
38.02937489239241
 31
0.0
  0
LINE
  5
36C
330
1F
100
AcDbEntity
  8
LAYER0016
  6
DASHED2
 62
     3
100
AcDbLine
 10
1367.013110747904
 20
38.02937489239241
 30
0.0
 11
1367.013110747904
 21
79.52844089239477
 31
0.0
  0
LINE
  5
36D
330
1F
100
AcDbEntity
  8
LAYER0016
  6
DASHED2
 62
     3
100
AcDbLine
 10
1363.813110747904
 20
38.02937489239241
 30
0.0
 11
1363.813110747904
 21
81.82844089239461
 31
0.0
  0
LINE
  5
36E
330
1F
100
AcDbEntity
  8
LAYER0016
  6
DASHED2
 62
     3
100
AcDbLine
 10
1367.013110747904
 20
79.52844089239477
 30
0.0
 11
1393.813110747904
 21
79.52844089239477
 31
0.0
  0
LINE
  5
36F
330
1F
100
AcDbEntity
  8
LAYER0016
  6
DASHED2
 62
     3
100
AcDbLine
 10
1393.813110747904
 20
79.52844089239477
 30
0.0
 11
1393.813110747904
 21
81.82844089239381
 31
0.0
  0
LINE
  5
370
330
1F
100
AcDbEntity
  8
LAYER0016
  6
DASHED2
 62
     3
100
AcDbLine
 10
-158.7872346905372
 20
79.52844089239477
 30
0.0
 11
-185.5872346905374
 21
79.52844089239477
 31
0.0
  0
LINE
  5
371
330
1F
100
AcDbEntity
  8
LAYER0016
  6
DASHED2
 62
     3
100
AcDbLine
 10
-158.7872346905372
 20
38.02937489239241
 30
0.0
 11
-158.7872346905372
 21
79.52844089239477
 31
0.0
  0
LINE
  5
372
330
1F
100
AcDbEntity
  8
LAYER0016
  6
DASHED2
 62
     3
100
AcDbLine
 10
-155.5872346905374
 20
38.02937489239241
 30
0.0
 11
-155.5872346905374
 21
81.82844089239461
 31
0.0
  0
LINE
  5
373
330
1F
100
AcDbEntity
  8
LAYER0016
  6
DASHED2
 62
     3
100
AcDbLine
 10
-185.5872346905374
 20
79.52844089239477
 30
0.0
 11
-185.5872346905374
 21
81.82844089239381
 31
0.0
  0
LINE
  5
374
330
1F
100
AcDbEntity
  8
LAYER0016
  6
DASHED2
 62
     3
100
AcDbLine
 10
-155.5872346905374
 20
38.02937489239241
 30
0.0
 11
-158.7872346905372
 21
38.02937489239241
 31
0.0
  0
INSERT
  5
375
330
1F
100
AcDbEntity
  8
LAYER0016
  6
CONTINUOUS
100
AcDbBlockReference
  2
DC_GROUP_1
 10
0.0
 20
0.0
 30
0.0
  0
INSERT
  5
376
330
1F
100
AcDbEntity
  8
LAYER0016
  6
CONTINUOUS
100
AcDbBlockReference
  2
DC_GROUP_2
 10
0.0
 20
0.0
 30
0.0
  0
INSERT
  5
377
330
1F
100
AcDbEntity
  8
LAYER0016
  6
CONTINUOUS
100
AcDbBlockReference
  2
DC_GROUP_3
 10
0.0
 20
0.0
 30
0.0
  0
INSERT
  5
378
330
1F
100
AcDbEntity
  8
LAYER0016
  6
CONTINUOUS
100
AcDbBlockReference
  2
DC_GROUP_4
 10
0.0
 20
0.0
 30
0.0
  0
DIMENSION
  5
379
330
1F
100
AcDbEntity
  8
LAYER0016
  6
CONTINUOUS
100
AcDbDimension
  2
*D5
 10
1604.113110747904
 20
-611.1741487946493
 30
0.0
 11
1604.113110747904
 21
-921.1706251076081
 31
0.0
 70
   160
  1
120
  3
DC_ROTATED
100
AcDbAlignedDimension
 13
1298.110338028684
 23
-731.1706251076081
 33
0.0
 14
1285.673481670835
 24
-611.1741487946493
 34
0.0
 50
90.0
100
AcDbRotatedDimension
1001
ACAD
1000
DSTYLE
1002
{
1070
     7
1000
OPEN30
1070
     6
1000
OPEN30
1070
   144
1040
1.0
1070
   274
1070
     4
1070
    41
1040
75.00004768371582
1070
    79
1070
     2
1070
   176
1070
     4
1070
   177
1070
     4
1070
   178
1070
     4
1070
   271
1070
     2
1070
    44
1040
25.0
1070
    42
1040
25.0
1070
   147
1040
25.0
1070
   173
1070
     1
1070
    77
1070
     3
1070
    73
1070
     0
1070
   172
1070
     1
1070
    74
1070
     0
1070
   283
1070
     0
1070
   340
1005
177
1070
   140
1040
75.0
1070
   284
1070
     8
1070
   288
1070
     1
1070
    78
1070
     8
1070
    90
1070
     1
1002
}
  0
DIMENSION
  5
37B
330
1F
100
AcDbEntity
  8
LAYER0016
  6
CONTINUOUS
100
AcDbDimension
  2
*D6
 10
1604.113110747904
 20
-411.1741487946492
 30
0.0
 11
1604.113110747904
 21
-41.17414879464911
 31
0.0
 70
   160
  1
100×2＝200
  3
DC_ROTATED
100
AcDbAlignedDimension
 13
1285.673481670835
 23
-611.1741487946493
 33
0.0
 14
1285.673481670835
 24
-411.1741487946492
 34
0.0
 50
90.0
100
AcDbRotatedDimension
1001
ACAD
1000
DSTYLE
1002
{
1070
     7
1000
DOT
1070
     6
1000
DOT
1070
   144
1040
1.0
1070
   274
1070
     4
1070
    41
1040
62.5
1070
    79
1070
     2
1070
   176
1070
     4
1070
   177
1070
     4
1070
   178
1070
     4
1070
   271
1070
     2
1070
    44
1040
25.0
1070
    42
1040
25.0
1070
   147
1040
25.0
1070
   173
1070
     1
1070
    77
1070
     3
1070
    73
1070
     0
1070
   172
1070
     1
1070
    74
1070
     0
1070
   283
1070
     0
1070
   340
1005
177
1070
   140
1040
75.0
1070
   284
1070
     8
1070
   288
1070
     1
1070
    78
1070
     8
1070
    90
1070
     1
1002
}
  0
DIMENSION
  5
37C
330
1F
100
AcDbEntity
  8
LAYER0016
  6
CONTINUOUS
100
AcDbDimension
  2
*D7
 10
1404.113110747904
 20
1519.425219157024
 30
0.0
 11
604.1129380286837
 21
1519.425219157024
 31
0.0
 70
   160
  3
DC_ROTATED
100
AcDbAlignedDimension
 13
-195.8872346905368
 23
1271.825219157024
 33
0.0
 14
1404.113110747904
 24
1271.825219157024
 34
0.0
100
AcDbRotatedDimension
1001
ACAD
1000
DSTYLE
1002
{
1070
     7
1000
OPEN30
1070
     6
1000
OPEN30
1070
   144
1040
1.0
1070
   274
1070
     4
1070
    41
1040
75.00004768371582
1070
    79
1070
     2
1070
   176
1070
     4
1070
   177
1070
     4
1070
   178
1070
     4
1070
   271
1070
     2
1070
    44
1040
25.0
1070
    42
1040
25.0
1070
   147
1040
25.00000000000045
1070
   173
1070
     1
1070
    77
1070
     3
1070
    73
1070
     0
1070
   172
1070
     1
1070
    74
1070
     0
1070
   283
1070
     0
1070
   340
1005
177
1070
   140
1040
75.0
1070
   284
1070
     8
1070
   288
1070
     1
1070
    78
1070
     8
1070
    90
1070
     1
1002
}
  0
INSERT
  5
37D
330
1F
100
AcDbEntity
  8
LAYER0016
  6
CONTINUOUS
100
AcDbBlockReference
  2
DC_GROUP_5
 10
0.0
 20
0.0
 30
0.0
  0
INSERT
  5
37E
330
1F
100
AcDbEntity
  8
LAYER0016
  6
CONTINUOUS
100
AcDbBlockReference
  2
DC_GROUP_6
 10
0.0
 20
0.0
 30
0.0
  0
INSERT
  5
37F
330
1F
100
AcDbEntity
  8
LAYER0016
  6
CONTINUOUS
100
AcDbBlockReference
  2
DC_GROUP_7
 10
0.0
 20
0.0
 30
0.0
  0
INSERT
  5
380
330
1F
100
AcDbEntity
  8
LAYER0016
  6
CONTINUOUS
100
AcDbBlockReference
  2
DC_GROUP_8
 10
0.0
 20
0.0
 30
0.0
  0
DIMENSION
  5
381
330
1F
100
AcDbEntity
  8
LAYER0016
  6
CONTINUOUS
100
AcDbDimension
  2
*D12
 10
-345.8872346905371
 20
1369.425219157024
 30
0.0
 11
-345.8872346905371
 21
1020.625219157023
 31
0.0
 70
   160
  1
697.5
  3
DC_ROTATED
100
AcDbAlignedDimension
 13
-195.8872346905371
 23
671.8252191570223
 33
0.0
 14
-195.8872346905371
 24
1369.425219157024
 34
0.0
 50
90.0
100
AcDbRotatedDimension
1001
ACAD
1000
DSTYLE
1002
{
1070
     7
1000
OPEN30
1070
     6
1000
OPEN30
1070
   144
1040
1.0
1070
   274
1070
     4
1070
    41
1040
75.00004768371582
1070
    79
1070
     2
1070
   176
1070
     4
1070
   177
1070
     4
1070
   178
1070
     4
1070
   271
1070
     2
1070
    44
1040
25.0
1070
    42
1040
25.0
1070
   147
1040
25.00000000000006
1070
   173
1070
     1
1070
    77
1070
     3
1070
    73
1070
     0
1070
   172
1070
     1
1070
    74
1070
     0
1070
   283
1070
     0
1070
   340
1005
177
1070
   140
1040
75.0
1070
   284
1070
     8
1070
   288
1070
     1
1070
    78
1070
     8
1070
    90
1070
     1
1002
}
  0
DIMENSION
  5
382
330
1F
100
AcDbEntity
  8
LAYER0016
  6
CONTINUOUS
100
AcDbDimension
  2
*D13
 10
-345.8872346905375
 20
142.5617316988582
 30
0.0
 11
-345.8872346905375
 21
-294.3044467043749
 31
0.0
 70
   160
  1
(874)
  3
DC_ROTATED
100
AcDbAlignedDimension
 13
-86.58706350207756
 23
-731.170625107608
 33
0.0
 14
-195.8872346905375
 24
142.5617316988582
 34
0.0
 50
90.0
100
AcDbRotatedDimension
1001
ACAD
1000
DSTYLE
1002
{
1070
     7
1000
OPEN30
1070
     6
1000
OPEN30
1070
   144
1040
1.0
1070
   274
1070
     4
1070
    41
1040
75.00004768371582
1070
    79
1070
     2
1070
   176
1070
     4
1070
   177
1070
     4
1070
   178
1070
     4
1070
   271
1070
     2
1070
    44
1040
25.0
1070
    42
1040
25.0
1070
   147
1040
25.00000000000006
1070
   173
1070
     1
1070
    77
1070
     3
1070
    73
1070
     0
1070
   172
1070
     1
1070
    74
1070
     0
1070
   283
1070
     0
1070
   340
1005
177
1070
   140
1040
75.0
1070
   284
1070
     8
1070
   288
1070
     1
1070
    78
1070
     8
1070
    90
1070
     1
1002
}
  0
LINE
  5
383
330
1F
100
AcDbEntity
  8
LAYER0016
  6
CENTER
 62
     6
100
AcDbLine
 10
-82.26166340622483
 20
-64.15238314392991
 30
0.0
 11
-93.24787695271623
 21
-64.15238314392991
 31
0.0
  0
LINE
  5
384
330
1F
100
AcDbEntity
  8
LAYER0016
  6
CENTER
 62
     6
100
AcDbLine
 10
-82.26166340622483
 20
-41.17069210760701
 30
0.0
 11
-93.24787695271623
 21
-41.17069210760701
 31
0.0
  0
LINE
  5
385
330
1F
100
AcDbEntity
  8
LAYER0016
  6
CENTER
 62
     6
100
AcDbLine
 10
-82.26166340622483
 20
-71.17115910760549
 30
0.0
 11
-93.24787695271623
 21
-71.17115910760549
 31
0.0
  0
LINE
  5
386
330
1F
100
AcDbEntity
  8
LAYER0016
  6
CENTER
 62
     6
100
AcDbLine
 10
1290.487539463592
 20
-64.15238314392991
 30
0.0
 11
1301.473753010083
 21
-64.15238314392991
 31
0.0
  0
LINE
  5
387
330
1F
100
AcDbEntity
  8
LAYER0016
  6
CENTER
 62
     6
100
AcDbLine
 10
1290.487539463592
 20
-41.17069210760701
 30
0.0
 11
1301.473753010083
 21
-41.17069210760701
 31
0.0
  0
LINE
  5
388
330
1F
100
AcDbEntity
  8
LAYER0016
  6
CENTER
 62
     6
100
AcDbLine
 10
1290.487539463592
 20
-71.17115910760549
 30
0.0
 11
1301.473753010083
 21
-71.17115910760549
 31
0.0
  0
LINE
  5
389
330
1F
100
AcDbEntity
  8
LAYER0016
  6
CENTER
 62
     6
100
AcDbLine
 10
2340.732810786544
 20
-411.1741487946492
 30
0.0
 11
2376.975331965883
 21
-411.1741487946492
 31
0.0
  0
LINE
  5
38A
330
1F
100
AcDbEntity
  8
LAYER0016
  6
CENTER
 62
     6
100
AcDbLine
 10
2340.732810786544
 20
-511.1741487946492
 30
0.0
 11
2376.975331965883
 21
-511.1741487946492
 31
0.0
  0
LINE
  5
38B
330
1F
100
AcDbEntity
  8
LAYER0016
  6
CENTER
 62
     6
100
AcDbLine
 10
2340.732810786544
 20
-611.1741487946492
 30
0.0
 11
2376.975331965883
 21
-611.1741487946492
 31
0.0
  0
TEXT
  5
38C
330
1F
100
AcDbEntity
  8
LAYER0048
 62
     7
100
AcDbText
 10
-2804.510266049614
 20
-2038.810228745034
 30
0.0
 40
119.4614471994055
  1
　株式会社
 41
0.669465389106692
  7
DCSTYLE0
 72
     5
 11
-2261.914279249081
 21
-2038.810228745034
 31
0.0
100
AcDbText
  0
TEXT
  5
38E
330
1F
100
AcDbEntity
  8
LAYER0048
 62
     7
100
AcDbText
 10
-2142.723024164111
 20
1903.501121796449
 30
0.0
 40
325.0
  1
サンダイヤ　ルーフ　　仕様書
 41
0.8576010659040687
  7
DCSTYLE2
 72
     5
 11
2147.276975835889
 21
1903.501121796449
 31
0.0
100
AcDbText
  0
LINE
  5
38F
330
1F
100
AcDbEntity
  8
LAYER0048
  6
CONTINUOUS
 62
     3
100
AcDbLine
 10
-1792.910435610745
 20
-1958.403234514544
 30
0.0
 11
-1791.407677292539
 21
-1956.900476196338
 31
0.0
  0
LINE
  5
390
330
1F
100
AcDbEntity
  8
LAYER0048
  6
CONTINUOUS
 62
     3
100
AcDbLine
 10
-1793.572461535952
 20
-1962.176530276972
 30
0.0
 11
-1787.863118584463
 21
-1956.467187325482
 31
0.0
  0
LINE
  5
391
330
1F
100
AcDbEntity
  8
LAYER0048
  6
CONTINUOUS
 62
     3
100
AcDbLine
 10
-1794.234487461159
 20
-1965.9498260394
 30
0.0
 11
-1783.863952858891
 21
-1955.579291437131
 31
0.0
  0
LINE
  5
392
330
1F
100
AcDbEntity
  8
LAYER0048
  6
CONTINUOUS
 62
     3
100
AcDbLine
 10
-1802.89198085277
 20
-2015.053827314881
 30
0.0
 11
-1802.502380342078
 21
-2014.664226804191
 31
0.0
  0
LINE
  5
393
330
1F
100
AcDbEntity
  8
LAYER0048
  6
CONTINUOUS
 62
     3
100
AcDbLine
 10
-1803.558023630924
 20
-2018.831139930256
 30
0.0
 11
-1799.391110504856
 21
-2014.664226804191
 31
0.0
  0
LINE
  5
394
330
1F
100
AcDbEntity
  8
LAYER0048
  6
CONTINUOUS
 62
     3
100
AcDbLine
 10
-1804.224066409079
 20
-2022.608452545632
 30
0.0
 11
-1796.279840667636
 21
-2014.664226804191
 31
0.0
  0
LINE
  5
395
330
1F
100
AcDbEntity
  8
LAYER0048
  6
CONTINUOUS
 62
     3
100
AcDbLine
 10
-1804.890109187234
 20
-2026.385765161007
 30
0.0
 11
-1793.168570830415
 21
-2014.664226804191
 31
0.0
  0
LINE
  5
396
330
1F
100
AcDbEntity
  8
LAYER0048
  6
CONTINUOUS
 62
     3
100
AcDbLine
 10
-1805.556151965388
 20
-2030.163077776382
 30
0.0
 11
-1790.057300993194
 21
-2014.664226804191
 31
0.0
  0
LINE
  5
397
330
1F
100
AcDbEntity
  8
LAYER0048
  6
CONTINUOUS
 62
     3
100
AcDbLine
 10
-1806.222194743542
 20
-2033.940390391758
 30
0.0
 11
-1786.946031155974
 21
-2014.664226804191
 31
0.0
  0
LINE
  5
398
330
1F
100
AcDbEntity
  8
LAYER0048
  6
CONTINUOUS
 62
     3
100
AcDbLine
 10
-1803.634721718753
 20
-2034.46418720419
 30
0.0
 11
-1783.834761318753
 21
-2014.664226804191
 31
0.0
  0
LINE
  5
399
330
1F
100
AcDbEntity
  8
LAYER0048
  6
CONTINUOUS
 62
     3
100
AcDbLine
 10
-1952.298064359342
 20
-1918.66959368101
 30
0.0
 11
-1949.292895482522
 21
-1915.664424804191
 31
0.0
  0
LINE
  5
39A
330
1F
100
AcDbEntity
  8
LAYER0048
  6
CONTINUOUS
 62
     3
100
AcDbLine
 10
-1952.964107137497
 20
-1922.446906296384
 30
0.0
 11
-1946.181625645301
 21
-1915.664424804191
 31
0.0
  0
LINE
  5
39B
330
1F
100
AcDbEntity
  8
LAYER0048
  6
CONTINUOUS
 62
     3
100
AcDbLine
 10
-1953.630149915651
 20
-1926.22421891176
 30
0.0
 11
-1943.070355808081
 21
-1915.664424804191
 31
0.0
  0
LINE
  5
39C
330
1F
100
AcDbEntity
  8
LAYER0048
  6
CONTINUOUS
 62
     3
100
AcDbLine
 10
-1954.296192693805
 20
-1930.001531527135
 30
0.0
 11
-1939.959085970859
 21
-1915.664424804191
 31
0.0
  0
LINE
  5
39D
330
1F
100
AcDbEntity
  8
LAYER0048
  6
CONTINUOUS
 62
     3
100
AcDbLine
 10
-1954.962235471959
 20
-1933.77884414251
 30
0.0
 11
-1936.847816133639
 21
-1915.664424804191
 31
0.0
  0
LINE
  5
39E
330
1F
100
AcDbEntity
  8
LAYER0048
  6
CONTINUOUS
 62
     3
100
AcDbLine
 10
-1953.536506696418
 20
-1935.464385204191
 30
0.0
 11
-1933.736546296419
 21
-1915.664424804191
 31
0.0
  0
LINE
  5
39F
330
1F
100
AcDbEntity
  8
LAYER0048
  6
CONTINUOUS
 62
     3
100
AcDbLine
 10
-1950.425236859197
 20
-1935.464385204191
 30
0.0
 11
-1930.625276459197
 21
-1915.664424804191
 31
0.0
  0
LINE
  5
3A0
330
1F
100
AcDbEntity
  8
LAYER0048
  6
CONTINUOUS
 62
     3
100
AcDbLine
 10
-1947.313967021976
 20
-1935.464385204191
 30
0.0
 11
-1927.514006621977
 21
-1915.664424804191
 31
0.0
  0
LINE
  5
3A1
330
1F
100
AcDbEntity
  8
LAYER0048
  6
CONTINUOUS
 62
     3
100
AcDbLine
 10
-1944.202697184756
 20
-1935.464385204191
 30
0.0
 11
-1924.402736784756
 21
-1915.664424804191
 31
0.0
  0
LINE
  5
3A2
330
1F
100
AcDbEntity
  8
LAYER0048
  6
CONTINUOUS
 62
     3
100
AcDbLine
 10
-1941.091427347535
 20
-1935.464385204191
 30
0.0
 11
-1921.291466947536
 21
-1915.664424804191
 31
0.0
  0
LINE
  5
3A3
330
1F
100
AcDbEntity
  8
LAYER0048
  6
CONTINUOUS
 62
     3
100
AcDbLine
 10
-1937.980157510314
 20
-1935.464385204191
 30
0.0
 11
-1918.180197110315
 21
-1915.664424804191
 31
0.0
  0
LINE
  5
3A4
330
1F
100
AcDbEntity
  8
LAYER0048
  6
CONTINUOUS
 62
     3
100
AcDbLine
 10
-1934.868887673093
 20
-1935.464385204191
 30
0.0
 11
-1915.068927273094
 21
-1915.664424804191
 31
0.0
  0
LINE
  5
3A5
330
1F
100
AcDbEntity
  8
LAYER0048
  6
CONTINUOUS
 62
     3
100
AcDbLine
 10
-1931.757617835873
 20
-1935.464385204191
 30
0.0
 11
-1911.957657435873
 21
-1915.664424804191
 31
0.0
  0
LINE
  5
3A6
330
1F
100
AcDbEntity
  8
LAYER0048
  6
CONTINUOUS
 62
     3
100
AcDbLine
 10
-1928.646347998652
 20
-1935.464385204191
 30
0.0
 11
-1908.846387598652
 21
-1915.664424804191
 31
0.0
  0
LINE
  5
3A7
330
1F
100
AcDbEntity
  8
LAYER0048
  6
CONTINUOUS
 62
     3
100
AcDbLine
 10
-1925.535078161432
 20
-1935.464385204191
 30
0.0
 11
-1905.735117761431
 21
-1915.664424804191
 31
0.0
  0
LINE
  5
3A8
330
1F
100
AcDbEntity
  8
LAYER0048
  6
CONTINUOUS
 62
     3
100
AcDbLine
 10
-1922.423808324211
 20
-1935.464385204191
 30
0.0
 11
-1902.623847924211
 21
-1915.664424804191
 31
0.0
  0
LINE
  5
3A9
330
1F
100
AcDbEntity
  8
LAYER0048
  6
CONTINUOUS
 62
     3
100
AcDbLine
 10
-1919.312538486989
 20
-1935.464385204191
 30
0.0
 11
-1899.51257808699
 21
-1915.664424804191
 31
0.0
  0
LINE
  5
3AA
330
1F
100
AcDbEntity
  8
LAYER0048
  6
CONTINUOUS
 62
     3
100
AcDbLine
 10
-1916.201268649769
 20
-1935.464385204191
 30
0.0
 11
-1896.40130824977
 21
-1915.664424804191
 31
0.0
  0
LINE
  5
3AB
330
1F
100
AcDbEntity
  8
LAYER0048
  6
CONTINUOUS
 62
     3
100
AcDbLine
 10
-1913.089998812548
 20
-1935.464385204191
 30
0.0
 11
-1893.290038412549
 21
-1915.664424804191
 31
0.0
  0
LINE
  5
3AC
330
1F
100
AcDbEntity
  8
LAYER0048
  6
CONTINUOUS
 62
     3
100
AcDbLine
 10
-1909.978728975328
 20
-1935.464385204191
 30
0.0
 11
-1890.178768575328
 21
-1915.664424804191
 31
0.0
  0
LINE
  5
3AD
330
1F
100
AcDbEntity
  8
LAYER0048
  6
CONTINUOUS
 62
     3
100
AcDbLine
 10
-1906.867459138106
 20
-1935.464385204191
 30
0.0
 11
-1887.067498738107
 21
-1915.664424804191
 31
0.0
  0
LINE
  5
3AE
330
1F
100
AcDbEntity
  8
LAYER0048
  6
CONTINUOUS
 62
     3
100
AcDbLine
 10
-1903.756189300886
 20
-1935.464385204191
 30
0.0
 11
-1883.956228900887
 21
-1915.664424804191
 31
0.0
  0
LINE
  5
3AF
330
1F
100
AcDbEntity
  8
LAYER0048
  6
CONTINUOUS
 62
     3
100
AcDbLine
 10
-1900.644919463665
 20
-1935.464385204191
 30
0.0
 11
-1880.844959063666
 21
-1915.664424804191
 31
0.0
  0
LINE
  5
3B0
330
1F
100
AcDbEntity
  8
LAYER0048
  6
CONTINUOUS
 62
     3
100
AcDbLine
 10
-1897.533649626444
 20
-1935.464385204191
 30
0.0
 11
-1877.733689226445
 21
-1915.664424804191
 31
0.0
  0
LINE
  5
3B1
330
1F
100
AcDbEntity
  8
LAYER0048
  6
CONTINUOUS
 62
     3
100
AcDbLine
 10
-1894.422379789224
 20
-1935.464385204191
 30
0.0
 11
-1874.622419389224
 21
-1915.664424804191
 31
0.0
  0
LINE
  5
3B2
330
1F
100
AcDbEntity
  8
LAYER0048
  6
CONTINUOUS
 62
     3
100
AcDbLine
 10
-1891.311109952003
 20
-1935.464385204191
 30
0.0
 11
-1871.511149552004
 21
-1915.664424804191
 31
0.0
  0
LINE
  5
3B3
330
1F
100
AcDbEntity
  8
LAYER0048
  6
CONTINUOUS
 62
     3
100
AcDbLine
 10
-1888.199840114782
 20
-1935.464385204191
 30
0.0
 11
-1868.399879714783
 21
-1915.664424804191
 31
0.0
  0
LINE
  5
3B4
330
1F
100
AcDbEntity
  8
LAYER0048
  6
CONTINUOUS
 62
     3
100
AcDbLine
 10
-1885.088570277562
 20
-1935.464385204191
 30
0.0
 11
-1867.761532957459
 21
-1918.137347884088
 31
0.0
  0
LINE
  5
3B5
330
1F
100
AcDbEntity
  8
LAYER0048
  6
CONTINUOUS
 62
     3
100
AcDbLine
 10
-1881.977300440341
 20
-1935.464385204191
 30
0.0
 11
-1868.427575735613
 21
-1921.914660499463
 31
0.0
  0
LINE
  5
3B6
330
1F
100
AcDbEntity
  8
LAYER0048
  6
CONTINUOUS
 62
     3
100
AcDbLine
 10
-1878.866030603121
 20
-1935.464385204191
 30
0.0
 11
-1869.093618513767
 21
-1925.691973114838
 31
0.0
  0
LINE
  5
3B7
330
1F
100
AcDbEntity
  8
LAYER0048
  6
CONTINUOUS
 62
     3
100
AcDbLine
 10
-1875.7547607659
 20
-1935.464385204191
 30
0.0
 11
-1869.759661291921
 21
-1929.469285730213
 31
0.0
  0
LINE
  5
3B8
330
1F
100
AcDbEntity
  8
LAYER0048
  6
CONTINUOUS
 62
     3
100
AcDbLine
 10
-1872.643490928679
 20
-1935.464385204191
 30
0.0
 11
-1870.425704070075
 21
-1933.246598345588
 31
0.0
  0
LINE
  5
3B9
330
1F
100
AcDbEntity
  8
LAYER0048
  6
CONTINUOUS
 62
     3
100
AcDbLine
 10
-1959.234648493227
 20
-2003.387923745415
 30
0.0
 11
-1958.630975312
 21
-2002.784250564191
 31
0.0
  0
LINE
  5
3BA
330
1F
100
AcDbEntity
  8
LAYER0048
  6
CONTINUOUS
 62
     3
100
AcDbLine
 10
-1959.900691271381
 20
-2007.16523636079
 30
0.0
 11
-1955.51970547478
 21
-2002.784250564191
 31
0.0
  0
LINE
  5
3BB
330
1F
100
AcDbEntity
  8
LAYER0048
  6
CONTINUOUS
 62
     3
100
AcDbLine
 10
-1960.566734049535
 20
-2010.942548976164
 30
0.0
 11
-1952.408435637559
 21
-2002.784250564191
 31
0.0
  0
LINE
  5
3BC
330
1F
100
AcDbEntity
  8
LAYER0048
  6
CONTINUOUS
 62
     3
100
AcDbLine
 10
-1961.232776827689
 20
-2014.719861591539
 30
0.0
 11
-1949.297165800339
 21
-2002.784250564191
 31
0.0
  0
LINE
  5
3BD
330
1F
100
AcDbEntity
  8
LAYER0048
  6
CONTINUOUS
 62
     3
100
AcDbLine
 10
-1961.898819605843
 20
-2018.497174206914
 30
0.0
 11
-1946.185895963118
 21
-2002.784250564191
 31
0.0
  0
LINE
  5
3BE
330
1F
100
AcDbEntity
  8
LAYER0048
  6
CONTINUOUS
 62
     3
100
AcDbLine
 10
-1962.564862383997
 20
-2022.274486822289
 30
0.0
 11
-1943.074626125897
 21
-2002.784250564191
 31
0.0
  0
LINE
  5
3BF
330
1F
100
AcDbEntity
  8
LAYER0048
  6
CONTINUOUS
 62
     3
100
AcDbLine
 10
-1963.230905162151
 20
-2026.051799437664
 30
0.0
 11
-1939.963356288676
 21
-2002.784250564191
 31
0.0
  0
LINE
  5
3C0
330
1F
100
AcDbEntity
  8
LAYER0048
  6
CONTINUOUS
 62
     3
100
AcDbLine
 10
-1963.896947940306
 20
-2029.829112053039
 30
0.0
 11
-1936.852086451455
 21
-2002.784250564191
 31
0.0
  0
LINE
  5
3C1
330
1F
100
AcDbEntity
  8
LAYER0048
  6
CONTINUOUS
 62
     3
100
AcDbLine
 10
-1964.56299071846
 20
-2033.606424668414
 30
0.0
 11
-1933.740816614235
 21
-2002.784250564191
 31
0.0
  0
LINE
  5
3C2
330
1F
100
AcDbEntity
  8
LAYER0048
  6
CONTINUOUS
 62
     3
100
AcDbLine
 10
-1962.309483417014
 20
-2034.46418720419
 30
0.0
 11
-1930.629546777014
 21
-2002.784250564191
 31
0.0
  0
LINE
  5
3C3
330
1F
100
AcDbEntity
  8
LAYER0048
  6
CONTINUOUS
 62
     3
100
AcDbLine
 10
-1959.198213579793
 20
-2034.46418720419
 30
0.0
 11
-1927.518276939793
 21
-2002.784250564191
 31
0.0
  0
LINE
  5
3C4
330
1F
100
AcDbEntity
  8
LAYER0048
  6
CONTINUOUS
 62
     3
100
AcDbLine
 10
-1956.086943742572
 20
-2034.46418720419
 30
0.0
 11
-1924.407007102572
 21
-2002.784250564191
 31
0.0
  0
LINE
  5
3C5
330
1F
100
AcDbEntity
  8
LAYER0048
  6
CONTINUOUS
 62
     3
100
AcDbLine
 10
-1952.975673905351
 20
-2034.46418720419
 30
0.0
 11
-1921.295737265352
 21
-2002.784250564191
 31
0.0
  0
LINE
  5
3C6
330
1F
100
AcDbEntity
  8
LAYER0048
  6
CONTINUOUS
 62
     3
100
AcDbLine
 10
-1949.864404068131
 20
-2034.46418720419
 30
0.0
 11
-1918.184467428131
 21
-2002.784250564191
 31
0.0
  0
LINE
  5
3C7
330
1F
100
AcDbEntity
  8
LAYER0048
  6
CONTINUOUS
 62
     3
100
AcDbLine
 10
-1946.75313423091
 20
-2034.46418720419
 30
0.0
 11
-1915.07319759091
 21
-2002.784250564191
 31
0.0
  0
LINE
  5
3C8
330
1F
100
AcDbEntity
  8
LAYER0048
  6
CONTINUOUS
 62
     3
100
AcDbLine
 10
-1826.7576535906
 20
-1917.5799764011
 30
0.0
 11
-1824.842101993691
 21
-1915.664424804191
 31
0.0
  0
LINE
  5
3C9
330
1F
100
AcDbEntity
  8
LAYER0048
  6
CONTINUOUS
 62
     3
100
AcDbLine
 10
-1943.641864393689
 20
-2034.46418720419
 30
0.0
 11
-1911.961927753689
 21
-2002.784250564191
 31
0.0
  0
LINE
  5
3CA
330
1F
100
AcDbEntity
  8
LAYER0048
  6
CONTINUOUS
 62
     3
100
AcDbLine
 10
-1827.423701309392
 20
-1921.357293957112
 30
0.0
 11
-1821.730832156471
 21
-1915.664424804191
 31
0.0
  0
LINE
  5
3CB
330
1F
100
AcDbEntity
  8
LAYER0048
  6
CONTINUOUS
 62
     3
100
AcDbLine
 10
-1940.530594556468
 20
-2034.46418720419
 30
0.0
 11
-1908.850657916469
 21
-2002.784250564191
 31
0.0
  0
LINE
  5
3CC
330
1F
100
AcDbEntity
  8
LAYER0048
  6
CONTINUOUS
 62
     3
100
AcDbLine
 10
-1828.089749028183
 20
-1925.134611513124
 30
0.0
 11
-1818.61956231925
 21
-1915.664424804191
 31
0.0
  0
LINE
  5
3CD
330
1F
100
AcDbEntity
  8
LAYER0048
  6
CONTINUOUS
 62
     3
100
AcDbLine
 10
-1937.419324719248
 20
-2034.46418720419
 30
0.0
 11
-1905.739388079247
 21
-2002.784250564191
 31
0.0
  0
LINE
  5
3CE
330
1F
100
AcDbEntity
  8
LAYER0048
  6
CONTINUOUS
 62
     3
100
AcDbLine
 10
-1828.755796746974
 20
-1928.911929069136
 30
0.0
 11
-1815.508292482029
 21
-1915.664424804191
 31
0.0
  0
LINE
  5
3CF
330
1F
100
AcDbEntity
  8
LAYER0048
  6
CONTINUOUS
 62
     3
100
AcDbLine
 10
-1934.308054882027
 20
-2034.46418720419
 30
0.0
 11
-1902.628118242027
 21
-2002.784250564191
 31
0.0
  0
LINE
  5
3D0
330
1F
100
AcDbEntity
  8
LAYER0048
  6
CONTINUOUS
 62
     3
100
AcDbLine
 10
-1829.421844465766
 20
-1932.689246625149
 30
0.0
 11
-1812.397022644809
 21
-1915.664424804191
 31
0.0
  0
LINE
  5
3D1
330
1F
100
AcDbEntity
  8
LAYER0048
  6
CONTINUOUS
 62
     3
100
AcDbLine
 10
-1931.196785044807
 20
-2034.46418720419
 30
0.0
 11
-1899.516848404807
 21
-2002.784250564191
 31
0.0
  0
LINE
  5
3D2
330
1F
100
AcDbEntity
  8
LAYER0048
  6
CONTINUOUS
 62
     3
100
AcDbLine
 10
-1830.087892184558
 20
-1936.466564181161
 30
0.0
 11
-1809.285752807587
 21
-1915.664424804191
 31
0.0
  0
LINE
  5
3D3
330
1F
100
AcDbEntity
  8
LAYER0048
  6
CONTINUOUS
 62
     3
100
AcDbLine
 10
-1928.085515207586
 20
-2034.46418720419
 30
0.0
 11
-1896.405578567586
 21
-2002.784250564191
 31
0.0
  0
LINE
  5
3D4
330
1F
100
AcDbEntity
  8
LAYER0048
  6
CONTINUOUS
 62
     3
100
AcDbLine
 10
-1830.753939903349
 20
-1940.243881737173
 30
0.0
 11
-1806.344540020207
 21
-1915.834481854034
 31
0.0
  0
LINE
  5
3D5
330
1F
100
AcDbEntity
  8
LAYER0048
  6
CONTINUOUS
 62
     3
100
AcDbLine
 10
-1924.974245370365
 20
-2034.46418720419
 30
0.0
 11
-1893.294308730365
 21
-2002.784250564191
 31
0.0
  0
LINE
  5
3D6
330
1F
100
AcDbEntity
  8
LAYER0048
  6
CONTINUOUS
 62
     3
100
AcDbLine
 10
-1831.419987622141
 20
-1944.021199293185
 30
0.0
 11
-1807.010582819201
 21
-1919.611794490248
 31
0.0
  0
LINE
  5
3D7
330
1F
100
AcDbEntity
  8
LAYER0048
  6
CONTINUOUS
 62
     3
100
AcDbLine
 10
-1921.862975533144
 20
-2034.46418720419
 30
0.0
 11
-1890.183038893145
 21
-2002.784250564191
 31
0.0
  0
LINE
  5
3D8
330
1F
100
AcDbEntity
  8
LAYER0048
  6
CONTINUOUS
 62
     3
100
AcDbLine
 10
-1832.086035340932
 20
-1947.798516849197
 30
0.0
 11
-1807.676625618195
 21
-1923.389107126463
 31
0.0
  0
LINE
  5
3D9
330
1F
100
AcDbEntity
  8
LAYER0048
  6
CONTINUOUS
 62
     3
100
AcDbLine
 10
-1918.751705695923
 20
-2034.46418720419
 30
0.0
 11
-1887.071769055923
 21
-2002.784250564191
 31
0.0
  0
LINE
  5
3DA
330
1F
100
AcDbEntity
  8
LAYER0048
  6
CONTINUOUS
 62
     3
100
AcDbLine
 10
-1832.752083059723
 20
-1951.575834405209
 30
0.0
 11
-1808.342668417189
 21
-1927.166419762678
 31
0.0
  0
LINE
  5
3DB
330
1F
100
AcDbEntity
  8
LAYER0048
  6
CONTINUOUS
 62
     3
100
AcDbLine
 10
-1915.640435858702
 20
-2034.46418720419
 30
0.0
 11
-1883.960499218703
 21
-2002.784250564191
 31
0.0
  0
LINE
  5
3DC
330
1F
100
AcDbEntity
  8
LAYER0048
  6
CONTINUOUS
 62
     3
100
AcDbLine
 10
-1833.418130778515
 20
-1955.353151961222
 30
0.0
 11
-1809.008711216183
 21
-1930.943732398892
 31
0.0
  0
LINE
  5
3DD
330
1F
100
AcDbEntity
  8
LAYER0048
  6
CONTINUOUS
 62
     3
100
AcDbLine
 10
-1912.529166021482
 20
-2034.46418720419
 30
0.0
 11
-1880.849229381483
 21
-2002.784250564191
 31
0.0
  0
LINE
  5
3DE
330
1F
100
AcDbEntity
  8
LAYER0048
  6
CONTINUOUS
 62
     3
100
AcDbLine
 10
-1834.084178497306
 20
-1959.130469517234
 30
0.0
 11
-1809.674754015177
 21
-1934.721045035106
 31
0.0
  0
LINE
  5
3DF
330
1F
100
AcDbEntity
  8
LAYER0048
  6
CONTINUOUS
 62
     3
100
AcDbLine
 10
-1909.417896184261
 20
-2034.46418720419
 30
0.0
 11
-1877.737959544262
 21
-2002.784250564191
 31
0.0
  0
LINE
  5
3E0
330
1F
100
AcDbEntity
  8
LAYER0048
  6
CONTINUOUS
 62
     3
100
AcDbLine
 10
-1834.750226216098
 20
-1962.907787073247
 30
0.0
 11
-1810.340796814171
 21
-1938.498357671322
 31
0.0
  0
LINE
  5
3E1
330
1F
100
AcDbEntity
  8
LAYER0048
  6
CONTINUOUS
 62
     3
100
AcDbLine
 10
-1906.30662634704
 20
-2034.46418720419
 30
0.0
 11
-1874.626689707041
 21
-2002.784250564191
 31
0.0
  0
LINE
  5
3E2
330
1F
100
AcDbEntity
  8
LAYER0048
  6
CONTINUOUS
 62
     3
100
AcDbLine
 10
-1835.416273934889
 20
-1966.685104629259
 30
0.0
 11
-1811.006839613165
 21
-1942.275670307536
 31
0.0
  0
LINE
  5
3E3
330
1F
100
AcDbEntity
  8
LAYER0048
  6
CONTINUOUS
 62
     3
100
AcDbLine
 10
-1903.195356509819
 20
-2034.46418720419
 30
0.0
 11
-1871.51541986982
 21
-2002.784250564191
 31
0.0
  0
LINE
  5
3E4
330
1F
100
AcDbEntity
  8
LAYER0048
  6
CONTINUOUS
 62
     3
100
AcDbLine
 10
-1836.082321653681
 20
-1970.462422185271
 30
0.0
 11
-1811.67288241216
 21
-1946.052982943751
 31
0.0
  0
LINE
  5
3E5
330
1F
100
AcDbEntity
  8
LAYER0048
  6
CONTINUOUS
 62
     3
100
AcDbLine
 10
-1900.084086672599
 20
-2034.46418720419
 30
0.0
 11
-1868.4041500326
 21
-2002.784250564191
 31
0.0
  0
LINE
  5
3E6
330
1F
100
AcDbEntity
  8
LAYER0048
  6
CONTINUOUS
 62
     3
100
AcDbLine
 10
-1836.748369372471
 20
-1974.239739741284
 30
0.0
 11
-1812.338925211153
 21
-1949.830295579965
 31
0.0
  0
LINE
  5
3E7
330
1F
100
AcDbEntity
  8
LAYER0048
  6
CONTINUOUS
 62
     3
100
AcDbLine
 10
-1896.972816835378
 20
-2034.46418720419
 30
0.0
 11
-1865.292880195379
 21
-2002.784250564191
 31
0.0
  0
LINE
  5
3E8
330
1F
100
AcDbEntity
  8
LAYER0048
  6
CONTINUOUS
 62
     3
100
AcDbLine
 10
-1837.414417091263
 20
-1978.017057297296
 30
0.0
 11
-1813.004968010147
 21
-1953.607608216181
 31
0.0
  0
LINE
  5
3E9
330
1F
100
AcDbEntity
  8
LAYER0048
  6
CONTINUOUS
 62
     3
100
AcDbLine
 10
-1893.861546998157
 20
-2034.46418720419
 30
0.0
 11
-1862.015092787309
 21
-2002.617732993342
 31
0.0
  0
LINE
  5
3EA
330
1F
100
AcDbEntity
  8
LAYER0048
  6
CONTINUOUS
 62
     3
100
AcDbLine
 10
-1838.175594636721
 20
-1981.889504679975
 30
0.0
 11
-1813.671010809141
 21
-1957.384920852395
 31
0.0
  0
LINE
  5
3EB
330
1F
100
AcDbEntity
  8
LAYER0048
  6
CONTINUOUS
 62
     3
100
AcDbLine
 10
-1890.750277160937
 20
-2034.46418720419
 30
0.0
 11
-1858.216128740265
 21
-2001.930038783518
 31
0.0
  0
LINE
  5
3EC
330
1F
100
AcDbEntity
  8
LAYER0048
  6
CONTINUOUS
 62
     3
100
AcDbLine
 10
-1839.888755134311
 20
-1986.713935014785
 30
0.0
 11
-1814.337053608135
 21
-1961.16223348861
 31
0.0
  0
LINE
  5
3ED
330
1F
100
AcDbEntity
  8
LAYER0048
  6
CONTINUOUS
 62
     3
100
AcDbLine
 10
-1887.639007323716
 20
-2034.46418720419
 30
0.0
 11
-1853.391698405454
 21
-2000.216878285928
 31
0.0
  0
LINE
  5
3EE
330
1F
100
AcDbEntity
  8
LAYER0048
  6
CONTINUOUS
 62
     3
100
AcDbLine
 10
-1884.527737486495
 20
-2034.46418720419
 30
0.0
 11
-1815.003096407129
 21
-1964.939546124824
 31
0.0
  0
LINE
  5
3EF
330
1F
100
AcDbEntity
  8
LAYER0048
  6
CONTINUOUS
 62
     3
100
AcDbLine
 10
-1881.416467649274
 20
-2034.46418720419
 30
0.0
 11
-1815.669139206123
 21
-1968.716858761039
 31
0.0
  0
LINE
  5
3F0
330
1F
100
AcDbEntity
  8
LAYER0048
  6
CONTINUOUS
 62
     3
100
AcDbLine
 10
-1878.305197812054
 20
-2034.46418720419
 30
0.0
 11
-1816.335182005117
 21
-1972.494171397253
 31
0.0
  0
LINE
  5
3F1
330
1F
100
AcDbEntity
  8
LAYER0048
  6
CONTINUOUS
 62
     3
100
AcDbLine
 10
-1875.161136736392
 20
-2034.43139596575
 30
0.0
 11
-1817.001224804111
 21
-1976.271484033469
 31
0.0
  0
LINE
  5
3F2
330
1F
100
AcDbEntity
  8
LAYER0048
  6
CONTINUOUS
 62
     3
100
AcDbLine
 10
-1871.84906901778
 20
-2034.230598084358
 30
0.0
 11
-1817.667267603105
 21
-1980.048796669683
 31
0.0
  0
LINE
  5
3F3
330
1F
100
AcDbEntity
  8
LAYER0048
  6
CONTINUOUS
 62
     3
100
AcDbLine
 10
-1868.315228554018
 20
-2033.808027457818
 30
0.0
 11
-1818.333310402099
 21
-1983.826109305898
 31
0.0
  0
LINE
  5
3F4
330
1F
100
AcDbEntity
  8
LAYER0048
  6
CONTINUOUS
 62
     3
100
AcDbLine
 10
-1864.507242227228
 20
-2033.111310968248
 30
0.0
 11
-1819.05756273999
 21
-1987.661631481009
 31
0.0
  0
LINE
  5
3F5
330
1F
100
AcDbEntity
  8
LAYER0048
  6
CONTINUOUS
 62
     3
100
AcDbLine
 10
-1860.328290261041
 20
-2032.043628839282
 30
0.0
 11
-1820.125244868955
 21
-1991.840583447196
 31
0.0
  0
LINE
  5
3F6
330
1F
100
AcDbEntity
  8
LAYER0048
  6
CONTINUOUS
 62
     3
100
AcDbLine
 10
-1855.610835336732
 20
-2030.437443752194
 30
0.0
 11
-1821.731429956043
 21
-1996.558038371506
 31
0.0
  0
LINE
  5
3F7
330
1F
100
AcDbEntity
  8
LAYER0048
  6
CONTINUOUS
 62
     3
100
AcDbLine
 10
-1849.959299256847
 20
-2027.897177509529
 30
0.0
 11
-1824.271696198708
 21
-2002.209574451391
 31
0.0
  0
LINE
  5
3F8
330
1F
100
AcDbEntity
  8
LAYER0048
  6
CONTINUOUS
 62
     3
100
AcDbLine
 10
-1841.73056129042
 20
-2022.779709380323
 30
0.0
 11
-1829.389164327916
 21
-2010.438312417818
 31
0.0
  0
LINE
  5
3F9
330
1F
100
AcDbEntity
  8
LAYER0048
  6
CONTINUOUS
 62
     3
100
AcDbLine
 10
-2096.032488660012
 20
-1919.285605469521
 30
0.0
 11
-2092.411307994683
 21
-1915.664424804191
 31
0.0
  0
LINE
  5
3FA
330
1F
100
AcDbEntity
  8
LAYER0048
  6
CONTINUOUS
 62
     3
100
AcDbLine
 10
-2120.361503773935
 20
-1943.614620583444
 30
0.0
 11
-2120.131252554682
 21
-1943.38436936419
 31
0.0
  0
LINE
  5
3FB
330
1F
100
AcDbEntity
  8
LAYER0048
  6
CONTINUOUS
 62
     3
100
AcDbLine
 10
-2096.698531438166
 20
-1923.062918084897
 30
0.0
 11
-2089.300038157462
 21
-1915.664424804191
 31
0.0
  0
LINE
  5
3FC
330
1F
100
AcDbEntity
  8
LAYER0048
  6
CONTINUOUS
 62
     3
100
AcDbLine
 10
-2121.027546552089
 20
-1947.391933198819
 30
0.0
 11
-2117.019982717461
 21
-1943.38436936419
 31
0.0
  0
LINE
  5
3FD
330
1F
100
AcDbEntity
  8
LAYER0048
  6
CONTINUOUS
 62
     3
100
AcDbLine
 10
-2097.364574216321
 20
-1926.840230700272
 30
0.0
 11
-2086.188768320241
 21
-1915.664424804191
 31
0.0
  0
LINE
  5
3FE
330
1F
100
AcDbEntity
  8
LAYER0048
  6
CONTINUOUS
 62
     3
100
AcDbLine
 10
-2121.693589330243
 20
-1951.169245814194
 30
0.0
 11
-2113.90871288024
 21
-1943.38436936419
 31
0.0
  0
LINE
  5
3FF
330
1F
100
AcDbEntity
  8
LAYER0048
  6
CONTINUOUS
 62
     3
100
AcDbLine
 10
-2098.030616994475
 20
-1930.617543315647
 30
0.0
 11
-2083.07749848302
 21
-1915.664424804191
 31
0.0
  0
LINE
  5
400
330
1F
100
AcDbEntity
  8
LAYER0048
  6
CONTINUOUS
 62
     3
100
AcDbLine
 10
-2122.359632108397
 20
-1954.946558429569
 30
0.0
 11
-2110.797443043019
 21
-1943.38436936419
 31
0.0
  0
LINE
  5
401
330
1F
100
AcDbEntity
  8
LAYER0048
  6
CONTINUOUS
 62
     3
100
AcDbLine
 10
-2098.69665977263
 20
-1934.394855931022
 30
0.0
 11
-2079.966228645799
 21
-1915.664424804191
 31
0.0
  0
LINE
  5
402
330
1F
100
AcDbEntity
  8
LAYER0048
  6
CONTINUOUS
 62
     3
100
AcDbLine
 10
-2123.025674886551
 20
-1958.723871044944
 30
0.0
 11
-2107.686173205798
 21
-1943.38436936419
 31
0.0
  0
LINE
  5
403
330
1F
100
AcDbEntity
  8
LAYER0048
  6
CONTINUOUS
 62
     3
100
AcDbLine
 10
-2099.362702550784
 20
-1938.172168546397
 30
0.0
 11
-2076.854958808578
 21
-1915.664424804191
 31
0.0
  0
LINE
  5
404
330
1F
100
AcDbEntity
  8
LAYER0048
  6
CONTINUOUS
 62
     3
100
AcDbLine
 10
-2120.414871688578
 20
-1959.224337684191
 30
0.0
 11
-2104.574903368577
 21
-1943.38436936419
 31
0.0
  0
LINE
  5
405
330
1F
100
AcDbEntity
  8
LAYER0048
  6
CONTINUOUS
 62
     3
100
AcDbLine
 10
-2100.028745328938
 20
-1941.949481161772
 30
0.0
 11
-2073.743688971357
 21
-1915.664424804191
 31
0.0
  0
LINE
  5
406
330
1F
100
AcDbEntity
  8
LAYER0048
  6
CONTINUOUS
 62
     3
100
AcDbLine
 10
-2117.303601851357
 20
-1959.224337684191
 30
0.0
 11
-2101.463633531356
 21
-1943.38436936419
 31
0.0
  0
LINE
  5
407
330
1F
100
AcDbEntity
  8
LAYER0048
  6
CONTINUOUS
 62
     3
100
AcDbLine
 10
-2114.192332014136
 20
-1959.224337684191
 30
0.0
 11
-2070.632419134136
 21
-1915.664424804191
 31
0.0
  0
LINE
  5
408
330
1F
100
AcDbEntity
  8
LAYER0048
  6
CONTINUOUS
 62
     3
100
AcDbLine
 10
-2111.081062176915
 20
-1959.224337684191
 30
0.0
 11
-2067.521149296916
 21
-1915.664424804191
 31
0.0
  0
LINE
  5
409
330
1F
100
AcDbEntity
  8
LAYER0048
  6
CONTINUOUS
 62
     3
100
AcDbLine
 10
-2107.969792339694
 20
-1959.224337684191
 30
0.0
 11
-2064.409879459694
 21
-1915.664424804191
 31
0.0
  0
LINE
  5
40A
330
1F
100
AcDbEntity
  8
LAYER0048
  6
CONTINUOUS
 62
     3
100
AcDbLine
 10
-2104.858522502474
 20
-1959.224337684191
 30
0.0
 11
-2061.298609622474
 21
-1915.664424804191
 31
0.0
  0
LINE
  5
40B
330
1F
100
AcDbEntity
  8
LAYER0048
  6
CONTINUOUS
 62
     3
100
AcDbLine
 10
-2103.358959219709
 20
-1960.836044238648
 30
0.0
 11
-2058.187339785252
 21
-1915.664424804191
 31
0.0
  0
LINE
  5
40C
330
1F
100
AcDbEntity
  8
LAYER0048
  6
CONTINUOUS
 62
     3
100
AcDbLine
 10
-2104.025001997864
 20
-1964.613356854024
 30
0.0
 11
-2055.947757582666
 21
-1916.536112438826
 31
0.0
  0
LINE
  5
40D
330
1F
100
AcDbEntity
  8
LAYER0048
  6
CONTINUOUS
 62
     3
100
AcDbLine
 10
-2104.691044776018
 20
-1968.390669469399
 30
0.0
 11
-2056.61380036082
 21
-1920.313425054201
 31
0.0
  0
LINE
  5
40E
330
1F
100
AcDbEntity
  8
LAYER0048
  6
CONTINUOUS
 62
     3
100
AcDbLine
 10
-2105.357087554173
 20
-1972.167982084774
 30
0.0
 11
-2057.279843138975
 21
-1924.090737669576
 31
0.0
  0
LINE
  5
40F
330
1F
100
AcDbEntity
  8
LAYER0048
  6
CONTINUOUS
 62
     3
100
AcDbLine
 10
-2106.023130332327
 20
-1975.945294700149
 30
0.0
 11
-2057.945885917129
 21
-1927.868050284951
 31
0.0
  0
LINE
  5
410
330
1F
100
AcDbEntity
  8
LAYER0048
  6
CONTINUOUS
 62
     3
100
AcDbLine
 10
-2106.689173110482
 20
-1979.722607315524
 30
0.0
 11
-2058.611928695284
 21
-1931.645362900326
 31
0.0
  0
LINE
  5
411
330
1F
100
AcDbEntity
  8
LAYER0048
  6
CONTINUOUS
 62
     3
100
AcDbLine
 10
-2107.355215888636
 20
-1983.4999199309
 30
0.0
 11
-2059.277971473438
 21
-1935.422675515701
 31
0.0
  0
LINE
  5
412
330
1F
100
AcDbEntity
  8
LAYER0048
  6
CONTINUOUS
 62
     3
100
AcDbLine
 10
-2107.688308364708
 20
-1986.944282244191
 30
0.0
 11
-2059.944014251592
 21
-1939.199988131077
 31
0.0
  0
LINE
  5
413
330
1F
100
AcDbEntity
  8
LAYER0048
  6
CONTINUOUS
 62
     3
100
AcDbLine
 10
-2104.577038527487
 20
-1986.944282244191
 30
0.0
 11
-2060.610057029747
 21
-1942.977300746453
 31
0.0
  0
LINE
  5
414
330
1F
100
AcDbEntity
  8
LAYER0048
  6
CONTINUOUS
 62
     3
100
AcDbLine
 10
-2101.465768690266
 20
-1986.944282244191
 30
0.0
 11
-2057.905855810265
 21
-1943.38436936419
 31
0.0
  0
LINE
  5
415
330
1F
100
AcDbEntity
  8
LAYER0048
  6
CONTINUOUS
 62
     3
100
AcDbLine
 10
-2098.354498853045
 20
-1986.944282244191
 30
0.0
 11
-2054.794585973044
 21
-1943.38436936419
 31
0.0
  0
LINE
  5
416
330
1F
100
AcDbEntity
  8
LAYER0048
  6
CONTINUOUS
 62
     3
100
AcDbLine
 10
-2095.243229015824
 20
-1986.944282244191
 30
0.0
 11
-2051.683316135823
 21
-1943.38436936419
 31
0.0
  0
LINE
  5
417
330
1F
100
AcDbEntity
  8
LAYER0048
  6
CONTINUOUS
 62
     3
100
AcDbLine
 10
-2092.131959178603
 20
-1986.944282244191
 30
0.0
 11
-2048.572046298602
 21
-1943.38436936419
 31
0.0
  0
LINE
  5
418
330
1F
100
AcDbEntity
  8
LAYER0048
  6
CONTINUOUS
 62
     3
100
AcDbLine
 10
-2020.670750946841
 20
-1918.59434384965
 30
0.0
 11
-2017.740831901381
 21
-1915.664424804191
 31
0.0
  0
LINE
  5
419
330
1F
100
AcDbEntity
  8
LAYER0048
  6
CONTINUOUS
 62
     3
100
AcDbLine
 10
-2061.300744781382
 20
-1959.224337684191
 30
0.0
 11
-2045.460776461381
 21
-1943.38436936419
 31
0.0
  0
LINE
  5
41A
330
1F
100
AcDbEntity
  8
LAYER0048
  6
CONTINUOUS
 62
     3
100
AcDbLine
 10
-2089.020689341383
 20
-1986.944282244191
 30
0.0
 11
-2063.940270920518
 21
-1961.863863823328
 31
0.0
  0
LINE
  5
41B
330
1F
100
AcDbEntity
  8
LAYER0048
  6
CONTINUOUS
 62
     3
100
AcDbLine
 10
-2021.336793724995
 20
-1922.371656465026
 30
0.0
 11
-2014.62956206416
 21
-1915.664424804191
 31
0.0
  0
LINE
  5
41C
330
1F
100
AcDbEntity
  8
LAYER0048
  6
CONTINUOUS
 62
     3
100
AcDbLine
 10
-2058.189474944162
 20
-1959.224337684191
 30
0.0
 11
-2042.34950662416
 21
-1943.38436936419
 31
0.0
  0
LINE
  5
41D
330
1F
100
AcDbEntity
  8
LAYER0048
  6
CONTINUOUS
 62
     3
100
AcDbLine
 10
-2085.909419504162
 20
-1986.944282244191
 30
0.0
 11
-2064.606313698672
 21
-1965.641176438703
 31
0.0
  0
LINE
  5
41E
330
1F
100
AcDbEntity
  8
LAYER0048
  6
CONTINUOUS
 62
     3
100
AcDbLine
 10
-2120.905658358918
 20
-2021.940521098948
 30
0.0
 11
-2117.589356144163
 21
-2018.62421888419
 31
0.0
  0
LINE
  5
41F
330
1F
100
AcDbEntity
  8
LAYER0048
  6
CONTINUOUS
 62
     3
100
AcDbLine
 10
-2022.00283650315
 20
-1926.148969080401
 30
0.0
 11
-2011.51829222694
 21
-1915.664424804191
 31
0.0
  0
LINE
  5
420
330
1F
100
AcDbEntity
  8
LAYER0048
  6
CONTINUOUS
 62
     3
100
AcDbLine
 10
-2055.078205106941
 20
-1959.224337684191
 30
0.0
 11
-2039.238236786939
 21
-1943.38436936419
 31
0.0
  0
LINE
  5
421
330
1F
100
AcDbEntity
  8
LAYER0048
  6
CONTINUOUS
 62
     3
100
AcDbLine
 10
-2082.79814966694
 20
-1986.944282244191
 30
0.0
 11
-2065.272356476827
 21
-1969.418489054078
 31
0.0
  0
LINE
  5
422
330
1F
100
AcDbEntity
  8
LAYER0048
  6
CONTINUOUS
 62
     3
100
AcDbLine
 10
-2121.571701137072
 20
-2025.717833714323
 30
0.0
 11
-2114.478086306941
 21
-2018.62421888419
 31
0.0
  0
LINE
  5
423
330
1F
100
AcDbEntity
  8
LAYER0048
  6
CONTINUOUS
 62
     3
100
AcDbLine
 10
-2022.668879281304
 20
-1929.926281695776
 30
0.0
 11
-2008.407022389719
 21
-1915.664424804191
 31
0.0
  0
LINE
  5
424
330
1F
100
AcDbEntity
  8
LAYER0048
  6
CONTINUOUS
 62
     3
100
AcDbLine
 10
-2051.96693526972
 20
-1959.224337684191
 30
0.0
 11
-2036.126966949718
 21
-1943.38436936419
 31
0.0
  0
LINE
  5
425
330
1F
100
AcDbEntity
  8
LAYER0048
  6
CONTINUOUS
 62
     3
100
AcDbLine
 10
-2079.68687982972
 20
-1986.944282244191
 30
0.0
 11
-2065.938399254982
 21
-1973.195801669453
 31
0.0
  0
LINE
  5
426
330
1F
100
AcDbEntity
  8
LAYER0048
  6
CONTINUOUS
 62
     3
100
AcDbLine
 10
-2122.237743915226
 20
-2029.495146329697
 30
0.0
 11
-2111.366816469721
 21
-2018.62421888419
 31
0.0
  0
LINE
  5
427
330
1F
100
AcDbEntity
  8
LAYER0048
  6
CONTINUOUS
 62
     3
100
AcDbLine
 10
-2023.334922059458
 20
-1933.703594311152
 30
0.0
 11
-2005.295752552499
 21
-1915.664424804191
 31
0.0
  0
LINE
  5
428
330
1F
100
AcDbEntity
  8
LAYER0048
  6
CONTINUOUS
 62
     3
100
AcDbLine
 10
-2048.855665432499
 20
-1959.224337684191
 30
0.0
 11
-2033.015697112498
 21
-1943.38436936419
 31
0.0
  0
LINE
  5
429
330
1F
100
AcDbEntity
  8
LAYER0048
  6
CONTINUOUS
 62
     3
100
AcDbLine
 10
-2076.575609992498
 20
-1986.944282244191
 30
0.0
 11
-2066.604442033136
 21
-1976.973114284829
 31
0.0
  0
LINE
  5
42A
330
1F
100
AcDbEntity
  8
LAYER0048
  6
CONTINUOUS
 62
     3
100
AcDbLine
 10
-2122.90378669338
 20
-2033.272458945073
 30
0.0
 11
-2108.2555466325
 21
-2018.62421888419
 31
0.0
  0
LINE
  5
42B
330
1F
100
AcDbEntity
  8
LAYER0048
  6
CONTINUOUS
 62
     3
100
AcDbLine
 10
-2024.000964837613
 20
-1937.480906926527
 30
0.0
 11
-2002.184482715277
 21
-1915.664424804191
 31
0.0
  0
LINE
  5
42C
330
1F
100
AcDbEntity
  8
LAYER0048
  6
CONTINUOUS
 62
     3
100
AcDbLine
 10
-2045.744395595277
 20
-1959.224337684191
 30
0.0
 11
-2029.904427275277
 21
-1943.38436936419
 31
0.0
  0
LINE
  5
42D
330
1F
100
AcDbEntity
  8
LAYER0048
  6
CONTINUOUS
 62
     3
100
AcDbLine
 10
-2073.464340155278
 20
-1986.944282244191
 30
0.0
 11
-2067.270484811291
 21
-1980.750426900204
 31
0.0
  0
LINE
  5
42E
330
1F
100
AcDbEntity
  8
LAYER0048
  6
CONTINUOUS
 62
     3
100
AcDbLine
 10
-2120.98424511528
 20
-2034.46418720419
 30
0.0
 11
-2105.144276795279
 21
-2018.62421888419
 31
0.0
  0
LINE
  5
42F
330
1F
100
AcDbEntity
  8
LAYER0048
  6
CONTINUOUS
 62
     3
100
AcDbLine
 10
-2024.667007615768
 20
-1941.258219541902
 30
0.0
 11
-1999.073212878057
 21
-1915.664424804191
 31
0.0
  0
LINE
  5
430
330
1F
100
AcDbEntity
  8
LAYER0048
  6
CONTINUOUS
 62
     3
100
AcDbLine
 10
-2042.633125758056
 20
-1959.224337684191
 30
0.0
 11
-2026.793157438057
 21
-1943.38436936419
 31
0.0
  0
LINE
  5
431
330
1F
100
AcDbEntity
  8
LAYER0048
  6
CONTINUOUS
 62
     3
100
AcDbLine
 10
-2070.353070318057
 20
-1986.944282244191
 30
0.0
 11
-2067.936527589445
 21
-1984.527739515579
 31
0.0
  0
LINE
  5
432
330
1F
100
AcDbEntity
  8
LAYER0048
  6
CONTINUOUS
 62
     3
100
AcDbLine
 10
-2117.87297527806
 20
-2034.46418720419
 30
0.0
 11
-2102.033006958058
 21
-2018.62421888419
 31
0.0
  0
LINE
  5
433
330
1F
100
AcDbEntity
  8
LAYER0048
  6
CONTINUOUS
 62
     3
100
AcDbLine
 10
-2039.521855920836
 20
-1959.224337684191
 30
0.0
 11
-1995.961943040836
 21
-1915.664424804191
 31
0.0
  0
LINE
  5
434
330
1F
100
AcDbEntity
  8
LAYER0048
  6
CONTINUOUS
 62
     3
100
AcDbLine
 10
-2114.761705440838
 20
-2034.46418720419
 30
0.0
 11
-2098.921737120837
 21
-2018.62421888419
 31
0.0
  0
LINE
  5
435
330
1F
100
AcDbEntity
  8
LAYER0048
  6
CONTINUOUS
 62
     3
100
AcDbLine
 10
-2036.410586083615
 20
-1959.224337684191
 30
0.0
 11
-1992.850673203615
 21
-1915.664424804191
 31
0.0
  0
LINE
  5
436
330
1F
100
AcDbEntity
  8
LAYER0048
  6
CONTINUOUS
 62
     3
100
AcDbLine
 10
-2111.650435603617
 20
-2034.46418720419
 30
0.0
 11
-2095.810467283616
 21
-2018.62421888419
 31
0.0
  0
LINE
  5
437
330
1F
100
AcDbEntity
  8
LAYER0048
  6
CONTINUOUS
 62
     3
100
AcDbLine
 10
-2033.299316246394
 20
-1959.224337684191
 30
0.0
 11
-1989.739403366395
 21
-1915.664424804191
 31
0.0
  0
LINE
  5
438
330
1F
100
AcDbEntity
  8
LAYER0048
  6
CONTINUOUS
 62
     3
100
AcDbLine
 10
-2108.539165766397
 20
-2034.46418720419
 30
0.0
 11
-2092.699197446395
 21
-2018.62421888419
 31
0.0
  0
LINE
  5
439
330
1F
100
AcDbEntity
  8
LAYER0048
  6
CONTINUOUS
 62
     3
100
AcDbLine
 10
-2030.188046409173
 20
-1959.224337684191
 30
0.0
 11
-1986.628133529174
 21
-1915.664424804191
 31
0.0
  0
LINE
  5
43A
330
1F
100
AcDbEntity
  8
LAYER0048
  6
CONTINUOUS
 62
     3
100
AcDbLine
 10
-2105.427895929176
 20
-2034.46418720419
 30
0.0
 11
-2089.587927609174
 21
-2018.62421888419
 31
0.0
  0
LINE
  5
43B
330
1F
100
AcDbEntity
  8
LAYER0048
  6
CONTINUOUS
 62
     3
100
AcDbLine
 10
-2027.997219190131
 20
-1960.14478030237
 30
0.0
 11
-1983.516863691953
 21
-1915.664424804191
 31
0.0
  0
LINE
  5
43C
330
1F
100
AcDbEntity
  8
LAYER0048
  6
CONTINUOUS
 62
     3
100
AcDbLine
 10
-2102.316626091955
 20
-2034.46418720419
 30
0.0
 11
-2086.476657771953
 21
-2018.62421888419
 31
0.0
  0
LINE
  5
43D
330
1F
100
AcDbEntity
  8
LAYER0048
  6
CONTINUOUS
 62
     3
100
AcDbLine
 10
-2028.663252462237
 20
-1963.922083411697
 30
0.0
 11
-1980.586019869495
 21
-1915.844850818954
 31
0.0
  0
LINE
  5
43E
330
1F
100
AcDbEntity
  8
LAYER0048
  6
CONTINUOUS
 62
     3
100
AcDbLine
 10
-2099.205356254733
 20
-2034.46418720419
 30
0.0
 11
-2083.365387934732
 21
-2018.62421888419
 31
0.0
  0
LINE
  5
43F
330
1F
100
AcDbEntity
  8
LAYER0048
  6
CONTINUOUS
 62
     3
100
AcDbLine
 10
-2029.329285734344
 20
-1967.699386521024
 30
0.0
 11
-1981.252062647649
 21
-1919.62216343433
 31
0.0
  0
LINE
  5
440
330
1F
100
AcDbEntity
  8
LAYER0048
  6
CONTINUOUS
 62
     3
100
AcDbLine
 10
-2096.094086417513
 20
-2034.46418720419
 30
0.0
 11
-2080.254118097511
 21
-2018.62421888419
 31
0.0
  0
LINE
  5
441
330
1F
100
AcDbEntity
  8
LAYER0048
  6
CONTINUOUS
 62
     3
100
AcDbLine
 10
-2029.99531900645
 20
-1971.476689630352
 30
0.0
 11
-1981.918105425804
 21
-1923.399476049706
 31
0.0
  0
LINE
  5
442
330
1F
100
AcDbEntity
  8
LAYER0048
  6
CONTINUOUS
 62
     3
100
AcDbLine
 10
-2092.982816580292
 20
-2034.46418720419
 30
0.0
 11
-2077.142848260291
 21
-2018.62421888419
 31
0.0
  0
LINE
  5
443
330
1F
100
AcDbEntity
  8
LAYER0048
  6
CONTINUOUS
 62
     3
100
AcDbLine
 10
-2030.661352278557
 20
-1975.253992739679
 30
0.0
 11
-1982.584148203958
 21
-1927.176788665081
 31
0.0
  0
LINE
  5
444
330
1F
100
AcDbEntity
  8
LAYER0048
  6
CONTINUOUS
 62
     3
100
AcDbLine
 10
-2089.871546743071
 20
-2034.46418720419
 30
0.0
 11
-2074.031578423069
 21
-2018.62421888419
 31
0.0
  0
LINE
  5
445
330
1F
100
AcDbEntity
  8
LAYER0048
  6
CONTINUOUS
 62
     3
100
AcDbLine
 10
-2031.327385550664
 20
-1979.031295849007
 30
0.0
 11
-1983.250190982113
 21
-1930.954101280456
 31
0.0
  0
LINE
  5
446
330
1F
100
AcDbEntity
  8
LAYER0048
  6
CONTINUOUS
 62
     3
100
AcDbLine
 10
-2086.76027690585
 20
-2034.46418720419
 30
0.0
 11
-2070.920308585848
 21
-2018.62421888419
 31
0.0
  0
LINE
  5
447
330
1F
100
AcDbEntity
  8
LAYER0048
  6
CONTINUOUS
 62
     3
100
AcDbLine
 10
-2031.99341882277
 20
-1982.808598958334
 30
0.0
 11
-1983.916233760267
 21
-1934.731413895831
 31
0.0
  0
LINE
  5
448
330
1F
100
AcDbEntity
  8
LAYER0048
  6
CONTINUOUS
 62
     3
100
AcDbLine
 10
-2083.649007068629
 20
-2034.46418720419
 30
0.0
 11
-2067.809038748628
 21
-2018.62421888419
 31
0.0
  0
LINE
  5
449
330
1F
100
AcDbEntity
  8
LAYER0048
  6
CONTINUOUS
 62
     3
100
AcDbLine
 10
-2032.659452094877
 20
-1986.585902067662
 30
0.0
 11
-1984.582276538422
 21
-1938.508726511206
 31
0.0
  0
LINE
  5
44A
330
1F
100
AcDbEntity
  8
LAYER0048
  6
CONTINUOUS
 62
     3
100
AcDbLine
 10
-2080.537737231408
 20
-2034.46418720419
 30
0.0
 11
-2064.696065345351
 21
-2018.622515318135
 31
0.0
  0
LINE
  5
44B
330
1F
100
AcDbEntity
  8
LAYER0048
  6
CONTINUOUS
 62
     3
100
AcDbLine
 10
-2033.325485366984
 20
-1990.363205176989
 30
0.0
 11
-1985.248319316576
 21
-1942.286039126581
 31
0.0
  0
LINE
  5
44C
330
1F
100
AcDbEntity
  8
LAYER0048
  6
CONTINUOUS
 62
     3
100
AcDbLine
 10
-2077.426467394188
 20
-2034.46418720419
 30
0.0
 11
-2061.391496343251
 21
-2018.429216153256
 31
0.0
  0
LINE
  5
44D
330
1F
100
AcDbEntity
  8
LAYER0048
  6
CONTINUOUS
 62
     3
100
AcDbLine
 10
-2034.055379777745
 20
-1994.204369424971
 30
0.0
 11
-1983.235379716964
 21
-1943.38436936419
 31
0.0
  0
LINE
  5
44E
330
1F
100
AcDbEntity
  8
LAYER0048
  6
CONTINUOUS
 62
     3
100
AcDbLine
 10
-2074.315197556966
 20
-2034.46418720419
 30
0.0
 11
-2057.631187499267
 21
-2017.780177146492
 31
0.0
  0
LINE
  5
44F
330
1F
100
AcDbEntity
  8
LAYER0048
  6
CONTINUOUS
 62
     3
100
AcDbLine
 10
-2035.496449998453
 20
-1998.7567094829
 30
0.0
 11
-1980.124109879743
 21
-1943.38436936419
 31
0.0
  0
LINE
  5
450
330
1F
100
AcDbEntity
  8
LAYER0048
  6
CONTINUOUS
 62
     3
100
AcDbLine
 10
-2071.203927719745
 20
-2034.46418720419
 30
0.0
 11
-2053.078847441339
 21
-2016.339106925785
 31
0.0
  0
LINE
  5
451
330
1F
100
AcDbEntity
  8
LAYER0048
  6
CONTINUOUS
 62
     3
100
AcDbLine
 10
-2039.454925235953
 20
-2005.826454557621
 30
0.0
 11
-1977.012840042523
 21
-1943.38436936419
 31
0.0
  0
LINE
  5
452
330
1F
100
AcDbEntity
  8
LAYER0048
  6
CONTINUOUS
 62
     3
100
AcDbLine
 10
-2068.092657882524
 20
-2034.46418720419
 30
0.0
 11
-2046.009102366617
 21
-2012.380631688284
 31
0.0
  0
LINE
  5
453
330
1F
100
AcDbEntity
  8
LAYER0048
  6
CONTINUOUS
 62
     3
100
AcDbLine
 10
-2064.981388045303
 20
-2034.46418720419
 30
0.0
 11
-1973.901570205302
 21
-1943.38436936419
 31
0.0
  0
LINE
  5
454
330
1F
100
AcDbEntity
  8
LAYER0048
  6
CONTINUOUS
 62
     3
100
AcDbLine
 10
-1986.630268688082
 20
-1959.224337684191
 30
0.0
 11
-1970.790300368081
 21
-1943.38436936419
 31
0.0
  0
LINE
  5
455
330
1F
100
AcDbEntity
  8
LAYER0048
  6
CONTINUOUS
 62
     3
100
AcDbLine
 10
-2061.870118208083
 20
-2034.46418720419
 30
0.0
 11
-1988.578533235998
 21
-1961.172602232106
 31
0.0
  0
LINE
  5
456
330
1F
100
AcDbEntity
  8
LAYER0048
  6
CONTINUOUS
 62
     3
100
AcDbLine
 10
-1983.518998850861
 20
-1959.224337684191
 30
0.0
 11
-1967.67903053086
 21
-1943.38436936419
 31
0.0
  0
LINE
  5
457
330
1F
100
AcDbEntity
  8
LAYER0048
  6
CONTINUOUS
 62
     3
100
AcDbLine
 10
-2058.758848370862
 20
-2034.46418720419
 30
0.0
 11
-1989.244576069699
 21
-1964.949914903028
 31
0.0
  0
LINE
  5
458
330
1F
100
AcDbEntity
  8
LAYER0048
  6
CONTINUOUS
 62
     3
100
AcDbLine
 10
-1980.407729013641
 20
-1959.224337684191
 30
0.0
 11
-1964.56776069364
 21
-1943.38436936419
 31
0.0
  0
LINE
  5
459
330
1F
100
AcDbEntity
  8
LAYER0048
  6
CONTINUOUS
 62
     3
100
AcDbLine
 10
-2055.647578533641
 20
-2034.46418720419
 30
0.0
 11
-1989.910618903401
 21
-1968.727227573951
 31
0.0
  0
LINE
  5
45A
330
1F
100
AcDbEntity
  8
LAYER0048
  6
CONTINUOUS
 62
     3
100
AcDbLine
 10
-1977.29645917642
 20
-1959.224337684191
 30
0.0
 11
-1962.020707799014
 21
-1943.948586306786
 31
0.0
  0
LINE
  5
45B
330
1F
100
AcDbEntity
  8
LAYER0048
  6
CONTINUOUS
 62
     3
100
AcDbLine
 10
-2052.53630869642
 20
-2034.46418720419
 30
0.0
 11
-1990.576661737103
 21
-1972.504540244873
 31
0.0
  0
LINE
  5
45C
330
1F
100
AcDbEntity
  8
LAYER0048
  6
CONTINUOUS
 62
     3
100
AcDbLine
 10
-1974.185189339199
 20
-1959.224337684191
 30
0.0
 11
-1962.686750577168
 21
-1947.72589892216
 31
0.0
  0
LINE
  5
45D
330
1F
100
AcDbEntity
  8
LAYER0048
  6
CONTINUOUS
 62
     3
100
AcDbLine
 10
-2049.39201796253
 20
-2034.431166307522
 30
0.0
 11
-1991.242704570804
 21
-1976.281852915795
 31
0.0
  0
LINE
  5
45E
330
1F
100
AcDbEntity
  8
LAYER0048
  6
CONTINUOUS
 62
     3
100
AcDbLine
 10
-1971.073919501978
 20
-1959.224337684191
 30
0.0
 11
-1963.352793355323
 21
-1951.503211537535
 31
0.0
  0
LINE
  5
45F
330
1F
100
AcDbEntity
  8
LAYER0048
  6
CONTINUOUS
 62
     3
100
AcDbLine
 10
-2046.079269910212
 20
-2034.229688092425
 30
0.0
 11
-1991.908747404505
 21
-1980.059165586718
 31
0.0
  0
LINE
  5
460
330
1F
100
AcDbEntity
  8
LAYER0048
  6
CONTINUOUS
 62
     3
100
AcDbLine
 10
-1967.962649664757
 20
-1959.224337684191
 30
0.0
 11
-1964.018836133477
 21
-1955.28052415291
 31
0.0
  0
LINE
  5
461
330
1F
100
AcDbEntity
  8
LAYER0048
  6
CONTINUOUS
 62
     3
100
AcDbLine
 10
-2042.544838752886
 20
-2033.80652677232
 30
0.0
 11
-1992.574790238207
 21
-1983.83647825764
 31
0.0
  0
LINE
  5
462
330
1F
100
AcDbEntity
  8
LAYER0048
  6
CONTINUOUS
 62
     3
100
AcDbLine
 10
-1964.851379827537
 20
-1959.224337684191
 30
0.0
 11
-1964.684878911631
 21
-1959.057836768286
 31
0.0
  0
LINE
  5
463
330
1F
100
AcDbEntity
  8
LAYER0048
  6
CONTINUOUS
 62
     3
100
AcDbLine
 10
-2038.735920373123
 20
-2033.108878229778
 30
0.0
 11
-1993.299646998461
 21
-1987.672604855116
 31
0.0
  0
LINE
  5
464
330
1F
100
AcDbEntity
  8
LAYER0048
  6
CONTINUOUS
 62
     3
100
AcDbLine
 10
-2034.555806516193
 20
-2032.040034210069
 30
0.0
 11
-1994.368491018169
 21
-1991.852718712045
 31
0.0
  0
LINE
  5
465
330
1F
100
AcDbEntity
  8
LAYER0048
  6
CONTINUOUS
 62
     3
100
AcDbLine
 10
-2029.836395480308
 20
-2030.431893011404
 30
0.0
 11
-1995.976632216835
 21
-1996.572129747931
 31
0.0
  0
LINE
  5
466
330
1F
100
AcDbEntity
  8
LAYER0048
  6
CONTINUOUS
 62
     3
100
AcDbLine
 10
-2024.181136741234
 20
-2027.887904109551
 30
0.0
 11
-1998.520621118687
 21
-2002.227388487004
 31
0.0
  0
LINE
  5
467
330
1F
100
AcDbEntity
  8
LAYER0048
  6
CONTINUOUS
 62
     3
100
AcDbLine
 10
-2015.937369128897
 20
-2022.755406334435
 30
0.0
 11
-2003.653118893804
 21
-2010.471156099342
 31
0.0
  0
LINE
  5
468
330
1F
100
AcDbEntity
  8
LAYER0048
  6
CONTINUOUS
 62
     3
100
AcDbLine
 10
-1794.404302320047
 20
-1966.917706092191
 30
0.0
 11
-1792.660376928047
 21
-1956.977995212191
 31
0.0
  0
LINE
  5
469
330
1F
100
AcDbEntity
  8
LAYER0048
  6
CONTINUOUS
 62
     3
100
AcDbLine
 10
-1806.314554344048
 20
-2034.46418720419
 30
0.0
 11
-1802.823283704047
 21
-2014.664226804191
 31
0.0
  0
LINE
  5
46A
330
1F
100
AcDbEntity
  8
LAYER0048
  6
CONTINUOUS
 62
     3
100
AcDbLine
 10
-1818.607126152048
 20
-1985.378994036191
 30
0.0
 11
-1806.314554344048
 21
-1915.664424804191
 31
0.0
  0
LINE
  5
46B
330
1F
100
AcDbEntity
  8
LAYER0048
  6
CONTINUOUS
 62
     3
100
AcDbLine
 10
-1964.714237544047
 20
-2034.46418720419
 30
0.0
 11
-1877.104567704047
 21
-2034.46418720419
 31
0.0
  0
LINE
  5
46C
330
1F
100
AcDbEntity
  8
LAYER0048
  6
CONTINUOUS
 62
     3
100
AcDbLine
 10
-1959.128204520048
 20
-2002.784250564191
 30
0.0
 11
-1964.714237544047
 21
-2034.46418720419
 31
0.0
  0
LINE
  5
46D
330
1F
100
AcDbEntity
  8
LAYER0048
  6
CONTINUOUS
 62
     3
100
AcDbLine
 10
-1865.041327416048
 20
-2002.784250564191
 30
0.0
 11
-1959.128204520048
 21
-2002.784250564191
 31
0.0
  0
LINE
  5
46E
330
1F
100
AcDbEntity
  8
LAYER0048
  6
CONTINUOUS
 62
     3
100
AcDbLine
 10
-1826.419887768047
 20
-1915.664424804191
 30
0.0
 11
-1837.742528064048
 21
-1979.877853908192
 31
0.0
  0
LINE
  5
46F
330
1F
100
AcDbEntity
  8
LAYER0048
  6
CONTINUOUS
 62
     3
100
AcDbLine
 10
-1806.314554344048
 20
-1915.664424804191
 30
0.0
 11
-1826.419887768047
 21
-1915.664424804191
 31
0.0
  0
LINE
  5
470
330
1F
100
AcDbEntity
  8
LAYER0048
  6
CONTINUOUS
 62
     3
100
AcDbLine
 10
-1867.325489472047
 20
-1915.664424804191
 30
0.0
 11
-1951.768171488048
 21
-1915.664424804191
 31
0.0
  0
LINE
  5
471
330
1F
100
AcDbEntity
  8
LAYER0048
  6
CONTINUOUS
 62
     3
100
AcDbLine
 10
-1870.816760112047
 20
-1935.464385204191
 30
0.0
 11
-1867.325489472047
 21
-1915.664424804191
 31
0.0
  0
LINE
  5
472
330
1F
100
AcDbEntity
  8
LAYER0048
  6
CONTINUOUS
 62
     3
100
AcDbLine
 10
-1955.259442128047
 20
-1935.464385204191
 30
0.0
 11
-1870.816760112047
 21
-1935.464385204191
 31
0.0
  0
LINE
  5
473
330
1F
100
AcDbEntity
  8
LAYER0048
  6
CONTINUOUS
 62
     3
100
AcDbLine
 10
-1951.768171488048
 20
-1915.664424804191
 30
0.0
 11
-1955.259442128047
 21
-1935.464385204191
 31
0.0
  0
LINE
  5
474
330
1F
100
AcDbEntity
  8
LAYER0048
  6
CONTINUOUS
 62
     3
100
AcDbLine
 10
-1985.441984760048
 20
-1943.38436936419
 30
0.0
 11
-1980.554205864047
 21
-1915.664424804191
 31
0.0
  0
LINE
  5
475
330
1F
100
AcDbEntity
  8
LAYER0048
  6
CONTINUOUS
 62
     3
100
AcDbLine
 10
-1992.846777672047
 20
-1985.378994036191
 30
0.0
 11
-1988.235001272048
 21
-1959.224337684191
 31
0.0
  0
LINE
  5
476
330
1F
100
AcDbEntity
  8
LAYER0048
  6
CONTINUOUS
 62
     3
100
AcDbLine
 10
-2027.834922072047
 20
-1959.224337684191
 30
0.0
 11
-2033.692632480048
 21
-1992.445422372191
 31
0.0
  0
LINE
  5
477
330
1F
100
AcDbEntity
  8
LAYER0048
  6
CONTINUOUS
 62
     3
100
AcDbLine
 10
-2020.154126664047
 20
-1915.664424804191
 30
0.0
 11
-2025.041905560048
 21
-1943.38436936419
 31
0.0
  0
LINE
  5
478
330
1F
100
AcDbEntity
  8
LAYER0048
  6
CONTINUOUS
 62
     3
100
AcDbLine
 10
-2025.041905560048
 20
-1943.38436936419
 30
0.0
 11
-2060.681834280048
 21
-1943.38436936419
 31
0.0
  0
LINE
  5
479
330
1F
100
AcDbEntity
  8
LAYER0048
  6
CONTINUOUS
 62
     3
100
AcDbLine
 10
-1961.921221032047
 20
-1943.38436936419
 30
0.0
 11
-1985.441984760048
 21
-1943.38436936419
 31
0.0
  0
LINE
  5
47A
330
1F
100
AcDbEntity
  8
LAYER0048
  6
CONTINUOUS
 62
     3
100
AcDbLine
 10
-1988.235001272048
 20
-1959.224337684191
 30
0.0
 11
-1964.714237544047
 21
-1959.224337684191
 31
0.0
  0
LINE
  5
47B
330
1F
100
AcDbEntity
  8
LAYER0048
  6
CONTINUOUS
 62
     3
100
AcDbLine
 10
-2063.474850792048
 20
-1959.224337684191
 30
0.0
 11
-2027.834922072047
 21
-1959.224337684191
 31
0.0
  0
LINE
  5
47C
330
1F
100
AcDbEntity
  8
LAYER0048
  6
CONTINUOUS
 62
     3
100
AcDbLine
 10
-2060.681834280048
 20
-1943.38436936419
 30
0.0
 11
-2055.794055384047
 21
-1915.664424804191
 31
0.0
  0
LINE
  5
47D
330
1F
100
AcDbEntity
  8
LAYER0048
  6
CONTINUOUS
 62
     3
100
AcDbLine
 10
-2068.362629688049
 20
-1986.944282244191
 30
0.0
 11
-2063.474850792048
 21
-1959.224337684191
 31
0.0
  0
LINE
  5
47E
330
1F
100
AcDbEntity
  8
LAYER0048
  6
CONTINUOUS
 62
     3
100
AcDbLine
 10
-2103.074771592048
 20
-1959.224337684191
 30
0.0
 11
-2107.962550488049
 21
-1986.944282244191
 31
0.0
  0
LINE
  5
47F
330
1F
100
AcDbEntity
  8
LAYER0048
  6
CONTINUOUS
 62
     3
100
AcDbLine
 10
-2095.393976184047
 20
-1915.664424804191
 30
0.0
 11
-2100.281755080048
 21
-1943.38436936419
 31
0.0
  0
LINE
  5
480
330
1F
100
AcDbEntity
  8
LAYER0048
  6
CONTINUOUS
 62
     3
100
AcDbLine
 10
-2123.113920744048
 20
-1959.224337684191
 30
0.0
 11
-2103.074771592048
 21
-1959.224337684191
 31
0.0
  0
LINE
  5
481
330
1F
100
AcDbEntity
  8
LAYER0048
  6
CONTINUOUS
 62
     3
100
AcDbLine
 10
-2100.281755080048
 20
-1943.38436936419
 30
0.0
 11
-2120.320904232049
 21
-1943.38436936419
 31
0.0
  0
LINE
  5
482
330
1F
100
AcDbEntity
  8
LAYER0048
  6
CONTINUOUS
 62
     3
100
AcDbLine
 10
-1980.554205864047
 20
-1915.664424804191
 30
0.0
 11
-2020.154126664047
 21
-1915.664424804191
 31
0.0
  0
LINE
  5
483
330
1F
100
AcDbEntity
  8
LAYER0048
  6
CONTINUOUS
 62
     3
100
AcDbLine
 10
-2123.113920744048
 20
-2034.46418720419
 30
0.0
 11
-2051.344219224048
 21
-2034.46418720419
 31
0.0
  0
LINE
  5
484
330
1F
100
AcDbEntity
  8
LAYER0048
  6
CONTINUOUS
 62
     3
100
AcDbLine
 10
-2120.320904232049
 20
-2018.62421888419
 30
0.0
 11
-2123.113920744048
 21
-2034.46418720419
 31
0.0
  0
LINE
  5
485
330
1F
100
AcDbEntity
  8
LAYER0048
  6
CONTINUOUS
 62
     3
100
AcDbLine
 10
-2064.891274680047
 20
-2018.62421888419
 30
0.0
 11
-2120.320904232049
 21
-2018.62421888419
 31
0.0
  0
LINE
  5
486
330
1F
100
AcDbEntity
  8
LAYER0048
  6
CONTINUOUS
 62
     3
100
AcDbLine
 10
-2055.794055384047
 20
-1915.664424804191
 30
0.0
 11
-2095.393976184047
 21
-1915.664424804191
 31
0.0
  0
LINE
  5
487
330
1F
100
AcDbEntity
  8
LAYER0048
  6
CONTINUOUS
 62
     3
100
AcDbLine
 10
-2107.962550488049
 20
-1986.944282244191
 30
0.0
 11
-2068.362629688049
 21
-1986.944282244191
 31
0.0
  0
LINE
  5
488
330
1F
100
AcDbEntity
  8
LAYER0048
  6
CONTINUOUS
 62
     3
100
AcDbLine
 10
-1964.714237544047
 20
-1959.224337684191
 30
0.0
 11
-1961.921221032047
 21
-1943.38436936419
 31
0.0
  0
LINE
  5
489
330
1F
100
AcDbEntity
  8
LAYER0048
  6
CONTINUOUS
 62
     3
100
AcDbLine
 10
-2120.320904232049
 20
-1943.38436936419
 30
0.0
 11
-2123.113920744048
 21
-1959.224337684191
 31
0.0
  0
ARC
  5
48A
330
1F
100
AcDbEntity
  8
LAYER0048
  6
CONTINUOUS
 62
     3
100
AcDbCircle
 10
-1865.041327416048
 20
-1975.064306004191
 30
0.0
 40
27.71994455999964
100
AcDbArc
 50
270.0000000000006
 51
349.999932750911
  0
ARC
  5
48B
330
1F
100
AcDbEntity
  8
LAYER0048
  6
CONTINUOUS
 62
     3
100
AcDbCircle
 10
-1877.104567704047
 20
-1975.064306004191
 30
0.0
 40
59.39988120000002
100
AcDbArc
 50
270.0000000000006
 51
349.9999897560571
  0
ARC
  5
48C
330
1F
100
AcDbEntity
  8
LAYER0048
  6
CONTINUOUS
 62
     3
100
AcDbCircle
 10
-2064.891274680047
 20
-1986.944282244191
 30
0.0
 40
31.67993663999957
100
AcDbArc
 50
270.0000000000006
 51
350.0000396355528
  0
ARC
  5
48D
330
1F
100
AcDbEntity
  8
LAYER0048
  6
CONTINUOUS
 62
     3
100
AcDbCircle
 10
-2051.344219224048
 20
-1975.064306004191
 30
0.0
 40
59.39988120000002
100
AcDbArc
 50
270.0000000000006
 51
349.9999897560575
  0
LINE
  5
48E
330
1F
100
AcDbEntity
  8
LAYER0048
  6
CONTINUOUS
 62
     3
100
AcDbLine
 10
-1492.078909967042
 20
-1937.585994220714
 30
0.0
 11
-1489.048524510518
 21
-1934.55560876419
 31
0.0
  0
LINE
  5
48F
330
1F
100
AcDbEntity
  8
LAYER0048
  6
CONTINUOUS
 62
     3
100
AcDbLine
 10
-1468.893278053947
 20
-1917.51163214484
 30
0.0
 11
-1467.046070713297
 21
-1915.664424804191
 31
0.0
  0
LINE
  5
490
330
1F
100
AcDbEntity
  8
LAYER0048
  6
CONTINUOUS
 62
     3
100
AcDbLine
 10
-1492.744952745196
 20
-1941.363306836089
 30
0.0
 11
-1485.937254673298
 21
-1934.55560876419
 31
0.0
  0
LINE
  5
491
330
1F
100
AcDbEntity
  8
LAYER0048
  6
CONTINUOUS
 62
     3
100
AcDbLine
 10
-1469.55932366022
 20
-1921.288947588334
 30
0.0
 11
-1463.934800876077
 21
-1915.664424804191
 31
0.0
  0
LINE
  5
492
330
1F
100
AcDbEntity
  8
LAYER0048
  6
CONTINUOUS
 62
     3
100
AcDbLine
 10
-1493.41099552335
 20
-1945.140619451464
 30
0.0
 11
-1482.825984836076
 21
-1934.55560876419
 31
0.0
  0
LINE
  5
493
330
1F
100
AcDbEntity
  8
LAYER0048
  6
CONTINUOUS
 62
     3
100
AcDbLine
 10
-1470.225369266493
 20
-1925.066263031827
 30
0.0
 11
-1460.823531038856
 21
-1915.664424804191
 31
0.0
  0
LINE
  5
494
330
1F
100
AcDbEntity
  8
LAYER0048
  6
CONTINUOUS
 62
     3
100
AcDbLine
 10
-1494.077038301505
 20
-1948.917932066839
 30
0.0
 11
-1479.714714998855
 21
-1934.55560876419
 31
0.0
  0
LINE
  5
495
330
1F
100
AcDbEntity
  8
LAYER0048
  6
CONTINUOUS
 62
     3
100
AcDbLine
 10
-1470.891414872766
 20
-1928.843578475321
 30
0.0
 11
-1457.712261201636
 21
-1915.664424804191
 31
0.0
  0
LINE
  5
496
330
1F
100
AcDbEntity
  8
LAYER0048
  6
CONTINUOUS
 62
     3
100
AcDbLine
 10
-1494.743081079658
 20
-1952.695244682214
 30
0.0
 11
-1476.603445161635
 21
-1934.55560876419
 31
0.0
  0
LINE
  5
497
330
1F
100
AcDbEntity
  8
LAYER0048
  6
CONTINUOUS
 62
     3
100
AcDbLine
 10
-1471.557460479039
 20
-1932.620893918815
 30
0.0
 11
-1454.600991364415
 21
-1915.664424804191
 31
0.0
  0
LINE
  5
498
330
1F
100
AcDbEntity
  8
LAYER0048
  6
CONTINUOUS
 62
     3
100
AcDbLine
 10
-1493.292135724414
 20
-1954.355569164191
 30
0.0
 11
-1473.492175324414
 21
-1934.55560876419
 31
0.0
  0
LINE
  5
499
330
1F
100
AcDbEntity
  8
LAYER0048
  6
CONTINUOUS
 62
     3
100
AcDbLine
 10
-1490.180865887194
 20
-1954.355569164191
 30
0.0
 11
-1451.489721527194
 21
-1915.664424804191
 31
0.0
  0
LINE
  5
49A
330
1F
100
AcDbEntity
  8
LAYER0048
  6
CONTINUOUS
 62
     3
100
AcDbLine
 10
-1487.069596049973
 20
-1954.355569164191
 30
0.0
 11
-1448.378451689973
 21
-1915.664424804191
 31
0.0
  0
LINE
  5
49B
330
1F
100
AcDbEntity
  8
LAYER0048
  6
CONTINUOUS
 62
     3
100
AcDbLine
 10
-1483.958326212752
 20
-1954.355569164191
 30
0.0
 11
-1445.267181852753
 21
-1915.664424804191
 31
0.0
  0
LINE
  5
49C
330
1F
100
AcDbEntity
  8
LAYER0048
  6
CONTINUOUS
 62
     3
100
AcDbLine
 10
-1480.847056375532
 20
-1954.355569164191
 30
0.0
 11
-1442.155912015532
 21
-1915.664424804191
 31
0.0
  0
LINE
  5
49D
330
1F
100
AcDbEntity
  8
LAYER0048
  6
CONTINUOUS
 62
     3
100
AcDbLine
 10
-1477.735786538311
 20
-1954.355569164191
 30
0.0
 11
-1439.044642178311
 21
-1915.664424804191
 31
0.0
  0
LINE
  5
49E
330
1F
100
AcDbEntity
  8
LAYER0048
  6
CONTINUOUS
 62
     3
100
AcDbLine
 10
-1475.553718432447
 20
-1955.28477089555
 30
0.0
 11
-1435.93337234109
 21
-1915.664424804191
 31
0.0
  0
LINE
  5
49F
330
1F
100
AcDbEntity
  8
LAYER0048
  6
CONTINUOUS
 62
     3
100
AcDbLine
 10
-1476.219760543676
 20
-1959.062082844
 30
0.0
 11
-1432.82210250387
 21
-1915.664424804191
 31
0.0
  0
LINE
  5
4A0
330
1F
100
AcDbEntity
  8
LAYER0048
  6
CONTINUOUS
 62
     3
100
AcDbLine
 10
-1476.885802654905
 20
-1962.839394792449
 30
0.0
 11
-1429.710832666649
 21
-1915.664424804191
 31
0.0
  0
LINE
  5
4A1
330
1F
100
AcDbEntity
  8
LAYER0048
  6
CONTINUOUS
 62
     3
100
AcDbLine
 10
-1477.551844766134
 20
-1966.616706740899
 30
0.0
 11
-1428.732854681731
 21
-1917.797716656494
 31
0.0
  0
LINE
  5
4A2
330
1F
100
AcDbEntity
  8
LAYER0048
  6
CONTINUOUS
 62
     3
100
AcDbLine
 10
-1478.217886877363
 20
-1970.394018689348
 30
0.0
 11
-1429.398900288004
 21
-1921.575032099988
 31
0.0
  0
LINE
  5
4A3
330
1F
100
AcDbEntity
  8
LAYER0048
  6
CONTINUOUS
 62
     3
100
AcDbLine
 10
-1478.883928988592
 20
-1974.171330637798
 30
0.0
 11
-1430.064945894278
 21
-1925.352347543482
 31
0.0
  0
LINE
  5
4A4
330
1F
100
AcDbEntity
  8
LAYER0048
  6
CONTINUOUS
 62
     3
100
AcDbLine
 10
-1479.549971099821
 20
-1977.948642586248
 30
0.0
 11
-1430.730991500551
 21
-1929.129662986977
 31
0.0
  0
LINE
  5
4A5
330
1F
100
AcDbEntity
  8
LAYER0048
  6
CONTINUOUS
 62
     3
100
AcDbLine
 10
-1480.21601321105
 20
-1981.725954534698
 30
0.0
 11
-1431.397037106824
 21
-1932.906978430471
 31
0.0
  0
LINE
  5
4A6
330
1F
100
AcDbEntity
  8
LAYER0048
  6
CONTINUOUS
 62
     3
100
AcDbLine
 10
-1480.882055322279
 20
-1985.503266483148
 30
0.0
 11
-1429.934397603321
 21
-1934.55560876419
 31
0.0
  0
LINE
  5
4A7
330
1F
100
AcDbEntity
  8
LAYER0048
  6
CONTINUOUS
 62
     3
100
AcDbLine
 10
-1481.548097433508
 20
-1989.280578431597
 30
0.0
 11
-1426.8231277661
 21
-1934.55560876419
 31
0.0
  0
LINE
  5
4A8
330
1F
100
AcDbEntity
  8
LAYER0048
  6
CONTINUOUS
 62
     3
100
AcDbLine
 10
-1482.214139544737
 20
-1993.057890380047
 30
0.0
 11
-1423.711857928879
 21
-1934.55560876419
 31
0.0
  0
LINE
  5
4A9
330
1F
100
AcDbEntity
  8
LAYER0048
  6
CONTINUOUS
 62
     3
100
AcDbLine
 10
-1482.880181655966
 20
-1996.835202328497
 30
0.0
 11
-1420.600588091658
 21
-1934.55560876419
 31
0.0
  0
LINE
  5
4AA
330
1F
100
AcDbEntity
  8
LAYER0048
  6
CONTINUOUS
 62
     3
100
AcDbLine
 10
-1483.546223767195
 20
-2000.612514276946
 30
0.0
 11
-1417.489318254438
 21
-1934.55560876419
 31
0.0
  0
LINE
  5
4AB
330
1F
100
AcDbEntity
  8
LAYER0048
  6
CONTINUOUS
 62
     3
100
AcDbLine
 10
-1434.178008817218
 20
-1954.355569164191
 30
0.0
 11
-1414.378048417217
 21
-1934.55560876419
 31
0.0
  0
LINE
  5
4AC
330
1F
100
AcDbEntity
  8
LAYER0048
  6
CONTINUOUS
 62
     3
100
AcDbLine
 10
-1484.212265878424
 20
-2004.389826225396
 30
0.0
 11
-1435.393294795524
 21
-1955.570855142497
 31
0.0
  0
LINE
  5
4AD
330
1F
100
AcDbEntity
  8
LAYER0048
  6
CONTINUOUS
 62
     3
100
AcDbLine
 10
-1431.066738979997
 20
-1954.355569164191
 30
0.0
 11
-1411.266778579996
 21
-1934.55560876419
 31
0.0
  0
LINE
  5
4AE
330
1F
100
AcDbEntity
  8
LAYER0048
  6
CONTINUOUS
 62
     3
100
AcDbLine
 10
-1484.878307989653
 20
-2008.167138173846
 30
0.0
 11
-1436.059336906753
 21
-1959.348167090947
 31
0.0
  0
LINE
  5
4AF
330
1F
100
AcDbEntity
  8
LAYER0048
  6
CONTINUOUS
 62
     3
100
AcDbLine
 10
-1427.955469142777
 20
-1954.355569164191
 30
0.0
 11
-1408.155508742775
 21
-1934.55560876419
 31
0.0
  0
LINE
  5
4B0
330
1F
100
AcDbEntity
  8
LAYER0048
  6
CONTINUOUS
 62
     3
100
AcDbLine
 10
-1485.544350100882
 20
-2011.944450122296
 30
0.0
 11
-1436.725379017982
 21
-1963.125479039397
 31
0.0
  0
LINE
  5
4B1
330
1F
100
AcDbEntity
  8
LAYER0048
  6
CONTINUOUS
 62
     3
100
AcDbLine
 10
-1424.844199305556
 20
-1954.355569164191
 30
0.0
 11
-1405.044238905555
 21
-1934.55560876419
 31
0.0
  0
LINE
  5
4B2
330
1F
100
AcDbEntity
  8
LAYER0048
  6
CONTINUOUS
 62
     3
100
AcDbLine
 10
-1486.210392212111
 20
-2015.721762070746
 30
0.0
 11
-1437.391421129212
 21
-1966.902790987847
 31
0.0
  0
LINE
  5
4B3
330
1F
100
AcDbEntity
  8
LAYER0048
  6
CONTINUOUS
 62
     3
100
AcDbLine
 10
-1421.732929468335
 20
-1954.355569164191
 30
0.0
 11
-1401.932969068334
 21
-1934.55560876419
 31
0.0
  0
LINE
  5
4B4
330
1F
100
AcDbEntity
  8
LAYER0048
  6
CONTINUOUS
 62
     3
100
AcDbLine
 10
-1486.87643432334
 20
-2019.499074019195
 30
0.0
 11
-1438.05746324044
 21
-1970.680102936296
 31
0.0
  0
LINE
  5
4B5
330
1F
100
AcDbEntity
  8
LAYER0048
  6
CONTINUOUS
 62
     3
100
AcDbLine
 10
-1418.621659631115
 20
-1954.355569164191
 30
0.0
 11
-1398.821699231114
 21
-1934.55560876419
 31
0.0
  0
LINE
  5
4B6
330
1F
100
AcDbEntity
  8
LAYER0048
  6
CONTINUOUS
 62
     3
100
AcDbLine
 10
-1487.54247643457
 20
-2023.276385967645
 30
0.0
 11
-1438.72350535167
 21
-1974.457414884746
 31
0.0
  0
LINE
  5
4B7
330
1F
100
AcDbEntity
  8
LAYER0048
  6
CONTINUOUS
 62
     3
100
AcDbLine
 10
-1415.510389793894
 20
-1954.355569164191
 30
0.0
 11
-1395.710429393893
 21
-1934.55560876419
 31
0.0
  0
LINE
  5
4B8
330
1F
100
AcDbEntity
  8
LAYER0048
  6
CONTINUOUS
 62
     3
100
AcDbLine
 10
-1488.208518545799
 20
-2027.053697916095
 30
0.0
 11
-1439.389547462899
 21
-1978.234726833196
 31
0.0
  0
LINE
  5
4B9
330
1F
100
AcDbEntity
  8
LAYER0048
  6
CONTINUOUS
 62
     3
100
AcDbLine
 10
-1412.399119956673
 20
-1954.355569164191
 30
0.0
 11
-1392.599159556672
 21
-1934.55560876419
 31
0.0
  0
LINE
  5
4BA
330
1F
100
AcDbEntity
  8
LAYER0048
  6
CONTINUOUS
 62
     3
100
AcDbLine
 10
-1488.874560657028
 20
-2030.831009864545
 30
0.0
 11
-1440.055589574127
 21
-1982.012038781645
 31
0.0
  0
LINE
  5
4BB
330
1F
100
AcDbEntity
  8
LAYER0048
  6
CONTINUOUS
 62
     3
100
AcDbLine
 10
-1409.287850119452
 20
-1954.355569164191
 30
0.0
 11
-1389.487889719451
 21
-1934.55560876419
 31
0.0
  0
LINE
  5
4BC
330
1F
100
AcDbEntity
  8
LAYER0048
  6
CONTINUOUS
 62
     3
100
AcDbLine
 10
-1489.396468159452
 20
-2034.46418720419
 30
0.0
 11
-1440.721631685357
 21
-1985.789350730095
 31
0.0
  0
LINE
  5
4BD
330
1F
100
AcDbEntity
  8
LAYER0048
  6
CONTINUOUS
 62
     3
100
AcDbLine
 10
-1406.176580282231
 20
-1954.355569164191
 30
0.0
 11
-1386.37661988223
 21
-1934.55560876419
 31
0.0
  0
LINE
  5
4BE
330
1F
100
AcDbEntity
  8
LAYER0048
  6
CONTINUOUS
 62
     3
100
AcDbLine
 10
-1486.285198322231
 20
-2034.46418720419
 30
0.0
 11
-1441.387673796586
 21
-1989.566662678545
 31
0.0
  0
LINE
  5
4BF
330
1F
100
AcDbEntity
  8
LAYER0048
  6
CONTINUOUS
 62
     3
100
AcDbLine
 10
-1403.065310445011
 20
-1954.355569164191
 30
0.0
 11
-1383.26535004501
 21
-1934.55560876419
 31
0.0
  0
LINE
  5
4C0
330
1F
100
AcDbEntity
  8
LAYER0048
  6
CONTINUOUS
 62
     3
100
AcDbLine
 10
-1483.17392848501
 20
-2034.46418720419
 30
0.0
 11
-1442.053715907814
 21
-1993.343974626995
 31
0.0
  0
LINE
  5
4C1
330
1F
100
AcDbEntity
  8
LAYER0048
  6
CONTINUOUS
 62
     3
100
AcDbLine
 10
-1399.95404060779
 20
-1954.355569164191
 30
0.0
 11
-1380.154080207789
 21
-1934.55560876419
 31
0.0
  0
LINE
  5
4C2
330
1F
100
AcDbEntity
  8
LAYER0048
  6
CONTINUOUS
 62
     3
100
AcDbLine
 10
-1480.06265864779
 20
-2034.46418720419
 30
0.0
 11
-1442.719758019044
 21
-1997.121286575445
 31
0.0
  0
LINE
  5
4C3
330
1F
100
AcDbEntity
  8
LAYER0048
  6
CONTINUOUS
 62
     3
100
AcDbLine
 10
-1396.842770770569
 20
-1954.355569164191
 30
0.0
 11
-1377.042810370569
 21
-1934.55560876419
 31
0.0
  0
LINE
  5
4C4
330
1F
100
AcDbEntity
  8
LAYER0048
  6
CONTINUOUS
 62
     3
100
AcDbLine
 10
-1476.951388810569
 20
-2034.46418720419
 30
0.0
 11
-1443.385800130272
 21
-2000.898598523894
 31
0.0
  0
LINE
  5
4C5
330
1F
100
AcDbEntity
  8
LAYER0048
  6
CONTINUOUS
 62
     3
100
AcDbLine
 10
-1393.731500933349
 20
-1954.355569164191
 30
0.0
 11
-1373.931540533347
 21
-1934.55560876419
 31
0.0
  0
LINE
  5
4C6
330
1F
100
AcDbEntity
  8
LAYER0048
  6
CONTINUOUS
 62
     3
100
AcDbLine
 10
-1473.840118973349
 20
-2034.46418720419
 30
0.0
 11
-1444.051842241502
 21
-2004.675910472344
 31
0.0
  0
LINE
  5
4C7
330
1F
100
AcDbEntity
  8
LAYER0048
  6
CONTINUOUS
 62
     3
100
AcDbLine
 10
-1390.620231096128
 20
-1954.355569164191
 30
0.0
 11
-1370.820270696127
 21
-1934.55560876419
 31
0.0
  0
LINE
  5
4C8
330
1F
100
AcDbEntity
  8
LAYER0048
  6
CONTINUOUS
 62
     3
100
AcDbLine
 10
-1470.728849136128
 20
-2034.46418720419
 30
0.0
 11
-1444.71788435273
 21
-2008.453222420794
 31
0.0
  0
LINE
  5
4C9
330
1F
100
AcDbEntity
  8
LAYER0048
  6
CONTINUOUS
 62
     3
100
AcDbLine
 10
-1387.508961258907
 20
-1954.355569164191
 30
0.0
 11
-1367.709000858906
 21
-1934.55560876419
 31
0.0
  0
LINE
  5
4CA
330
1F
100
AcDbEntity
  8
LAYER0048
  6
CONTINUOUS
 62
     3
100
AcDbLine
 10
-1467.617579298907
 20
-2034.46418720419
 30
0.0
 11
-1445.38392646396
 21
-2012.230534369244
 31
0.0
  0
LINE
  5
4CB
330
1F
100
AcDbEntity
  8
LAYER0048
  6
CONTINUOUS
 62
     3
100
AcDbLine
 10
-1384.397691421686
 20
-1954.355569164191
 30
0.0
 11
-1364.597731021685
 21
-1934.55560876419
 31
0.0
  0
LINE
  5
4CC
330
1F
100
AcDbEntity
  8
LAYER0048
  6
CONTINUOUS
 62
     3
100
AcDbLine
 10
-1423.130921888171
 20
-1993.088799630674
 30
0.0
 11
-1422.848741773687
 21
-1992.806619516191
 31
0.0
  0
LINE
  5
4CD
330
1F
100
AcDbEntity
  8
LAYER0048
  6
CONTINUOUS
 62
     3
100
AcDbLine
 10
-1464.506309461687
 20
-2034.46418720419
 30
0.0
 11
-1446.049968575189
 21
-2016.007846317693
 31
0.0
  0
LINE
  5
4CE
330
1F
100
AcDbEntity
  8
LAYER0048
  6
CONTINUOUS
 62
     3
100
AcDbLine
 10
-1381.286421584466
 20
-1954.355569164191
 30
0.0
 11
-1361.486461184465
 21
-1934.55560876419
 31
0.0
  0
LINE
  5
4CF
330
1F
100
AcDbEntity
  8
LAYER0048
  6
CONTINUOUS
 62
     3
100
AcDbLine
 10
-1423.796964666324
 20
-1996.86611224605
 30
0.0
 11
-1419.737471936466
 21
-1992.806619516191
 31
0.0
  0
LINE
  5
4D0
330
1F
100
AcDbEntity
  8
LAYER0048
  6
CONTINUOUS
 62
     3
100
AcDbLine
 10
-1461.395039624465
 20
-2034.46418720419
 30
0.0
 11
-1446.716010686418
 21
-2019.785158266143
 31
0.0
  0
LINE
  5
4D1
330
1F
100
AcDbEntity
  8
LAYER0048
  6
CONTINUOUS
 62
     3
100
AcDbLine
 10
-1378.175151747245
 20
-1954.355569164191
 30
0.0
 11
-1358.375191347244
 21
-1934.55560876419
 31
0.0
  0
LINE
  5
4D2
330
1F
100
AcDbEntity
  8
LAYER0048
  6
CONTINUOUS
 62
     3
100
AcDbLine
 10
-1424.463007444479
 20
-2000.643424861424
 30
0.0
 11
-1416.626202099245
 21
-1992.806619516191
 31
0.0
  0
LINE
  5
4D3
330
1F
100
AcDbEntity
  8
LAYER0048
  6
CONTINUOUS
 62
     3
100
AcDbLine
 10
-1458.283769787245
 20
-2034.46418720419
 30
0.0
 11
-1447.382052797647
 21
-2023.562470214593
 31
0.0
  0
LINE
  5
4D4
330
1F
100
AcDbEntity
  8
LAYER0048
  6
CONTINUOUS
 62
     3
100
AcDbLine
 10
-1375.063881910024
 20
-1954.355569164191
 30
0.0
 11
-1355.263921510023
 21
-1934.55560876419
 31
0.0
  0
LINE
  5
4D5
330
1F
100
AcDbEntity
  8
LAYER0048
  6
CONTINUOUS
 62
     3
100
AcDbLine
 10
-1425.129050222632
 20
-2004.420737476799
 30
0.0
 11
-1413.514932262025
 21
-1992.806619516191
 31
0.0
  0
LINE
  5
4D6
330
1F
100
AcDbEntity
  8
LAYER0048
  6
CONTINUOUS
 62
     3
100
AcDbLine
 10
-1455.172499950024
 20
-2034.46418720419
 30
0.0
 11
-1448.048094908875
 21
-2027.339782163042
 31
0.0
  0
LINE
  5
4D7
330
1F
100
AcDbEntity
  8
LAYER0048
  6
CONTINUOUS
 62
     3
100
AcDbLine
 10
-1371.952612072804
 20
-1954.355569164191
 30
0.0
 11
-1352.152651672802
 21
-1934.55560876419
 31
0.0
  0
LINE
  5
4D8
330
1F
100
AcDbEntity
  8
LAYER0048
  6
CONTINUOUS
 62
     3
100
AcDbLine
 10
-1425.795093000787
 20
-2008.198050092175
 30
0.0
 11
-1410.400845643594
 21
-1992.803802734982
 31
0.0
  0
LINE
  5
4D9
330
1F
100
AcDbEntity
  8
LAYER0048
  6
CONTINUOUS
 62
     3
100
AcDbLine
 10
-1452.061230112803
 20
-2034.46418720419
 30
0.0
 11
-1448.714137020105
 21
-2031.117094111492
 31
0.0
  0
LINE
  5
4DA
330
1F
100
AcDbEntity
  8
LAYER0048
  6
CONTINUOUS
 62
     3
100
AcDbLine
 10
-1371.116589572297
 20
-1956.630816500905
 30
0.0
 11
-1349.041381835581
 21
-1934.55560876419
 31
0.0
  0
LINE
  5
4DB
330
1F
100
AcDbEntity
  8
LAYER0048
  6
CONTINUOUS
 62
     3
100
AcDbLine
 10
-1426.461135778941
 20
-2011.975362707549
 30
0.0
 11
-1407.127792668815
 21
-1992.642019597423
 31
0.0
  0
LINE
  5
4DC
330
1F
100
AcDbEntity
  8
LAYER0048
  6
CONTINUOUS
 62
     3
100
AcDbLine
 10
-1371.786199757682
 20
-1960.411696523511
 30
0.0
 11
-1345.930111998361
 21
-1934.55560876419
 31
0.0
  0
LINE
  5
4DD
330
1F
100
AcDbEntity
  8
LAYER0048
  6
CONTINUOUS
 62
     3
100
AcDbLine
 10
-1423.981083150361
 20
-2012.606579916191
 30
0.0
 11
-1403.518618992728
 21
-1992.144115758556
 31
0.0
  0
LINE
  5
4DE
330
1F
100
AcDbEntity
  8
LAYER0048
  6
CONTINUOUS
 62
     3
100
AcDbLine
 10
-1372.772454810967
 20
-1964.509221414018
 30
0.0
 11
-1342.81884216114
 21
-1934.55560876419
 31
0.0
  0
LINE
  5
4DF
330
1F
100
AcDbEntity
  8
LAYER0048
  6
CONTINUOUS
 62
     3
100
AcDbLine
 10
-1420.869813313141
 20
-2012.606579916191
 30
0.0
 11
-1399.421094102222
 21
-1991.157860705271
 31
0.0
  0
LINE
  5
4E0
330
1F
100
AcDbEntity
  8
LAYER0048
  6
CONTINUOUS
 62
     3
100
AcDbLine
 10
-1374.615854650609
 20
-1969.463891090881
 30
0.0
 11
-1339.707572323919
 21
-1934.55560876419
 31
0.0
  0
LINE
  5
4E1
330
1F
100
AcDbEntity
  8
LAYER0048
  6
CONTINUOUS
 62
     3
100
AcDbLine
 10
-1417.75854347592
 20
-2012.606579916191
 30
0.0
 11
-1394.466424425359
 21
-1989.31446086563
 31
0.0
  0
LINE
  5
4E2
330
1F
100
AcDbEntity
  8
LAYER0048
  6
CONTINUOUS
 62
     3
100
AcDbLine
 10
-1379.158705327754
 20
-1977.118011605245
 30
0.0
 11
-1336.596302486699
 21
-1934.55560876419
 31
0.0
  0
LINE
  5
4E3
330
1F
100
AcDbEntity
  8
LAYER0048
  6
CONTINUOUS
 62
     3
100
AcDbLine
 10
-1414.647273638699
 20
-2012.606579916191
 30
0.0
 11
-1386.812303910994
 21
-1984.771610188485
 31
0.0
  0
LINE
  5
4E4
330
1F
100
AcDbEntity
  8
LAYER0048
  6
CONTINUOUS
 62
     3
100
AcDbLine
 10
-1411.536003801478
 20
-2012.606579916191
 30
0.0
 11
-1333.485032649478
 21
-1934.55560876419
 31
0.0
  0
LINE
  5
4E5
330
1F
100
AcDbEntity
  8
LAYER0048
  6
CONTINUOUS
 62
     3
100
AcDbLine
 10
-1408.424733964257
 20
-2012.606579916191
 30
0.0
 11
-1331.274291127443
 21
-1935.456137079377
 31
0.0
  0
LINE
  5
4E6
330
1F
100
AcDbEntity
  8
LAYER0048
  6
CONTINUOUS
 62
     3
100
AcDbLine
 10
-1405.313464127037
 20
-2012.606579916191
 30
0.0
 11
-1331.940327742135
 21
-1939.23344353129
 31
0.0
  0
LINE
  5
4E7
330
1F
100
AcDbEntity
  8
LAYER0048
  6
CONTINUOUS
 62
     3
100
AcDbLine
 10
-1402.202194289816
 20
-2012.606579916191
 30
0.0
 11
-1332.606364356826
 21
-1943.010749983201
 31
0.0
  0
LINE
  5
4E8
330
1F
100
AcDbEntity
  8
LAYER0048
  6
CONTINUOUS
 62
     3
100
AcDbLine
 10
-1399.090924452596
 20
-2012.606579916191
 30
0.0
 11
-1333.272400971517
 21
-1946.788056435113
 31
0.0
  0
LINE
  5
4E9
330
1F
100
AcDbEntity
  8
LAYER0048
  6
CONTINUOUS
 62
     3
100
AcDbLine
 10
-1395.979654615375
 20
-2012.606579916191
 30
0.0
 11
-1333.938437586208
 21
-1950.565362887025
 31
0.0
  0
LINE
  5
4EA
330
1F
100
AcDbEntity
  8
LAYER0048
  6
CONTINUOUS
 62
     3
100
AcDbLine
 10
-1392.868384778154
 20
-2012.606579916191
 30
0.0
 11
-1334.604474200899
 21
-1954.342669338937
 31
0.0
  0
LINE
  5
4EB
330
1F
100
AcDbEntity
  8
LAYER0048
  6
CONTINUOUS
 62
     3
100
AcDbLine
 10
-1389.757114940933
 20
-2012.606579916191
 30
0.0
 11
-1335.270510815591
 21
-1958.119975790848
 31
0.0
  0
LINE
  5
4EC
330
1F
100
AcDbEntity
  8
LAYER0048
  6
CONTINUOUS
 62
     3
100
AcDbLine
 10
-1386.645845103713
 20
-2012.606579916191
 30
0.0
 11
-1335.936547430281
 21
-1961.89728224276
 31
0.0
  0
LINE
  5
4ED
330
1F
100
AcDbEntity
  8
LAYER0048
  6
CONTINUOUS
 62
     3
100
AcDbLine
 10
-1383.516709503413
 20
-2012.588714153113
 30
0.0
 11
-1336.602584044972
 21
-1965.674588694672
 31
0.0
  0
LINE
  5
4EE
330
1F
100
AcDbEntity
  8
LAYER0048
  6
CONTINUOUS
 62
     3
100
AcDbLine
 10
-1380.203287995956
 20
-2012.386562482876
 30
0.0
 11
-1337.268620659663
 21
-1969.451895146584
 31
0.0
  0
LINE
  5
4EF
330
1F
100
AcDbEntity
  8
LAYER0048
  6
CONTINUOUS
 62
     3
100
AcDbLine
 10
-1376.608173780746
 20
-2011.902718104888
 30
0.0
 11
-1337.934657274354
 21
-1973.229201598496
 31
0.0
  0
LINE
  5
4F0
330
1F
100
AcDbEntity
  8
LAYER0048
  6
CONTINUOUS
 62
     3
100
AcDbLine
 10
-1372.626458161476
 20
-2011.032272322838
 30
0.0
 11
-1338.8063253774
 21
-1977.212139538762
 31
0.0
  0
LINE
  5
4F1
330
1F
100
AcDbEntity
  8
LAYER0048
  6
CONTINUOUS
 62
     3
100
AcDbLine
 10
-1368.059202265784
 20
-2009.576286264367
 30
0.0
 11
-1340.262311435872
 21
-1981.779395434454
 31
0.0
  0
LINE
  5
4F2
330
1F
100
AcDbEntity
  8
LAYER0048
  6
CONTINUOUS
 62
     3
100
AcDbLine
 10
-1362.384102580021
 20
-2007.012456415825
 30
0.0
 11
-1342.826141284414
 21
-1987.454495120218
 31
0.0
  0
LINE
  5
4F3
330
1F
100
AcDbEntity
  8
LAYER0048
  6
CONTINUOUS
 62
     3
100
AcDbLine
 10
-1644.500489888623
 20
-1965.556780653463
 30
0.0
 11
-1644.10803503935
 21
-1965.16432580419
 31
0.0
  0
LINE
  5
4F4
330
1F
100
AcDbEntity
  8
LAYER0048
  6
CONTINUOUS
 62
     3
100
AcDbLine
 10
-1645.258569113992
 20
-1969.426129716052
 30
0.0
 11
-1640.996765202129
 21
-1965.16432580419
 31
0.0
  0
LINE
  5
4F5
330
1F
100
AcDbEntity
  8
LAYER0048
  6
CONTINUOUS
 62
     3
100
AcDbLine
 10
-1646.01664833936
 20
-1973.295478778642
 30
0.0
 11
-1637.885495364908
 21
-1965.16432580419
 31
0.0
  0
LINE
  5
4F6
330
1F
100
AcDbEntity
  8
LAYER0048
  6
CONTINUOUS
 62
     3
100
AcDbLine
 10
-1646.774727564729
 20
-1977.164827841231
 30
0.0
 11
-1634.774225527687
 21
-1965.16432580419
 31
0.0
  0
LINE
  5
4F7
330
1F
100
AcDbEntity
  8
LAYER0048
  6
CONTINUOUS
 62
     3
100
AcDbLine
 10
-1647.532806790098
 20
-1981.034176903821
 30
0.0
 11
-1631.662955690467
 21
-1965.16432580419
 31
0.0
  0
LINE
  5
4F8
330
1F
100
AcDbEntity
  8
LAYER0048
  6
CONTINUOUS
 62
     3
100
AcDbLine
 10
-1646.371650213246
 20
-1982.984290164191
 30
0.0
 11
-1628.551685853246
 21
-1965.16432580419
 31
0.0
  0
LINE
  5
4F9
330
1F
100
AcDbEntity
  8
LAYER0048
  6
CONTINUOUS
 62
     3
100
AcDbLine
 10
-1643.260380376026
 20
-1982.984290164191
 30
0.0
 11
-1625.440416016025
 21
-1965.16432580419
 31
0.0
  0
LINE
  5
4FA
330
1F
100
AcDbEntity
  8
LAYER0048
  6
CONTINUOUS
 62
     3
100
AcDbLine
 10
-1640.149110538805
 20
-1982.984290164191
 30
0.0
 11
-1622.329146178805
 21
-1965.16432580419
 31
0.0
  0
LINE
  5
4FB
330
1F
100
AcDbEntity
  8
LAYER0048
  6
CONTINUOUS
 62
     3
100
AcDbLine
 10
-1637.037840701585
 20
-1982.984290164191
 30
0.0
 11
-1619.217876341584
 21
-1965.16432580419
 31
0.0
  0
LINE
  5
4FC
330
1F
100
AcDbEntity
  8
LAYER0048
  6
CONTINUOUS
 62
     3
100
AcDbLine
 10
-1633.926570864364
 20
-1982.984290164191
 30
0.0
 11
-1616.106606504363
 21
-1965.16432580419
 31
0.0
  0
LINE
  5
4FD
330
1F
100
AcDbEntity
  8
LAYER0048
  6
CONTINUOUS
 62
     3
100
AcDbLine
 10
-1630.815301027143
 20
-1982.984290164191
 30
0.0
 11
-1612.995336667143
 21
-1965.16432580419
 31
0.0
  0
LINE
  5
4FE
330
1F
100
AcDbEntity
  8
LAYER0048
  6
CONTINUOUS
 62
     3
100
AcDbLine
 10
-1627.704031189922
 20
-1982.984290164191
 30
0.0
 11
-1609.884066829921
 21
-1965.16432580419
 31
0.0
  0
LINE
  5
4FF
330
1F
100
AcDbEntity
  8
LAYER0048
  6
CONTINUOUS
 62
     3
100
AcDbLine
 10
-1624.592761352701
 20
-1982.984290164191
 30
0.0
 11
-1606.772796992701
 21
-1965.16432580419
 31
0.0
  0
LINE
  5
500
330
1F
100
AcDbEntity
  8
LAYER0048
  6
CONTINUOUS
 62
     3
100
AcDbLine
 10
-1621.481491515481
 20
-1982.984290164191
 30
0.0
 11
-1603.66152715548
 21
-1965.16432580419
 31
0.0
  0
LINE
  5
501
330
1F
100
AcDbEntity
  8
LAYER0048
  6
CONTINUOUS
 62
     3
100
AcDbLine
 10
-1618.37022167826
 20
-1982.984290164191
 30
0.0
 11
-1600.549101633412
 21
-1965.163170119343
 31
0.0
  0
LINE
  5
502
330
1F
100
AcDbEntity
  8
LAYER0048
  6
CONTINUOUS
 62
     3
100
AcDbLine
 10
-1615.258951841039
 20
-1982.984290164191
 30
0.0
 11
-1597.319517314942
 21
-1965.044855638094
 31
0.0
  0
LINE
  5
503
330
1F
100
AcDbEntity
  8
LAYER0048
  6
CONTINUOUS
 62
     3
100
AcDbLine
 10
-1546.93143901342
 20
-1917.768047173792
 30
0.0
 11
-1544.827816643818
 21
-1915.664424804191
 31
0.0
  0
LINE
  5
504
330
1F
100
AcDbEntity
  8
LAYER0048
  6
CONTINUOUS
 62
     3
100
AcDbLine
 10
-1612.147682003819
 20
-1982.984290164191
 30
0.0
 11
-1593.829626426195
 21
-1964.666234586567
 31
0.0
  0
LINE
  5
505
330
1F
100
AcDbEntity
  8
LAYER0048
  6
CONTINUOUS
 62
     3
100
AcDbLine
 10
-1550.481505039239
 20
-1924.429383036832
 30
0.0
 11
-1541.716546806596
 21
-1915.664424804191
 31
0.0
  0
LINE
  5
506
330
1F
100
AcDbEntity
  8
LAYER0048
  6
CONTINUOUS
 62
     3
100
AcDbLine
 10
-1609.036412166598
 20
-1982.984290164191
 30
0.0
 11
-1590.000406633985
 21
-1963.948284631579
 31
0.0
  0
LINE
  5
507
330
1F
100
AcDbEntity
  8
LAYER0048
  6
CONTINUOUS
 62
     3
100
AcDbLine
 10
-1554.031571065058
 20
-1931.090718899873
 30
0.0
 11
-1538.605276969376
 21
-1915.664424804191
 31
0.0
  0
LINE
  5
508
330
1F
100
AcDbEntity
  8
LAYER0048
  6
CONTINUOUS
 62
     3
100
AcDbLine
 10
-1605.925142329377
 20
-1982.984290164191
 30
0.0
 11
-1585.66992723694
 21
-1962.729075071754
 31
0.0
  0
LINE
  5
509
330
1F
100
AcDbEntity
  8
LAYER0048
  6
CONTINUOUS
 62
     3
100
AcDbLine
 10
-1557.581637090877
 20
-1937.752054762912
 30
0.0
 11
-1535.494007132155
 21
-1915.664424804191
 31
0.0
  0
LINE
  5
50A
330
1F
100
AcDbEntity
  8
LAYER0048
  6
CONTINUOUS
 62
     3
100
AcDbLine
 10
-1602.813872492156
 20
-1982.984290164191
 30
0.0
 11
-1580.489601953702
 21
-1960.660019625737
 31
0.0
  0
LINE
  5
50B
330
1F
100
AcDbEntity
  8
LAYER0048
  6
CONTINUOUS
 62
     3
100
AcDbLine
 10
-1562.095028044332
 20
-1945.376715553587
 30
0.0
 11
-1532.382737294934
 21
-1915.664424804191
 31
0.0
  0
LINE
  5
50C
330
1F
100
AcDbEntity
  8
LAYER0048
  6
CONTINUOUS
 62
     3
100
AcDbLine
 10
-1599.702602654936
 20
-1982.984290164191
 30
0.0
 11
-1572.94923529065
 21
-1956.230922799906
 31
0.0
  0
LINE
  5
50D
330
1F
100
AcDbEntity
  8
LAYER0048
  6
CONTINUOUS
 62
     3
100
AcDbLine
 10
-1599.804154353425
 20
-1986.197111699902
 30
0.0
 11
-1529.271467457713
 21
-1915.664424804191
 31
0.0
  0
LINE
  5
50E
330
1F
100
AcDbEntity
  8
LAYER0048
  6
CONTINUOUS
 62
     3
100
AcDbLine
 10
-1600.470197131579
 20
-1989.974424315277
 30
0.0
 11
-1526.160197620493
 21
-1915.664424804191
 31
0.0
  0
LINE
  5
50F
330
1F
100
AcDbEntity
  8
LAYER0048
  6
CONTINUOUS
 62
     3
100
AcDbLine
 10
-1601.136239909733
 20
-1993.751736930652
 30
0.0
 11
-1523.048927783272
 21
-1915.664424804191
 31
0.0
  0
LINE
  5
510
330
1F
100
AcDbEntity
  8
LAYER0048
  6
CONTINUOUS
 62
     3
100
AcDbLine
 10
-1601.802282687888
 20
-1997.529049546027
 30
0.0
 11
-1519.937657946051
 21
-1915.664424804191
 31
0.0
  0
LINE
  5
511
330
1F
100
AcDbEntity
  8
LAYER0048
  6
CONTINUOUS
 62
     3
100
AcDbLine
 10
-1602.468325466042
 20
-2001.306362161402
 30
0.0
 11
-1516.82638810883
 21
-1915.664424804191
 31
0.0
  0
LINE
  5
512
330
1F
100
AcDbEntity
  8
LAYER0048
  6
CONTINUOUS
 62
     3
100
AcDbLine
 10
-1603.134368244196
 20
-2005.083674776778
 30
0.0
 11
-1513.71511827161
 21
-1915.664424804191
 31
0.0
  0
LINE
  5
513
330
1F
100
AcDbEntity
  8
LAYER0048
  6
CONTINUOUS
 62
     3
100
AcDbLine
 10
-1603.80041102235
 20
-2008.860987392153
 30
0.0
 11
-1510.603848434389
 21
-1915.664424804191
 31
0.0
  0
LINE
  5
514
330
1F
100
AcDbEntity
  8
LAYER0048
  6
CONTINUOUS
 62
     3
100
AcDbLine
 10
-1604.466453800505
 20
-2012.638300007527
 30
0.0
 11
-1507.492578597169
 21
-1915.664424804191
 31
0.0
  0
LINE
  5
515
330
1F
100
AcDbEntity
  8
LAYER0048
  6
CONTINUOUS
 62
     3
100
AcDbLine
 10
-1605.132496578659
 20
-2016.415612622903
 30
0.0
 11
-1504.381308759948
 21
-1915.664424804191
 31
0.0
  0
LINE
  5
516
330
1F
100
AcDbEntity
  8
LAYER0048
  6
CONTINUOUS
 62
     3
100
AcDbLine
 10
-1605.798539356813
 20
-2020.192925238278
 30
0.0
 11
-1501.270038922727
 21
-1915.664424804191
 31
0.0
  0
LINE
  5
517
330
1F
100
AcDbEntity
  8
LAYER0048
  6
CONTINUOUS
 62
     3
100
AcDbLine
 10
-1606.464582134968
 20
-2023.970237853652
 30
0.0
 11
-1498.158769085507
 21
-1915.664424804191
 31
0.0
  0
LINE
  5
518
330
1F
100
AcDbEntity
  8
LAYER0048
  6
CONTINUOUS
 62
     3
100
AcDbLine
 10
-1607.130624913122
 20
-2027.747550469028
 30
0.0
 11
-1495.047499248285
 21
-1915.664424804191
 31
0.0
  0
LINE
  5
519
330
1F
100
AcDbEntity
  8
LAYER0048
  6
CONTINUOUS
 62
     3
100
AcDbLine
 10
-1559.256094771065
 20
-1982.984290164191
 30
0.0
 11
-1491.936229411065
 21
-1915.664424804191
 31
0.0
  0
LINE
  5
51A
330
1F
100
AcDbEntity
  8
LAYER0048
  6
CONTINUOUS
 62
     3
100
AcDbLine
 10
-1607.796667691277
 20
-2031.524863084403
 30
0.0
 11
-1559.719423276082
 21
-1983.447618669208
 31
0.0
  0
LINE
  5
51B
330
1F
100
AcDbEntity
  8
LAYER0048
  6
CONTINUOUS
 62
     3
100
AcDbLine
 10
-1556.055287016049
 20
-1982.894752246395
 30
0.0
 11
-1491.367498746304
 21
-1918.20696397665
 31
0.0
  0
LINE
  5
51C
330
1F
100
AcDbEntity
  8
LAYER0048
  6
CONTINUOUS
 62
     3
100
AcDbLine
 10
-1607.624721973843
 20
-2034.46418720419
 30
0.0
 11
-1560.385466054236
 21
-1987.224931284583
 31
0.0
  0
LINE
  5
51D
330
1F
100
AcDbEntity
  8
LAYER0048
  6
CONTINUOUS
 62
     3
100
AcDbLine
 10
-1552.552410219743
 20
-1982.503145287311
 30
0.0
 11
-1499.716965353291
 21
-1929.667700420858
 31
0.0
  0
LINE
  5
51E
330
1F
100
AcDbEntity
  8
LAYER0048
  6
CONTINUOUS
 62
     3
100
AcDbLine
 10
-1604.513452136622
 20
-2034.46418720419
 30
0.0
 11
-1561.05150883239
 21
-1991.002243899958
 31
0.0
  0
LINE
  5
51F
330
1F
100
AcDbEntity
  8
LAYER0048
  6
CONTINUOUS
 62
     3
100
AcDbLine
 10
-1548.614028184536
 20
-1981.676033089324
 30
0.0
 11
-1508.066431960277
 21
-1941.128436865066
 31
0.0
  0
LINE
  5
520
330
1F
100
AcDbEntity
  8
LAYER0048
  6
CONTINUOUS
 62
     3
100
AcDbLine
 10
-1601.402182299401
 20
-2034.46418720419
 30
0.0
 11
-1561.717551610544
 21
-1994.779556515333
 31
0.0
  0
LINE
  5
521
330
1F
100
AcDbEntity
  8
LAYER0048
  6
CONTINUOUS
 62
     3
100
AcDbLine
 10
-1543.964863410065
 20
-1980.138138152074
 30
0.0
 11
-1516.415898567264
 21
-1952.589173309274
 31
0.0
  0
LINE
  5
522
330
1F
100
AcDbEntity
  8
LAYER0048
  6
CONTINUOUS
 62
     3
100
AcDbLine
 10
-1598.290912462181
 20
-2034.46418720419
 30
0.0
 11
-1562.383594388698
 21
-1998.556869130708
 31
0.0
  0
LINE
  5
523
330
1F
100
AcDbEntity
  8
LAYER0048
  6
CONTINUOUS
 62
     3
100
AcDbLine
 10
-1537.617191446118
 20
-1976.901736025349
 30
0.0
 11
-1524.765365174251
 21
-1964.049909753482
 31
0.0
  0
LINE
  5
524
330
1F
100
AcDbEntity
  8
LAYER0048
  6
CONTINUOUS
 62
     3
100
AcDbLine
 10
-1595.17964262496
 20
-2034.46418720419
 30
0.0
 11
-1563.049637166852
 21
-2002.334181746083
 31
0.0
  0
LINE
  5
525
330
1F
100
AcDbEntity
  8
LAYER0048
  6
CONTINUOUS
 62
     3
100
AcDbLine
 10
-1592.068372787739
 20
-2034.46418720419
 30
0.0
 11
-1563.715679945007
 21
-2006.111494361458
 31
0.0
  0
LINE
  5
526
330
1F
100
AcDbEntity
  8
LAYER0048
  6
CONTINUOUS
 62
     3
100
AcDbLine
 10
-1588.957102950519
 20
-2034.46418720419
 30
0.0
 11
-1564.381722723161
 21
-2009.888806976832
 31
0.0
  0
LINE
  5
527
330
1F
100
AcDbEntity
  8
LAYER0048
  6
CONTINUOUS
 62
     3
100
AcDbLine
 10
-1585.845833113298
 20
-2034.46418720419
 30
0.0
 11
-1565.047765501315
 21
-2013.666119592207
 31
0.0
  0
LINE
  5
528
330
1F
100
AcDbEntity
  8
LAYER0048
  6
CONTINUOUS
 62
     3
100
AcDbLine
 10
-1582.734563276077
 20
-2034.46418720419
 30
0.0
 11
-1565.713808279469
 21
-2017.443432207582
 31
0.0
  0
LINE
  5
529
330
1F
100
AcDbEntity
  8
LAYER0048
  6
CONTINUOUS
 62
     3
100
AcDbLine
 10
-1579.623293438856
 20
-2034.46418720419
 30
0.0
 11
-1566.379851057623
 21
-2021.220744822958
 31
0.0
  0
LINE
  5
52A
330
1F
100
AcDbEntity
  8
LAYER0048
  6
CONTINUOUS
 62
     3
100
AcDbLine
 10
-1576.512023601636
 20
-2034.46418720419
 30
0.0
 11
-1567.045893835777
 21
-2024.998057438332
 31
0.0
  0
LINE
  5
52B
330
1F
100
AcDbEntity
  8
LAYER0048
  6
CONTINUOUS
 62
     3
100
AcDbLine
 10
-1573.400753764415
 20
-2034.46418720419
 30
0.0
 11
-1567.711936613931
 21
-2028.775370053707
 31
0.0
  0
LINE
  5
52C
330
1F
100
AcDbEntity
  8
LAYER0048
  6
CONTINUOUS
 62
     3
100
AcDbLine
 10
-1570.289483927194
 20
-2034.46418720419
 30
0.0
 11
-1568.377979392085
 21
-2032.552682669082
 31
0.0
  0
LINE
  5
52D
330
1F
100
AcDbEntity
  8
LAYER0048
  6
CONTINUOUS
 62
     3
100
AcDbLine
 10
-1615.528453639247
 20
-1917.3833158691
 30
0.0
 11
-1613.809562574339
 21
-1915.664424804191
 31
0.0
  0
LINE
  5
52E
330
1F
100
AcDbEntity
  8
LAYER0048
  6
CONTINUOUS
 62
     3
100
AcDbLine
 10
-1616.194496417401
 20
-1921.160628484474
 30
0.0
 11
-1610.698292737118
 21
-1915.664424804191
 31
0.0
  0
LINE
  5
52F
330
1F
100
AcDbEntity
  8
LAYER0048
  6
CONTINUOUS
 62
     3
100
AcDbLine
 10
-1616.860539195555
 20
-1924.937941099849
 30
0.0
 11
-1607.587022899898
 21
-1915.664424804191
 31
0.0
  0
LINE
  5
530
330
1F
100
AcDbEntity
  8
LAYER0048
  6
CONTINUOUS
 62
     3
100
AcDbLine
 10
-1617.52658197371
 20
-1928.715253715224
 30
0.0
 11
-1607.762761609939
 21
-1918.951433351454
 31
0.0
  0
LINE
  5
531
330
1F
100
AcDbEntity
  8
LAYER0048
  6
CONTINUOUS
 62
     3
100
AcDbLine
 10
-1618.192624751864
 20
-1932.492566330599
 30
0.0
 11
-1608.428804388094
 21
-1922.728745966829
 31
0.0
  0
LINE
  5
532
330
1F
100
AcDbEntity
  8
LAYER0048
  6
CONTINUOUS
 62
     3
100
AcDbLine
 10
-1618.053173788235
 20
-1935.464385204191
 30
0.0
 11
-1609.094847166247
 21
-1926.506058582203
 31
0.0
  0
LINE
  5
533
330
1F
100
AcDbEntity
  8
LAYER0048
  6
CONTINUOUS
 62
     3
100
AcDbLine
 10
-1614.941903951014
 20
-1935.464385204191
 30
0.0
 11
-1609.760889944401
 21
-1930.283371197579
 31
0.0
  0
LINE
  5
534
330
1F
100
AcDbEntity
  8
LAYER0048
  6
CONTINUOUS
 62
     3
100
AcDbLine
 10
-1611.830634113793
 20
-1935.464385204191
 30
0.0
 11
-1610.426932722556
 21
-1934.060683812953
 31
0.0
  0
LINE
  5
535
330
1F
100
AcDbEntity
  8
LAYER0048
  6
CONTINUOUS
 62
     3
100
AcDbLine
 10
-1636.029896950213
 20
-1917.928409993961
 30
0.0
 11
-1633.765911760443
 21
-1915.664424804191
 31
0.0
  0
LINE
  5
536
330
1F
100
AcDbEntity
  8
LAYER0048
  6
CONTINUOUS
 62
     3
100
AcDbLine
 10
-1636.695939728366
 20
-1921.705722609335
 30
0.0
 11
-1630.654641923223
 21
-1915.664424804191
 31
0.0
  0
LINE
  5
537
330
1F
100
AcDbEntity
  8
LAYER0048
  6
CONTINUOUS
 62
     3
100
AcDbLine
 10
-1637.36198250652
 20
-1925.48303522471
 30
0.0
 11
-1627.598162142749
 21
-1915.719214860938
 31
0.0
  0
LINE
  5
538
330
1F
100
AcDbEntity
  8
LAYER0048
  6
CONTINUOUS
 62
     3
100
AcDbLine
 10
-1638.028025284675
 20
-1929.260347840086
 30
0.0
 11
-1628.264204920903
 21
-1919.496527476314
 31
0.0
  0
LINE
  5
539
330
1F
100
AcDbEntity
  8
LAYER0048
  6
CONTINUOUS
 62
     3
100
AcDbLine
 10
-1638.694068062829
 20
-1933.03766045546
 30
0.0
 11
-1628.930247699057
 21
-1923.273840091688
 31
0.0
  0
LINE
  5
53A
330
1F
100
AcDbEntity
  8
LAYER0048
  6
CONTINUOUS
 62
     3
100
AcDbLine
 10
-1638.009522974339
 20
-1935.464385204191
 30
0.0
 11
-1629.596290477211
 21
-1927.051152707063
 31
0.0
  0
LINE
  5
53B
330
1F
100
AcDbEntity
  8
LAYER0048
  6
CONTINUOUS
 62
     3
100
AcDbLine
 10
-1634.898253137118
 20
-1935.464385204191
 30
0.0
 11
-1630.262333255365
 21
-1930.828465322438
 31
0.0
  0
LINE
  5
53C
330
1F
100
AcDbEntity
  8
LAYER0048
  6
CONTINUOUS
 62
     3
100
AcDbLine
 10
-1631.786983299898
 20
-1935.464385204191
 30
0.0
 11
-1630.928376033519
 21
-1934.605777937813
 31
0.0
  0
LINE
  5
53D
330
1F
100
AcDbEntity
  8
LAYER0048
  6
CONTINUOUS
 62
     3
100
AcDbLine
 10
-1754.834657304047
 20
-1917.216186370626
 30
0.0
 11
-1753.28289573761
 21
-1915.664424804191
 31
0.0
  0
LINE
  5
53E
330
1F
100
AcDbEntity
  8
LAYER0048
  6
CONTINUOUS
 62
     3
100
AcDbLine
 10
-1754.9519069999
 20
-1920.444705903699
 30
0.0
 11
-1750.171625900389
 21
-1915.664424804191
 31
0.0
  0
LINE
  5
53F
330
1F
100
AcDbEntity
  8
LAYER0048
  6
CONTINUOUS
 62
     3
100
AcDbLine
 10
-1755.385195870756
 20
-1923.989264611775
 30
0.0
 11
-1747.060356063169
 21
-1915.664424804191
 31
0.0
  0
LINE
  5
540
330
1F
100
AcDbEntity
  8
LAYER0048
  6
CONTINUOUS
 62
     3
100
AcDbLine
 10
-1756.273091759106
 20
-1927.988430337347
 30
0.0
 11
-1743.949086225948
 21
-1915.664424804191
 31
0.0
  0
LINE
  5
541
330
1F
100
AcDbEntity
  8
LAYER0048
  6
CONTINUOUS
 62
     3
100
AcDbLine
 10
-1757.924995069392
 20
-1932.751603484854
 30
0.0
 11
-1740.837816388727
 21
-1915.664424804191
 31
0.0
  0
LINE
  5
542
330
1F
100
AcDbEntity
  8
LAYER0048
  6
CONTINUOUS
 62
     3
100
AcDbLine
 10
-1761.567116527813
 20
-1939.504994780495
 30
0.0
 11
-1737.726546551507
 21
-1915.664424804191
 31
0.0
  0
LINE
  5
543
330
1F
100
AcDbEntity
  8
LAYER0048
  6
CONTINUOUS
 62
     3
100
AcDbLine
 10
-1779.646018327845
 20
-1966.917706092191
 30
0.0
 11
-1728.392737039844
 21
-1915.664424804191
 31
0.0
  0
LINE
  5
544
330
1F
100
AcDbEntity
  8
LAYER0048
  6
CONTINUOUS
 62
     3
100
AcDbLine
 10
-1776.534748490625
 20
-1966.917706092191
 30
0.0
 11
-1725.281467202624
 21
-1915.664424804191
 31
0.0
  0
LINE
  5
545
330
1F
100
AcDbEntity
  8
LAYER0048
  6
CONTINUOUS
 62
     3
100
AcDbLine
 10
-1773.423478653404
 20
-1966.917706092191
 30
0.0
 11
-1722.170197365402
 21
-1915.664424804191
 31
0.0
  0
LINE
  5
546
330
1F
100
AcDbEntity
  8
LAYER0048
  6
CONTINUOUS
 62
     3
100
AcDbLine
 10
-1770.312208816183
 20
-1966.917706092191
 30
0.0
 11
-1719.058927528182
 21
-1915.664424804191
 31
0.0
  0
LINE
  5
547
330
1F
100
AcDbEntity
  8
LAYER0048
  6
CONTINUOUS
 62
     3
100
AcDbLine
 10
-1767.200938978963
 20
-1966.917706092191
 30
0.0
 11
-1715.947657690961
 21
-1915.664424804191
 31
0.0
  0
LINE
  5
548
330
1F
100
AcDbEntity
  8
LAYER0048
  6
CONTINUOUS
 62
     3
100
AcDbLine
 10
-1764.003592911206
 20
-1966.831629861655
 30
0.0
 11
-1712.836387853741
 21
-1915.664424804191
 31
0.0
  0
LINE
  5
549
330
1F
100
AcDbEntity
  8
LAYER0048
  6
CONTINUOUS
 62
     3
100
AcDbLine
 10
-1760.53729474921
 20
-1966.47660153688
 30
0.0
 11
-1709.72511801652
 21
-1915.664424804191
 31
0.0
  0
LINE
  5
54A
330
1F
100
AcDbEntity
  8
LAYER0048
  6
CONTINUOUS
 62
     3
100
AcDbLine
 10
-1756.698534421391
 20
-1965.749111046281
 30
0.0
 11
-1706.613848179299
 21
-1915.664424804191
 31
0.0
  0
LINE
  5
54B
330
1F
100
AcDbEntity
  8
LAYER0048
  6
CONTINUOUS
 62
     3
100
AcDbLine
 10
-1723.302538742079
 20
-1935.464385204191
 30
0.0
 11
-1703.502578342078
 21
-1915.664424804191
 31
0.0
  0
LINE
  5
54C
330
1F
100
AcDbEntity
  8
LAYER0048
  6
CONTINUOUS
 62
     3
100
AcDbLine
 10
-1752.300270444884
 20
-1964.462116906994
 30
0.0
 11
-1725.610309849244
 21
-1937.772156311356
 31
0.0
  0
LINE
  5
54D
330
1F
100
AcDbEntity
  8
LAYER0048
  6
CONTINUOUS
 62
     3
100
AcDbLine
 10
-1720.191268904859
 20
-1935.464385204191
 30
0.0
 11
-1700.391308504857
 21
-1915.664424804191
 31
0.0
  0
LINE
  5
54E
330
1F
100
AcDbEntity
  8
LAYER0048
  6
CONTINUOUS
 62
     3
100
AcDbLine
 10
-1746.851236250562
 20
-1962.124352549893
 30
0.0
 11
-1727.948074206345
 21
-1943.221190505677
 31
0.0
  0
LINE
  5
54F
330
1F
100
AcDbEntity
  8
LAYER0048
  6
CONTINUOUS
 62
     3
100
AcDbLine
 10
-1717.079999067638
 20
-1935.464385204191
 30
0.0
 11
-1697.280038667637
 21
-1915.664424804191
 31
0.0
  0
LINE
  5
550
330
1F
100
AcDbEntity
  8
LAYER0048
  6
CONTINUOUS
 62
     3
100
AcDbLine
 10
-1713.968729230417
 20
-1935.464385204191
 30
0.0
 11
-1694.168768830416
 21
-1915.664424804191
 31
0.0
  0
LINE
  5
551
330
1F
100
AcDbEntity
  8
LAYER0048
  6
CONTINUOUS
 62
     3
100
AcDbLine
 10
-1710.857459393196
 20
-1935.464385204191
 30
0.0
 11
-1691.057498993196
 21
-1915.664424804191
 31
0.0
  0
LINE
  5
552
330
1F
100
AcDbEntity
  8
LAYER0048
  6
CONTINUOUS
 62
     3
100
AcDbLine
 10
-1707.746189555975
 20
-1935.464385204191
 30
0.0
 11
-1687.946229155975
 21
-1915.664424804191
 31
0.0
  0
LINE
  5
553
330
1F
100
AcDbEntity
  8
LAYER0048
  6
CONTINUOUS
 62
     3
100
AcDbLine
 10
-1704.634919718755
 20
-1935.464385204191
 30
0.0
 11
-1684.834959318754
 21
-1915.664424804191
 31
0.0
  0
LINE
  5
554
330
1F
100
AcDbEntity
  8
LAYER0048
  6
CONTINUOUS
 62
     3
100
AcDbLine
 10
-1728.8052729281
 20
-1959.634738413536
 30
0.0
 11
-1728.394872198755
 21
-1959.224337684191
 31
0.0
  0
LINE
  5
555
330
1F
100
AcDbEntity
  8
LAYER0048
  6
CONTINUOUS
 62
     3
100
AcDbLine
 10
-1701.523649881534
 20
-1935.464385204191
 30
0.0
 11
-1681.723689481533
 21
-1915.664424804191
 31
0.0
  0
LINE
  5
556
330
1F
100
AcDbEntity
  8
LAYER0048
  6
CONTINUOUS
 62
     3
100
AcDbLine
 10
-1729.471315706254
 20
-1963.412051028911
 30
0.0
 11
-1725.283602361534
 21
-1959.224337684191
 31
0.0
  0
LINE
  5
557
330
1F
100
AcDbEntity
  8
LAYER0048
  6
CONTINUOUS
 62
     3
100
AcDbLine
 10
-1698.412380044313
 20
-1935.464385204191
 30
0.0
 11
-1678.612419644312
 21
-1915.664424804191
 31
0.0
  0
LINE
  5
558
330
1F
100
AcDbEntity
  8
LAYER0048
  6
CONTINUOUS
 62
     3
100
AcDbLine
 10
-1730.137358484408
 20
-1967.189363644286
 30
0.0
 11
-1722.172332524313
 21
-1959.224337684191
 31
0.0
  0
LINE
  5
559
330
1F
100
AcDbEntity
  8
LAYER0048
  6
CONTINUOUS
 62
     3
100
AcDbLine
 10
-1695.301110207093
 20
-1935.464385204191
 30
0.0
 11
-1675.501149807092
 21
-1915.664424804191
 31
0.0
  0
LINE
  5
55A
330
1F
100
AcDbEntity
  8
LAYER0048
  6
CONTINUOUS
 62
     3
100
AcDbLine
 10
-1730.803401262563
 20
-1970.966676259661
 30
0.0
 11
-1719.061062687092
 21
-1959.224337684191
 31
0.0
  0
LINE
  5
55B
330
1F
100
AcDbEntity
  8
LAYER0048
  6
CONTINUOUS
 62
     3
100
AcDbLine
 10
-1692.189840369872
 20
-1935.464385204191
 30
0.0
 11
-1672.389879969871
 21
-1915.664424804191
 31
0.0
  0
LINE
  5
55C
330
1F
100
AcDbEntity
  8
LAYER0048
  6
CONTINUOUS
 62
     3
100
AcDbLine
 10
-1731.469444040717
 20
-1974.743988875036
 30
0.0
 11
-1715.949792849872
 21
-1959.224337684191
 31
0.0
  0
LINE
  5
55D
330
1F
100
AcDbEntity
  8
LAYER0048
  6
CONTINUOUS
 62
     3
100
AcDbLine
 10
-1692.160302183241
 20
-1938.546116854781
 30
0.0
 11
-1669.278610132651
 21
-1915.664424804191
 31
0.0
  0
LINE
  5
55E
330
1F
100
AcDbEntity
  8
LAYER0048
  6
CONTINUOUS
 62
     3
100
AcDbLine
 10
-1728.67849133265
 20
-1975.064306004191
 30
0.0
 11
-1712.838523012651
 21
-1959.224337684191
 31
0.0
  0
LINE
  5
55F
330
1F
100
AcDbEntity
  8
LAYER0048
  6
CONTINUOUS
 62
     3
100
AcDbLine
 10
-1692.826344961395
 20
-1942.323429470156
 30
0.0
 11
-1666.16734029543
 21
-1915.664424804191
 31
0.0
  0
LINE
  5
560
330
1F
100
AcDbEntity
  8
LAYER0048
  6
CONTINUOUS
 62
     3
100
AcDbLine
 10
-1725.567221495429
 20
-1975.064306004191
 30
0.0
 11
-1709.72725317543
 21
-1959.224337684191
 31
0.0
  0
LINE
  5
561
330
1F
100
AcDbEntity
  8
LAYER0048
  6
CONTINUOUS
 62
     3
100
AcDbLine
 10
-1693.492387739549
 20
-1946.100742085531
 30
0.0
 11
-1663.056070458209
 21
-1915.664424804191
 31
0.0
  0
LINE
  5
562
330
1F
100
AcDbEntity
  8
LAYER0048
  6
CONTINUOUS
 62
     3
100
AcDbLine
 10
-1722.455951658208
 20
-1975.064306004191
 30
0.0
 11
-1706.615983338209
 21
-1959.224337684191
 31
0.0
  0
LINE
  5
563
330
1F
100
AcDbEntity
  8
LAYER0048
  6
CONTINUOUS
 62
     3
100
AcDbLine
 10
-1781.855832858207
 20
-2034.46418720419
 30
0.0
 11
-1762.055872458208
 21
-2014.664226804191
 31
0.0
  0
LINE
  5
564
330
1F
100
AcDbEntity
  8
LAYER0048
  6
CONTINUOUS
 62
     3
100
AcDbLine
 10
-1694.158430517703
 20
-1949.878054700906
 30
0.0
 11
-1659.944800620988
 21
-1915.664424804191
 31
0.0
  0
LINE
  5
565
330
1F
100
AcDbEntity
  8
LAYER0048
  6
CONTINUOUS
 62
     3
100
AcDbLine
 10
-1719.344681820987
 20
-1975.064306004191
 30
0.0
 11
-1703.504713500989
 21
-1959.224337684191
 31
0.0
  0
LINE
  5
566
330
1F
100
AcDbEntity
  8
LAYER0048
  6
CONTINUOUS
 62
     3
100
AcDbLine
 10
-1778.744563020987
 20
-2034.46418720419
 30
0.0
 11
-1758.944602620987
 21
-2014.664226804191
 31
0.0
  0
LINE
  5
567
330
1F
100
AcDbEntity
  8
LAYER0048
  6
CONTINUOUS
 62
     3
100
AcDbLine
 10
-1694.824473295857
 20
-1953.655367316281
 30
0.0
 11
-1656.833530783767
 21
-1915.664424804191
 31
0.0
  0
LINE
  5
568
330
1F
100
AcDbEntity
  8
LAYER0048
  6
CONTINUOUS
 62
     3
100
AcDbLine
 10
-1716.233411983767
 20
-1975.064306004191
 30
0.0
 11
-1700.393443663768
 21
-1959.224337684191
 31
0.0
  0
LINE
  5
569
330
1F
100
AcDbEntity
  8
LAYER0048
  6
CONTINUOUS
 62
     3
100
AcDbLine
 10
-1775.633293183766
 20
-2034.46418720419
 30
0.0
 11
-1755.833332783766
 21
-2014.664226804191
 31
0.0
  0
LINE
  5
56A
330
1F
100
AcDbEntity
  8
LAYER0048
  6
CONTINUOUS
 62
     3
100
AcDbLine
 10
-1695.490516074012
 20
-1957.432679931656
 30
0.0
 11
-1653.722260946547
 21
-1915.664424804191
 31
0.0
  0
LINE
  5
56B
330
1F
100
AcDbEntity
  8
LAYER0048
  6
CONTINUOUS
 62
     3
100
AcDbLine
 10
-1713.122142146546
 20
-1975.064306004191
 30
0.0
 11
-1697.282173826547
 21
-1959.224337684191
 31
0.0
  0
LINE
  5
56C
330
1F
100
AcDbEntity
  8
LAYER0048
  6
CONTINUOUS
 62
     3
100
AcDbLine
 10
-1772.522023346545
 20
-2034.46418720419
 30
0.0
 11
-1752.722062946545
 21
-2014.664226804191
 31
0.0
  0
LINE
  5
56D
330
1F
100
AcDbEntity
  8
LAYER0048
  6
CONTINUOUS
 62
     3
100
AcDbLine
 10
-1710.010872309325
 20
-1975.064306004191
 30
0.0
 11
-1650.610991109326
 21
-1915.664424804191
 31
0.0
  0
LINE
  5
56E
330
1F
100
AcDbEntity
  8
LAYER0048
  6
CONTINUOUS
 62
     3
100
AcDbLine
 10
-1769.410753509325
 20
-2034.46418720419
 30
0.0
 11
-1749.610793109325
 21
-2014.664226804191
 31
0.0
  0
LINE
  5
56F
330
1F
100
AcDbEntity
  8
LAYER0048
  6
CONTINUOUS
 62
     3
100
AcDbLine
 10
-1706.899602472105
 20
-1975.064306004191
 30
0.0
 11
-1648.00374404713
 21
-1916.168447579217
 31
0.0
  0
LINE
  5
570
330
1F
100
AcDbEntity
  8
LAYER0048
  6
CONTINUOUS
 62
     3
100
AcDbLine
 10
-1766.299483672104
 20
-2034.46418720419
 30
0.0
 11
-1746.499523272104
 21
-2014.664226804191
 31
0.0
  0
LINE
  5
571
330
1F
100
AcDbEntity
  8
LAYER0048
  6
CONTINUOUS
 62
     3
100
AcDbLine
 10
-1703.788332634884
 20
-1975.064306004191
 30
0.0
 11
-1648.669786846124
 21
-1919.945760215432
 31
0.0
  0
LINE
  5
572
330
1F
100
AcDbEntity
  8
LAYER0048
  6
CONTINUOUS
 62
     3
100
AcDbLine
 10
-1763.188213834883
 20
-2034.46418720419
 30
0.0
 11
-1743.388253434884
 21
-2014.664226804191
 31
0.0
  0
LINE
  5
573
330
1F
100
AcDbEntity
  8
LAYER0048
  6
CONTINUOUS
 62
     3
100
AcDbLine
 10
-1700.677062797663
 20
-1975.064306004191
 30
0.0
 11
-1649.335829645118
 21
-1923.723072851647
 31
0.0
  0
LINE
  5
574
330
1F
100
AcDbEntity
  8
LAYER0048
  6
CONTINUOUS
 62
     3
100
AcDbLine
 10
-1760.076943997662
 20
-2034.46418720419
 30
0.0
 11
-1740.276983597663
 21
-2014.664226804191
 31
0.0
  0
LINE
  5
575
330
1F
100
AcDbEntity
  8
LAYER0048
  6
CONTINUOUS
 62
     3
100
AcDbLine
 10
-1698.8207270986
 20
-1976.319240142347
 30
0.0
 11
-1650.001872444112
 21
-1927.500385487861
 31
0.0
  0
LINE
  5
576
330
1F
100
AcDbEntity
  8
LAYER0048
  6
CONTINUOUS
 62
     3
100
AcDbLine
 10
-1756.965674160441
 20
-2034.46418720419
 30
0.0
 11
-1737.165713760442
 21
-2014.664226804191
 31
0.0
  0
LINE
  5
577
330
1F
100
AcDbEntity
  8
LAYER0048
  6
CONTINUOUS
 62
     3
100
AcDbLine
 10
-1699.486761249647
 20
-1980.096544130615
 30
0.0
 11
-1650.667915243106
 21
-1931.277698124076
 31
0.0
  0
LINE
  5
578
330
1F
100
AcDbEntity
  8
LAYER0048
  6
CONTINUOUS
 62
     3
100
AcDbLine
 10
-1753.854404323221
 20
-2034.46418720419
 30
0.0
 11
-1734.054443923221
 21
-2014.664226804191
 31
0.0
  0
LINE
  5
579
330
1F
100
AcDbEntity
  8
LAYER0048
  6
CONTINUOUS
 62
     3
100
AcDbLine
 10
-1700.152795400694
 20
-1983.873848118883
 30
0.0
 11
-1651.3339580421
 21
-1935.055010760291
 31
0.0
  0
LINE
  5
57A
330
1F
100
AcDbEntity
  8
LAYER0048
  6
CONTINUOUS
 62
     3
100
AcDbLine
 10
-1750.743134486
 20
-2034.46418720419
 30
0.0
 11
-1730.943174086
 21
-2014.664226804191
 31
0.0
  0
LINE
  5
57B
330
1F
100
AcDbEntity
  8
LAYER0048
  6
CONTINUOUS
 62
     3
100
AcDbLine
 10
-1700.818829551741
 20
-1987.651152107151
 30
0.0
 11
-1652.000000841093
 21
-1938.832323396505
 31
0.0
  0
LINE
  5
57C
330
1F
100
AcDbEntity
  8
LAYER0048
  6
CONTINUOUS
 62
     3
100
AcDbLine
 10
-1747.63186464878
 20
-2034.46418720419
 30
0.0
 11
-1727.812310258362
 21
-2014.644632813773
 31
0.0
  0
LINE
  5
57D
330
1F
100
AcDbEntity
  8
LAYER0048
  6
CONTINUOUS
 62
     3
100
AcDbLine
 10
-1701.484863702787
 20
-1991.428456095419
 30
0.0
 11
-1652.666043640088
 21
-1942.60963603272
 31
0.0
  0
LINE
  5
57E
330
1F
100
AcDbEntity
  8
LAYER0048
  6
CONTINUOUS
 62
     3
100
AcDbLine
 10
-1744.520594811559
 20
-2034.46418720419
 30
0.0
 11
-1724.354027238104
 21
-2014.297619630735
 31
0.0
  0
LINE
  5
57F
330
1F
100
AcDbEntity
  8
LAYER0048
  6
CONTINUOUS
 62
     3
100
AcDbLine
 10
-1702.490148059623
 20
-1995.545010289475
 30
0.0
 11
-1653.332086439082
 21
-1946.386948668935
 31
0.0
  0
LINE
  5
580
330
1F
100
AcDbEntity
  8
LAYER0048
  6
CONTINUOUS
 62
     3
100
AcDbLine
 10
-1741.409324974338
 20
-2034.46418720419
 30
0.0
 11
-1720.241011978765
 21
-2013.295874208618
 31
0.0
  0
LINE
  5
581
330
1F
100
AcDbEntity
  8
LAYER0048
  6
CONTINUOUS
 62
     3
100
AcDbLine
 10
-1705.122469216992
 20
-2001.288601284065
 30
0.0
 11
-1653.998129238076
 21
-1950.16426130515
 31
0.0
  0
LINE
  5
582
330
1F
100
AcDbEntity
  8
LAYER0048
  6
CONTINUOUS
 62
     3
100
AcDbLine
 10
-1738.298055137117
 20
-2034.46418720419
 30
0.0
 11
-1714.497420984174
 21
-2010.663553051247
 31
0.0
  0
LINE
  5
583
330
1F
100
AcDbEntity
  8
LAYER0048
  6
CONTINUOUS
 62
     3
100
AcDbLine
 10
-1735.186785299897
 20
-2034.46418720419
 30
0.0
 11
-1654.66417203707
 21
-1953.941573941364
 31
0.0
  0
LINE
  5
584
330
1F
100
AcDbEntity
  8
LAYER0048
  6
CONTINUOUS
 62
     3
100
AcDbLine
 10
-1732.075515462676
 20
-2034.46418720419
 30
0.0
 11
-1655.330214836064
 21
-1957.718886577579
 31
0.0
  0
LINE
  5
585
330
1F
100
AcDbEntity
  8
LAYER0048
  6
CONTINUOUS
 62
     3
100
AcDbLine
 10
-1728.964245625455
 20
-2034.46418720419
 30
0.0
 11
-1655.996257635058
 21
-1961.496199213793
 31
0.0
  0
LINE
  5
586
330
1F
100
AcDbEntity
  8
LAYER0048
  6
CONTINUOUS
 62
     3
100
AcDbLine
 10
-1725.852975788234
 20
-2034.46418720419
 30
0.0
 11
-1656.662300434051
 21
-1965.273511850008
 31
0.0
  0
LINE
  5
587
330
1F
100
AcDbEntity
  8
LAYER0048
  6
CONTINUOUS
 62
     3
100
AcDbLine
 10
-1722.741705951014
 20
-2034.46418720419
 30
0.0
 11
-1657.328343233045
 21
-1969.050824486223
 31
0.0
  0
LINE
  5
588
330
1F
100
AcDbEntity
  8
LAYER0048
  6
CONTINUOUS
 62
     3
100
AcDbLine
 10
-1719.630436113793
 20
-2034.46418720419
 30
0.0
 11
-1657.99438603204
 21
-1972.828137122438
 31
0.0
  0
LINE
  5
589
330
1F
100
AcDbEntity
  8
LAYER0048
  6
CONTINUOUS
 62
     3
100
AcDbLine
 10
-1716.476184602727
 20
-2034.421205530346
 30
0.0
 11
-1658.660428831033
 21
-1976.605449758652
 31
0.0
  0
LINE
  5
58A
330
1F
100
AcDbEntity
  8
LAYER0048
  6
CONTINUOUS
 62
     3
100
AcDbLine
 10
-1713.144998117584
 20
-2034.201288882424
 30
0.0
 11
-1659.326471630028
 21
-1980.382762394867
 31
0.0
  0
LINE
  5
58B
330
1F
100
AcDbEntity
  8
LAYER0048
  6
CONTINUOUS
 62
     3
100
AcDbLine
 10
-1709.592132477514
 20
-2033.759693079576
 30
0.0
 11
-1659.992514429021
 21
-1984.160075031082
 31
0.0
  0
LINE
  5
58C
330
1F
100
AcDbEntity
  8
LAYER0048
  6
CONTINUOUS
 62
     3
100
AcDbLine
 10
-1705.75412640245
 20
-2033.032956841731
 30
0.0
 11
-1660.736233666509
 21
-1988.015064105789
 31
0.0
  0
LINE
  5
58D
330
1F
100
AcDbEntity
  8
LAYER0048
  6
CONTINUOUS
 62
     3
100
AcDbLine
 10
-1701.537752027175
 20
-2031.927852303676
 30
0.0
 11
-1661.841338204563
 21
-1992.231438481065
 31
0.0
  0
LINE
  5
58E
330
1F
100
AcDbEntity
  8
LAYER0048
  6
CONTINUOUS
 62
     3
100
AcDbLine
 10
-1696.757294270535
 20
-2030.258664384258
 30
0.0
 11
-1663.510526123981
 21
-1997.011896237704
 31
0.0
  0
LINE
  5
58F
330
1F
100
AcDbEntity
  8
LAYER0048
  6
CONTINUOUS
 62
     3
100
AcDbLine
 10
-1690.985858040051
 20
-2027.598497990994
 30
0.0
 11
-1666.170692517245
 21
-2002.783332468188
 31
0.0
  0
LINE
  5
590
330
1F
100
AcDbEntity
  8
LAYER0048
  6
CONTINUOUS
 62
     3
100
AcDbLine
 10
-1682.192581426363
 20
-2021.916491214527
 30
0.0
 11
-1671.852699293711
 21
-2011.576609081875
 31
0.0
  0
LINE
  5
591
330
1F
100
AcDbEntity
  8
LAYER0048
  6
CONTINUOUS
 62
     3
100
AcDbLine
 10
-1559.637725880048
 20
-1982.984290164191
 30
0.0
 11
-1558.704406944049
 21
-1982.984290164191
 31
0.0
  0
LINE
  5
592
330
1F
100
AcDbEntity
  8
LAYER0048
  6
CONTINUOUS
 62
     3
100
AcDbLine
 10
-1695.806433984047
 20
-1959.224337684191
 30
0.0
 11
-1691.616909216048
 21
-1935.464385204191
 31
0.0
  0
LINE
  5
593
330
1F
100
AcDbEntity
  8
LAYER0048
  6
CONTINUOUS
 62
     3
100
AcDbLine
 10
-1701.542940672048
 20
-1991.757830148191
 30
0.0
 11
-1698.599450496048
 21
-1975.064306004191
 31
0.0
  0
LINE
  5
594
330
1F
100
AcDbEntity
  8
LAYER0048
  6
CONTINUOUS
 62
     3
100
AcDbLine
 10
-1647.914871144047
 20
-1982.984290164191
 30
0.0
 11
-1599.237646680047
 21
-1982.984290164191
 31
0.0
  0
LINE
  5
595
330
1F
100
AcDbEntity
  8
LAYER0048
  6
CONTINUOUS
 62
     3
100
AcDbLine
 10
-1431.687736416048
 20
-1934.55560876419
 30
0.0
 11
-1428.356696088047
 21
-1915.664424804191
 31
0.0
  0
LINE
  5
596
330
1F
100
AcDbEntity
  8
LAYER0048
  6
CONTINUOUS
 62
     3
100
AcDbLine
 10
-1449.304319928047
 20
-2034.46418720419
 30
0.0
 11
-1435.179007056047
 21
-1954.355569164191
 31
0.0
  0
LINE
  5
597
330
1F
100
AcDbEntity
  8
LAYER0048
  6
CONTINUOUS
 62
     3
100
AcDbLine
 10
-1475.389875072049
 20
-1954.355569164191
 30
0.0
 11
-1489.515187944048
 21
-2034.46418720419
 31
0.0
  0
LINE
  5
598
330
1F
100
AcDbEntity
  8
LAYER0048
  6
CONTINUOUS
 62
     3
100
AcDbLine
 10
-1468.567564104048
 20
-1915.664424804191
 30
0.0
 11
-1471.898604432047
 21
-1934.55560876419
 31
0.0
  0
LINE
  5
599
330
1F
100
AcDbEntity
  8
LAYER0048
  6
CONTINUOUS
 62
     3
100
AcDbLine
 10
-1435.179007056047
 20
-1954.355569164191
 30
0.0
 11
-1370.715425544048
 21
-1954.355569164191
 31
0.0
  0
LINE
  5
59A
330
1F
100
AcDbEntity
  8
LAYER0048
  6
CONTINUOUS
 62
     3
100
AcDbLine
 10
-1495.035841368048
 20
-1954.355569164191
 30
0.0
 11
-1475.389875072049
 21
-1954.355569164191
 31
0.0
  0
LINE
  5
59B
330
1F
100
AcDbEntity
  8
LAYER0048
  6
CONTINUOUS
 62
     3
100
AcDbLine
 10
-1471.898604432047
 20
-1934.55560876419
 30
0.0
 11
-1491.544570728048
 21
-1934.55560876419
 31
0.0
  0
LINE
  5
59C
330
1F
100
AcDbEntity
  8
LAYER0048
  6
CONTINUOUS
 62
     3
100
AcDbLine
 10
-1331.115504744047
 20
-1934.55560876419
 30
0.0
 11
-1431.687736416048
 21
-1934.55560876419
 31
0.0
  0
LINE
  5
59D
330
1F
100
AcDbEntity
  8
LAYER0048
  6
CONTINUOUS
 62
     3
100
AcDbLine
 10
-1337.953909152047
 20
-1973.338385148191
 30
0.0
 11
-1331.115504744047
 21
-1934.55560876419
 31
0.0
  0
LINE
  5
59E
330
1F
100
AcDbEntity
  8
LAYER0048
  6
CONTINUOUS
 62
     3
100
AcDbLine
 10
-1426.572436512047
 20
-2012.606579916191
 30
0.0
 11
-1384.751922744048
 21
-2012.606579916191
 31
0.0
  0
LINE
  5
59F
330
1F
100
AcDbEntity
  8
LAYER0048
  6
CONTINUOUS
 62
     3
100
AcDbLine
 10
-1423.081165872047
 20
-1992.806619516191
 30
0.0
 11
-1426.572436512047
 21
-2012.606579916191
 31
0.0
  0
LINE
  5
5A0
330
1F
100
AcDbEntity
  8
LAYER0048
  6
CONTINUOUS
 62
     3
100
AcDbLine
 10
-1410.723616800048
 20
-1992.806619516191
 30
0.0
 11
-1423.081165872047
 21
-1992.806619516191
 31
0.0
  0
LINE
  5
5A1
330
1F
100
AcDbEntity
  8
LAYER0048
  6
CONTINUOUS
 62
     3
100
AcDbLine
 10
-1370.715425544048
 20
-1954.355569164191
 30
0.0
 11
-1371.725288904048
 21
-1960.083123876191
 31
0.0
  0
LINE
  5
5A2
330
1F
100
AcDbEntity
  8
LAYER0048
  6
CONTINUOUS
 62
     3
100
AcDbLine
 10
-1491.544570728048
 20
-1934.55560876419
 30
0.0
 11
-1495.035841368048
 21
-1954.355569164191
 31
0.0
  0
LINE
  5
5A3
330
1F
100
AcDbEntity
  8
LAYER0048
  6
CONTINUOUS
 62
     3
100
AcDbLine
 10
-1428.356696088047
 20
-1915.664424804191
 30
0.0
 11
-1468.567564104048
 21
-1915.664424804191
 31
0.0
  0
LINE
  5
5A4
330
1F
100
AcDbEntity
  8
LAYER0048
  6
CONTINUOUS
 62
     3
100
AcDbLine
 10
-1489.515187944048
 20
-2034.46418720419
 30
0.0
 11
-1449.304319928047
 21
-2034.46418720419
 31
0.0
  0
LINE
  5
5A5
330
1F
100
AcDbEntity
  8
LAYER0048
  6
CONTINUOUS
 62
     3
100
AcDbLine
 10
-1526.697672888047
 20
-1966.702255164191
 30
0.0
 11
-1489.515187944048
 21
-1915.664424804191
 31
0.0
  0
LINE
  5
5A6
330
1F
100
AcDbEntity
  8
LAYER0048
  6
CONTINUOUS
 62
     3
100
AcDbLine
 10
-1568.715029544047
 20
-2034.46418720419
 30
0.0
 11
-1559.637725880048
 21
-1982.984290164191
 31
0.0
  0
LINE
  5
5A7
330
1F
100
AcDbEntity
  8
LAYER0048
  6
CONTINUOUS
 62
     3
100
AcDbLine
 10
-1599.237646680047
 20
-1982.984290164191
 30
0.0
 11
-1608.314950344047
 21
-2034.46418720419
 31
0.0
  0
LINE
  5
5A8
330
1F
100
AcDbEntity
  8
LAYER0048
  6
CONTINUOUS
 62
     3
100
AcDbLine
 10
-1545.810342816048
 20
-1915.664424804191
 30
0.0
 11
-1559.528089320047
 21
-1941.40437332419
 31
0.0
  0
LINE
  5
5A9
330
1F
100
AcDbEntity
  8
LAYER0048
  6
CONTINUOUS
 62
     3
100
AcDbLine
 10
-1600.681530000048
 20
-1965.16432580419
 30
0.0
 11
-1644.423600504048
 21
-1965.16432580419
 31
0.0
  0
LINE
  5
5AA
330
1F
100
AcDbEntity
  8
LAYER0048
  6
CONTINUOUS
 62
     3
100
AcDbLine
 10
-1568.715029544047
 20
-2034.46418720419
 30
0.0
 11
-1608.314950344047
 21
-2034.46418720419
 31
0.0
  0
LINE
  5
5AB
330
1F
100
AcDbEntity
  8
LAYER0048
  6
CONTINUOUS
 62
     3
100
AcDbLine
 10
-1489.515187944048
 20
-1915.664424804191
 30
0.0
 11
-1545.810342816048
 21
-1915.664424804191
 31
0.0
  0
LINE
  5
5AC
330
1F
100
AcDbEntity
  8
LAYER0048
  6
CONTINUOUS
 62
     3
100
AcDbLine
 10
-1644.423600504048
 20
-1965.16432580419
 30
0.0
 11
-1647.914871144047
 21
-1982.984290164191
 31
0.0
  0
LINE
  5
5AD
330
1F
100
AcDbEntity
  8
LAYER0048
  6
CONTINUOUS
 62
     3
100
AcDbLine
 10
-1607.18317275205
 20
-1915.664424804191
 30
0.0
 11
-1615.225366472049
 21
-1915.664424804191
 31
0.0
  0
LINE
  5
5AE
330
1F
100
AcDbEntity
  8
LAYER0048
  6
CONTINUOUS
 62
     3
100
AcDbLine
 10
-1610.674443392049
 20
-1935.464385204191
 30
0.0
 11
-1607.18317275205
 21
-1915.664424804191
 31
0.0
  0
LINE
  5
5AF
330
1F
100
AcDbEntity
  8
LAYER0048
  6
CONTINUOUS
 62
     3
100
AcDbLine
 10
-1618.716637112048
 20
-1935.464385204191
 30
0.0
 11
-1610.674443392049
 21
-1935.464385204191
 31
0.0
  0
LINE
  5
5B0
330
1F
100
AcDbEntity
  8
LAYER0048
  6
CONTINUOUS
 62
     3
100
AcDbLine
 10
-1615.225366472049
 20
-1915.664424804191
 30
0.0
 11
-1618.716637112048
 21
-1935.464385204191
 31
0.0
  0
LINE
  5
5B1
330
1F
100
AcDbEntity
  8
LAYER0048
  6
CONTINUOUS
 62
     3
100
AcDbLine
 10
-1627.588501168048
 20
-1915.664424804191
 30
0.0
 11
-1635.630694888049
 21
-1915.664424804191
 31
0.0
  0
LINE
  5
5B2
330
1F
100
AcDbEntity
  8
LAYER0048
  6
CONTINUOUS
 62
     3
100
AcDbLine
 10
-1631.079771808048
 20
-1935.464385204191
 30
0.0
 11
-1627.588501168048
 21
-1915.664424804191
 31
0.0
  0
LINE
  5
5B3
330
1F
100
AcDbEntity
  8
LAYER0048
  6
CONTINUOUS
 62
     3
100
AcDbLine
 10
-1639.121965528048
 20
-1935.464385204191
 30
0.0
 11
-1631.079771808048
 21
-1935.464385204191
 31
0.0
  0
LINE
  5
5B4
330
1F
100
AcDbEntity
  8
LAYER0048
  6
CONTINUOUS
 62
     3
100
AcDbLine
 10
-1635.630694888049
 20
-1915.664424804191
 30
0.0
 11
-1639.121965528048
 21
-1935.464385204191
 31
0.0
  0
LINE
  5
5B5
330
1F
100
AcDbEntity
  8
LAYER0048
  6
CONTINUOUS
 62
     3
100
AcDbLine
 10
-1754.834657304047
 20
-1917.417805092191
 30
0.0
 11
-1754.834657304047
 21
-1915.664424804191
 31
0.0
  0
LINE
  5
5B6
330
1F
100
AcDbEntity
  8
LAYER0048
  6
CONTINUOUS
 62
     3
100
AcDbLine
 10
-1731.525924648047
 20
-1975.064306004191
 30
0.0
 11
-1698.599450496048
 21
-1975.064306004191
 31
0.0
  0
LINE
  5
5B7
330
1F
100
AcDbEntity
  8
LAYER0048
  6
CONTINUOUS
 62
     3
100
AcDbLine
 10
-1728.732908136048
 20
-1959.224337684191
 30
0.0
 11
-1731.525924648047
 21
-1975.064306004191
 31
0.0
  0
LINE
  5
5B8
330
1F
100
AcDbEntity
  8
LAYER0048
  6
CONTINUOUS
 62
     3
100
AcDbLine
 10
-1695.806433984047
 20
-1959.224337684191
 30
0.0
 11
-1728.732908136048
 21
-1959.224337684191
 31
0.0
  0
LINE
  5
5B9
330
1F
100
AcDbEntity
  8
LAYER0048
  6
CONTINUOUS
 62
     3
100
AcDbLine
 10
-1691.616909216048
 20
-1935.464385204191
 30
0.0
 11
-1724.870884872048
 21
-1935.464385204191
 31
0.0
  0
LINE
  5
5BA
330
1F
100
AcDbEntity
  8
LAYER0048
  6
CONTINUOUS
 62
     3
100
AcDbLine
 10
-1647.914871144047
 20
-1915.664424804191
 30
0.0
 11
-1660.207442952047
 21
-1985.378994036191
 31
0.0
  0
LINE
  5
5BB
330
1F
100
AcDbEntity
  8
LAYER0048
  6
CONTINUOUS
 62
     3
100
AcDbLine
 10
-1754.834657304047
 20
-1915.664424804191
 30
0.0
 11
-1647.914871144047
 21
-1915.664424804191
 31
0.0
  0
ARC
  5
5BC
330
1F
100
AcDbEntity
  8
LAYER0048
  6
CONTINUOUS
 62
     3
100
AcDbCircle
 10
-1384.751922744048
 20
-1965.086674956191
 30
0.0
 40
47.51990496000045
100
AcDbArc
 50
270.0000000000006
 51
350.0000501652083
  0
ARC
  5
5BD
330
1F
100
AcDbEntity
  8
LAYER0048
  6
CONTINUOUS
 62
     3
100
AcDbCircle
 10
-1410.723616800048
 20
-1953.20669871619
 30
0.0
 40
39.59992080000051
100
AcDbArc
 50
270.0000000000006
 51
350.0000459533484
  0
ARC
  5
5BE
330
1F
100
AcDbEntity
  8
LAYER0048
  6
CONTINUOUS
 62
     3
100
AcDbCircle
 10
-1558.704406944049
 20
-1943.38436936419
 30
0.0
 40
39.5999208000004
100
AcDbArc
 50
270.0000000000006
 51
323.9255158738096
  0
ARC
  5
5BF
330
1F
100
AcDbEntity
  8
LAYER0048
  6
CONTINUOUS
 62
     3
100
AcDbCircle
 10
-1600.681530000048
 20
-1917.64442084419
 30
0.0
 40
47.51990496000005
100
AcDbArc
 50
270.0000000000006
 51
329.9999974675138
  0
ARC
  5
5C0
330
1F
100
AcDbEntity
  8
LAYER0048
  6
CONTINUOUS
 62
     3
100
AcDbCircle
 10
-1766.714633544048
 20
-1923.357793212191
 30
0.0
 40
43.55991288000003
100
AcDbArc
 50
270.0000000000006
 51
343.8633330758265
  0
ARC
  5
5C1
330
1F
100
AcDbEntity
  8
LAYER0048
  6
CONTINUOUS
 62
     3
100
AcDbCircle
 10
-1718.704884504048
 20
-1975.064306004191
 30
0.0
 40
59.39988120000002
100
AcDbArc
 50
270.0000000000006
 51
349.9999897560574
  0
ARC
  5
5C2
330
1F
100
AcDbEntity
  8
LAYER0048
  6
CONTINUOUS
 62
     3
100
AcDbCircle
 10
-1728.841740024048
 20
-1986.944282244192
 30
0.0
 40
27.71994455999864
100
AcDbArc
 50
270.0000000000006
 51
349.9999327509129
  0
LINE
  5
5C3
330
1F
100
AcDbEntity
  8
LAYER0048
  6
CONTINUOUS
 62
     3
100
AcDbLine
 10
-1792.091097676728
 20
-1966.917706092191
 30
0.0
 11
-1779.100779711383
 21
-1953.927388126845
 31
0.0
  0
LINE
  5
5C4
330
1F
100
AcDbEntity
  8
LAYER0048
  6
CONTINUOUS
 62
     3
100
AcDbLine
 10
-1788.979827839508
 20
-1966.917706092191
 30
0.0
 11
-1772.347388415743
 21
-1950.285266668425
 31
0.0
  0
LINE
  5
5C5
330
1F
100
AcDbEntity
  8
LAYER0048
  6
CONTINUOUS
 62
     3
100
AcDbLine
 10
-1785.868558002288
 20
-1966.917706092191
 30
0.0
 11
-1734.615276714286
 21
-1915.664424804191
 31
0.0
  0
LINE
  5
5C6
330
1F
100
AcDbEntity
  8
LAYER0048
  6
CONTINUOUS
 62
     3
100
AcDbLine
 10
-1782.757288165067
 20
-1966.917706092191
 30
0.0
 11
-1731.504006877065
 21
-1915.664424804191
 31
0.0
  0
LINE
  5
5C7
330
1F
100
AcDbEntity
  8
LAYER0048
  6
CONTINUOUS
 62
     3
100
AcDbLine
 10
-1800.523451881532
 20
-2034.46418720419
 30
0.0
 11
-1780.723491481533
 21
-2014.664226804191
 31
0.0
  0
LINE
  5
5C8
330
1F
100
AcDbEntity
  8
LAYER0048
  6
CONTINUOUS
 62
     3
100
AcDbLine
 10
-1797.412182044311
 20
-2034.46418720419
 30
0.0
 11
-1777.612221644311
 21
-2014.664226804191
 31
0.0
  0
LINE
  5
5C9
330
1F
100
AcDbEntity
  8
LAYER0048
  6
CONTINUOUS
 62
     3
100
AcDbLine
 10
-1794.300912207091
 20
-2034.46418720419
 30
0.0
 11
-1774.500951807091
 21
-2014.664226804191
 31
0.0
  0
LINE
  5
5CA
330
1F
100
AcDbEntity
  8
LAYER0048
  6
CONTINUOUS
 62
     3
100
AcDbLine
 10
-1791.18964236987
 20
-2034.46418720419
 30
0.0
 11
-1771.38968196987
 21
-2014.664226804191
 31
0.0
  0
LINE
  5
5CB
330
1F
100
AcDbEntity
  8
LAYER0048
  6
CONTINUOUS
 62
     3
100
AcDbLine
 10
-1788.078372532649
 20
-2034.46418720419
 30
0.0
 11
-1768.278412132649
 21
-2014.664226804191
 31
0.0
  0
LINE
  5
5CC
330
1F
100
AcDbEntity
  8
LAYER0048
  6
CONTINUOUS
 62
     3
100
AcDbLine
 10
-1784.967102695429
 20
-2034.46418720419
 30
0.0
 11
-1765.167142295429
 21
-2014.664226804191
 31
0.0
  0
LINE
  5
5CD
330
1F
100
AcDbEntity
  8
LAYER0048
  6
CONTINUOUS
 62
     3
100
AcDbLine
 10
-1794.404302320047
 20
-1966.917706092191
 30
0.0
 11
-1766.714633544048
 21
-1966.917706092191
 31
0.0
  0
LINE
  5
5CE
330
1F
100
AcDbEntity
  8
LAYER0048
  6
CONTINUOUS
 62
     3
100
AcDbLine
 10
-1802.823283704047
 20
-2014.664226804191
 30
0.0
 11
-1728.841740024048
 21
-2014.664226804191
 31
0.0
  0
LINE
  5
5CF
330
1F
100
AcDbEntity
  8
LAYER0048
  6
CONTINUOUS
 62
     3
100
AcDbLine
 10
-1718.704884504048
 20
-2034.46418720419
 30
0.0
 11
-1806.314554344048
 21
-2034.46418720419
 31
0.0
  0
ARC
  5
5D0
330
1F
100
AcDbEntity
  8
LAYER0048
  6
CONTINUOUS
 62
     3
100
AcDbCircle
 10
-1794.434578104047
 20
-1917.417805092191
 30
0.0
 40
39.59995495128077
100
AcDbArc
 50
272.5678887518231
 51
0.0
  0
DIMENSION
  5
5D1
330
1F
100
AcDbEntity
  8
LAYER0017
  6
CONTINUOUS
100
AcDbDimension
  2
*D14
 10
2525.356236411537
 20
389.1658317491101
 30
0.0
 11
2862.800736411537
 21
389.1658317491101
 31
0.0
 70
   160
  1
30×7=<>
  3
DC_ROTATED
100
AcDbAlignedDimension
 13
2315.356236411532
 23
57.02937489239127
 33
0.0
 14
2525.356236411537
 24
57.02937489239127
 34
0.0
100
AcDbRotatedDimension
1001
ACAD
1000
DSTYLE
1002
{
1070
     7
1000
OPEN30
1070
     6
1000
OPEN30
1070
   144
1040
1.0
1070
   274
1070
     4
1070
    41
1040
75.00004768371582
1070
    79
1070
     2
1070
   176
1070
     4
1070
   177
1070
     4
1070
   178
1070
     4
1070
   271
1070
     1
1070
    44
1040
25.0
1070
    42
1040
25.0
1070
   147
1040
25.0
1070
   173
1070
     1
1070
    77
1070
     3
1070
    73
1070
     0
1070
   172
1070
     1
1070
    74
1070
     0
1070
   283
1070
     0
1070
   340
1005
177
1070
   140
1040
75.0
1070
   284
1070
     8
1070
   288
1070
     1
1070
    78
1070
     8
1070
    90
1070
     1
1002
}
  0
ARC
  5
5D2
330
1F
100
AcDbEntity
  8
1-2
  6
CONTINUOUS
 62
     2
100
AcDbCircle
 10
-650.3753053161064
 20
-1094.484329953321
 30
0.0
 40
25.0
100
AcDbArc
 50
193.5851200184245
 51
268.4976052628925
  0
ARC
  5
5D3
330
1F
100
AcDbEntity
  8
1-2
  6
CONTINUOUS
 62
     2
100
AcDbCircle
 10
-778.6096753185103
 20
-1222.718699955632
 30
0.0
 40
25.0
100
AcDbArc
 50
1.502394737065956
 51
76.41487998153443
  0
CIRCLE
  5
5D4
330
1F
100
AcDbEntity
  8
1-2
  6
DIVIDE
 62
     3
100
AcDbCircle
 10
-753.6526465672964
 20
-1119.44135870446
 30
0.0
 40
62.5
  0
CIRCLE
  5
5D5
330
1F
100
AcDbEntity
  8
1-2
  6
DIVIDE
 62
     3
100
AcDbCircle
 10
-653.6526465673282
 20
-1219.4413587045
 30
0.0
 40
75.0
  0
CIRCLE
  5
5D6
330
1F
100
AcDbEntity
  8
1-2
  6
DIVIDE
 62
     3
100
AcDbCircle
 10
-58.88706350207595
 20
-615.1741487946504
 30
0.0
 40
61.03277807866851
  0
LINE
  5
5D7
330
1F
100
AcDbEntity
  8
0
  6
CONTINUOUS
 62
     3
100
AcDbLine
 10
-497.1527439024417
 20
-966.7522865853659
 30
0.0
 11
-502.1527439024417
 21
-946.7522865853659
 31
0.0
  0
LINE
  5
5D8
330
1F
100
AcDbEntity
  8
0
  6
CONTINUOUS
 62
     3
100
AcDbLine
 10
-502.1527439024417
 20
-946.7522865853659
 30
0.0
 11
-547.1527439024417
 21
-1056.752286585366
 31
0.0
  0
LINE
  5
5D9
330
1F
100
AcDbEntity
  8
0
  6
CONTINUOUS
 62
     3
100
AcDbLine
 10
-457.1527439024417
 20
-1006.752286585366
 30
0.0
 11
-427.1527439024417
 21
-1016.752286585366
 31
0.0
  0
LINE
  5
5DA
330
1F
100
AcDbEntity
  8
0
  6
CONTINUOUS
 62
     3
100
AcDbLine
 10
-127.1527439024417
 20
-686.7522865853659
 30
0.0
 11
-497.1527439024417
 21
-966.7522865853659
 31
0.0
  0
LINE
  5
5DB
330
1F
100
AcDbEntity
  8
0
  6
CONTINUOUS
 62
     3
100
AcDbLine
 10
-427.1527439024417
 20
-1016.752286585366
 30
0.0
 11
-547.1527439024417
 21
-1056.752286585366
 31
0.0
  0
LINE
  5
5DC
330
1F
100
AcDbEntity
  8
0
  6
CONTINUOUS
 62
     3
100
AcDbLine
 10
-127.1527439024417
 20
-686.7522865853659
 30
0.0
 11
-457.1527439024417
 21
-1006.752286585366
 31
0.0
  0
INSERT
  5
5DD
330
1F
100
AcDbEntity
  8
1-2
  6
CONTINUOUS
100
AcDbBlockReference
  2
DC_GROUP_9
 10
0.0
 20
0.0
 30
0.0
  0
INSERT
  5
5DE
330
1F
100
AcDbEntity
  8
1-2
  6
CONTINUOUS
100
AcDbBlockReference
  2
DC_GROUP_10
 10
0.0
 20
0.0
 30
0.0
  0
INSERT
  5
5DF
330
1F
100
AcDbEntity
  8
0
  6
CONTINUOUS
100
AcDbBlockReference
  2
DC_GROUP_11
 10
0.0
 20
0.0
 30
0.0
  0
INSERT
  5
5E0
330
1F
100
AcDbEntity
  8
0
  6
CONTINUOUS
100
AcDbBlockReference
  2
DC_GROUP_21
 10
0.0
 20
0.0
 30
0.0
  0
INSERT
  5
5E1
330
1F
100
AcDbEntity
  8
LAYER0048
  6
CONTINUOUS
100
AcDbBlockReference
  2
DC_GROUP_31
 10
0.0
 20
0.0
 30
0.0
  0
INSERT
  5
5E2
330
1F
100
AcDbEntity
  8
LAYER0048
  6
CONTINUOUS
100
AcDbBlockReference
  2
DC_GROUP_32
 10
0.0
 20
0.0
 30
0.0
  0
DIMENSION
  5
5E3
330
1F
100
AcDbEntity
  8
MAINS
  6
CONTINUOUS
100
AcDbDimension
  2
*D39
 10
1271.112939559444
 20
-1005.582564271589
 30
0.0
 11
604.1129380286834
 21
-1005.582564271589
 31
0.0
 70
   160
  1
1319～1465
  3
DC_ROTATED
100
AcDbAlignedDimension
 13
-62.88706350207752
 23
-603.3741487946518
 33
0.0
 14
1271.112939559444
 24
-603.3741487946518
 34
0.0
100
AcDbRotatedDimension
1001
ACAD
1000
DSTYLE
1002
{
1070
     7
1000
OPEN30
1070
     6
1000
OPEN30
1070
   144
1040
1.0
1070
   274
1070
     4
1070
    41
1040
75.00004768371582
1070
    79
1070
     2
1070
   176
1070
     4
1070
   177
1070
     4
1070
   178
1070
     4
1070
   271
1070
     2
1070
    44
1040
25.0
1070
    42
1040
25.0
1070
   147
1040
25.0
1070
   173
1070
     1
1070
    77
1070
     3
1070
    73
1070
     0
1070
   172
1070
     1
1070
    74
1070
     0
1070
   283
1070
     0
1070
   340
1005
177
1070
   140
1040
75.0
1070
   284
1070
     8
1070
   288
1070
     1
1070
    78
1070
     8
1070
    90
1070
     1
1002
}
  0
VIEWPORT
  5
B6
330
1B
100
AcDbEntity
 67
     1
  8
0
100
AcDbViewport
 68
     1
 10
-0.000000000003638
 20
2.499999999999091
 30
0.0
 40
19275.0
 41
14715.00000000001
 68
     1
 69
     1
1001
ACAD
1000
MVIEW
1002
{
1070
    16
1010
0.0
1020
0.0
1030
0.0
1010
0.0
1020
0.0
1030
1.0
1040
0.0
1040
14715.00000000001
1040
-0.000000000003638
1040
2.499999999999091
1040
50.0
1040
0.0
1040
0.0
1070
     0
1070
   100
1070
     0
1070
     3
1070
     0
1070
     0
1070
     0
1070
     0
1040
0.0
1040
0.0
1040
0.0
1040
0.5
1040
0.5
1040
0.0
1040
0.0
1070
     0
1002
{
1002
}
1002
}
  0
ENDSEC
  0
SECTION
  2
OBJECTS
  0
DICTIONARY
  5
C
330
0
100
AcDbDictionary
  3
ACAD_GROUP
350
D
  3
ACAD_LAYOUT
350
1A
  3
ACAD_MATERIAL
350
43
  3
ACAD_MLEADERSTYLE
350
6B
  3
ACAD_MLINESTYLE
350
17
  3
ACAD_PLOTSETTINGS
350
19
  3
ACAD_SCALELIST
350
47
  3
ACAD_VISUALSTYLE
350
2A
  3
ACDBVARIABLEDICTIONARY
350
5E4
1001
ACAD
1000
TREAT_AS_HARD
1070
     0
  0
DICTIONARY
  5
D
102
{ACAD_REACTORS
330
C
102
}
330
C
100
AcDbDictionary
1001
ACAD
1000
TREAT_AS_HARD
1070
     0
  0
DICTIONARY
  5
1A
102
{ACAD_REACTORS
330
C
102
}
330
C
100
AcDbDictionary
1001
ACAD
1000
TREAT_AS_HARD
1070
     0
  0
DICTIONARY
  5
43
102
{ACAD_REACTORS
330
C
102
}
330
C
100
AcDbDictionary
  3
BYBLOCK
350
45
  3
BYLAYER
350
44
  3
GLOBAL
350
46
1001
ACAD
1000
TREAT_AS_HARD
1070
     0
  0
DICTIONARY
  5
6B
102
{ACAD_REACTORS
330
C
102
}
330
C
100
AcDbDictionary
  3
STANDARD
350
6C
1001
ACAD
1000
TREAT_AS_HARD
1070
     0
  0
DICTIONARY
  5
17
102
{ACAD_REACTORS
330
C
102
}
330
C
100
AcDbDictionary
  3
STANDARD
350
18
1001
ACAD
1000
TREAT_AS_HARD
1070
     0
  0
DICTIONARY
  5
19
102
{ACAD_REACTORS
330
C
102
}
330
C
100
AcDbDictionary
1001
ACAD
1000
TREAT_AS_HARD
1070
     0
  0
DICTIONARY
  5
47
102
{ACAD_REACTORS
330
C
102
}
330
C
100
AcDbDictionary
  3
A0
350
48
  3
A1
350
49
  3
A2
350
4A
  3
A3
350
4B
  3
A4
350
4C
  3
A5
350
4D
  3
A6
350
4E
  3
A7
350
4F
  3
A8
350
50
  3
A9
350
51
  3
B0
350
52
  3
B1
350
53
  3
B2
350
54
  3
B3
350
55
  3
B4
350
56
  3
B5
350
57
  3
B6
350
58
  3
B7
350
59
  3
B8
350
5A
  3
B9
350
5B
  3
C0
350
5C
  3
C1
350
5D
  3
C2
350
5E
  3
C3
350
5F
  3
C4
350
60
  3
C5
350
61
  3
C6
350
62
  3
C7
350
63
  3
C8
350
64
  3
C9
350
65
  3
D0
350
66
  3
D1
350
67
  3
D2
350
68
1001
ACAD
1000
TREAT_AS_HARD
1070
     0
  0
DICTIONARY
  5
2A
102
{ACAD_REACTORS
330
C
102
}
330
C
100
AcDbDictionary
  3
2DWIREFRAME
350
2F
  3
BASIC
350
32
  3
BRIGHTEN
350
36
  3
COLORCHANGE
350
3A
  3
CONCEPTUAL
350
34
  3
DIM
350
35
  3
EDGECOLOROFF
350
3D
  3
FACEPATTERN
350
39
  3
FLAT
350
2B
  3
FLATWITHEDGES
350
2C
  3
GOURAUD
350
2D
  3
GOURAUDWITHEDGES
350
2E
  3
HIDDEN
350
31
  3
JITTEROFF
350
3B
  3
LINEPATTERN
350
38
  3
OVERHANGOFF
350
3C
  3
REALISTIC
350
33
  3
SHADED
350
42
  3
SHADED_WITH_EDGES
350
41
  3
SHADES_OF_GRAY
350
3E
  3
SKETCHY
350
3F
  3
THICKEN
350
37
  3
WIREFRAME
350
30
  3
X-RAY
350
40
1001
ACAD
1000
TREAT_AS_HARD
1070
     0
  0
DICTIONARY
  5
5E4
102
{ACAD_REACTORS
330
C
102
}
330
C
100
AcDbDictionary
  3
CANNOSCALE
350
5ED
  3
CMLEADERSTYLE
350
5E6
  3
CTABLESTYLE
350
5E5
  3
DIMASSOC
350
5E9
  3
HIDETEXT
350
5EA
  3
MSLTSCALE
350
5EE
1001
ACAD
1000
TREAT_AS_HARD
1070
     0
  0
MATERIAL
  5
45
102
{ACAD_REACTORS
330
43
102
}
102
{ACAD_XDICTIONARY
360
5F1
102
}
330
43
100
AcDbMaterial
  1
BYBLOCK
  0
MATERIAL
  5
44
102
{ACAD_REACTORS
330
43
102
}
102
{ACAD_XDICTIONARY
360
5EF
102
}
330
43
100
AcDbMaterial
  1
BYLAYER
  0
MATERIAL
  5
46
102
{ACAD_REACTORS
330
43
102
}
102
{ACAD_XDICTIONARY
360
5F3
102
}
330
43
100
AcDbMaterial
  1
GLOBAL
  0
ACAD_PROXY_OBJECT
  5
6C
102
{ACAD_REACTORS
330
6B
102
}
330
6B
100
AcDbZombieObject
 90
      499
 91
      505
 93
      610
310
40901902A4063FBFFFFFE056BD1B81E855B9FC0AD7A3703D0AD73F4214DD185B99185C9900AD7A3703D0AC73F90141901A02B5E8DC0F42B1CFC02B5E8DC0F42B1CFE5764000000000000300FC0
340
14
340
0
340
11
340
0
 94
        0
1001
ACAD_MLEADERVER
1070
     2
  0
MLINESTYLE
  5
18
102
{ACAD_REACTORS
330
17
102
}
330
17
100
AcDbMlineStyle
  2
Standard
 70
     0
  3

 62
   256
 51
90.0
 52
90.0
 71
     2
 49
0.5
 62
   256
  6
BYLAYER
 49
-0.5
 62
   256
  6
BYLAYER
  0
ACAD_PROXY_OBJECT
  5
48
102
{ACAD_REACTORS
330
47
102
}
330
47
100
AcDbZombieObject
 90
      499
 91
      503
 93
       41
310
903313A31580
  0
ACAD_PROXY_OBJECT
  5
49
102
{ACAD_REACTORS
330
47
102
}
330
47
100
AcDbZombieObject
 90
      499
 91
      503
 93
      105
310
903313A324000000000000004000
  0
ACAD_PROXY_OBJECT
  5
4A
102
{ACAD_REACTORS
330
47
102
}
330
47
100
AcDbZombieObject
 90
      499
 91
      503
 93
      105
310
903313A344000000000000104000
  0
ACAD_PROXY_OBJECT
  5
4B
102
{ACAD_REACTORS
330
47
102
}
330
47
100
AcDbZombieObject
 90
      499
 91
      503
 93
      105
310
903313A354000000000000144000
  0
ACAD_PROXY_OBJECT
  5
4C
102
{ACAD_REACTORS
330
47
102
}
330
47
100
AcDbZombieObject
 90
      499
 91
      503
 93
      105
310
903313A384000000000000204000
  0
ACAD_PROXY_OBJECT
  5
4D
102
{ACAD_REACTORS
330
47
102
}
330
47
100
AcDbZombieObject
 90
      499
 91
      503
 93
      113
310
904313A31304000000000000244000
  0
ACAD_PROXY_OBJECT
  5
4E
102
{ACAD_REACTORS
330
47
102
}
330
47
100
AcDbZombieObject
 90
      499
 91
      503
 93
      113
310
904313A31364000000000000304000
  0
ACAD_PROXY_OBJECT
  5
4F
102
{ACAD_REACTORS
330
47
102
}
330
47
100
AcDbZombieObject
 90
      499
 91
      503
 93
      113
310
904313A32304000000000000344000
  0
ACAD_PROXY_OBJECT
  5
50
102
{ACAD_REACTORS
330
47
102
}
330
47
100
AcDbZombieObject
 90
      499
 91
      503
 93
      113
310
904313A333040000000000003E4000
  0
ACAD_PROXY_OBJECT
  5
51
102
{ACAD_REACTORS
330
47
102
}
330
47
100
AcDbZombieObject
 90
      499
 91
      503
 93
      113
310
904313A34304000000000000444000
  0
ACAD_PROXY_OBJECT
  5
52
102
{ACAD_REACTORS
330
47
102
}
330
47
100
AcDbZombieObject
 90
      499
 91
      503
 93
      113
310
904313A35304000000000000494000
  0
ACAD_PROXY_OBJECT
  5
53
102
{ACAD_REACTORS
330
47
102
}
330
47
100
AcDbZombieObject
 90
      499
 91
      503
 93
      121
310
905313A3130304000000000000594000
  0
ACAD_PROXY_OBJECT
  5
54
102
{ACAD_REACTORS
330
47
102
}
330
47
100
AcDbZombieObject
 90
      499
 91
      503
 93
      105
310
903323A310000000000000010100
  0
ACAD_PROXY_OBJECT
  5
55
102
{ACAD_REACTORS
330
47
102
}
330
47
100
AcDbZombieObject
 90
      499
 91
      503
 93
      105
310
903343A310000000000000410100
  0
ACAD_PROXY_OBJECT
  5
56
102
{ACAD_REACTORS
330
47
102
}
330
47
100
AcDbZombieObject
 90
      499
 91
      503
 93
      105
310
903383A310000000000000810100
  0
ACAD_PROXY_OBJECT
  5
57
102
{ACAD_REACTORS
330
47
102
}
330
47
100
AcDbZombieObject
 90
      499
 91
      503
 93
      113
310
90431303A310000000000000910100
  0
ACAD_PROXY_OBJECT
  5
58
102
{ACAD_REACTORS
330
47
102
}
330
47
100
AcDbZombieObject
 90
      499
 91
      503
 93
      121
310
9053130303A310000000000001650100
  0
ACAD_PROXY_OBJECT
  5
59
102
{ACAD_REACTORS
330
47
102
}
330
47
100
AcDbZombieObject
 90
      499
 91
      503
 93
      257
310
90E312F31323822203D2031272D3022000000000000200FC000000000000284000
  0
ACAD_PROXY_OBJECT
  5
5A
102
{ACAD_REACTORS
330
47
102
}
330
47
100
AcDbZombieObject
 90
      499
 91
      503
 93
      249
310
90D312F363422203D2031272D3022000000000000240FC000000000000284000
  0
ACAD_PROXY_OBJECT
  5
5B
102
{ACAD_REACTORS
330
47
102
}
330
47
100
AcDbZombieObject
 90
      499
 91
      503
 93
      249
310
90D312F333222203D2031272D3022000000000000280FC000000000000284000
  0
ACAD_PROXY_OBJECT
  5
5C
102
{ACAD_REACTORS
330
47
102
}
330
47
100
AcDbZombieObject
 90
      499
 91
      503
 93
      249
310
90D312F313622203D2031272D30220000000000002C0FC000000000000284000
  0
ACAD_PROXY_OBJECT
  5
5D
102
{ACAD_REACTORS
330
47
102
}
330
47
100
AcDbZombieObject
 90
      499
 91
      503
 93
      249
310
90D332F333222203D2031272D30220000000000002E0FC000000000000284000
  0
ACAD_PROXY_OBJECT
  5
5E
102
{ACAD_REACTORS
330
47
102
}
330
47
100
AcDbZombieObject
 90
      499
 91
      503
 93
      241
310
90C312F3822203D2031272D3022000000000000300FC000000000000284000
  0
ACAD_PROXY_OBJECT
  5
5F
102
{ACAD_REACTORS
330
47
102
}
330
47
100
AcDbZombieObject
 90
      499
 91
      503
 93
      249
310
90D332F313622203D2031272D3022000000000000320FC000000000000284000
  0
ACAD_PROXY_OBJECT
  5
60
102
{ACAD_REACTORS
330
47
102
}
330
47
100
AcDbZombieObject
 90
      499
 91
      503
 93
      241
310
90C312F3422203D2031272D3022000000000000340FC000000000000284000
  0
ACAD_PROXY_OBJECT
  5
61
102
{ACAD_REACTORS
330
47
102
}
330
47
100
AcDbZombieObject
 90
      499
 91
      503
 93
      241
310
90C332F3822203D2031272D3022000000000000360FC000000000000284000
  0
ACAD_PROXY_OBJECT
  5
62
102
{ACAD_REACTORS
330
47
102
}
330
47
100
AcDbZombieObject
 90
      499
 91
      503
 93
      241
310
90C312F3222203D2031272D3022000000000000380FC000000000000284000
  0
ACAD_PROXY_OBJECT
  5
63
102
{ACAD_REACTORS
330
47
102
}
330
47
100
AcDbZombieObject
 90
      499
 91
      503
 93
      241
310
90C332F3422203D2031272D30220000000000003A0FC000000000000284000
  0
ACAD_PROXY_OBJECT
  5
64
102
{ACAD_REACTORS
330
47
102
}
330
47
100
AcDbZombieObject
 90
      499
 91
      503
 93
      161
310
90A3122203D2031272D30224000000000000284000
  0
ACAD_PROXY_OBJECT
  5
65
102
{ACAD_REACTORS
330
47
102
}
330
47
100
AcDbZombieObject
 90
      499
 91
      503
 93
      257
310
90E312D312F3222203D2031272D30220000000000003E0FC000000000000284000
  0
ACAD_PROXY_OBJECT
  5
66
102
{ACAD_REACTORS
330
47
102
}
330
47
100
AcDbZombieObject
 90
      499
 91
      503
 93
      225
310
90A3322203D2031272D302200000000000002100000000000000284000
  0
ACAD_PROXY_OBJECT
  5
67
102
{ACAD_REACTORS
330
47
102
}
330
47
100
AcDbZombieObject
 90
      499
 91
      503
 93
      225
310
90A3622203D2031272D302200000000000006100000000000000284000
  0
ACAD_PROXY_OBJECT
  5
68
102
{ACAD_REACTORS
330
47
102
}
330
47
100
AcDbZombieObject
 90
      499
 91
      503
 93
      249
310
90D31272D3022203D2031272D30220000000000000A100000000000000284000
  0
ACAD_PROXY_OBJECT
  5
2F
102
{ACAD_REACTORS
330
2A
102
}
330
2A
100
AcDbZombieObject
 90
      499
 91
      501
 93
      436
310
42CC9915DA5C99599C985B595049028333333333333E33F0000000000000F90107901411070040501600405405064090741402480A0340
1001
ACAD
1000
AcDbSavedByObjectVersion
1070
     0
  0
ACAD_PROXY_OBJECT
  5
32
102
{ACAD_REACTORS
330
2A
102
}
330
2A
100
AcDbZombieObject
 90
      499
 91
      501
 93
      388
310
4150985CDA58D07406404333333333333E33F0000000000000F90107A41107004050150841D405064090741402480A0350
1001
ACAD
1000
AcDbSavedByObjectVersion
1070
     0
  0
ACAD_PROXY_OBJECT
  5
36
102
{ACAD_REACTORS
330
2A
102
}
330
2A
100
AcDbZombieObject
 90
      499
 91
      501
 93
      428
310
42109C9A59DA1D195B90C409028333333333333E33F0000000000000F9010790141107004050150841D405064090741402480A029950
1001
ACAD
1000
AcDbSavedByObjectVersion
1070
     0
  0
ACAD_PROXY_OBJECT
  5
3A
102
{ACAD_REACTORS
330
2A
102
}
330
2A
100
AcDbZombieObject
 90
      499
 91
      501
 93
      452
310
42D0DBDB1BDC90DA185B99D95104090240C333333333333E33F0000000000000F90108901411070040501508421405064090741402480A0350
1001
ACAD
1000
AcDbSavedByObjectVersion
1070
     0
  0
ACAD_PROXY_OBJECT
  5
34
102
{ACAD_REACTORS
330
2A
102
}
330
2A
100
AcDbZombieObject
 90
      499
 91
      501
 93
      500
310
4290DBDB98D95C1D1D585B10940D028333333333333E33F0000000000000F90107902409070040501000000000018199010841D405064090740C02480A0340
1001
ACAD
1000
AcDbSavedByObjectVersion
1070
     0
  0
ACAD_PROXY_OBJECT
  5
35
102
{ACAD_REACTORS
330
2A
102
}
330
2A
100
AcDbZombieObject
 90
      499
 91
      501
 93
      412
310
40D11A5B50B409028333333333333E33F0000000000000F9010790141107004050150841D405064090741402480A02677FFFFFD0
1001
ACAD
1000
AcDbSavedByObjectVersion
1070
     0
  0
ACAD_PROXY_OBJECT
  5
3D
102
{ACAD_REACTORS
330
2A
102
}
330
2A
100
AcDbZombieObject
 90
      499
 91
      501
 93
      452
310
43115919D950DBDB1BDC93D999916409028333333333333E33F0000000000000F9010790141107004050150841D405064090741402480A0350
1001
ACAD
1000
AcDbSavedByObjectVersion
1070
     0
  0
ACAD_PROXY_OBJECT
  5
39
102
{ACAD_REACTORS
330
2A
102
}
330
2A
100
AcDbZombieObject
 90
      499
 91
      501
 93
      444
310
42D19858D95C185D1D195C9B90F409028333333333333E33F0000000000000F9010790141107004050150841D405064090741402480A0350
1001
ACAD
1000
AcDbSavedByObjectVersion
1070
     0
  0
ACAD_PROXY_OBJECT
  5
2B
102
{ACAD_REACTORS
330
2A
102
}
330
2A
100
AcDbZombieObject
 90
      499
 91
      501
 93
      380
310
41119B185D240901404333333333333E33F0000000000000F9010740A907004050150841D405064090741402480A1B50
1001
ACAD
1000
AcDbSavedByObjectVersion
1070
     0
  0
ACAD_PROXY_OBJECT
  5
2C
102
{ACAD_REACTORS
330
2A
102
}
330
2A
100
AcDbZombieObject
 90
      499
 91
      501
 93
      468
310
43519B185D15DA5D1A115919D95CD0140901404333333333333E33F0000000000000F90107409019070040501600405405064090741402480A1B50
1001
ACAD
1000
AcDbSavedByObjectVersion
1070
     0
  0
ACAD_PROXY_OBJECT
  5
2D
102
{ACAD_REACTORS
330
2A
102
}
330
2A
100
AcDbZombieObject
 90
      499
 91
      501
 93
      404
310
41D1DBDD5C985D5910240902404333333333333E33F0000000000000F9010740A9070040501641D405064090741402480A1B50
1001
ACAD
1000
AcDbSavedByObjectVersion
1070
     0
  0
ACAD_PROXY_OBJECT
  5
2E
102
{ACAD_REACTORS
330
2A
102
}
330
2A
100
AcDbZombieObject
 90
      499
 91
      501
 93
      492
310
4411DBDD5C985D5915DA5D1A115919D95CD0340902404333333333333E33F0000000000000F90107409019070040501600405405064090741402480A1B50
1001
ACAD
1000
AcDbSavedByObjectVersion
1070
     0
  0
ACAD_PROXY_OBJECT
  5
31
102
{ACAD_REACTORS
330
2A
102
}
330
2A
100
AcDbZombieObject
 90
      499
 91
      501
 93
      476
310
41921A5919195B90640502408333333333333E33F0000000000000F901079024090700405020000000000001110200405405064090740C02480A0340
1001
ACAD
1000
AcDbSavedByObjectVersion
1070
     0
  0
ACAD_PROXY_OBJECT
  5
3B
102
{ACAD_REACTORS
330
2A
102
}
330
2A
100
AcDbZombieObject
 90
      499
 91
      501
 93
      428
310
42529A5D1D195C93D999914409028333333333333E33F0000000000000F9010790141107004050150A41D405064090741402480A0350
1001
ACAD
1000
AcDbSavedByObjectVersion
1070
     0
  0
ACAD_PROXY_OBJECT
  5
38
102
{ACAD_REACTORS
330
2A
102
}
330
2A
100
AcDbZombieObject
 90
      499
 91
      501
 93
      444
310
42D31A5B995C185D1D195C9B90E409028333333333333E33F0000000000000F9010790141107004050750841D405064090741402483A0350
1001
ACAD
1000
AcDbSavedByObjectVersion
1070
     0
  0
ACAD_PROXY_OBJECT
  5
3C
102
{ACAD_REACTORS
330
2A
102
}
330
2A
100
AcDbZombieObject
 90
      499
 91
      501
 93
      444
310
42D3DD995C9A185B99D3D999915409028333333333333E33F0000000000000F9010790141107004050150941D405064090741402480A0350
1001
ACAD
1000
AcDbSavedByObjectVersion
1070
     0
  0
ACAD_PROXY_OBJECT
  5
33
102
{ACAD_REACTORS
330
2A
102
}
330
2A
100
AcDbZombieObject
 90
      499
 91
      501
 93
      428
310
425499585B1A5CDD1A58D08409038333333333333E33F0000000000000F9010740A907004050150800405405064090740C02480A1B40
1001
ACAD
1000
AcDbSavedByObjectVersion
1070
     0
  0
ACAD_PROXY_OBJECT
  5
42
102
{ACAD_REACTORS
330
2A
102
}
330
2A
100
AcDbZombieObject
 90
      499
 91
      501
 93
      420
310
4194DA1859195911B40902404333333333333E33F0000000000000F9010740A41107004050150800405405064090840C02480A0B40
1001
ACAD
1000
AcDbSavedByObjectVersion
1070
     0
  0
ACAD_PROXY_OBJECT
  5
41
102
{ACAD_REACTORS
330
2A
102
}
330
2A
100
AcDbZombieObject
 90
      499
 91
      501
 93
      516
310
4454DA18591959081DDA5D1A08195919D95CD1A40902404333333333333E33F0000000000000F901074090142907004050250800405405064090740C02480A0B40
1001
ACAD
1000
AcDbSavedByObjectVersion
1070
     0
  0
ACAD_PROXY_OBJECT
  5
3E
102
{ACAD_REACTORS
330
2A
102
}
330
2A
100
AcDbZombieObject
 90
      499
 91
      501
 93
      532
310
4394DA1859195CC81BD98811DC985E5174090240C333333333333E33F0000000000000F901079024090741D01000000000000111010841D405064090740C02480A0340
1001
ACAD
1000
AcDbSavedByObjectVersion
1070
     0
  0
ACAD_PROXY_OBJECT
  5
3F
102
{ACAD_REACTORS
330
2A
102
}
330
2A
100
AcDbZombieObject
 90
      499
 91
      501
 93
      476
310
41D4DAD95D18DA1E51840502408333333333333E33F0000000000000F901079024090741D01000000000000111010B41D405064090741802480A0340
1001
ACAD
1000
AcDbSavedByObjectVersion
1070
     0
  0
ACAD_PROXY_OBJECT
  5
37
102
{ACAD_REACTORS
330
2A
102
}
330
2A
100
AcDbZombieObject
 90
      499
 91
      501
 93
      412
310
41D51A1A58DAD95B90D409028333333333333E33F0000000000000F9010790141107004050150C41D405064090741402480A0350
1001
ACAD
1000
AcDbSavedByObjectVersion
1070
     0
  0
ACAD_PROXY_OBJECT
  5
30
102
{ACAD_REACTORS
330
2A
102
}
330
2A
100
AcDbZombieObject
 90
      499
 91
      501
 93
      420
310
4255DA5C99599C985B595059028333333333333E33F0000000000000F90107901411070040501600405405064090740C02480A0340
1001
ACAD
1000
AcDbSavedByObjectVersion
1070
     0
  0
ACAD_PROXY_OBJECT
  5
40
102
{ACAD_REACTORS
330
2A
102
}
330
2A
100
AcDbZombieObject
 90
      499
 91
      501
 93
      404
310
41560B54985E51940902404000000000000E03F0000000000000F9010740501907004050150841D405064090740C02480A1B40
1001
ACAD
1000
AcDbSavedByObjectVersion
1070
     0
  0
DICTIONARYVAR
  5
5ED
102
{ACAD_REACTORS
330
5E4
102
}
330
5E4
100
DictionaryVariables
280
     0
  1
1:1
  0
DICTIONARYVAR
  5
5E6
102
{ACAD_REACTORS
330
5E4
102
}
330
5E4
100
DictionaryVariables
280
     0
  1
Standard
  0
DICTIONARYVAR
  5
5E5
102
{ACAD_REACTORS
330
5E4
102
}
330
5E4
100
DictionaryVariables
280
     0
  1
Standard
  0
DICTIONARYVAR
  5
5E9
102
{ACAD_REACTORS
330
5E4
102
}
330
5E4
100
DictionaryVariables
280
     0
  1
2
  0
DICTIONARYVAR
  5
5EA
102
{ACAD_REACTORS
330
5E4
102
}
330
5E4
100
DictionaryVariables
280
     0
  1
1
  0
DICTIONARYVAR
  5
5EE
102
{ACAD_REACTORS
330
5E4
102
}
330
5E4
100
DictionaryVariables
280
     0
  1
1
  0
DICTIONARY
  5
5F1
330
45
100
AcDbDictionary
  3
ACAD_XREC_ROUNDTRIP
360
5F2
1001
ACAD
1000
TREAT_AS_HARD
1070
     1
  0
DICTIONARY
  5
5EF
330
44
100
AcDbDictionary
  3
ACAD_XREC_ROUNDTRIP
360
5F0
1001
ACAD
1000
TREAT_AS_HARD
1070
     1
  0
DICTIONARY
  5
5F3
330
46
100
AcDbDictionary
  3
ACAD_XREC_ROUNDTRIP
360
5F4
1001
ACAD
1000
TREAT_AS_HARD
1070
     1
  0
XRECORD
  5
5F2
102
{ACAD_REACTORS
330
5F1
102
}
330
5F1
100
AcDbXrecord
102
MATERIAL
148
0.0
149
0.0
149
0.0
 93
        0
 94
      127
282
     0
 72
     1
 77
     1
171
     1
175
     1
179
     1
273
     0
  0
XRECORD
  5
5F0
102
{ACAD_REACTORS
330
5EF
102
}
330
5EF
100
AcDbXrecord
102
MATERIAL
148
0.0
149
0.0
149
0.0
 93
        0
 94
      127
282
     0
 72
     1
 77
     1
171
     1
175
     1
179
     1
273
     0
  0
XRECORD
  5
5F4
102
{ACAD_REACTORS
330
5F3
102
}
330
5F3
100
AcDbXrecord
102
MATERIAL
148
0.0
149
0.0
149
0.0
 93
        0
 94
      127
282
     0
 72
     1
 77
     1
171
     1
175
     1
179
     1
273
     0
  0
ENDSEC
  0
EOF
