  0
SECTION
  2
HEADER
  9
$ACADVER
  1
AC1012
  9
$DWGCODEPAGE
  3
ansi_932
  9
$INSBASE
 10
0.0
 20
0.0
 30
0.0
  9
$EXTMIN
 10
-7710.0
 20
-5950.000000000003
 30
0.0
  9
$EXTMAX
 10
7710.0
 20
5954.000000000002
 30
0.0
  9
$LIMMIN
 10
-2970.0
 20
-2100.0
  9
$LIMMAX
 10
2970.0
 20
2100.0
  9
$ORTHOMODE
 70
     0
  9
$REGENMODE
 70
     1
  9
$FILLMODE
 70
     1
  9
$QTEXTMODE
 70
     0
  9
$MIRRTEXT
 70
     1
  9
$DRAGMODE
 70
     2
  9
$LTSCALE
 40
5.0
  9
$OSMODE
 70
    37
  9
$ATTMODE
 70
     1
  9
$TEXTSIZE
 40
0.2
  9
$TRACEWID
 40
0.05
  9
$TEXTSTYLE
  7
STANDARD
  9
$CLAYER
  8
0
  9
$CELTYPE
  6
BYLAYER
  9
$CECOLOR
 62
   256
  9
$CELTSCALE
 40
1.0
  9
$DELOBJ
 70
     1
  9
$DISPSILH
 70
     0
  9
$DIMSCALE
 40
1.0
  9
$DIMASZ
 40
60.00003814697266
  9
$DIMEXO
 40
1.0
  9
$DIMDLI
 40
10.0
  9
$DIMRND
 40
0.0
  9
$DIMDLE
 40
0.0
  9
$DIMEXE
 40
1.0
  9
$DIMTP
 40
0.0
  9
$DIMTM
 40
0.0
  9
$DIMTXT
 40
70.0
  9
$DIMCEN
 40
0.0
  9
$DIMTSZ
 40
0.0
  9
$DIMTOL
 70
     0
  9
$DIMLIM
 70
     0
  9
$DIMTIH
 70
     0
  9
$DIMTOH
 70
     0
  9
$DIMSE1
 70
     0
  9
$DIMSE2
 70
     0
  9
$DIMTAD
 70
     1
  9
$DIMZIN
 70
     8
  9
$DIMBLK
  1

  9
$DIMASO
 70
     1
  9
$DIMSHO
 70
     1
  9
$DIMPOST
  1

  9
$DIMAPOST
  1

  9
$DIMALT
 70
     0
  9
$DIMALTD
 70
     2
  9
$DIMALTF
 40
0.0393700787401575
  9
$DIMLFAC
 40
1.0
  9
$DIMTOFL
 70
     0
  9
$DIMTVP
 40
0.0
  9
$DIMTIX
 70
     0
  9
$DIMSOXD
 70
     0
  9
$DIMSAH
 70
     0
  9
$DIMBLK1
  1

  9
$DIMBLK2
  1

  9
$DIMSTYLE
  2
STANDARD
  9
$DIMCLRD
 70
     0
  9
$DIMCLRE
 70
     0
  9
$DIMCLRT
 70
     0
  9
$DIMTFAC
 40
0.65
  9
$DIMGAP
 40
0.09
  9
$DIMJUST
 70
     0
  9
$DIMSD1
 70
     0
  9
$DIMSD2
 70
     0
  9
$DIMTOLJ
 70
     0
  9
$DIMTZIN
 70
     0
  9
$DIMALTZ
 70
     0
  9
$DIMALTTZ
 70
     0
  9
$DIMFIT
 70
     3
  9
$DIMUPT
 70
     0
  9
$DIMUNIT
 70
     2
  9
$DIMDEC
 70
     2
  9
$DIMTDEC
 70
     2
  9
$DIMALTU
 70
     2
  9
$DIMALTTD
 70
     2
  9
$DIMTXSTY
  7
STANDARD
  9
$DIMAUNIT
 70
     0
  9
$LUNITS
 70
     2
  9
$LUPREC
 70
     4
  9
$SKETCHINC
 40
0.1
  9
$FILLETRAD
 40
0.5
  9
$AUNITS
 70
     0
  9
$AUPREC
 70
     0
  9
$MENU
  1
.
  9
$ELEVATION
 40
0.0
  9
$PELEVATION
 40
0.0
  9
$THICKNESS
 40
0.0
  9
$LIMCHECK
 70
     0
  9
$CHAMFERA
 40
0.0
  9
$CHAMFERB
 40
0.0
  9
$CHAMFERC
 40
0.0
  9
$CHAMFERD
 40
0.0
  9
$SKPOLY
 70
     0
  9
$TDCREATE
 40
2459688.454410104
  9
$TDUPDATE
 40
2459688.454410637
  9
$TDINDWG
 40
0.0000000116
  9
$TDUSRTIMER
 40
0.0000000116
  9
$USRTIMER
 70
     1
  9
$ANGBASE
 50
0.0
  9
$ANGDIR
 70
     0
  9
$PDMODE
 70
     0
  9
$PDSIZE
 40
1.0
  9
$PLINEWID
 40
0.0
  9
$COORDS
 70
     1
  9
$SPLFRAME
 70
     0
  9
$SPLINETYPE
 70
     6
  9
$SPLINESEGS
 70
     8
  9
$ATTDIA
 70
     0
  9
$ATTREQ
 70
     1
  9
$HANDLING
 70
     1
  9
$HANDSEED
  5
689
  9
$SURFTAB1
 70
     6
  9
$SURFTAB2
 70
     6
  9
$SURFTYPE
 70
     6
  9
$SURFU
 70
     6
  9
$SURFV
 70
     6
  9
$UCSNAME
  2

  9
$UCSORG
 10
0.0
 20
0.0
 30
0.0
  9
$UCSXDIR
 10
1.0
 20
0.0
 30
0.0
  9
$UCSYDIR
 10
0.0
 20
1.0
 30
0.0
  9
$PUCSNAME
  2

  9
$PUCSORG
 10
0.0
 20
0.0
 30
0.0
  9
$PUCSXDIR
 10
1.0
 20
0.0
 30
0.0
  9
$PUCSYDIR
 10
0.0
 20
1.0
 30
0.0
  9
$USERI1
 70
     0
  9
$USERI2
 70
     0
  9
$USERI3
 70
     0
  9
$USERI4
 70
     0
  9
$USERI5
 70
     0
  9
$USERR1
 40
0.0
  9
$USERR2
 40
0.0
  9
$USERR3
 40
0.0
  9
$USERR4
 40
0.0
  9
$USERR5
 40
0.0
  9
$WORLDVIEW
 70
     1
  9
$SHADEDGE
 70
     3
  9
$SHADEDIF
 70
    70
  9
$TILEMODE
 70
     1
  9
$MAXACTVP
 70
    64
  9
$PINSBASE
 10
0.0
 20
0.0
 30
0.0
  9
$PLIMCHECK
 70
     0
  9
$PEXTMIN
 10
1.000000000000000E+20
 20
1.000000000000000E+20
 30
1.000000000000000E+20
  9
$PEXTMAX
 10
-1.000000000000000E+20
 20
-1.000000000000000E+20
 30
-1.000000000000000E+20
  9
$PLIMMIN
 10
0.0
 20
0.0
  9
$PLIMMAX
 10
12.0
 20
9.0
  9
$UNITMODE
 70
     0
  9
$VISRETAIN
 70
     0
  9
$PLINEGEN
 70
     1
  9
$PSLTSCALE
 70
     0
  9
$TREEDEPTH
 70
  3020
  9
$PICKSTYLE
 70
     1
  9
$CMLSTYLE
  2
STANDARD
  9
$CMLJUST
 70
     0
  9
$CMLSCALE
 40
1.0
  9
$SAVEIMAGES
 70
     0
  0
ENDSEC
  0
SECTION
  2
CLASSES
  0
CLASS
  1
ACDBDICTIONARYWDFLT
  2
AcDbDictionaryWithDefault
  3
ObjectDBX Classes
 90
    32768
280
     0
281
     0
  0
CLASS
  1
VISUALSTYLE
  2
AcDbVisualStyle
  3
ObjectDBX Classes
 90
     4095
280
     0
281
     0
  0
CLASS
  1
MATERIAL
  2
AcDbMaterial
  3
ObjectDBX Classes
 90
     1153
280
     0
281
     0
  0
CLASS
  1
SCALE
  2
AcDbScale
  3
ObjectDBX Classes
 90
     1153
280
     0
281
     0
  0
CLASS
  1
TABLESTYLE
  2
AcDbTableStyle
  3
ObjectDBX Classes
 90
     4095
280
     0
281
     0
  0
CLASS
  1
MLEADERSTYLE
  2
AcDbMLeaderStyle
  3
ACDB_MLEADERSTYLE_CLASS
 90
     4095
280
     0
281
     0
  0
CLASS
  1
SUN
  2
AcDbSun
  3
SCENEOE
 90
     1153
280
     0
281
     0
  0
CLASS
  1
DICTIONARYVAR
  2
AcDbDictionaryVar
  3
ObjectDBX Classes
 90
        0
280
     0
281
     0
  0
CLASS
  1
XRECORD
  2
AcDbXrecord
  3
ObjectDBX Classes
 90
    32768
280
     0
281
     0
  0
CLASS
  1
LWPOLYLINE
  2
AcDbPolyline
  3
ObjectDBX Classes
 90
    32768
280
     0
281
     1
  0
CLASS
  1
HATCH
  2
AcDbHatch
  3
ObjectDBX Classes
 90
    32768
280
     0
281
     1
  0
CLASS
  1
ACDBPLACEHOLDER
  2
AcDbPlaceHolder
  3
ObjectDBX Classes
 90
        0
280
     0
281
     0
  0
CLASS
  1
LAYOUT
  2
AcDbLayout
  3
ObjectDBX Classes
 90
        0
280
     0
281
     0
  0
ENDSEC
  0
SECTION
  2
TABLES
  0
TABLE
  2
VPORT
  5
8
330
0
100
AcDbSymbolTable
 70
     1
  0
VPORT
  5
29
330
8
100
AcDbSymbolTableRecord
100
AcDbViewportTableRecord
  2
*ACTIVE
 70
     0
 10
0.0
 20
0.0
 11
1.0
 21
1.0
 12
0.0000000000001101
 22
-5.309616106040494
 13
0.0
 23
0.0
 14
0.5
 24
0.5
 15
0.5
 25
0.5
 16
0.0
 26
0.0
 36
1.0
 17
0.0
 27
0.0
 37
0.0
 40
4062.271616856322
 41
1.290607939224225
 42
50.0
 43
0.0
 44
0.0
 50
0.0
 51
0.0
 71
     0
 72
  1000
 73
     1
 74
     1
 75
     0
 76
     0
 77
     0
 78
     0
  0
ENDTAB
  0
TABLE
  2
LTYPE
  5
5
330
0
100
AcDbSymbolTable
 70
    67
  0
LTYPE
  5
14
330
5
100
AcDbSymbolTableRecord
100
AcDbLinetypeTableRecord
  2
BYBLOCK
 70
     0
  3

 72
    65
 73
     0
 40
0.0
  0
LTYPE
  5
15
330
5
100
AcDbSymbolTableRecord
100
AcDbLinetypeTableRecord
  2
BYLAYER
 70
     0
  3

 72
    65
 73
     0
 40
0.0
  0
LTYPE
  5
16
330
5
100
AcDbSymbolTableRecord
100
AcDbLinetypeTableRecord
  2
CONTINUOUS
 70
     0
  3
Solid line
 72
    65
 73
     0
 40
0.0
  0
LTYPE
  5
6F
330
5
100
AcDbSymbolTableRecord
100
AcDbLinetypeTableRecord
  2
HIDDENX2
 70
     0
  3
Hidden (2x) ____ ____ ____ ____ ____ ____ ____ 
 72
    65
 73
     2
 40
19.05
 49
12.7
 74
     0
 49
-6.35
 74
     0
  0
LTYPE
  5
70
330
5
100
AcDbSymbolTableRecord
100
AcDbLinetypeTableRecord
  2
HIDDEN
 70
     0
  3
Hidden __ __ __ __ __ __ __ __ __ __ __ __ __ __
 72
    65
 73
     2
 40
9.524999999999999
 49
6.35
 74
     0
 49
-3.175
 74
     0
  0
LTYPE
  5
71
330
5
100
AcDbSymbolTableRecord
100
AcDbLinetypeTableRecord
  2
HIDDEN2
 70
     0
  3
Hidden (.5x) _ _ _ _ _ _ _ _ _ _ _ _ _ _ _ _ _ 
 72
    65
 73
     2
 40
4.762499999999999
 49
3.175
 74
     0
 49
-1.5875
 74
     0
  0
LTYPE
  5
72
330
5
100
AcDbSymbolTableRecord
100
AcDbLinetypeTableRecord
  2
DASHED
 70
     0
  3
Dashed __ __ __ __ __ __ __ __ __ __ __ __ __ _
 72
    65
 73
     2
 40
19.05
 49
12.7
 74
     0
 49
-6.35
 74
     0
  0
LTYPE
  5
73
330
5
100
AcDbSymbolTableRecord
100
AcDbLinetypeTableRecord
  2
DASHED2
 70
     0
  3
Dashed (.5x) _ _ _ _ _ _ _ _ _ _ _ _ _ _ _ _ _ 
 72
    65
 73
     2
 40
9.524999999999999
 49
6.35
 74
     0
 49
-3.175
 74
     0
  0
LTYPE
  5
74
330
5
100
AcDbSymbolTableRecord
100
AcDbLinetypeTableRecord
  2
DASHEDX2
 70
     0
  3
Dashed (2x) ____  ____  ____  ____  ____  ___
 72
    65
 73
     2
 40
38.09999999999999
 49
25.4
 74
     0
 49
-12.7
 74
     0
  0
LTYPE
  5
75
330
5
100
AcDbSymbolTableRecord
100
AcDbLinetypeTableRecord
  2
DOTX2
 70
     0
  3
Dot (2x) .  .  .  .  .  .  .  .  .  .  .  .  .  .
 72
    65
 73
     2
 40
12.7
 49
0.0
 74
     0
 49
-12.7
 74
     0
  0
LTYPE
  5
76
330
5
100
AcDbSymbolTableRecord
100
AcDbLinetypeTableRecord
  2
DOT
 70
     0
  3
Dot . . . . . . . . . . . . . . . . . . . . . . . .
 72
    65
 73
     2
 40
6.35
 49
0.0
 74
     0
 49
-6.35
 74
     0
  0
LTYPE
  5
77
330
5
100
AcDbSymbolTableRecord
100
AcDbLinetypeTableRecord
  2
DOT2
 70
     0
  3
Dot (.5x) ........................................
 72
    65
 73
     2
 40
3.175
 49
0.0
 74
     0
 49
-3.175
 74
     0
  0
LTYPE
  5
78
330
5
100
AcDbSymbolTableRecord
100
AcDbLinetypeTableRecord
  2
CENTERX2
 70
     0
  3
Center (2x) ________  __  ________  __  _____
 72
    65
 73
     4
 40
101.6
 49
63.5
 74
     0
 49
-12.7
 74
     0
 49
12.7
 74
     0
 49
-12.7
 74
     0
  0
LTYPE
  5
79
330
5
100
AcDbSymbolTableRecord
100
AcDbLinetypeTableRecord
  2
CENTER
 70
     0
  3
Center ____ _ ____ _ ____ _ ____ _ ____ _ ____
 72
    65
 73
     4
 40
50.8
 49
31.75
 74
     0
 49
-6.35
 74
     0
 49
6.35
 74
     0
 49
-6.35
 74
     0
  0
LTYPE
  5
7A
330
5
100
AcDbSymbolTableRecord
100
AcDbLinetypeTableRecord
  2
CENTER2
 70
     0
  3
Center (.5x) ___ _ ___ _ ___ _ ___ _ ___ _ ___
 72
    65
 73
     4
 40
28.575
 49
19.05
 74
     0
 49
-3.175
 74
     0
 49
3.175
 74
     0
 49
-3.175
 74
     0
  0
LTYPE
  5
7B
330
5
100
AcDbSymbolTableRecord
100
AcDbLinetypeTableRecord
  2
DASHDOTX2
 70
     0
  3
Dash dot (2x) ____  .  ____  .  ____  .  ___
 72
    65
 73
     4
 40
50.8
 49
25.4
 74
     0
 49
-12.7
 74
     0
 49
0.0
 74
     0
 49
-12.7
 74
     0
  0
LTYPE
  5
7C
330
5
100
AcDbSymbolTableRecord
100
AcDbLinetypeTableRecord
  2
DASHDOT
 70
     0
  3
Dash dot __ . __ . __ . __ . __ . __ . __ . __
 72
    65
 73
     4
 40
25.4
 49
12.7
 74
     0
 49
-6.35
 74
     0
 49
0.0
 74
     0
 49
-6.35
 74
     0
  0
LTYPE
  5
7D
330
5
100
AcDbSymbolTableRecord
100
AcDbLinetypeTableRecord
  2
DASHDOT2
 70
     0
  3
Dash dot (.5x) _._._._._._._._._._._._._._._.
 72
    65
 73
     4
 40
12.7
 49
6.35
 74
     0
 49
-3.175
 74
     0
 49
0.0
 74
     0
 49
-3.175
 74
     0
  0
LTYPE
  5
7E
330
5
100
AcDbSymbolTableRecord
100
AcDbLinetypeTableRecord
  2
DIVIDEX2
 70
     0
  3
Divide (2x) ________  .  .  ________  .  .  _
 72
    65
 73
     6
 40
63.5
 49
25.4
 74
     0
 49
-12.7
 74
     0
 49
0.0
 74
     0
 49
-12.7
 74
     0
 49
0.0
 74
     0
 49
-12.7
 74
     0
  0
LTYPE
  5
7F
330
5
100
AcDbSymbolTableRecord
100
AcDbLinetypeTableRecord
  2
DIVIDE
 70
     0
  3
Divide ____ . . ____ . . ____ . . ____ . . ____
 72
    65
 73
     6
 40
31.75
 49
12.7
 74
     0
 49
-6.35
 74
     0
 49
0.0
 74
     0
 49
-6.35
 74
     0
 49
0.0
 74
     0
 49
-6.35
 74
     0
  0
LTYPE
  5
80
330
5
100
AcDbSymbolTableRecord
100
AcDbLinetypeTableRecord
  2
DIVIDE2
 70
     0
  3
Divide (.5x) __..__..__..__..__..__..__..__.._
 72
    65
 73
     6
 40
15.875
 49
6.35
 74
     0
 49
-3.175
 74
     0
 49
0.0
 74
     0
 49
-3.175
 74
     0
 49
0.0
 74
     0
 49
-3.175
 74
     0
  0
LTYPE
  5
81
330
5
100
AcDbSymbolTableRecord
100
AcDbLinetypeTableRecord
  2
BORDERX2
 70
     0
  3
Border (2x) ____  ____  .  ____  ____  .  ___
 72
    65
 73
     6
 40
88.89999999999999
 49
25.4
 74
     0
 49
-12.7
 74
     0
 49
25.4
 74
     0
 49
-12.7
 74
     0
 49
0.0
 74
     0
 49
-12.7
 74
     0
  0
LTYPE
  5
82
330
5
100
AcDbSymbolTableRecord
100
AcDbLinetypeTableRecord
  2
BORDER
 70
     0
  3
Border __ __ . __ __ . __ __ . __ __ . __ __ .
 72
    65
 73
     6
 40
44.45
 49
12.7
 74
     0
 49
-6.35
 74
     0
 49
12.7
 74
     0
 49
-6.35
 74
     0
 49
0.0
 74
     0
 49
-6.35
 74
     0
  0
LTYPE
  5
83
330
5
100
AcDbSymbolTableRecord
100
AcDbLinetypeTableRecord
  2
BORDER2
 70
     0
  3
Border (.5x) __.__.__.__.__.__.__.__.__.__.__.
 72
    65
 73
     6
 40
22.225
 49
6.35
 74
     0
 49
-3.175
 74
     0
 49
6.35
 74
     0
 49
-3.175
 74
     0
 49
0.0
 74
     0
 49
-3.175
 74
     0
  0
LTYPE
  5
84
330
5
100
AcDbSymbolTableRecord
100
AcDbLinetypeTableRecord
  2
PHANTOMX2
 70
     0
  3
Phantom (2x) ____________    ____    ____   _
 72
    65
 73
     6
 40
127.0
 49
63.5
 74
     0
 49
-12.7
 74
     0
 49
12.7
 74
     0
 49
-12.7
 74
     0
 49
12.7
 74
     0
 49
-12.7
 74
     0
  0
LTYPE
  5
85
330
5
100
AcDbSymbolTableRecord
100
AcDbLinetypeTableRecord
  2
PHANTOM
 70
     0
  3
Phantom ______  __  __  ______  __  __  ______ 
 72
    65
 73
     6
 40
63.5
 49
31.75
 74
     0
 49
-6.35
 74
     0
 49
6.35
 74
     0
 49
-6.35
 74
     0
 49
6.35
 74
     0
 49
-6.35
 74
     0
  0
LTYPE
  5
86
330
5
100
AcDbSymbolTableRecord
100
AcDbLinetypeTableRecord
  2
PHANTOM2
 70
     0
  3
Phantom (.5x) ___ _ _ ___ _ _ ___ _ _ ___ _ _
 72
    65
 73
     6
 40
31.75
 49
15.875
 74
     0
 49
-3.175
 74
     0
 49
3.175
 74
     0
 49
-3.175
 74
     0
 49
3.175
 74
     0
 49
-3.175
 74
     0
  0
LTYPE
  5
87
330
5
100
AcDbSymbolTableRecord
100
AcDbLinetypeTableRecord
  2
ACAD_ISO06W100
 70
     0
  3
ISO long-dash triple-dot ____ ... ____ ... ____
 72
    65
 73
     8
 40
36.0
 49
24.0
 74
     0
 49
-3.0
 74
     0
 49
0.0
 74
     0
 49
-3.0
 74
     0
 49
0.0
 74
     0
 49
-3.0
 74
     0
 49
0.0
 74
     0
 49
-3.0
 74
     0
  0
LTYPE
  5
88
330
5
100
AcDbSymbolTableRecord
100
AcDbLinetypeTableRecord
  2
ACAD_ISO13W100
 70
     0
  3
ISO double-dash double-dot __ __ . . __ __ . . _
 72
    65
 73
     8
 40
36.0
 49
12.0
 74
     0
 49
-3.0
 74
     0
 49
12.0
 74
     0
 49
-3.0
 74
     0
 49
0.0
 74
     0
 49
-3.0
 74
     0
 49
0.0
 74
     0
 49
-3.0
 74
     0
  0
LTYPE
  5
89
330
5
100
AcDbSymbolTableRecord
100
AcDbLinetypeTableRecord
  2
ACAD_ISO14W100
 70
     0
  3
ISO dash triple-dot __ . . . __ . . . __ . . . _
 72
    65
 73
     8
 40
24.0
 49
12.0
 74
     0
 49
-3.0
 74
     0
 49
0.0
 74
     0
 49
-3.0
 74
     0
 49
0.0
 74
     0
 49
-3.0
 74
     0
 49
0.0
 74
     0
 49
-3.0
 74
     0
  0
LTYPE
  5
8A
330
5
100
AcDbSymbolTableRecord
100
AcDbLinetypeTableRecord
  2
ACAD_ISO02W100
 70
     0
  3
ISO dash __ __ __ __ __ __ __ __ __ __ __ __ __
 72
    65
 73
     2
 40
15.0
 49
12.0
 74
     0
 49
-3.0
 74
     0
  0
LTYPE
  5
8B
330
5
100
AcDbSymbolTableRecord
100
AcDbLinetypeTableRecord
  2
ACAD_ISO03W100
 70
     0
  3
ISO dash space __    __    __    __    __    __
 72
    65
 73
     2
 40
30.0
 49
12.0
 74
     0
 49
-18.0
 74
     0
  0
LTYPE
  5
8C
330
5
100
AcDbSymbolTableRecord
100
AcDbLinetypeTableRecord
  2
ACAD_ISO04W100
 70
     0
  3
ISO long-dash dot ____ . ____ . ____ . ____ . _
 72
    65
 73
     4
 40
30.0
 49
24.0
 74
     0
 49
-3.0
 74
     0
 49
0.0
 74
     0
 49
-3.0
 74
     0
  0
LTYPE
  5
8D
330
5
100
AcDbSymbolTableRecord
100
AcDbLinetypeTableRecord
  2
ACAD_ISO05W100
 70
     0
  3
ISO long-dash double-dot ____ .. ____ .. ____ . 
 72
    65
 73
     6
 40
33.0
 49
24.0
 74
     0
 49
-3.0
 74
     0
 49
0.0
 74
     0
 49
-3.0
 74
     0
 49
0.0
 74
     0
 49
-3.0
 74
     0
  0
LTYPE
  5
8E
330
5
100
AcDbSymbolTableRecord
100
AcDbLinetypeTableRecord
  2
ACAD_ISO07W100
 70
     0
  3
ISO dot . . . . . . . . . . . . . . . . . . . . 
 72
    65
 73
     2
 40
3.0
 49
0.0
 74
     0
 49
-3.0
 74
     0
  0
LTYPE
  5
8F
330
5
100
AcDbSymbolTableRecord
100
AcDbLinetypeTableRecord
  2
ACAD_ISO08W100
 70
     0
  3
ISO long-dash short-dash ____ __ ____ __ ____ _
 72
    65
 73
     4
 40
36.0
 49
24.0
 74
     0
 49
-3.0
 74
     0
 49
6.0
 74
     0
 49
-3.0
 74
     0
  0
LTYPE
  5
90
330
5
100
AcDbSymbolTableRecord
100
AcDbLinetypeTableRecord
  2
ACAD_ISO09W100
 70
     0
  3
ISO long-dash double-short-dash ____ __ __ ____
 72
    65
 73
     6
 40
45.0
 49
24.0
 74
     0
 49
-3.0
 74
     0
 49
6.0
 74
     0
 49
-3.0
 74
     0
 49
6.0
 74
     0
 49
-3.0
 74
     0
  0
LTYPE
  5
91
330
5
100
AcDbSymbolTableRecord
100
AcDbLinetypeTableRecord
  2
ACAD_ISO10W100
 70
     0
  3
ISO dash dot __ . __ . __ . __ . __ . __ . __ . 
 72
    65
 73
     4
 40
18.0
 49
12.0
 74
     0
 49
-3.0
 74
     0
 49
0.0
 74
     0
 49
-3.0
 74
     0
  0
LTYPE
  5
92
330
5
100
AcDbSymbolTableRecord
100
AcDbLinetypeTableRecord
  2
ACAD_ISO11W100
 70
     0
  3
ISO double-dash dot __ __ . __ __ . __ __ . __ _
 72
    65
 73
     6
 40
33.0
 49
12.0
 74
     0
 49
-3.0
 74
     0
 49
12.0
 74
     0
 49
-3.0
 74
     0
 49
0.0
 74
     0
 49
-3.0
 74
     0
  0
LTYPE
  5
93
330
5
100
AcDbSymbolTableRecord
100
AcDbLinetypeTableRecord
  2
ACAD_ISO12W100
 70
     0
  3
ISO dash double-dot __ . . __ . . __ . . __ . . 
 72
    65
 73
     6
 40
21.0
 49
12.0
 74
     0
 49
-3.0
 74
     0
 49
0.0
 74
     0
 49
-3.0
 74
     0
 49
0.0
 74
     0
 49
-3.0
 74
     0
  0
LTYPE
  5
94
330
5
100
AcDbSymbolTableRecord
100
AcDbLinetypeTableRecord
  2
ACAD_ISO15W100
 70
     0
  3
ISO double-dash triple-dot __ __ . . . __ __ . .
 72
    65
 73
    10
 40
39.0
 49
12.0
 74
     0
 49
-3.0
 74
     0
 49
12.0
 74
     0
 49
-3.0
 74
     0
 49
0.0
 74
     0
 49
-3.0
 74
     0
 49
0.0
 74
     0
 49
-3.0
 74
     0
 49
0.0
 74
     0
 49
-3.0
 74
     0
  0
LTYPE
  5
95
330
5
100
AcDbSymbolTableRecord
100
AcDbLinetypeTableRecord
  2
JIS_02_0_7
 70
     0
  3
HIDDEN0.75 _ _ _ _ _ _ _ _ _ _ _ _ _ _ _ _ _ 
 72
    65
 73
     2
 40
1.35
 49
0.75
 74
     0
 49
-0.6
 74
     0
  0
LTYPE
  5
96
330
5
100
AcDbSymbolTableRecord
100
AcDbLinetypeTableRecord
  2
JIS_02_1_0
 70
     0
  3
HIDDEN01 _ _ _ _ _ _ _ _ _ _ _ _ _ _ _ _ _ 
 72
    65
 73
     2
 40
2.0
 49
1.0
 74
     0
 49
-1.0
 74
     0
  0
LTYPE
  5
97
330
5
100
AcDbSymbolTableRecord
100
AcDbLinetypeTableRecord
  2
JIS_02_1_2
 70
     0
  3
HIDDEN01.25  _ _ _ _ _ _ _ _ _ _ _ _ _ _ _ _ _ 
 72
    65
 73
     2
 40
2.5
 49
1.25
 74
     0
 49
-1.25
 74
     0
  0
LTYPE
  5
98
330
5
100
AcDbSymbolTableRecord
100
AcDbLinetypeTableRecord
  2
JIS_02_2_0
 70
     0
  3
HIDDEN02 __ __ __ __ __ __ __ __ __ __ __ 
 72
    65
 73
     2
 40
3.0
 49
2.0
 74
     0
 49
-1.0
 74
     0
  0
LTYPE
  5
99
330
5
100
AcDbSymbolTableRecord
100
AcDbLinetypeTableRecord
  2
JIS_02_4_0
 70
     0
  3
HIDDEN04 ____ ____ ____ ____ ____ ____ ____ 
 72
    65
 73
     2
 40
5.5
 49
4.0
 74
     0
 49
-1.5
 74
     0
  0
LTYPE
  5
9A
330
5
100
AcDbSymbolTableRecord
100
AcDbLinetypeTableRecord
  2
JIS_08_11
 70
     0
  3
1SASEN11 ___ _ ___ _ ___ _ ___ _ ___ _ ___
 72
    65
 73
     4
 40
12.8
 49
11.0
 74
     0
 49
-0.6
 74
     0
 49
0.6
 74
     0
 49
-0.6
 74
     0
  0
LTYPE
  5
9B
330
5
100
AcDbSymbolTableRecord
100
AcDbLinetypeTableRecord
  2
JIS_08_15
 70
     0
  3
1SASEN15 ____ _ ____ _ ____ _ ____ _ ____ 
 72
    65
 73
     4
 40
17.25
 49
15.0
 74
     0
 49
-0.75
 74
     0
 49
0.75
 74
     0
 49
-0.75
 74
     0
  0
LTYPE
  5
9C
330
5
100
AcDbSymbolTableRecord
100
AcDbLinetypeTableRecord
  2
JIS_08_25
 70
     0
  3
1SASEN25 ________  __  ________  __  _____
 72
    65
 73
     4
 40
28.0
 49
25.0
 74
     0
 49
-1.125
 74
     0
 49
0.75
 74
     0
 49
-1.125
 74
     0
  0
LTYPE
  5
9D
330
5
100
AcDbSymbolTableRecord
100
AcDbLinetypeTableRecord
  2
JIS_08_37
 70
     0
  3
1SASEN37 ________  __  ________  __  _____
 72
    65
 73
     4
 40
40.5
 49
37.5
 74
     0
 49
-1.125
 74
     0
 49
0.75
 74
     0
 49
-1.125
 74
     0
  0
LTYPE
  5
9E
330
5
100
AcDbSymbolTableRecord
100
AcDbLinetypeTableRecord
  2
JIS_08_50
 70
     0
  3
1SASEN50 _______________  __  ____________
 72
    65
 73
     4
 40
53.0
 49
50.0
 74
     0
 49
-1.125
 74
     0
 49
0.75
 74
     0
 49
-1.125
 74
     0
  0
LTYPE
  5
9F
330
5
100
AcDbSymbolTableRecord
100
AcDbLinetypeTableRecord
  2
JIS_09_08
 70
     0
  3
2SASEN8 __ _ _ __ _ _ __ _ _ __ _ _ __ _ _ 
 72
    65
 73
     6
 40
10.75
 49
8.0
 74
     0
 49
-0.55
 74
     0
 49
0.55
 74
     0
 49
-0.55
 74
     0
 49
0.55
 74
     0
 49
-0.55
 74
     0
  0
LTYPE
  5
A0
330
5
100
AcDbSymbolTableRecord
100
AcDbLinetypeTableRecord
  2
JIS_09_15
 70
     0
  3
2SASEN15 ___ _ _ ___ _ _ ___ _ _ ___ _ _ ___ 
 72
    65
 73
     6
 40
18.9
 49
15.0
 74
     0
 49
-0.9
 74
     0
 49
0.6
 74
     0
 49
-0.9
 74
     0
 49
0.6
 74
     0
 49
-0.9
 74
     0
  0
LTYPE
  5
A1
330
5
100
AcDbSymbolTableRecord
100
AcDbLinetypeTableRecord
  2
JIS_09_29
 70
     0
  3
2SASEN29 ______　__  __  ______　__  __  ___
 72
    65
 73
     6
 40
34.0
 49
29.0
 74
     0
 49
-1.2
 74
     0
 49
0.7
 74
     0
 49
-1.2
 74
     0
 49
0.7
 74
     0
 49
-1.2
 74
     0
  0
LTYPE
  5
A2
330
5
100
AcDbSymbolTableRecord
100
AcDbLinetypeTableRecord
  2
JIS_09_50
 70
     0
  3
2SASEN50 ____________　__  __  _____________
 72
    65
 73
     6
 40
55.0
 49
50.0
 74
     0
 49
-1.2
 74
     0
 49
0.7
 74
     0
 49
-1.2
 74
     0
 49
0.7
 74
     0
 49
-1.2
 74
     0
  0
LTYPE
  5
A3
330
5
100
AcDbSymbolTableRecord
100
AcDbLinetypeTableRecord
  2
SXF_破線
 70
     0
  3
02 dashed -- -- -- -- -- --
 72
    65
 73
     2
 40
7.5
 49
6.0
 74
     0
 49
-1.5
 74
     0
  0
LTYPE
  5
A4
330
5
100
AcDbSymbolTableRecord
100
AcDbLinetypeTableRecord
  2
SXF_跳び破線
 70
     0
  3
03 dashed_spaced --  --  --  --
 72
    65
 73
     2
 40
12.0
 49
6.0
 74
     0
 49
-6.0
 74
     0
  0
LTYPE
  5
A5
330
5
100
AcDbSymbolTableRecord
100
AcDbLinetypeTableRecord
  2
SXF_一点長鎖線
 70
     0
  3
04 long_dashed_dotted ---- . ---- . ----
 72
    65
 73
     4
 40
15.25
 49
12.0
 74
     0
 49
-1.5
 74
     0
 49
0.25
 74
     0
 49
-1.5
 74
     0
  0
LTYPE
  5
A6
330
5
100
AcDbSymbolTableRecord
100
AcDbLinetypeTableRecord
  2
SXF_二点長鎖線
 70
     0
  3
05 long_dashed_double-dotted ---- . . ---- 
 72
    65
 73
     6
 40
17.0
 49
12.0
 74
     0
 49
-1.5
 74
     0
 49
0.25
 74
     0
 49
-1.5
 74
     0
 49
0.25
 74
     0
 49
-1.5
 74
     0
  0
LTYPE
  5
A7
330
5
100
AcDbSymbolTableRecord
100
AcDbLinetypeTableRecord
  2
SXF_三点長鎖線
 70
     0
  3
06 long_dashed_triplicate-dotted ---- ... ---- 
 72
    65
 73
     8
 40
18.75
 49
12.0
 74
     0
 49
-1.5
 74
     0
 49
0.25
 74
     0
 49
-1.5
 74
     0
 49
0.25
 74
     0
 49
-1.5
 74
     0
 49
0.25
 74
     0
 49
-1.5
 74
     0
  0
LTYPE
  5
A8
330
5
100
AcDbSymbolTableRecord
100
AcDbLinetypeTableRecord
  2
SXF_点線
 70
     0
  3
07 dotted . . . . . . . . . . . . 
 72
    65
 73
     2
 40
1.75
 49
0.25
 74
     0
 49
-1.5
 74
     0
  0
LTYPE
  5
A9
330
5
100
AcDbSymbolTableRecord
100
AcDbLinetypeTableRecord
  2
SXF_一点鎖線
 70
     0
  3
08 chain ---- - --- - --- - ---
 72
    65
 73
     4
 40
18.5
 49
12.0
 74
     0
 49
-1.5
 74
     0
 49
3.5
 74
     0
 49
-1.5
 74
     0
  0
LTYPE
  5
AA
330
5
100
AcDbSymbolTableRecord
100
AcDbLinetypeTableRecord
  2
SXF_二点鎖線
 70
     0
  3
09 chain_double_dash ---- - - ---- - - ----
 72
    65
 73
     6
 40
23.5
 49
12.0
 74
     0
 49
-1.5
 74
     0
 49
3.5
 74
     0
 49
-1.5
 74
     0
 49
3.5
 74
     0
 49
-1.5
 74
     0
  0
LTYPE
  5
AB
330
5
100
AcDbSymbolTableRecord
100
AcDbLinetypeTableRecord
  2
SXF_一点短鎖線
 70
     0
  3
10 dashed_dotted -- . -- . -- . --
 72
    65
 73
     4
 40
9.25
 49
6.0
 74
     0
 49
-1.5
 74
     0
 49
0.25
 74
     0
 49
-1.5
 74
     0
  0
LTYPE
  5
AC
330
5
100
AcDbSymbolTableRecord
100
AcDbLinetypeTableRecord
  2
SXF_一点二短鎖線
 70
     0
  3
11 double-dashed_dotted -- -- . -- --
 72
    65
 73
     6
 40
16.75
 49
6.0
 74
     0
 49
-1.5
 74
     0
 49
6.0
 74
     0
 49
-1.5
 74
     0
 49
0.25
 74
     0
 49
-1.5
 74
     0
  0
LTYPE
  5
AD
330
5
100
AcDbSymbolTableRecord
100
AcDbLinetypeTableRecord
  2
SXF_二点短鎖線
 70
     0
  3
12 dashed_double_dotted -- . . -- . . --
 72
    65
 73
     6
 40
11.0
 49
6.0
 74
     0
 49
-1.5
 74
     0
 49
0.25
 74
     0
 49
-1.5
 74
     0
 49
0.25
 74
     0
 49
-1.5
 74
     0
  0
LTYPE
  5
AE
330
5
100
AcDbSymbolTableRecord
100
AcDbLinetypeTableRecord
  2
SXF_二点二短鎖線
 70
     0
  3
13 double-dashed_double-dotted -- -- . . -- --
 72
    65
 73
     8
 40
18.5
 49
6.0
 74
     0
 49
-1.5
 74
     0
 49
6.0
 74
     0
 49
-1.5
 74
     0
 49
0.25
 74
     0
 49
-1.5
 74
     0
 49
0.25
 74
     0
 49
-1.5
 74
     0
  0
LTYPE
  5
AF
330
5
100
AcDbSymbolTableRecord
100
AcDbLinetypeTableRecord
  2
SXF_三点短鎖線
 70
     0
  3
14 dashed triplicate-dotted -- . . . -- . . . --
 72
    65
 73
     8
 40
12.75
 49
6.0
 74
     0
 49
-1.5
 74
     0
 49
0.25
 74
     0
 49
-1.5
 74
     0
 49
0.25
 74
     0
 49
-1.5
 74
     0
 49
0.25
 74
     0
 49
-1.5
 74
     0
  0
LTYPE
  5
B0
330
5
100
AcDbSymbolTableRecord
100
AcDbLinetypeTableRecord
  2
SXF_三点二短鎖線
 70
     0
  3
15 double-dashed triplicate-dotted -- -- . . . -- -- 
 72
    65
 73
    10
 40
20.25
 49
6.0
 74
     0
 49
-1.5
 74
     0
 49
6.0
 74
     0
 49
-1.5
 74
     0
 49
0.25
 74
     0
 49
-1.5
 74
     0
 49
0.25
 74
     0
 49
-1.5
 74
     0
 49
0.25
 74
     0
 49
-1.5
 74
     0
  0
ENDTAB
  0
TABLE
  2
LAYER
  5
2
330
0
100
AcDbSymbolTable
 70
     3
  0
LAYER
  5
10
330
2
100
AcDbSymbolTableRecord
100
AcDbLayerTableRecord
  2
0
 70
     0
 62
     7
  6
CONTINUOUS
  0
LAYER
  5
B1
330
2
100
AcDbSymbolTableRecord
100
AcDbLayerTableRecord
  2
LAYER0032
 70
     0
 62
     7
  6
CONTINUOUS
  0
LAYER
  5
B2
330
2
100
AcDbSymbolTableRecord
100
AcDbLayerTableRecord
  2
LAYER0048
 70
     0
 62
     7
  6
CONTINUOUS
  0
ENDTAB
  0
TABLE
  2
STYLE
  5
3
330
0
100
AcDbSymbolTable
 70
     4
  0
STYLE
  5
11
330
3
100
AcDbSymbolTableRecord
100
AcDbTextStyleTableRecord
  2
STANDARD
 70
     0
 40
0.0
 41
1.0
 50
0.0
 71
     0
 42
0.2
  3
txt.shx
  4
bigfont.shx
  0
STYLE
  5
105
330
3
100
AcDbSymbolTableRecord
100
AcDbTextStyleTableRecord
  2
DCSTYLE0
 70
     0
 40
0.0
 41
0.8
 50
0.0
 71
     0
 42
0.2
  3
ＭＳ Ｐゴシック
  4

1001
ACAD
1000
ＭＳ Ｐゴシック
1071
    32802
  0
STYLE
  5
221
330
3
100
AcDbSymbolTableRecord
100
AcDbTextStyleTableRecord
  2
DCSTYLE1
 70
     0
 40
0.0
 41
0.8
 50
0.0
 71
     0
 42
0.2
  3
HGRSGU.TTC
  4

1001
ACAD
1000
HGP創英角ｺﾞｼｯｸUB
1071
    32802
  0
STYLE
  5
224
330
3
100
AcDbSymbolTableRecord
100
AcDbTextStyleTableRecord
  2
DCSTYLE2
 70
     0
 40
0.0
 41
0.8
 50
0.0
 71
     0
 42
0.2
  3
ＭＳ ゴシック
  4

1001
ACAD
1000
ＭＳ ゴシック
1071
    32802
  0
ENDTAB
  0
TABLE
  2
VIEW
  5
6
330
0
100
AcDbSymbolTable
 70
     0
  0
ENDTAB
  0
TABLE
  2
UCS
  5
7
330
0
100
AcDbSymbolTable
 70
     0
  0
ENDTAB
  0
TABLE
  2
APPID
  5
9
330
0
100
AcDbSymbolTable
 70
     3
  0
APPID
  5
12
330
9
100
AcDbSymbolTableRecord
100
AcDbRegAppTableRecord
  2
ACAD
 70
     0
  0
APPID
  5
6E
330
9
100
AcDbSymbolTableRecord
100
AcDbRegAppTableRecord
  2
DAFUSIONOUT
 70
     0
  0
APPID
  5
688
330
9
100
AcDbSymbolTableRecord
100
AcDbRegAppTableRecord
  2
ACAD_MLEADERVER
 70
     0
  0
ENDTAB
  0
TABLE
  2
DIMSTYLE
  5
A
330
0
100
AcDbSymbolTable
 70
     2
  0
DIMSTYLE
105
27
330
A
100
AcDbSymbolTableRecord
100
AcDbDimStyleTableRecord
  2
STANDARD
 70
     0
  3

  4

  5

  6

  7

 40
1.0
 41
0.18
 42
0.0625
 43
0.38
 44
0.18
 45
0.0
 46
0.0
 47
0.0
 48
0.0
140
0.18
141
0.09
142
0.0
143
25.4
144
1.0
145
0.0
146
1.0
147
0.09
 71
     0
 72
     0
 73
     1
 74
     1
 75
     0
 76
     0
 77
     0
 78
     0
170
     0
171
     2
172
     0
173
     0
174
     0
175
     0
176
     0
177
     0
178
     0
270
     2
271
     4
272
     4
273
     2
274
     2
340
11
275
     0
280
     0
281
     0
282
     0
283
     1
284
     0
285
     0
286
     0
287
     3
288
     0
  0
DIMSTYLE
105
3F9
102
{ACAD_REACTORS
330
3F8
330
3FA
330
3FB
330
3FC
330
3FE
330
3FF
330
401
330
40B
330
40C
330
40E
102
}
330
A
100
AcDbSymbolTableRecord
100
AcDbDimStyleTableRecord
  2
DC_ROTATED
 70
     0
  3

  4

  5

  6
OPEN30
  7
OPEN30
 40
1.0
 41
60.00003814697266
 42
20.0
 43
0.38
 44
20.0
 45
0.0
 46
0.0
 47
0.0
 48
0.0
140
60.0
141
0.09
142
0.0
143
25.4
144
1.0
145
0.0
146
1.0
147
19.99999999999886
 71
     0
 72
     0
 73
     0
 74
     0
 75
     0
 76
     0
 77
     3
 78
     8
170
     0
171
     2
172
     1
173
     1
174
     0
175
     0
176
     4
177
     4
178
     4
270
     2
271
     1
272
     4
273
     2
274
     4
340
105
275
     0
280
     0
281
     0
282
     0
283
     0
284
     8
285
     0
286
     0
287
     3
288
     1
  0
ENDTAB
  0
TABLE
  2
BLOCK_RECORD
  5
1
330
0
100
AcDbSymbolTable
 70
    28
  0
BLOCK_RECORD
  5
1F
330
1
100
AcDbSymbolTableRecord
100
AcDbBlockTableRecord
  2
*MODEL_SPACE
  0
BLOCK_RECORD
  5
1B
330
1
100
AcDbSymbolTableRecord
100
AcDbBlockTableRecord
  2
*PAPER_SPACE
  0
BLOCK_RECORD
  5
B4
330
1
100
AcDbSymbolTableRecord
100
AcDbBlockTableRecord
  2
DC_GROUP_1
  0
BLOCK_RECORD
  5
B7
330
1
100
AcDbSymbolTableRecord
100
AcDbBlockTableRecord
  2
DC_GROUP_2
  0
BLOCK_RECORD
  5
BA
330
1
100
AcDbSymbolTableRecord
100
AcDbBlockTableRecord
  2
*D3
  0
BLOCK_RECORD
  5
BD
330
1
100
AcDbSymbolTableRecord
100
AcDbBlockTableRecord
  2
*D4
  0
BLOCK_RECORD
  5
C0
330
1
100
AcDbSymbolTableRecord
100
AcDbBlockTableRecord
  2
*D5
  0
BLOCK_RECORD
  5
C3
330
1
100
AcDbSymbolTableRecord
100
AcDbBlockTableRecord
  2
*D6
  0
BLOCK_RECORD
  5
C6
330
1
100
AcDbSymbolTableRecord
100
AcDbBlockTableRecord
  2
DC_GROUP_3
  0
BLOCK_RECORD
  5
C9
330
1
100
AcDbSymbolTableRecord
100
AcDbBlockTableRecord
  2
*D8
  0
BLOCK_RECORD
  5
CC
330
1
100
AcDbSymbolTableRecord
100
AcDbBlockTableRecord
  2
*D9
  0
BLOCK_RECORD
  5
CF
330
1
100
AcDbSymbolTableRecord
100
AcDbBlockTableRecord
  2
DC_GROUP_4
  0
BLOCK_RECORD
  5
D2
330
1
100
AcDbSymbolTableRecord
100
AcDbBlockTableRecord
  2
*D11
  0
BLOCK_RECORD
  5
D5
330
1
100
AcDbSymbolTableRecord
100
AcDbBlockTableRecord
  2
DC_GROUP_5
  0
BLOCK_RECORD
  5
D8
330
1
100
AcDbSymbolTableRecord
100
AcDbBlockTableRecord
  2
DC_GROUP_6
  0
BLOCK_RECORD
  5
DB
330
1
100
AcDbSymbolTableRecord
100
AcDbBlockTableRecord
  2
DC_GROUP_7
  0
BLOCK_RECORD
  5
DE
330
1
100
AcDbSymbolTableRecord
100
AcDbBlockTableRecord
  2
DC_GROUP_8
  0
BLOCK_RECORD
  5
E1
330
1
100
AcDbSymbolTableRecord
100
AcDbBlockTableRecord
  2
DC_GROUP_9
  0
BLOCK_RECORD
  5
E4
330
1
100
AcDbSymbolTableRecord
100
AcDbBlockTableRecord
  2
DC_GROUP_10
  0
BLOCK_RECORD
  5
E7
330
1
100
AcDbSymbolTableRecord
100
AcDbBlockTableRecord
  2
DC_GROUP_11
  0
BLOCK_RECORD
  5
EA
330
1
100
AcDbSymbolTableRecord
100
AcDbBlockTableRecord
  2
DC_GROUP_12
  0
BLOCK_RECORD
  5
ED
330
1
100
AcDbSymbolTableRecord
100
AcDbBlockTableRecord
  2
DC_GROUP_13
  0
BLOCK_RECORD
  5
F0
330
1
100
AcDbSymbolTableRecord
100
AcDbBlockTableRecord
  2
*D21
  0
BLOCK_RECORD
  5
F3
330
1
100
AcDbSymbolTableRecord
100
AcDbBlockTableRecord
  2
DC_GROUP_14
  0
BLOCK_RECORD
  5
F6
330
1
100
AcDbSymbolTableRecord
100
AcDbBlockTableRecord
  2
*D23
  0
BLOCK_RECORD
  5
F9
330
1
100
AcDbSymbolTableRecord
100
AcDbBlockTableRecord
  2
DC_GROUP_15
  0
BLOCK_RECORD
  5
FC
330
1
100
AcDbSymbolTableRecord
100
AcDbBlockTableRecord
  2
*D25
  0
BLOCK_RECORD
  5
FF
330
1
100
AcDbSymbolTableRecord
100
AcDbBlockTableRecord
  2
DC_GROUP_16
  0
BLOCK_RECORD
  5
102
330
1
100
AcDbSymbolTableRecord
100
AcDbBlockTableRecord
  2
DC_GROUP_17
  0
BLOCK_RECORD
  5
128
330
1
100
AcDbSymbolTableRecord
100
AcDbBlockTableRecord
  2
_OPEN30
  0
ENDTAB
  0
ENDSEC
  0
SECTION
  2
BLOCKS
  0
BLOCK
  5
20
330
1F
100
AcDbEntity
  8
0
100
AcDbBlockBegin
  2
*MODEL_SPACE
 70
     0
 10
0.0
 20
0.0
 30
0.0
  3
*MODEL_SPACE
  1

  0
ENDBLK
  5
21
330
1F
100
AcDbEntity
  8
0
100
AcDbBlockEnd
  0
BLOCK
  5
1C
330
1B
100
AcDbEntity
 67
     1
  8
0
100
AcDbBlockBegin
  2
*PAPER_SPACE
 70
     0
 10
0.0
 20
0.0
 30
0.0
  3
*PAPER_SPACE
  1

  0
ENDBLK
  5
1D
330
1B
100
AcDbEntity
 67
     1
  8
0
100
AcDbBlockEnd
  0
BLOCK
  5
B5
330
B4
100
AcDbEntity
  8
0
100
AcDbBlockBegin
  2
DC_GROUP_1
 70
     0
 10
0.0
 20
0.0
 30
0.0
  3
DC_GROUP_1
  1

  0
TEXT
  5
106
330
B4
100
AcDbEntity
  8
LAYER0048
 62
     2
100
AcDbText
 10
-2244.926773139201
 20
-488.4705505793079
 30
0.0
 40
100.0
  1
注   意
 41
1.038081189520887
  7
DCSTYLE0
 72
     5
 11
-1804.926773139201
 21
-488.4705505793079
 31
0.0
100
AcDbText
  0
LINE
  5
107
330
B4
100
AcDbEntity
  8
LAYER0048
  6
CONTINUOUS
 62
     7
100
AcDbLine
 10
-2254.926773139201
 20
-486.4705505793079
 30
0.0
 11
-1794.926773139201
 21
-486.4705505793079
 31
0.0
  0
ENDBLK
  5
B6
330
B4
100
AcDbEntity
  8
0
100
AcDbBlockEnd
  0
BLOCK
  5
B8
330
B7
100
AcDbEntity
  8
0
100
AcDbBlockBegin
  2
DC_GROUP_2
 70
     0
 10
0.0
 20
0.0
 30
0.0
  3
DC_GROUP_2
  1

  0
LINE
  5
108
330
B7
100
AcDbEntity
  8
LAYER0032
  6
CONTINUOUS
 62
     3
100
AcDbLine
 10
1819.817649060299
 20
-850.6914349248439
 30
0.0
 11
1818.1264257853
 21
-854.0682509219125
 31
0.0
  0
LINE
  5
109
330
B7
100
AcDbEntity
  8
LAYER0032
  6
CONTINUOUS
 62
     3
100
AcDbLine
 10
1818.1264257853
 20
-854.0682509219125
 30
0.0
 11
1813.512237948948
 21
-866.931755942561
 31
0.0
  0
LINE
  5
10A
330
B7
100
AcDbEntity
  8
LAYER0032
  6
CONTINUOUS
 62
     3
100
AcDbLine
 10
1813.512237948948
 20
-866.931755942561
 30
0.0
 11
1810.974517292209
 21
-880.3754989800802
 31
0.0
  0
LINE
  5
10B
330
B7
100
AcDbEntity
  8
LAYER0032
  6
CONTINUOUS
 62
     3
100
AcDbLine
 10
1810.974517292209
 20
-880.3754989800802
 30
0.0
 11
1809.781871803253
 21
-894.2155933033557
 31
0.0
  0
LINE
  5
10C
330
B7
100
AcDbEntity
  8
LAYER0032
  6
CONTINUOUS
 62
     3
100
AcDbLine
 10
1809.781871803253
 20
-894.2155933033557
 30
0.0
 11
1809.145377531623
 21
-908.2527418769143
 31
0.0
  0
LINE
  5
10D
330
B7
100
AcDbEntity
  8
LAYER0032
  6
CONTINUOUS
 62
     3
100
AcDbLine
 10
1809.145377531623
 20
-908.2527418769143
 30
0.0
 11
1808.288442378875
 21
-922.2904520774603
 31
0.0
  0
LINE
  5
10E
330
B7
100
AcDbEntity
  8
LAYER0032
  6
CONTINUOUS
 62
     3
100
AcDbLine
 10
1808.288442378875
 20
-922.2904520774603
 30
0.0
 11
1806.788643259823
 21
-936.2127735953628
 31
0.0
  0
LINE
  5
10F
330
B7
100
AcDbEntity
  8
LAYER0032
  6
CONTINUOUS
 62
     3
100
AcDbLine
 10
1806.788643259823
 20
-936.2127735953628
 30
0.0
 11
1804.622004230128
 21
-949.994367815959
 31
0.0
  0
LINE
  5
110
330
B7
100
AcDbEntity
  8
LAYER0032
  6
CONTINUOUS
 62
     3
100
AcDbLine
 10
1804.622004230128
 20
-949.994367815959
 30
0.0
 11
1801.785775364056
 21
-963.6147231777278
 31
0.0
  0
LINE
  5
111
330
B7
100
AcDbEntity
  8
LAYER0032
  6
CONTINUOUS
 62
     3
100
AcDbLine
 10
1801.785775364056
 20
-963.6147231777278
 30
0.0
 11
1798.277206735875
 21
-977.0533281191493
 31
0.0
  0
LINE
  5
112
330
B7
100
AcDbEntity
  8
LAYER0032
  6
CONTINUOUS
 62
     3
100
AcDbLine
 10
1798.277206735875
 20
-977.0533281191493
 30
0.0
 11
1794.09354841985
 21
-990.2896710787028
 31
0.0
  0
LINE
  5
113
330
B7
100
AcDbEntity
  8
LAYER0032
  6
CONTINUOUS
 62
     3
100
AcDbLine
 10
1794.09354841985
 20
-990.2896710787028
 30
0.0
 11
1789.23205049025
 21
-1003.303240494869
 31
0.0
  0
LINE
  5
114
330
B7
100
AcDbEntity
  8
LAYER0032
  6
CONTINUOUS
 62
     3
100
AcDbLine
 10
1789.23205049025
 20
-1003.303240494869
 30
0.0
 11
1783.68996302134
 21
-1016.073524806127
 31
0.0
  0
LINE
  5
115
330
B7
100
AcDbEntity
  8
LAYER0032
  6
CONTINUOUS
 62
     3
100
AcDbLine
 10
1783.68996302134
 20
-1016.073524806127
 30
0.0
 11
1777.464536087388
 21
-1028.580012450956
 31
0.0
  0
LINE
  5
116
330
B7
100
AcDbEntity
  8
LAYER0032
  6
CONTINUOUS
 62
     3
100
AcDbLine
 10
1777.464536087388
 20
-1028.580012450956
 30
0.0
 11
1770.57210132035
 21
-1040.810199750203
 31
0.0
  0
LINE
  5
117
330
B7
100
AcDbEntity
  8
LAYER0032
  6
CONTINUOUS
 62
     3
100
AcDbLine
 10
1770.57210132035
 20
-1040.810199750203
 30
0.0
 11
1763.240206435793
 21
-1052.840223248912
 31
0.0
  0
LINE
  5
118
330
B7
100
AcDbEntity
  8
LAYER0032
  6
CONTINUOUS
 62
     3
100
AcDbLine
 10
1763.240206435793
 20
-1052.840223248912
 30
0.0
 11
1755.827794405416
 21
-1064.801361623176
 31
0.0
  0
LINE
  5
119
330
B7
100
AcDbEntity
  8
LAYER0032
  6
CONTINUOUS
 62
     3
100
AcDbLine
 10
1755.827794405416
 20
-1064.801361623176
 30
0.0
 11
1748.695789235466
 21
-1076.825724922071
 31
0.0
  0
LINE
  5
11A
330
B7
100
AcDbEntity
  8
LAYER0032
  6
CONTINUOUS
 62
     3
100
AcDbLine
 10
1748.695789235466
 20
-1076.825724922071
 30
0.0
 11
1742.205114932195
 21
-1089.045423194681
 31
0.0
  0
LINE
  5
11B
330
B7
100
AcDbEntity
  8
LAYER0032
  6
CONTINUOUS
 62
     3
100
AcDbLine
 10
1742.205114932195
 20
-1089.045423194681
 30
0.0
 11
1736.71669550185
 21
-1101.592566490083
 31
0.0
  0
LINE
  5
11C
330
B7
100
AcDbEntity
  8
LAYER0032
  6
CONTINUOUS
 62
     3
100
AcDbLine
 10
1736.71669550185
 20
-1101.592566490083
 30
0.0
 11
1732.59145495068
 21
-1114.599264857358
 31
0.0
  0
LINE
  5
11D
330
B7
100
AcDbEntity
  8
LAYER0032
  6
CONTINUOUS
 62
     3
100
AcDbLine
 10
1732.59145495068
 20
-1114.599264857358
 30
0.0
 11
1730.145590976252
 21
-1128.181315094777
 31
0.0
  0
LINE
  5
11E
330
B7
100
AcDbEntity
  8
LAYER0032
  6
CONTINUOUS
 62
     3
100
AcDbLine
 10
1730.145590976252
 20
-1128.181315094777
 30
0.0
 11
1729.122370333255
 21
-1142.245546025302
 31
0.0
  0
LINE
  5
11F
330
B7
100
AcDbEntity
  8
LAYER0032
  6
CONTINUOUS
 62
     3
100
AcDbLine
 10
1729.122370333255
 20
-1142.245546025302
 30
0.0
 11
1728.868604151514
 21
-1156.554185224132
 31
0.0
  0
LINE
  5
120
330
B7
100
AcDbEntity
  8
LAYER0032
  6
CONTINUOUS
 62
     3
100
AcDbLine
 10
1728.868604151514
 20
-1156.554185224132
 30
0.0
 11
1728.72317920551
 21
-1170.866569976605
 31
0.0
  0
LINE
  5
121
330
B7
100
AcDbEntity
  8
LAYER0032
  6
CONTINUOUS
 62
     3
100
AcDbLine
 10
1728.72317920551
 20
-1170.866569976605
 30
0.0
 11
1728.024982269721
 21
-1184.94203756806
 31
0.0
  0
LINE
  5
122
330
B7
100
AcDbEntity
  8
LAYER0032
  6
CONTINUOUS
 62
     3
100
AcDbLine
 10
1728.024982269721
 20
-1184.94203756806
 30
0.0
 11
1726.112900118627
 21
-1198.539925283839
 31
0.0
  0
LINE
  5
123
330
B7
100
AcDbEntity
  8
LAYER0032
  6
CONTINUOUS
 62
     3
100
AcDbLine
 10
1726.112900118627
 20
-1198.539925283839
 30
0.0
 11
1722.325819526705
 21
-1211.419570409279
 31
0.0
  0
LINE
  5
124
330
B7
100
AcDbEntity
  8
LAYER0032
  6
CONTINUOUS
 62
     3
100
AcDbLine
 10
1722.325819526705
 20
-1211.419570409279
 30
0.0
 11
1717.435227118511
 21
-1220.691434924843
 31
0.0
  0
ENDBLK
  5
B9
330
B7
100
AcDbEntity
  8
0
100
AcDbBlockEnd
  0
BLOCK
  5
BB
330
BA
100
AcDbEntity
  8
0
100
AcDbBlockBegin
  2
*D3
 70
     1
 10
0.0
 20
0.0
 30
0.0
  3
*D3
  1

  0
LINE
  5
125
330
BA
100
AcDbEntity
  8
LAYER0032
  6
CONTINUOUS
 62
     4
100
AcDbLine
 10
404.605840468344
 20
488.2300438104593
 30
0.0
 11
404.605840468344
 21
738.9407796924997
 31
0.0
  0
LINE
  5
126
330
BA
100
AcDbEntity
  8
LAYER0032
  6
CONTINUOUS
 62
     4
100
AcDbLine
 10
1929.605840468344
 20
488.2300438104593
 30
0.0
 11
1929.605840468344
 21
738.9407796924997
 31
0.0
  0
LINE
  5
127
330
BA
100
AcDbEntity
  8
LAYER0032
  6
CONTINUOUS
 62
     4
100
AcDbLine
 10
404.605840468344
 20
718.9407796924997
 30
0.0
 11
1929.605840468344
 21
718.9407796924997
 31
0.0
  0
INSERT
  5
12E
330
BA
100
AcDbEntity
  8
LAYER0032
 62
     4
100
AcDbBlockReference
  2
_OPEN30
 10
404.605840468344
 20
718.9407796924997
 30
0.0
 41
60.00005615230571
 42
59.99978736447287
 50
180.0
  0
INSERT
  5
12F
330
BA
100
AcDbEntity
  8
LAYER0032
 62
     4
100
AcDbBlockReference
  2
_OPEN30
 10
1929.605840468344
 20
718.9407796924997
 30
0.0
 41
60.00005615230571
 42
59.99978736447287
 50
360.0
  0
TEXT
  5
130
330
BA
100
AcDbEntity
  8
LAYER0032
 62
     4
100
AcDbText
 10
1071.105840468344
 20
738.9407796924986
 30
0.0
 40
60.0
  1
1525
 41
1.1
  7
DCSTYLE0
 72
     5
 11
1263.105840468344
 21
738.9407796924986
 31
0.0
100
AcDbText
  0
ENDBLK
  5
BC
330
BA
100
AcDbEntity
  8
0
100
AcDbBlockEnd
  0
BLOCK
  5
BE
330
BD
100
AcDbEntity
  8
0
100
AcDbBlockBegin
  2
*D4
 70
     1
 10
0.0
 20
0.0
 30
0.0
  3
*D4
  1

  0
LINE
  5
131
330
BD
100
AcDbEntity
  8
LAYER0032
  6
CONTINUOUS
 62
     4
100
AcDbLine
 10
377.1058404683445
 20
414.2300438104593
 30
0.0
 11
377.1058404683445
 21
869.1967829887517
 31
0.0
  0
LINE
  5
132
330
BD
100
AcDbEntity
  8
LAYER0032
  6
CONTINUOUS
 62
     4
100
AcDbLine
 10
1957.105840468344
 20
414.2300438104593
 30
0.0
 11
1957.105840468344
 21
869.1967829887517
 31
0.0
  0
LINE
  5
133
330
BD
100
AcDbEntity
  8
LAYER0032
  6
CONTINUOUS
 62
     4
100
AcDbLine
 10
377.1058404683445
 20
849.1967829887517
 30
0.0
 11
1957.105840468344
 21
849.1967829887517
 31
0.0
  0
INSERT
  5
134
330
BD
100
AcDbEntity
  8
LAYER0032
 62
     4
100
AcDbBlockReference
  2
_OPEN30
 10
377.1058404683445
 20
849.1967829887517
 30
0.0
 41
60.00005615230571
 42
59.99978736447287
 50
180.0
  0
INSERT
  5
135
330
BD
100
AcDbEntity
  8
LAYER0032
 62
     4
100
AcDbBlockReference
  2
_OPEN30
 10
1957.105840468344
 20
849.1967829887517
 30
0.0
 41
60.00005615230571
 42
59.99978736447287
 50
360.0
  0
TEXT
  5
136
330
BD
100
AcDbEntity
  8
LAYER0032
 62
     4
100
AcDbText
 10
1071.105840468344
 20
869.1967829887496
 30
0.0
 40
60.0
  1
1580
 41
1.1
  7
DCSTYLE0
 72
     5
 11
1263.105840468344
 21
869.1967829887496
 31
0.0
100
AcDbText
  0
ENDBLK
  5
BF
330
BD
100
AcDbEntity
  8
0
100
AcDbBlockEnd
  0
BLOCK
  5
C1
330
C0
100
AcDbEntity
  8
0
100
AcDbBlockBegin
  2
*D5
 70
     1
 10
0.0
 20
0.0
 30
0.0
  3
*D5
  1

  0
LINE
  5
137
330
C0
100
AcDbEntity
  8
LAYER0032
  6
CONTINUOUS
 62
     4
100
AcDbLine
 10
352.1058404683445
 20
424.2300438104593
 30
0.0
 11
352.1058404683445
 21
999.4527862850009
 31
0.0
  0
LINE
  5
138
330
C0
100
AcDbEntity
  8
LAYER0032
  6
CONTINUOUS
 62
     4
100
AcDbLine
 10
1982.105840468344
 20
424.2300438104593
 30
0.0
 11
1982.105840468344
 21
999.4527862850009
 31
0.0
  0
LINE
  5
139
330
C0
100
AcDbEntity
  8
LAYER0032
  6
CONTINUOUS
 62
     4
100
AcDbLine
 10
352.1058404683445
 20
979.4527862850009
 30
0.0
 11
1982.105840468344
 21
979.4527862850009
 31
0.0
  0
INSERT
  5
13A
330
C0
100
AcDbEntity
  8
LAYER0032
 62
     4
100
AcDbBlockReference
  2
_OPEN30
 10
352.1058404683445
 20
979.4527862850009
 30
0.0
 41
60.00005615230571
 42
59.99978736447287
 50
180.0
  0
INSERT
  5
13B
330
C0
100
AcDbEntity
  8
LAYER0032
 62
     4
100
AcDbBlockReference
  2
_OPEN30
 10
1982.105840468344
 20
979.4527862850009
 30
0.0
 41
60.00005615230571
 42
59.99978736447287
 50
360.0
  0
TEXT
  5
13C
330
C0
100
AcDbEntity
  8
LAYER0032
 62
     4
100
AcDbText
 10
1071.105840468344
 20
999.452786285
 30
0.0
 40
60.0
  1
1630
 41
1.1
  7
DCSTYLE0
 72
     5
 11
1263.105840468344
 21
999.452786285
 31
0.0
100
AcDbText
  0
ENDBLK
  5
C2
330
C0
100
AcDbEntity
  8
0
100
AcDbBlockEnd
  0
BLOCK
  5
C4
330
C3
100
AcDbEntity
  8
0
100
AcDbBlockBegin
  2
*D6
 70
     1
 10
0.0
 20
0.0
 30
0.0
  3
*D6
  1

  0
LINE
  5
13D
330
C3
100
AcDbEntity
  8
LAYER0032
  6
CONTINUOUS
 62
     4
100
AcDbLine
 10
127.878302490792
 20
-448.7699561895399
 30
0.0
 11
127.878302490792
 21
468.2300438104593
 31
0.0
  0
INSERT
  5
13E
330
C3
100
AcDbEntity
  8
LAYER0032
 62
     4
100
AcDbBlockReference
  2
_OPEN30
 10
127.878302490792
 20
-448.7699561895399
 30
0.0
 41
60.00005615230571
 42
59.99978736447287
 50
270.0
  0
INSERT
  5
13F
330
C3
100
AcDbEntity
  8
LAYER0032
 62
     4
100
AcDbBlockReference
  2
_OPEN30
 10
127.878302490792
 20
468.2300438104593
 30
0.0
 41
60.00005615230571
 42
59.99978736447287
 50
90.0
  0
LINE
  5
140
330
C3
100
AcDbEntity
  8
LAYER0032
  6
CONTINUOUS
 62
     4
100
AcDbLine
 10
384.6058404683441
 20
-448.7699561895407
 30
0.0
 11
107.878302490792
 21
-448.7699561895398
 31
0.0
  0
TEXT
  5
141
330
C3
100
AcDbEntity
  8
LAYER0032
 62
     4
100
AcDbText
 10
107.878302490792
 20
-62.26995618953976
 30
0.0
 40
60.0
  1
917
 50
90.0
 41
1.1
  7
DCSTYLE0
 72
     5
 11
107.878302490792
 21
81.73004381046024
 31
0.0
100
AcDbText
  0
LINE
  5
142
330
C3
100
AcDbEntity
  8
LAYER0032
  6
CONTINUOUS
 62
     4
100
AcDbLine
 10
384.6058404683441
 20
468.2300438104593
 30
0.0
 11
107.878302490792
 21
468.2300438104593
 31
0.0
  0
ENDBLK
  5
C5
330
C3
100
AcDbEntity
  8
0
100
AcDbBlockEnd
  0
BLOCK
  5
C7
330
C6
100
AcDbEntity
  8
0
100
AcDbBlockBegin
  2
DC_GROUP_3
 70
     0
 10
0.0
 20
0.0
 30
0.0
  3
DC_GROUP_3
  1

  0
LINE
  5
143
330
C6
100
AcDbEntity
  8
LAYER0032
  6
CONTINUOUS
 62
     3
100
AcDbLine
 10
1847.293591959306
 20
-1222.329942412181
 30
0.0
 11
1844.394363249125
 21
-1228.408234274221
 31
0.0
  0
LINE
  5
144
330
C6
100
AcDbEntity
  8
LAYER0032
  6
CONTINUOUS
 62
     3
100
AcDbLine
 10
1844.394363249125
 20
-1228.408234274221
 30
0.0
 11
1840.817364976693
 21
-1234.19106841103
 31
0.0
  0
LINE
  5
145
330
C6
100
AcDbEntity
  8
LAYER0032
  6
CONTINUOUS
 62
     3
100
AcDbLine
 10
1840.817364976693
 20
-1234.19106841103
 30
0.0
 11
1836.851635942558
 21
-1239.811669140931
 31
0.0
  0
LINE
  5
146
330
C6
100
AcDbEntity
  8
LAYER0032
  6
CONTINUOUS
 62
     3
100
AcDbLine
 10
1836.851635942558
 20
-1239.811669140931
 30
0.0
 11
1832.79220623579
 21
-1245.405974488326
 31
0.0
  0
LINE
  5
147
330
C6
100
AcDbEntity
  8
LAYER0032
  6
CONTINUOUS
 62
     3
100
AcDbLine
 10
1832.79220623579
 20
-1245.405974488326
 30
0.0
 11
1828.934105945459
 21
-1251.109922477615
 31
0.0
  0
LINE
  5
148
330
C6
100
AcDbEntity
  8
LAYER0032
  6
CONTINUOUS
 62
     3
100
AcDbLine
 10
1828.934105945459
 20
-1251.109922477615
 30
0.0
 11
1825.533800401629
 21
-1257.041394861792
 31
0.0
  0
LINE
  5
149
330
C6
100
AcDbEntity
  8
LAYER0032
  6
CONTINUOUS
 62
     3
100
AcDbLine
 10
1825.533800401629
 20
-1257.041394861792
 30
0.0
 11
1822.598043878538
 21
-1263.2013570507
 31
0.0
  0
LINE
  5
14A
330
C6
100
AcDbEntity
  8
LAYER0032
  6
CONTINUOUS
 62
     3
100
AcDbLine
 10
1822.598043878538
 20
-1263.2013570507
 30
0.0
 11
1820.034131663592
 21
-1269.544207108594
 31
0.0
  0
LINE
  5
14B
330
C6
100
AcDbEntity
  8
LAYER0032
  6
CONTINUOUS
 62
     3
100
AcDbLine
 10
1820.034131663592
 20
-1269.544207108594
 30
0.0
 11
1817.749102679758
 21
-1276.024223068229
 31
0.0
  0
LINE
  5
14C
330
C6
100
AcDbEntity
  8
LAYER0032
  6
CONTINUOUS
 62
     3
100
AcDbLine
 10
1847.84069209589
 20
-1220.691434924842
 30
0.0
 11
1847.293591959306
 21
-1222.329942412181
 31
0.0
  0
LINE
  5
14D
330
C6
100
AcDbEntity
  8
LAYER0032
  6
CONTINUOUS
 62
     3
100
AcDbLine
 10
1816.258265568679
 20
-1280.691434924843
 30
0.0
 11
1817.749102679758
 21
-1276.024223068229
 31
0.0
  0
ENDBLK
  5
C8
330
C6
100
AcDbEntity
  8
0
100
AcDbBlockEnd
  0
BLOCK
  5
CA
330
C9
100
AcDbEntity
  8
0
100
AcDbBlockBegin
  2
*D8
 70
     1
 10
0.0
 20
0.0
 30
0.0
  3
*D8
  1

  0
LINE
  5
14E
330
C9
100
AcDbEntity
  8
LAYER0032
  6
CONTINUOUS
 62
     4
100
AcDbLine
 10
251.9949668745217
 20
-1280.691434924843
 30
0.0
 11
251.9949668745217
 21
-1220.691434924843
 31
0.0
  0
LINE
  5
14F
330
C9
100
AcDbEntity
  8
LAYER0032
  6
CONTINUOUS
 62
     4
100
AcDbLine
 10
332.1058404683445
 20
-1280.691434924843
 30
0.0
 11
231.9949668745217
 21
-1280.691434924843
 31
0.0
  0
LINE
  5
150
330
C9
100
AcDbEntity
  8
LAYER0032
  6
CONTINUOUS
 62
     4
100
AcDbLine
 10
357.1058404683445
 20
-1220.691434924843
 30
0.0
 11
231.9949668745217
 21
-1220.691434924843
 31
0.0
  0
LINE
  5
151
330
C9
100
AcDbEntity
  8
LAYER0032
  6
CONTINUOUS
 62
     4
100
AcDbLine
 10
251.9949668745217
 20
-1474.647034924844
 30
0.0
 11
251.9949668745217
 21
-1280.691434924843
 31
0.0
  0
INSERT
  5
152
330
C9
100
AcDbEntity
  8
LAYER0032
 62
     4
100
AcDbBlockReference
  2
_OPEN30
 10
251.9949668745217
 20
-1280.691434924843
 30
0.0
 41
60.00005615230571
 42
59.99978736447287
 50
90.0
  0
TEXT
  5
153
330
C9
100
AcDbEntity
  8
LAYER0032
 62
     4
100
AcDbText
 10
231.9949668745212
 20
-1454.647034924844
 30
0.0
 40
60.0
  1
60
 50
90.0
 41
1.1
  7
DCSTYLE0
 72
     5
 11
231.9949668745212
 21
-1358.647034924844
 31
0.0
100
AcDbText
  0
ENDBLK
  5
CB
330
C9
100
AcDbEntity
  8
0
100
AcDbBlockEnd
  0
BLOCK
  5
CD
330
CC
100
AcDbEntity
  8
0
100
AcDbBlockBegin
  2
*D9
 70
     1
 10
0.0
 20
0.0
 30
0.0
  3
*D9
  1

  0
LINE
  5
154
330
CC
100
AcDbEntity
  8
LAYER0032
  6
CONTINUOUS
 62
     4
100
AcDbLine
 10
251.9949668745217
 20
-1220.691434924843
 30
0.0
 11
251.9949668745217
 21
-850.691434924843
 31
0.0
  0
INSERT
  5
155
330
CC
100
AcDbEntity
  8
LAYER0032
 62
     4
100
AcDbBlockReference
  2
_OPEN30
 10
251.9949668745217
 20
-1220.691434924843
 30
0.0
 41
60.00005615230571
 42
59.99978736447287
 50
270.0
  0
INSERT
  5
156
330
CC
100
AcDbEntity
  8
LAYER0032
 62
     4
100
AcDbBlockReference
  2
_OPEN30
 10
251.9949668745217
 20
-850.691434924843
 30
0.0
 41
60.00005615230571
 42
59.99978736447287
 50
90.0
  0
LINE
  5
157
330
CC
100
AcDbEntity
  8
LAYER0032
  6
CONTINUOUS
 62
     4
100
AcDbLine
 10
357.1058404683445
 20
-1220.691434924843
 30
0.0
 11
231.9949668745217
 21
-1220.691434924843
 31
0.0
  0
LINE
  5
158
330
CC
100
AcDbEntity
  8
LAYER0032
  6
CONTINUOUS
 62
     4
100
AcDbLine
 10
389.6058404683445
 20
-850.691434924843
 30
0.0
 11
231.9949668745217
 21
-850.691434924843
 31
0.0
  0
TEXT
  5
159
330
CC
100
AcDbEntity
  8
LAYER0032
 62
     4
100
AcDbText
 10
231.9949668745212
 20
-1107.691434924844
 30
0.0
 40
60.0
  1
370
 50
90.0
 41
1.1
  7
DCSTYLE0
 72
     5
 11
231.9949668745212
 21
-963.6914349248436
 31
0.0
100
AcDbText
  0
ENDBLK
  5
CE
330
CC
100
AcDbEntity
  8
0
100
AcDbBlockEnd
  0
BLOCK
  5
D0
330
CF
100
AcDbEntity
  8
0
100
AcDbBlockBegin
  2
DC_GROUP_4
 70
     0
 10
0.0
 20
0.0
 30
0.0
  3
DC_GROUP_4
  1

  0
LINE
  5
15A
330
CF
100
AcDbEntity
  8
LAYER0032
  6
CONTINUOUS
 62
     3
100
AcDbLine
 10
1957.832337468345
 20
9.730043810459847
 30
0.0
 11
1960.719088468345
 21
4.730043810459847
 31
0.0
  0
LINE
  5
15B
330
CF
100
AcDbEntity
  8
LAYER0032
  6
CONTINUOUS
 62
     3
100
AcDbLine
 10
1960.719088468345
 20
4.730043810459847
 30
0.0
 11
1966.492591468344
 21
4.730043810459847
 31
0.0
  0
LINE
  5
15C
330
CF
100
AcDbEntity
  8
LAYER0032
  6
CONTINUOUS
 62
     3
100
AcDbLine
 10
1966.492591468344
 20
4.730043810459847
 30
0.0
 11
1969.379342468344
 21
9.730043810459847
 31
0.0
  0
LINE
  5
15D
330
CF
100
AcDbEntity
  8
LAYER0032
  6
CONTINUOUS
 62
     3
100
AcDbLine
 10
1969.379342468344
 20
9.730043810459847
 30
0.0
 11
1966.492591468344
 21
14.73004381045985
 31
0.0
  0
LINE
  5
15E
330
CF
100
AcDbEntity
  8
LAYER0032
  6
CONTINUOUS
 62
     3
100
AcDbLine
 10
1966.492591468344
 20
14.73004381045985
 30
0.0
 11
1960.719088468345
 21
14.73004381045985
 31
0.0
  0
LINE
  5
15F
330
CF
100
AcDbEntity
  8
LAYER0032
  6
CONTINUOUS
 62
     3
100
AcDbLine
 10
1960.719088468345
 20
14.73004381045985
 30
0.0
 11
1957.832337468345
 21
9.730043810459847
 31
0.0
  0
ENDBLK
  5
D1
330
CF
100
AcDbEntity
  8
0
100
AcDbBlockEnd
  0
BLOCK
  5
D3
330
D2
100
AcDbEntity
  8
0
100
AcDbBlockBegin
  2
*D11
 70
     1
 10
0.0
 20
0.0
 30
0.0
  3
*D11
  1

  0
LINE
  5
160
330
D2
100
AcDbEntity
  8
LAYER0032
  6
CONTINUOUS
 62
     4
100
AcDbLine
 10
126.2305498988317
 20
-1280.691434924843
 30
0.0
 11
126.2305498988317
 21
-850.691434924843
 31
0.0
  0
INSERT
  5
161
330
D2
100
AcDbEntity
  8
LAYER0032
 62
     4
100
AcDbBlockReference
  2
_OPEN30
 10
126.2305498988317
 20
-1280.691434924843
 30
0.0
 41
60.00005615230571
 42
59.99978736447287
 50
270.0
  0
INSERT
  5
162
330
D2
100
AcDbEntity
  8
LAYER0032
 62
     4
100
AcDbBlockReference
  2
_OPEN30
 10
126.2305498988317
 20
-850.691434924843
 30
0.0
 41
60.00005615230571
 42
59.99978736447287
 50
90.0
  0
LINE
  5
163
330
D2
100
AcDbEntity
  8
LAYER0032
  6
CONTINUOUS
 62
     4
100
AcDbLine
 10
332.1058404683445
 20
-1280.691434924843
 30
0.0
 11
106.2305498988317
 21
-1280.691434924843
 31
0.0
  0
LINE
  5
164
330
D2
100
AcDbEntity
  8
LAYER0032
  6
CONTINUOUS
 62
     4
100
AcDbLine
 10
389.6058404683445
 20
-850.691434924843
 30
0.0
 11
106.2305498988317
 21
-850.691434924843
 31
0.0
  0
TEXT
  5
165
330
D2
100
AcDbEntity
  8
LAYER0032
 62
     4
100
AcDbText
 10
106.2305498988317
 20
-1137.691434924843
 30
0.0
 40
60.0
  1
430
 50
90.0
 41
1.1
  7
DCSTYLE0
 72
     5
 11
106.2305498988317
 21
-993.6914349248427
 31
0.0
100
AcDbText
  0
ENDBLK
  5
D4
330
D2
100
AcDbEntity
  8
0
100
AcDbBlockEnd
  0
BLOCK
  5
D6
330
D5
100
AcDbEntity
  8
0
100
AcDbBlockBegin
  2
DC_GROUP_5
 70
     0
 10
0.0
 20
0.0
 30
0.0
  3
DC_GROUP_5
  1

  0
LINE
  5
166
330
D5
100
AcDbEntity
  8
LAYER0032
  6
CONTINUOUS
 62
     4
100
AcDbLine
 10
1886.226134324888
 20
-1271.22348573241
 30
0.0
 11
1729.94022615032
 21
-1526.344376837764
 31
0.0
  0
INSERT
  5
167
330
D5
100
AcDbEntity
  8
LAYER0032
 62
     4
100
AcDbBlockReference
  2
_OPEN30
 10
1886.226134324888
 20
-1271.22348573241
 30
0.0
 41
60.00005615230571
 42
59.99978736447287
 50
58.50855207800305
  0
LINE
  5
168
330
D5
100
AcDbEntity
  8
LAYER0032
  6
CONTINUOUS
 62
     4
100
AcDbLine
 10
1729.94022615032
 20
-1526.344376837764
 30
0.0
 11
1585.94022615032
 21
-1526.344376837764
 31
0.0
  0
TEXT
  5
169
330
D5
100
AcDbEntity
  8
LAYER0032
 62
     4
100
AcDbText
 10
1585.94022615032
 20
-1526.344376837764
 30
0.0
 40
60.0
  1
エルボ
 41
0.5793528133301135
  7
DCSTYLE0
 72
     5
 11
1729.94022615032
 21
-1526.344376837764
 31
0.0
100
AcDbText
  0
ENDBLK
  5
D7
330
D5
100
AcDbEntity
  8
0
100
AcDbBlockEnd
  0
BLOCK
  5
D9
330
D8
100
AcDbEntity
  8
0
100
AcDbBlockBegin
  2
DC_GROUP_6
 70
     0
 10
0.0
 20
0.0
 30
0.0
  3
DC_GROUP_6
  1

  0
LINE
  5
16A
330
D8
100
AcDbEntity
  8
LAYER0032
  6
CONTINUOUS
 62
     4
100
AcDbLine
 10
1922.605840468344
 20
-1269.723485732411
 30
0.0
 11
1772.009347871833
 21
-1631.736339036702
 31
0.0
  0
INSERT
  5
16B
330
D8
100
AcDbEntity
  8
LAYER0032
 62
     4
100
AcDbBlockReference
  2
_OPEN30
 10
1922.605840468344
 20
-1269.723485732411
 30
0.0
 41
60.00005615230571
 42
59.99978736447287
 50
67.4128047423665
  0
LINE
  5
16C
330
D8
100
AcDbEntity
  8
LAYER0032
  6
CONTINUOUS
 62
     4
100
AcDbLine
 10
1772.009347871833
 20
-1631.736339036702
 30
0.0
 11
1580.009347871833
 21
-1631.736339036702
 31
0.0
  0
TEXT
  5
16D
330
D8
100
AcDbEntity
  8
LAYER0032
 62
     4
100
AcDbText
 10
1580.009347873586
 20
-1631.736339036702
 30
0.0
 40
60.0
  1
ニップル
 41
0.6236693312536558
  7
DCSTYLE0
 72
     5
 11
1772.009347873586
 21
-1631.736339036702
 31
0.0
100
AcDbText
  0
ENDBLK
  5
DA
330
D8
100
AcDbEntity
  8
0
100
AcDbBlockEnd
  0
BLOCK
  5
DC
330
DB
100
AcDbEntity
  8
0
100
AcDbBlockBegin
  2
DC_GROUP_7
 70
     0
 10
0.0
 20
0.0
 30
0.0
  3
DC_GROUP_7
  1

  0
LINE
  5
16E
330
DB
100
AcDbEntity
  8
LAYER0032
  6
CONTINUOUS
 62
     4
100
AcDbLine
 10
1972.290443433681
 20
-1270.182757803346
 30
0.0
 11
2028.805961642912
 21
-1526.344376837764
 31
0.0
  0
INSERT
  5
16F
330
DB
100
AcDbEntity
  8
LAYER0032
 62
     4
100
AcDbBlockReference
  2
_OPEN30
 10
1972.290443433681
 20
-1270.182757803346
 30
0.0
 41
60.00005615230571
 42
59.99978736447287
 50
102.4415410781276
  0
LINE
  5
170
330
DB
100
AcDbEntity
  8
LAYER0032
  6
CONTINUOUS
 62
     4
100
AcDbLine
 10
2028.805961642912
 20
-1526.344376837764
 30
0.0
 11
2316.805961642912
 21
-1526.344376837764
 31
0.0
  0
TEXT
  5
171
330
DB
100
AcDbEntity
  8
LAYER0032
 62
     4
100
AcDbText
 10
2028.805961642912
 20
-1526.344376837764
 30
0.0
 40
60.0
  1
ボールバルブ
 41
0.5692490212362079
  7
DCSTYLE0
 72
     5
 11
2316.805961642912
 21
-1526.344376837764
 31
0.0
100
AcDbText
  0
ENDBLK
  5
DD
330
DB
100
AcDbEntity
  8
0
100
AcDbBlockEnd
  0
BLOCK
  5
DF
330
DE
100
AcDbEntity
  8
0
100
AcDbBlockBegin
  2
DC_GROUP_8
 70
     0
 10
0.0
 20
0.0
 30
0.0
  3
DC_GROUP_8
  1

  0
LINE
  5
172
330
DE
100
AcDbEntity
  8
LAYER0032
  6
CONTINUOUS
 62
     4
100
AcDbLine
 10
850.4261113174471
 20
-850.691434924843
 30
0.0
 11
699.9402261503201
 21
-721.344376837764
 31
0.0
  0
INSERT
  5
173
330
DE
100
AcDbEntity
  8
LAYER0032
 62
     4
100
AcDbBlockReference
  2
_OPEN30
 10
850.4261113174471
 20
-850.691434924843
 30
0.0
 41
60.00005615230571
 42
59.99978736447287
 50
319.3199689392983
  0
LINE
  5
174
330
DE
100
AcDbEntity
  8
LAYER0032
  6
CONTINUOUS
 62
     4
100
AcDbLine
 10
699.9402261503201
 20
-721.344376837764
 30
0.0
 11
603.9402261503197
 21
-721.344376837764
 31
0.0
  0
TEXT
  5
175
330
DE
100
AcDbEntity
  8
LAYER0032
 62
     4
100
AcDbText
 10
603.9402261503201
 20
-721.344376837764
 30
0.0
 40
60.0
  1
本体
 41
0.55
  7
DCSTYLE0
 72
     5
 11
699.9402261503201
 21
-721.344376837764
 31
0.0
100
AcDbText
  0
ENDBLK
  5
E0
330
DE
100
AcDbEntity
  8
0
100
AcDbBlockEnd
  0
BLOCK
  5
E2
330
E1
100
AcDbEntity
  8
0
100
AcDbBlockBegin
  2
DC_GROUP_9
 70
     0
 10
0.0
 20
0.0
 30
0.0
  3
DC_GROUP_9
  1

  0
LINE
  5
176
330
E1
100
AcDbEntity
  8
LAYER0032
  6
CONTINUOUS
 62
     4
100
AcDbLine
 10
850.4261113174471
 20
-1280.691434924843
 30
0.0
 11
699.9402261503201
 21
-1526.344376837764
 31
0.0
  0
INSERT
  5
177
330
E1
100
AcDbEntity
  8
LAYER0032
 62
     4
100
AcDbBlockReference
  2
_OPEN30
 10
850.4261113174471
 20
-1280.691434924843
 30
0.0
 41
60.00005615230571
 42
59.99978736447287
 50
58.50855207800298
  0
LINE
  5
178
330
E1
100
AcDbEntity
  8
LAYER0032
  6
CONTINUOUS
 62
     4
100
AcDbLine
 10
699.9402261503201
 20
-1526.344376837764
 30
0.0
 11
603.9402261503197
 21
-1526.344376837764
 31
0.0
  0
TEXT
  5
179
330
E1
100
AcDbEntity
  8
LAYER0032
 62
     4
100
AcDbText
 10
603.9402261503201
 20
-1526.344376837764
 30
0.0
 40
60.0
  1
架台
 41
0.55
  7
DCSTYLE0
 72
     5
 11
699.9402261503201
 21
-1526.344376837764
 31
0.0
100
AcDbText
  0
ENDBLK
  5
E3
330
E1
100
AcDbEntity
  8
0
100
AcDbBlockEnd
  0
BLOCK
  5
E5
330
E4
100
AcDbEntity
  8
0
100
AcDbBlockBegin
  2
DC_GROUP_10
 70
     0
 10
0.0
 20
0.0
 30
0.0
  3
DC_GROUP_10
  1

  0
LINE
  5
17A
330
E4
100
AcDbEntity
  8
LAYER0032
  6
CONTINUOUS
 62
     4
100
AcDbLine
 10
2115.208644809682
 20
1487.594206170475
 30
0.0
 11
2184.565316618016
 21
1525.458311410024
 31
0.0
  0
INSERT
  5
17B
330
E4
100
AcDbEntity
  8
LAYER0032
 62
     4
100
AcDbBlockReference
  2
_OPEN30
 10
2115.208644809682
 20
1487.594206170475
 30
0.0
 41
60.00005615230571
 42
59.99978736447287
 50
208.631588898706
  0
LINE
  5
17C
330
E4
100
AcDbEntity
  8
LAYER0032
  6
CONTINUOUS
 62
     4
100
AcDbLine
 10
2184.565316618016
 20
1525.458311410024
 30
0.0
 11
2408.565316618016
 21
1525.458311410024
 31
0.0
  0
TEXT
  5
17D
330
E4
100
AcDbEntity
  8
LAYER0032
 62
     2
100
AcDbText
 10
2184.565316618016
 20
1525.458311410024
 30
0.0
 40
70.0
  1
タンク脚
 41
0.6407852564102564
  7
DCSTYLE0
 72
     5
 11
2408.565316618016
 21
1525.458311410024
 31
0.0
100
AcDbText
  0
ENDBLK
  5
E6
330
E4
100
AcDbEntity
  8
0
100
AcDbBlockEnd
  0
BLOCK
  5
E8
330
E7
100
AcDbEntity
  8
0
100
AcDbBlockBegin
  2
DC_GROUP_11
 70
     0
 10
0.0
 20
0.0
 30
0.0
  3
DC_GROUP_11
  1

  0
LINE
  5
17E
330
E7
100
AcDbEntity
  8
LAYER0032
  6
CONTINUOUS
 62
     4
100
AcDbLine
 10
2155.03920848025
 20
1128.95537010513
 30
0.0
 11
2259.936408868239
 21
1197.372380438468
 31
0.0
  0
INSERT
  5
17F
330
E7
100
AcDbEntity
  8
LAYER0032
 62
     4
100
AcDbBlockReference
  2
_OPEN30
 10
2155.03920848025
 20
1128.95537010513
 30
0.0
 41
60.00005615230571
 42
59.99978736447287
 50
213.1135617524639
  0
LINE
  5
180
330
E7
100
AcDbEntity
  8
LAYER0032
  6
CONTINUOUS
 62
     4
100
AcDbLine
 10
2259.936408868239
 20
1197.372380438468
 30
0.0
 11
2427.93640886824
 21
1197.372380438468
 31
0.0
  0
TEXT
  5
181
330
E7
100
AcDbEntity
  8
LAYER0032
 62
     2
100
AcDbText
 10
2259.936408868239
 20
1197.372380438468
 30
0.0
 40
70.0
  1
防油堤
 41
0.55
  7
DCSTYLE0
 72
     5
 11
2427.936408868239
 21
1197.372380438468
 31
0.0
100
AcDbText
  0
ENDBLK
  5
E9
330
E7
100
AcDbEntity
  8
0
100
AcDbBlockEnd
  0
BLOCK
  5
EB
330
EA
100
AcDbEntity
  8
0
100
AcDbBlockBegin
  2
DC_GROUP_12
 70
     0
 10
0.0
 20
0.0
 30
0.0
  3
DC_GROUP_12
  1

  0
LINE
  5
182
330
EA
100
AcDbEntity
  8
LAYER0032
  6
CONTINUOUS
 62
     4
100
AcDbLine
 10
2093.712799303831
 20
1576.415473905267
 30
0.0
 11
2148.458544314313
 21
1656.988256709432
 31
0.0
  0
INSERT
  5
183
330
EA
100
AcDbEntity
  8
LAYER0032
 62
     4
100
AcDbBlockReference
  2
_OPEN30
 10
2093.712799303831
 20
1576.415473905267
 30
0.0
 41
60.00005615230571
 42
59.99978736447287
 50
235.8055757765938
  0
LINE
  5
184
330
EA
100
AcDbEntity
  8
LAYER0032
  6
CONTINUOUS
 62
     4
100
AcDbLine
 10
2148.458544314313
 20
1656.988256709432
 30
0.0
 11
2428.458544314313
 21
1656.988256709432
 31
0.0
  0
TEXT
  5
185
330
EA
100
AcDbEntity
  8
LAYER0032
 62
     2
100
AcDbText
 10
2148.458544314313
 20
1656.988256709432
 30
0.0
 40
70.0
  1
ワッシャ－
 41
0.6280037694361552
  7
DCSTYLE0
 72
     5
 11
2428.458544314313
 21
1656.988256709432
 31
0.0
100
AcDbText
  0
ENDBLK
  5
EC
330
EA
100
AcDbEntity
  8
0
100
AcDbBlockEnd
  0
BLOCK
  5
EE
330
ED
100
AcDbEntity
  8
0
100
AcDbBlockBegin
  2
DC_GROUP_13
 70
     0
 10
0.0
 20
0.0
 30
0.0
  3
DC_GROUP_13
  1

  0
LINE
  5
186
330
ED
100
AcDbEntity
  8
LAYER0032
  6
CONTINUOUS
 62
     4
100
AcDbLine
 10
2065.962799303831
 20
1729.415473905257
 30
0.0
 11
2158.408217284664
 21
1796.158021925407
 31
0.0
  0
INSERT
  5
187
330
ED
100
AcDbEntity
  8
LAYER0032
 62
     4
100
AcDbBlockReference
  2
_OPEN30
 10
2065.962799303831
 20
1729.415473905257
 30
0.0
 41
60.00005615230571
 42
59.99978736447287
 50
215.8280442661013
  0
LINE
  5
188
330
ED
100
AcDbEntity
  8
LAYER0032
  6
CONTINUOUS
 62
     4
100
AcDbLine
 10
2158.408217284664
 20
1796.158021925407
 30
0.0
 11
2438.408217284664
 21
1796.158021925407
 31
0.0
  0
TEXT
  5
189
330
ED
100
AcDbEntity
  8
LAYER0032
 62
     2
100
AcDbText
 10
2158.408217284664
 20
1796.158021925407
 30
0.0
 40
70.0
  1
六角ボルト
 41
0.59759378269317
  7
DCSTYLE0
 72
     5
 11
2438.408217284664
 21
1796.158021925407
 31
0.0
100
AcDbText
  0
ENDBLK
  5
EF
330
ED
100
AcDbEntity
  8
0
100
AcDbBlockEnd
  0
BLOCK
  5
F1
330
F0
100
AcDbEntity
  8
0
100
AcDbBlockBegin
  2
*D21
 70
     1
 10
0.0
 20
0.0
 30
0.0
  3
*D21
  1

  0
LINE
  5
18A
330
F0
100
AcDbEntity
  8
LAYER0032
  6
CONTINUOUS
 62
     4
100
AcDbLine
 10
497.1058404683445
 20
429.7300438104602
 30
0.0
 11
497.1058404683445
 21
608.6847763962505
 31
0.0
  0
LINE
  5
18B
330
F0
100
AcDbEntity
  8
LAYER0032
  6
CONTINUOUS
 62
     4
100
AcDbLine
 10
1837.105840468344
 20
429.7300438104602
 30
0.0
 11
1837.105840468344
 21
608.6847763962505
 31
0.0
  0
LINE
  5
18C
330
F0
100
AcDbEntity
  8
LAYER0032
  6
CONTINUOUS
 62
     4
100
AcDbLine
 10
497.1058404683445
 20
588.6847763962505
 30
0.0
 11
1837.105840468344
 21
588.6847763962505
 31
0.0
  0
INSERT
  5
18D
330
F0
100
AcDbEntity
  8
LAYER0032
 62
     4
100
AcDbBlockReference
  2
_OPEN30
 10
497.1058404683445
 20
588.6847763962505
 30
0.0
 41
60.00005615230571
 42
59.99978736447287
 50
180.0
  0
INSERT
  5
18E
330
F0
100
AcDbEntity
  8
LAYER0032
 62
     4
100
AcDbBlockReference
  2
_OPEN30
 10
1837.105840468344
 20
588.6847763962505
 30
0.0
 41
60.00005615230571
 42
59.99978736447287
 50
360.0
  0
TEXT
  5
18F
330
F0
100
AcDbEntity
  8
LAYER0032
 62
     4
100
AcDbText
 10
1071.105840468344
 20
608.6847763962485
 30
0.0
 40
60.0
  1
1340
 41
1.1
  7
DCSTYLE0
 72
     5
 11
1263.105840468344
 21
608.6847763962485
 31
0.0
100
AcDbText
  0
ENDBLK
  5
F2
330
F0
100
AcDbEntity
  8
0
100
AcDbBlockEnd
  0
BLOCK
  5
F4
330
F3
100
AcDbEntity
  8
0
100
AcDbBlockBegin
  2
DC_GROUP_14
 70
     0
 10
0.0
 20
0.0
 30
0.0
  3
DC_GROUP_14
  1

  0
LINE
  5
190
330
F3
100
AcDbEntity
  8
LAYER0048
  6
CONTINUOUS
 62
     3
100
AcDbLine
 10
2156.151359830661
 20
681.3500898630213
 30
0.0
 11
2261.56713221164
 21
786.7658622440007
 31
0.0
  0
LINE
  5
191
330
F3
100
AcDbEntity
  8
LAYER0048
  6
CONTINUOUS
 62
     3
100
AcDbLine
 10
2158.91486549516
 20
712.3978667749833
 30
0.0
 11
2264.235230204274
 21
817.7182314840968
 31
0.0
  0
LINE
  5
192
330
F3
100
AcDbEntity
  8
LAYER0048
  6
CONTINUOUS
 62
     3
100
AcDbLine
 10
2161.323119878446
 20
743.0903924057299
 30
0.0
 11
2266.291027178365
 21
848.0582997056496
 31
0.0
  0
LINE
  5
193
330
F3
100
AcDbEntity
  8
LAYER0048
  6
CONTINUOUS
 62
     3
100
AcDbLine
 10
2163.388872190285
 20
773.440415965031
 30
0.0
 11
2267.771556144278
 21
877.8230999190248
 31
0.0
  0
LINE
  5
194
330
F3
100
AcDbEntity
  8
LAYER0048
  6
CONTINUOUS
 62
     3
100
AcDbLine
 10
2165.124023151065
 20
803.459838173273
 30
0.0
 11
2268.709756278005
 21
907.0455713002141
 31
0.0
  0
LINE
  5
195
330
F3
100
AcDbEntity
  8
LAYER0048
  6
CONTINUOUS
 62
     3
100
AcDbLine
 10
2299.145597617194
 20
937.4814126394028
 30
0.0
 11
2310.9428676354
 21
949.2786826576084
 31
0.0
  0
LINE
  5
196
330
F3
100
AcDbEntity
  8
LAYER0048
  6
CONTINUOUS
 62
     3
100
AcDbLine
 10
2166.539701929958
 20
833.1597881996286
 30
0.0
 11
2269.135078506857
 21
935.7551647765276
 31
0.0
  0
LINE
  5
197
330
F3
100
AcDbEntity
  8
LAYER0048
  6
CONTINUOUS
 62
     3
100
AcDbLine
 10
2270.861326369732
 20
937.4814126394026
 30
0.0
 11
2296.518270827811
 21
963.1383570974824
 31
0.0
  0
LINE
  5
198
330
F3
100
AcDbEntity
  8
LAYER0048
  6
CONTINUOUS
 62
     3
100
AcDbLine
 10
2167.64633429456
 20
862.5506918116923
 30
0.0
 11
2282.093674020222
 21
976.9980315373559
 31
0.0
  0
LINE
  5
199
330
F3
100
AcDbEntity
  8
LAYER0048
  6
CONTINUOUS
 62
     3
100
AcDbLine
 10
2168.453703170454
 20
891.6423319350497
 30
0.0
 11
2267.669077212634
 21
990.8577059772296
 31
0.0
  0
LINE
  5
19A
330
F3
100
AcDbEntity
  8
LAYER0048
  6
CONTINUOUS
 62
     3
100
AcDbLine
 10
2168.971002620548
 20
920.4439026326042
 30
0.0
 11
2253.244480405046
 21
1004.717380417103
 31
0.0
  0
LINE
  5
19B
330
F3
100
AcDbEntity
  8
LAYER0048
  6
CONTINUOUS
 62
     3
100
AcDbLine
 10
2157.724241379885
 20
937.4814126394045
 30
0.0
 11
2238.819883597457
 21
1018.577054856976
 31
0.0
  0
LINE
  5
19C
330
F3
100
AcDbEntity
  8
LAYER0048
  6
CONTINUOUS
 62
     3
100
AcDbLine
 10
2129.439970132423
 20
937.4814126394042
 30
0.0
 11
2224.395286789869
 21
1032.43672929685
 31
0.0
  0
LINE
  5
19D
330
F3
100
AcDbEntity
  8
LAYER0048
  6
CONTINUOUS
 62
     3
100
AcDbLine
 10
1857.405199118257
 20
354.3196579031548
 30
0.0
 11
1857.442748527842
 21
354.3572073127411
 31
0.0
  0
LINE
  5
19E
330
F3
100
AcDbEntity
  8
LAYER0048
  6
CONTINUOUS
 62
     3
100
AcDbLine
 10
2153.018918030012
 20
649.9333768149103
 30
0.0
 11
2258.244857460752
 21
755.1593162456498
 31
0.0
  0
LINE
  5
19F
330
F3
100
AcDbEntity
  8
LAYER0048
  6
CONTINUOUS
 62
     3
100
AcDbLine
 10
1866.173296546428
 20
334.8034840838641
 30
0.0
 11
1866.783230718072
 21
335.4134182555078
 31
0.0
  0
LINE
  5
1A0
330
F3
100
AcDbEntity
  8
LAYER0048
  6
CONTINUOUS
 62
     3
100
AcDbLine
 10
2149.502820507265
 20
618.1330080447016
 30
0.0
 11
2254.220751413288
 21
722.8509389507245
 31
0.0
  0
LINE
  5
1A1
330
F3
100
AcDbEntity
  8
LAYER0048
  6
CONTINUOUS
 62
     3
100
AcDbLine
 10
1876.949723347859
 20
317.2956396378336
 30
0.0
 11
1878.474022709116
 21
318.8199389990905
 31
0.0
  0
LINE
  5
1A2
330
F3
100
AcDbEntity
  8
LAYER0048
  6
CONTINUOUS
 62
     3
100
AcDbLine
 10
2145.587199866746
 20
585.9331161567197
 30
0.0
 11
2249.44019678902
 21
689.7861130789948
 31
0.0
  0
LINE
  5
1A3
330
F3
100
AcDbEntity
  8
LAYER0048
  6
CONTINUOUS
 62
     3
100
AcDbLine
 10
1889.557232557944
 20
301.6188776004565
 30
0.0
 11
1892.331098305355
 21
304.3927433478678
 31
0.0
  0
LINE
  5
1A4
330
F3
100
AcDbEntity
  8
LAYER0048
  6
CONTINUOUS
 62
     3
100
AcDbLine
 10
2141.254911332902
 20
553.3165563754148
 30
0.0
 11
2243.840096280283
 21
655.901741322795
 31
0.0
  0
LINE
  5
1A5
330
F3
100
AcDbEntity
  8
LAYER0048
  6
CONTINUOUS
 62
     3
100
AcDbLine
 10
1903.922029124334
 20
287.6994029193837
 30
0.0
 11
1908.334352342069
 21
292.1117261371199
 31
0.0
  0
LINE
  5
1A6
330
F3
100
AcDbEntity
  8
LAYER0048
  6
CONTINUOUS
 62
     3
100
AcDbLine
 10
2136.48738364445
 20
520.2647574395006
 30
0.0
 11
2237.346899226933
 21
621.1242730219826
 31
0.0
  0
LINE
  5
1A7
330
F3
100
AcDbEntity
  8
LAYER0048
  6
CONTINUOUS
 62
     3
100
AcDbLine
 10
1920.054566847371
 20
275.5476693949596
 30
0.0
 11
1926.619832745282
 21
282.1129352928706
 31
0.0
  0
LINE
  5
1A8
330
F3
100
AcDbEntity
  8
LAYER0048
  6
CONTINUOUS
 62
     3
100
AcDbLine
 10
2131.264446680428
 20
486.7575492280163
 30
0.0
 11
2229.873992239911
 21
585.3670947874997
 31
0.0
  0
LINE
  5
1A9
330
F3
100
AcDbEntity
  8
LAYER0048
  6
CONTINUOUS
 62
     3
100
AcDbLine
 10
1938.052153297481
 20
265.2609845976079
 30
0.0
 11
1947.535997559308
 21
274.7448288594342
 31
0.0
  0
LINE
  5
1AA
330
F3
100
AcDbEntity
  8
LAYER0048
  6
CONTINUOUS
 62
     3
100
AcDbLine
 10
2125.564131211612
 20
452.7729625117387
 30
0.0
 11
2221.318183110627
 21
548.5270144107534
 31
0.0
  0
LINE
  5
1AB
330
F3
100
AcDbEntity
  8
LAYER0048
  6
CONTINUOUS
 62
     3
100
AcDbLine
 10
1958.125036279134
 20
257.0495963317987
 30
0.0
 11
1971.830997702866
 21
270.755557755531
 31
0.0
  0
LINE
  5
1AC
330
F3
100
AcDbEntity
  8
LAYER0048
  6
CONTINUOUS
 62
     3
100
AcDbLine
 10
2119.362435051214
 20
418.2869951038787
 30
0.0
 11
2211.554859499334
 21
510.479419551998
 31
0.0
  0
LINE
  5
1AD
330
F3
100
AcDbEntity
  8
LAYER0048
  6
CONTINUOUS
 62
     3
100
AcDbLine
 10
1980.664797805696
 20
251.3050866108976
 30
0.0
 11
2001.321722317793
 21
271.9620111229954
 31
0.0
  0
LINE
  5
1AE
330
F3
100
AcDbEntity
  8
LAYER0048
  6
CONTINUOUS
 62
     3
100
AcDbLine
 10
2112.63304843292
 20
383.2733372381225
 30
0.0
 11
2112.791405963494
 21
383.4316947686963
 31
0.0
  0
LINE
  5
1AF
330
F3
100
AcDbEntity
  8
LAYER0048
  6
CONTINUOUS
 62
     3
100
AcDbLine
 10
2006.421475246923
 20
248.7774928046629
 30
0.0
 11
2043.63257835165
 21
285.9885959093901
 31
0.0
  0
LINE
  5
1B0
330
F3
100
AcDbEntity
  8
LAYER0048
  6
CONTINUOUS
 62
     3
100
AcDbLine
 10
2098.764821177099
 20
341.1208387348393
 30
0.0
 11
2187.756008744951
 21
430.1120263026922
 31
0.0
  0
LINE
  5
1B1
330
F3
100
AcDbEntity
  8
LAYER0048
  6
CONTINUOUS
 62
     3
100
AcDbLine
 10
2037.072689281038
 20
251.1444355913166
 30
0.0
 11
2173.285217453335
 21
387.3569637636126
 31
0.0
  0
LINE
  5
1B2
330
F3
100
AcDbEntity
  8
LAYER0048
  6
CONTINUOUS
 62
     3
100
AcDbLine
 10
2078.436914504859
 20
264.2243895676755
 30
0.0
 11
2155.943669278686
 21
341.7311443415024
 31
0.0
  0
ENDBLK
  5
F5
330
F3
100
AcDbEntity
  8
0
100
AcDbBlockEnd
  0
BLOCK
  5
F7
330
F6
100
AcDbEntity
  8
0
100
AcDbBlockBegin
  2
*D23
 70
     1
 10
0.0
 20
0.0
 30
0.0
  3
*D23
  1

  0
LINE
  5
1B3
330
F6
100
AcDbEntity
  8
LAYER0032
  6
CONTINUOUS
 62
     4
100
AcDbLine
 10
332.105840468344
 20
364.2300438104584
 30
0.0
 11
231.9949668745217
 21
364.2300438104584
 31
0.0
  0
LINE
  5
1B4
330
F6
100
AcDbEntity
  8
LAYER0032
  6
CONTINUOUS
 62
     4
100
AcDbLine
 10
332.105840468344
 20
-344.7699561895416
 30
0.0
 11
231.9949668745217
 21
-344.7699561895416
 31
0.0
  0
LINE
  5
1B5
330
F6
100
AcDbEntity
  8
LAYER0032
  6
CONTINUOUS
 62
     4
100
AcDbLine
 10
251.9949668745217
 20
364.2300438104584
 30
0.0
 11
251.9949668745217
 21
-344.7699561895416
 31
0.0
  0
INSERT
  5
1B6
330
F6
100
AcDbEntity
  8
LAYER0032
 62
     4
100
AcDbBlockReference
  2
_OPEN30
 10
251.9949668745217
 20
364.2300438104584
 30
0.0
 41
60.00005615230571
 42
59.99978736447287
 50
90.0
  0
INSERT
  5
1B7
330
F6
100
AcDbEntity
  8
LAYER0032
 62
     4
100
AcDbBlockReference
  2
_OPEN30
 10
251.9949668745217
 20
-344.7699561895416
 30
0.0
 41
60.00005615230571
 42
59.99978736447287
 50
270.0
  0
TEXT
  5
1B8
330
F6
100
AcDbEntity
  8
LAYER0032
 62
     4
100
AcDbText
 10
231.9949668745217
 20
-62.2699561895443
 30
0.0
 40
60.0
  1
709
 50
90.0
 41
1.1
  7
DCSTYLE0
 72
     5
 11
231.9949668745217
 21
81.7300438104557
 31
0.0
100
AcDbText
  0
ENDBLK
  5
F8
330
F6
100
AcDbEntity
  8
0
100
AcDbBlockEnd
  0
BLOCK
  5
FA
330
F9
100
AcDbEntity
  8
0
100
AcDbBlockBegin
  2
DC_GROUP_15
 70
     0
 10
0.0
 20
0.0
 30
0.0
  3
DC_GROUP_15
  1

  0
LINE
  5
1B9
330
F9
100
AcDbEntity
  8
LAYER0032
  6
CONTINUOUS
 62
     4
100
AcDbLine
 10
1957.105840468344
 20
-351.7699561895417
 30
0.0
 11
2013.391748642912
 21
-610.8908472948945
 31
0.0
  0
INSERT
  5
1BA
330
F9
100
AcDbEntity
  8
LAYER0032
 62
     4
100
AcDbBlockReference
  2
_OPEN30
 10
1957.105840468344
 20
-351.7699561895417
 30
0.0
 41
60.00005615230571
 42
59.99978736447287
 50
102.2553312357333
  0
LINE
  5
1BB
330
F9
100
AcDbEntity
  8
LAYER0032
  6
CONTINUOUS
 62
     4
100
AcDbLine
 10
2013.391748642912
 20
-610.8908472948945
 30
0.0
 11
2253.391748642911
 21
-610.8908472948945
 31
0.0
  0
TEXT
  5
1BC
330
F9
100
AcDbEntity
  8
LAYER0032
 62
     4
100
AcDbText
 10
2013.391748642912
 20
-610.8908472948945
 30
0.0
 40
60.0
  1
４－φ１４
 41
0.6788624787775892
  7
DCSTYLE0
 72
     5
 11
2253.391748642912
 21
-610.8908472948945
 31
0.0
100
AcDbText
  0
ENDBLK
  5
FB
330
F9
100
AcDbEntity
  8
0
100
AcDbBlockEnd
  0
BLOCK
  5
FD
330
FC
100
AcDbEntity
  8
0
100
AcDbBlockBegin
  2
*D25
 70
     1
 10
0.0
 20
0.0
 30
0.0
  3
*D25
  1

  0
LINE
  5
1BD
330
FC
100
AcDbEntity
  8
LAYER0032
  6
CONTINUOUS
 62
     4
100
AcDbLine
 10
713.5871827706059
 20
-360.2699561895408
 30
0.0
 11
713.5871827706059
 21
379.7300438104594
 31
0.0
  0
INSERT
  5
1BE
330
FC
100
AcDbEntity
  8
LAYER0032
 62
     4
100
AcDbBlockReference
  2
_OPEN30
 10
713.5871827706059
 20
-360.2699561895408
 30
0.0
 41
60.00005615230571
 42
59.99978736447287
 50
270.0
  0
INSERT
  5
1BF
330
FC
100
AcDbEntity
  8
LAYER0032
 62
     4
100
AcDbBlockReference
  2
_OPEN30
 10
713.5871827706059
 20
379.7300438104594
 30
0.0
 41
60.00005615230571
 42
59.99978736447287
 50
90.0
  0
LINE
  5
1C0
330
FC
100
AcDbEntity
  8
LAYER0032
  6
CONTINUOUS
 62
     4
100
AcDbLine
 10
548.6675198028101
 20
-360.2699561895408
 30
0.0
 11
733.5871827706059
 21
-360.2699561895408
 31
0.0
  0
LINE
  5
1C1
330
FC
100
AcDbEntity
  8
LAYER0032
  6
CONTINUOUS
 62
     4
100
AcDbLine
 10
548.6675198028101
 20
379.7300438104594
 30
0.0
 11
733.5871827706059
 21
379.7300438104594
 31
0.0
  0
TEXT
  5
1C2
330
FC
100
AcDbEntity
  8
LAYER0032
 62
     4
100
AcDbText
 10
693.5871827706055
 20
-62.26995618954078
 30
0.0
 40
60.0
  1
740
 50
90.0
 41
1.1
  7
DCSTYLE0
 72
     5
 11
693.5871827706055
 21
81.73004381045922
 31
0.0
100
AcDbText
  0
ENDBLK
  5
FE
330
FC
100
AcDbEntity
  8
0
100
AcDbBlockEnd
  0
BLOCK
  5
100
330
FF
100
AcDbEntity
  8
0
100
AcDbBlockBegin
  2
DC_GROUP_16
 70
     0
 10
0.0
 20
0.0
 30
0.0
  3
DC_GROUP_16
  1

  0
LINE
  5
1C3
330
FF
100
AcDbEntity
  8
LAYER0032
  6
CONTINUOUS
 62
     4
100
AcDbLine
 10
2155.964195312318
 20
1377.967812118437
 30
0.0
 11
2242.501891139578
 21
1385.061178787061
 31
0.0
  0
INSERT
  5
1C4
330
FF
100
AcDbEntity
  8
LAYER0032
 62
     4
100
AcDbBlockReference
  2
_OPEN30
 10
2155.964195312318
 20
1377.967812118437
 30
0.0
 41
60.00005615230571
 42
59.99978736447287
 50
184.6859740987214
  0
LINE
  5
1C5
330
FF
100
AcDbEntity
  8
LAYER0032
  6
CONTINUOUS
 62
     4
100
AcDbLine
 10
2242.501891139578
 20
1385.061178787061
 30
0.0
 11
2410.501891139578
 21
1385.061178787061
 31
0.0
  0
TEXT
  5
1C6
330
FF
100
AcDbEntity
  8
LAYER0032
 62
     2
100
AcDbText
 10
2242.501891139578
 20
1385.061178787061
 30
0.0
 40
70.0
  1
樹脂板
 41
0.55
  7
DCSTYLE0
 72
     5
 11
2410.501891139578
 21
1385.061178787061
 31
0.0
100
AcDbText
  0
ENDBLK
  5
101
330
FF
100
AcDbEntity
  8
0
100
AcDbBlockEnd
  0
BLOCK
  5
103
330
102
100
AcDbEntity
  8
0
100
AcDbBlockBegin
  2
DC_GROUP_17
 70
     0
 10
0.0
 20
0.0
 30
0.0
  3
DC_GROUP_17
  1

  0
LINE
  5
1C7
330
102
100
AcDbEntity
  8
LAYER0032
  6
CONTINUOUS
 62
     4
100
AcDbLine
 10
497.9471788015226
 20
-366.7699561895399
 30
0.0
 11
554.2330869760908
 21
-625.8908472948935
 31
0.0
  0
INSERT
  5
1C8
330
102
100
AcDbEntity
  8
LAYER0032
 62
     4
100
AcDbBlockReference
  2
_OPEN30
 10
497.9471788015226
 20
-366.7699561895399
 30
0.0
 41
60.00005615230571
 42
59.99978736447287
 50
102.2553312357333
  0
LINE
  5
1C9
330
102
100
AcDbEntity
  8
LAYER0032
  6
CONTINUOUS
 62
     4
100
AcDbLine
 10
554.2330869760908
 20
-625.8908472948935
 30
0.0
 11
1034.233086976091
 21
-625.8908472948935
 31
0.0
  0
TEXT
  5
1CA
330
102
100
AcDbEntity
  8
LAYER0032
 62
     4
100
AcDbText
 10
554.2330869760908
 20
-625.8908472948935
 30
0.0
 40
60.0
  1
4－Ｍ１2×１．7５
 41
0.7693861843371177
  7
DCSTYLE0
 72
     5
 11
1034.233086976091
 21
-625.8908472948935
 31
0.0
100
AcDbText
  0
ENDBLK
  5
104
330
102
100
AcDbEntity
  8
0
100
AcDbBlockEnd
  0
BLOCK
  5
129
330
128
100
AcDbEntity
  8
0
100
AcDbBlockBegin
  2
_OPEN30
 70
     0
 10
0.0
 20
0.0
 30
0.0
  3
_OPEN30
  1

  0
LINE
  5
12B
330
128
100
AcDbEntity
  8
0
  6
BYBLOCK
 62
     0
100
AcDbLine
 10
-1.0
 20
0.267949
 30
0.0
 11
0.0
 21
0.0
 31
0.0
  0
LINE
  5
12C
330
128
100
AcDbEntity
  8
0
  6
BYBLOCK
 62
     0
100
AcDbLine
 10
0.0
 20
0.0
 30
0.0
 11
-1.0
 21
-0.267949
 31
0.0
  0
LINE
  5
12D
330
128
100
AcDbEntity
  8
0
  6
BYBLOCK
 62
     0
100
AcDbLine
 10
0.0
 20
0.0
 30
0.0
 11
-1.0
 21
0.0
 31
0.0
  0
ENDBLK
  5
12A
330
128
100
AcDbEntity
  8
0
100
AcDbBlockEnd
  0
ENDSEC
  0
SECTION
  2
ENTITIES
  0
LINE
  5
1CB
330
1F
100
AcDbEntity
  8
LAYER0048
  6
CONTINUOUS
 62
     7
100
AcDbLine
 10
-2570.0
 20
1985.999999999999
 30
0.0
 11
2570.0
 21
1986.0
 31
0.0
  0
LINE
  5
1CC
330
1F
100
AcDbEntity
  8
LAYER0048
  6
CONTINUOUS
 62
     7
100
AcDbLine
 10
2570.0
 20
1986.0
 30
0.0
 11
2570.0
 21
-1878.000000000001
 31
0.0
  0
LINE
  5
1CD
330
1F
100
AcDbEntity
  8
LAYER0048
  6
CONTINUOUS
 62
     7
100
AcDbLine
 10
-2570.0
 20
-1878.000000000001
 30
0.0
 11
-2570.0
 21
1986.0
 31
0.0
  0
LINE
  5
1CE
330
1F
100
AcDbEntity
  8
LAYER0048
  6
CONTINUOUS
 62
     7
100
AcDbLine
 10
-2253.770102348984
 20
1208.329753864357
 30
0.0
 11
-253.7701023489842
 21
1208.329753864359
 31
0.0
  0
LINE
  5
1CF
330
1F
100
AcDbEntity
  8
LAYER0048
  6
CONTINUOUS
 62
     7
100
AcDbLine
 10
-253.7701023489842
 20
1496.329753864359
 30
0.0
 11
-253.7701023489842
 21
-311.6702461356422
 31
0.0
  0
LINE
  5
1D0
330
1F
100
AcDbEntity
  8
LAYER0048
  6
CONTINUOUS
 62
     7
100
AcDbLine
 10
-253.7701023489842
 20
-103.6702461356422
 30
0.0
 11
-2253.770102348984
 21
-103.6702461356422
 31
0.0
  0
LINE
  5
1D1
330
1F
100
AcDbEntity
  8
LAYER0048
  6
CONTINUOUS
 62
     7
100
AcDbLine
 10
-2253.770102348984
 20
-311.6702461356422
 30
0.0
 11
-2253.770102348984
 21
1496.329753864359
 31
0.0
  0
LINE
  5
1D2
330
1F
100
AcDbEntity
  8
LAYER0048
  6
CONTINUOUS
 62
     7
100
AcDbLine
 10
-2253.770102348984
 20
1080.329753864358
 30
0.0
 11
-253.7701023489842
 21
1080.329753864359
 31
0.0
  0
LINE
  5
1D3
330
1F
100
AcDbEntity
  8
LAYER0048
  6
CONTINUOUS
 62
     7
100
AcDbLine
 10
-2253.770102348984
 20
488.3297538643578
 30
0.0
 11
-253.7701023489839
 21
488.3297538643585
 31
0.0
  0
LINE
  5
1D4
330
1F
100
AcDbEntity
  8
LAYER0048
  6
CONTINUOUS
 62
     7
100
AcDbLine
 10
-1813.770102348984
 20
-311.6702461356422
 30
0.0
 11
-1813.770102348984
 21
1080.329753864358
 31
0.0
  0
LINE
  5
1D5
330
1F
100
AcDbEntity
  8
LAYER0048
  6
CONTINUOUS
 62
     7
100
AcDbLine
 10
-2253.770102348984
 20
1368.329753864357
 30
0.0
 11
-253.7701023489842
 21
1368.329753864359
 31
0.0
  0
LINE
  5
1D6
330
1F
100
AcDbEntity
  8
LAYER0048
  6
CONTINUOUS
 62
     7
100
AcDbLine
 10
-2253.770102348984
 20
1496.329753864358
 30
0.0
 11
-253.7701023489842
 21
1496.329753864359
 31
0.0
  0
LINE
  5
1D7
330
1F
100
AcDbEntity
  8
LAYER0048
  6
CONTINUOUS
 62
     7
100
AcDbLine
 10
2570.0
 20
-1878.000000000001
 30
0.0
 11
-2570.0
 21
-1878.000000000001
 31
0.0
  0
LINE
  5
1D8
330
1F
100
AcDbEntity
  8
LAYER0048
  6
CONTINUOUS
 62
     7
100
AcDbLine
 10
-253.7701023489842
 20
-311.6702461356422
 30
0.0
 11
-2253.770102348984
 21
-311.6702461356422
 31
0.0
  0
LINE
  5
1D9
330
1F
100
AcDbEntity
  8
LAYER0048
  6
CONTINUOUS
 62
     7
100
AcDbLine
 10
-2194.034537186963
 20
-1640.663994023791
 30
0.0
 11
-2189.54804626303
 21
-1636.177503099858
 31
0.0
  0
LINE
  5
1DA
330
1F
100
AcDbEntity
  8
LAYER0048
  6
CONTINUOUS
 62
     7
100
AcDbLine
 10
-2195.962916506674
 20
-1643.7237441934
 30
0.0
 11
-2186.488296093422
 21
-1634.249123780148
 31
0.0
  0
LINE
  5
1DB
330
1F
100
AcDbEntity
  8
LAYER0048
  6
CONTINUOUS
 62
     7
100
AcDbLine
 10
-2196.922806551617
 20
-1645.815005088242
 30
0.0
 11
-2184.397035198582
 21
-1633.289233735206
 31
0.0
  0
LINE
  5
1DC
330
1F
100
AcDbEntity
  8
LAYER0048
  6
CONTINUOUS
 62
     7
100
AcDbLine
 10
-2197.535799392682
 20
-1647.559368779205
 30
0.0
 11
-2182.652671507618
 21
-1632.676240894141
 31
0.0
  0
LINE
  5
1DD
330
1F
100
AcDbEntity
  8
LAYER0048
  6
CONTINUOUS
 62
     7
100
AcDbLine
 10
-2197.946999893681
 20
-1649.101940130103
 30
0.0
 11
-2181.11010015672
 21
-1632.265040393142
 31
0.0
  0
LINE
  5
1DE
330
1F
100
AcDbEntity
  8
LAYER0048
  6
CONTINUOUS
 62
     7
100
AcDbLine
 10
-2198.221545731681
 20
-1650.507856818001
 30
0.0
 11
-2179.704183468822
 21
-1631.990494555142
 31
0.0
  0
LINE
  5
1DF
330
1F
100
AcDbEntity
  8
LAYER0048
  6
CONTINUOUS
 62
     7
100
AcDbLine
 10
-2198.394508252414
 20
-1651.812190188632
 30
0.0
 11
-2178.39985009819
 21
-1631.817532034409
 31
0.0
  0
LINE
  5
1E0
330
1F
100
AcDbEntity
  8
LAYER0048
  6
CONTINUOUS
 62
     7
100
AcDbLine
 10
-2198.486045153573
 20
-1653.035097939691
 30
0.0
 11
-2177.176942347133
 21
-1631.725995133251
 31
0.0
  0
LINE
  5
1E1
330
1F
100
AcDbEntity
  8
LAYER0048
  6
CONTINUOUS
 62
     7
100
AcDbLine
 10
-2198.511252666212
 20
-1654.191676302228
 30
0.0
 11
-2176.020363984594
 21
-1631.70078762061
 31
0.0
  0
LINE
  5
1E2
330
1F
100
AcDbEntity
  8
LAYER0048
  6
CONTINUOUS
 62
     7
100
AcDbLine
 10
-2198.480153468721
 20
-1655.291947954635
 30
0.0
 11
-2174.920092332189
 21
-1631.731886818103
 31
0.0
  0
LINE
  5
1E3
330
1F
100
AcDbEntity
  8
LAYER0048
  6
CONTINUOUS
 62
     7
100
AcDbLine
 10
-2198.398909605416
 20
-1656.342074941228
 30
0.0
 11
-2173.869965345593
 21
-1631.813130681406
 31
0.0
  0
LINE
  5
1E4
330
1F
100
AcDbEntity
  8
LAYER0048
  6
CONTINUOUS
 62
     7
100
AcDbLine
 10
-2198.274407874143
 20
-1657.348944059854
 30
0.0
 11
-2172.86309622697
 21
-1631.937632412681
 31
0.0
  0
LINE
  5
1E5
330
1F
100
AcDbEntity
  8
LAYER0048
  6
CONTINUOUS
 62
     7
100
AcDbLine
 10
-2198.111087301577
 20
-1658.316994337187
 30
0.0
 11
-2171.895045949637
 21
-1632.100952985247
 31
0.0
  0
LINE
  5
1E6
330
1F
100
AcDbEntity
  8
LAYER0048
  6
CONTINUOUS
 62
     7
100
AcDbLine
 10
-2197.911549018043
 20
-1659.248826903552
 30
0.0
 11
-2170.963213383272
 21
-1632.30049126878
 31
0.0
  0
LINE
  5
1E7
330
1F
100
AcDbEntity
  8
LAYER0048
  6
CONTINUOUS
 62
     7
100
AcDbLine
 10
-2197.67933538631
 20
-1660.147984121718
 30
0.0
 11
-2170.064056165105
 21
-1632.532704900511
 31
0.0
  0
LINE
  5
1E8
330
1F
100
AcDbEntity
  8
LAYER0048
  6
CONTINUOUS
 62
     7
100
AcDbLine
 10
-2197.417212164979
 20
-1661.017231750283
 30
0.0
 11
-2169.194808536539
 21
-1632.794828121845
 31
0.0
  0
LINE
  5
1E9
330
1F
100
AcDbEntity
  8
LAYER0048
  6
CONTINUOUS
 62
     7
100
AcDbLine
 10
-2197.125430707707
 20
-1661.856821142911
 30
0.0
 11
-2168.355219143912
 21
-1633.086609579116
 31
0.0
  0
LINE
  5
1EA
330
1F
100
AcDbEntity
  8
LAYER0048
  6
CONTINUOUS
 62
     7
100
AcDbLine
 10
-2196.80699884633
 20
-1662.669760131432
 30
0.0
 11
-2167.54228015539
 21
-1633.405041440492
 31
0.0
  0
LINE
  5
1EB
330
1F
100
AcDbEntity
  8
LAYER0048
  6
CONTINUOUS
 62
     7
100
AcDbLine
 10
-2196.463172614073
 20
-1663.457304749074
 30
0.0
 11
-2166.75473553775
 21
-1633.74886767275
 31
0.0
  0
LINE
  5
1EC
330
1F
100
AcDbEntity
  8
LAYER0048
  6
CONTINUOUS
 62
     7
100
AcDbLine
 10
-2196.094976966196
 20
-1664.220479951096
 30
0.0
 11
-2165.991560335727
 21
-1634.117063320627
 31
0.0
  0
LINE
  5
1ED
330
1F
100
AcDbEntity
  8
LAYER0048
  6
CONTINUOUS
 62
     7
100
AcDbLine
 10
-2195.703286695738
 20
-1664.960160530536
 30
0.0
 11
-2165.251879756287
 21
-1634.508753591085
 31
0.0
  0
LINE
  5
1EE
330
1F
100
AcDbEntity
  8
LAYER0048
  6
CONTINUOUS
 62
     7
100
AcDbLine
 10
-2195.288281092489
 20
-1665.676525777184
 30
0.0
 11
-2164.535514509639
 21
-1634.923759194335
 31
0.0
  0
LINE
  5
1EF
330
1F
100
AcDbEntity
  8
LAYER0048
  6
CONTINUOUS
 62
     7
100
AcDbLine
 10
-2194.851282315952
 20
-1666.370897850547
 30
0.0
 11
-2163.841142436276
 21
-1635.36075797087
 31
0.0
  0
LINE
  5
1F0
330
1F
100
AcDbEntity
  8
LAYER0048
  6
CONTINUOUS
 62
     7
100
AcDbLine
 10
-2194.392803456532
 20
-1667.043789841025
 30
0.0
 11
-2163.168250445799
 21
-1635.819236830292
 31
0.0
  0
LINE
  5
1F1
330
1F
100
AcDbEntity
  8
LAYER0048
  6
CONTINUOUS
 62
     7
100
AcDbLine
 10
-2193.913263490489
 20
-1667.69562072488
 30
0.0
 11
-2162.516419561943
 21
-1636.298776796334
 31
0.0
  0
LINE
  5
1F2
330
1F
100
AcDbEntity
  8
LAYER0048
  6
CONTINUOUS
 62
     7
100
AcDbLine
 10
-2193.412993652563
 20
-1668.326721736853
 30
0.0
 11
-2161.885318549971
 21
-1636.79904663426
 31
0.0
  0
LINE
  5
1F3
330
1F
100
AcDbEntity
  8
LAYER0048
  6
CONTINUOUS
 62
     7
100
AcDbLine
 10
-2192.892242371669
 20
-1668.937341305857
 30
0.0
 11
-2161.274698980967
 21
-1637.319797915155
 31
0.0
  0
LINE
  5
1F4
330
1F
100
AcDbEntity
  8
LAYER0048
  6
CONTINUOUS
 62
     7
100
AcDbLine
 10
-2192.351178913799
 20
-1669.527648697885
 30
0.0
 11
-2160.684391588938
 21
-1637.860861373024
 31
0.0
  0
LINE
  5
1F5
330
1F
100
AcDbEntity
  8
LAYER0048
  6
CONTINUOUS
 62
     7
100
AcDbLine
 10
-2191.789895836347
 20
-1670.097736470332
 30
0.0
 11
-2160.114303816491
 21
-1638.422144450476
 31
0.0
  0
LINE
  5
1F6
330
1F
100
AcDbEntity
  8
LAYER0048
  6
CONTINUOUS
 62
     7
100
AcDbLine
 10
-2191.208410323028
 20
-1670.647621806912
 30
0.0
 11
-2159.564418479912
 21
-1639.003629963795
 31
0.0
  0
LINE
  5
1F7
330
1F
100
AcDbEntity
  8
LAYER0048
  6
CONTINUOUS
 62
     7
100
AcDbLine
 10
-2190.606664436686
 20
-1671.177246770467
 30
0.0
 11
-2159.034793516355
 21
-1639.605375850137
 31
0.0
  0
LINE
  5
1F8
330
1F
100
AcDbEntity
  8
LAYER0048
  6
CONTINUOUS
 62
     7
100
AcDbLine
 10
-2189.984524297146
 20
-1671.686477480828
 30
0.0
 11
-2158.525562805996
 21
-1640.227515989677
 31
0.0
  0
LINE
  5
1F9
330
1F
100
AcDbEntity
  8
LAYER0048
  6
CONTINUOUS
 62
     7
100
AcDbLine
 10
-2189.341778161329
 20
-1672.175102194908
 30
0.0
 11
-2158.036938091915
 21
-1640.870262125494
 31
0.0
  0
LINE
  5
1FA
330
1F
100
AcDbEntity
  8
LAYER0048
  6
CONTINUOUS
 62
     7
100
AcDbLine
 10
-2188.678133352037
 20
-1672.642828235515
 30
0.0
 11
-2157.569212051309
 21
-1641.533906934786
 31
0.0
  0
LINE
  5
1FB
330
1F
100
AcDbEntity
  8
LAYER0048
  6
CONTINUOUS
 62
     7
100
AcDbLine
 10
-2187.993211948473
 20
-1673.08927768185
 30
0.0
 11
-2157.122762604973
 21
-1642.218828338349
 31
0.0
  0
LINE
  5
1FC
330
1F
100
AcDbEntity
  8
LAYER0048
  6
CONTINUOUS
 62
     7
100
AcDbLine
 10
-2187.286165990592
 20
-1673.513602573867
 30
0.0
 11
-2156.698437712957
 21
-1642.925874296232
 31
0.0
  0
LINE
  5
1FD
330
1F
100
AcDbEntity
  8
LAYER0048
  6
CONTINUOUS
 62
     7
100
AcDbLine
 10
-2186.556525654036
 20
-1673.915333087209
 30
0.0
 11
-2156.296707199614
 21
-1643.655514632787
 31
0.0
  0
LINE
  5
1FE
330
1F
100
AcDbEntity
  8
LAYER0048
  6
CONTINUOUS
 62
     7
100
AcDbLine
 10
-2185.803757560403
 20
-1674.293935843474
 30
0.0
 11
-2155.918104443349
 21
-1644.40828272642
 31
0.0
  0
LINE
  5
1FF
330
1F
100
AcDbEntity
  8
LAYER0048
  6
CONTINUOUS
 62
     7
100
AcDbLine
 10
-2185.027041569625
 20
-1674.648590702596
 30
0.0
 11
-2155.563449584228
 21
-1645.184998717198
 31
0.0
  0
LINE
  5
200
330
1F
100
AcDbEntity
  8
LAYER0048
  6
CONTINUOUS
 62
     7
100
AcDbLine
 10
-2184.225421603337
 20
-1674.978341586205
 30
0.0
 11
-2155.233698700618
 21
-1645.986618683486
 31
0.0
  0
LINE
  5
201
330
1F
100
AcDbEntity
  8
LAYER0048
  6
CONTINUOUS
 62
     7
100
AcDbLine
 10
-2183.397686128066
 20
-1675.281976960834
 30
0.0
 11
-2154.93006332599
 21
-1646.814354158757
 31
0.0
  0
LINE
  5
202
330
1F
100
AcDbEntity
  8
LAYER0048
  6
CONTINUOUS
 62
     7
100
AcDbLine
 10
-2182.54111646171
 20
-1675.556778144375
 30
0.0
 11
-2154.655262142448
 21
-1647.670923825114
 31
0.0
  0
LINE
  5
203
330
1F
100
AcDbEntity
  8
LAYER0048
  6
CONTINUOUS
 62
     7
100
AcDbLine
 10
-2181.655426921465
 20
-1675.80245945403
 30
0.0
 11
-2154.409580832794
 21
-1648.556613365358
 31
0.0
  0
LINE
  5
204
330
1F
100
AcDbEntity
  8
LAYER0048
  6
CONTINUOUS
 62
     7
100
AcDbLine
 10
-2180.738376622502
 20
-1676.016780004964
 30
0.0
 11
-2154.195260281859
 21
-1649.473663664321
 31
0.0
  0
LINE
  5
205
330
1F
100
AcDbEntity
  8
LAYER0048
  6
CONTINUOUS
 62
     7
100
AcDbLine
 10
-2179.786012634843
 20
-1676.195786867203
 30
0.0
 11
-2154.016253419618
 21
-1650.426027651979
 31
0.0
  0
LINE
  5
206
330
1F
100
AcDbEntity
  8
LAYER0048
  6
CONTINUOUS
 62
     7
100
AcDbLine
 10
-2178.796995388399
 20
-1676.338140470659
 30
0.0
 11
-2153.873899816163
 21
-1651.415044898424
 31
0.0
  0
LINE
  5
207
330
1F
100
AcDbEntity
  8
LAYER0048
  6
CONTINUOUS
 62
     7
100
AcDbLine
 10
-2177.765733709024
 20
-1676.438249641181
 30
0.0
 11
-2153.773790645641
 21
-1652.446306577799
 31
0.0
  0
LINE
  5
208
330
1F
100
AcDbEntity
  8
LAYER0048
  6
CONTINUOUS
 62
     7
100
AcDbLine
 10
-2176.687848283465
 20
-1676.491735065521
 30
0.0
 11
-2153.720305221301
 21
-1653.524192003357
 31
0.0
  0
LINE
  5
209
330
1F
100
AcDbEntity
  8
LAYER0048
  6
CONTINUOUS
 62
     7
100
AcDbLine
 10
-2175.557021152566
 20
-1676.492278784521
 30
0.0
 11
-2153.719761502302
 21
-1654.655019134257
 31
0.0
  0
LINE
  5
20A
330
1F
100
AcDbEntity
  8
LAYER0048
  6
CONTINUOUS
 62
     7
100
AcDbLine
 10
-2174.36421049304
 20
-1676.430838974893
 30
0.0
 11
-2153.781201311931
 21
-1655.847829793784
 31
0.0
  0
LINE
  5
20B
330
1F
100
AcDbEntity
  8
LAYER0048
  6
CONTINUOUS
 62
     7
100
AcDbLine
 10
-2173.097549701393
 20
-1676.295549033145
 30
0.0
 11
-2153.916491253677
 21
-1657.114490585429
 31
0.0
  0
LINE
  5
20C
330
1F
100
AcDbEntity
  8
LAYER0048
  6
CONTINUOUS
 62
     7
100
AcDbLine
 10
-2171.73892264874
 20
-1676.068292830391
 30
0.0
 11
-2154.143747456432
 21
-1658.473117638083
 31
0.0
  0
LINE
  5
20D
330
1F
100
AcDbEntity
  8
LAYER0048
  6
CONTINUOUS
 62
     7
100
AcDbLine
 10
-2170.261202519184
 20
-1675.721943550733
 30
0.0
 11
-2154.49009673609
 21
-1659.950837767639
 31
0.0
  0
LINE
  5
20E
330
1F
100
AcDbEntity
  8
LAYER0048
  6
CONTINUOUS
 62
     7
100
AcDbLine
 10
-2168.615210545056
 20
-1675.207322426502
 30
0.0
 11
-2155.004717860321
 21
-1661.596829741768
 31
0.0
  0
LINE
  5
20F
330
1F
100
AcDbEntity
  8
LAYER0048
  6
CONTINUOUS
 62
     7
100
AcDbLine
 10
-2166.704924181546
 20
-1674.428406912891
 30
0.0
 11
-2155.783633373932
 21
-1663.507116105278
 31
0.0
  0
LINE
  5
210
330
1F
100
AcDbEntity
  8
LAYER0048
  6
CONTINUOUS
 62
     7
100
AcDbLine
 10
-2164.240621210141
 20
-1673.095474791384
 30
0.0
 11
-2157.11656549544
 21
-1665.971419076684
 31
0.0
  0
LINE
  5
211
330
1F
100
AcDbEntity
  8
LAYER0048
  6
CONTINUOUS
 62
     7
100
AcDbLine
 10
-2194.063395262275
 20
-1637.221631365003
 30
0.0
 11
-2209.71205282258
 21
-1592.099987464244
 31
0.0
  0
LINE
  5
212
330
1F
100
AcDbEntity
  8
LAYER0048
  6
CONTINUOUS
 62
     7
100
AcDbLine
 10
-2194.063395262275
 20
-1670.978343563483
 30
0.0
 11
-2209.71205282258
 21
-1710.099987464243
 31
0.0
  0
LINE
  5
213
330
1F
100
AcDbEntity
  8
LAYER0048
  6
CONTINUOUS
 62
     7
100
AcDbLine
 10
-2142.512052822579
 20
-1710.099987464243
 30
0.0
 11
-2158.160710382882
 21
-1670.978343563483
 31
0.0
  0
LINE
  5
214
330
1F
100
AcDbEntity
  8
LAYER0048
  6
CONTINUOUS
 62
     7
100
AcDbLine
 10
-2142.51205282258
 20
-1592.099987464244
 30
0.0
 11
-2158.160710382882
 21
-1637.221631365003
 31
0.0
  0
LINE
  5
215
330
1F
100
AcDbEntity
  8
LAYER0048
  6
CONTINUOUS
 62
     7
100
AcDbLine
 10
-2209.71205282258
 20
-1710.099987464243
 30
0.0
 11
-2232.11205282258
 21
-1654.099987464244
 31
0.0
  0
LINE
  5
216
330
1F
100
AcDbEntity
  8
LAYER0048
  6
CONTINUOUS
 62
     7
100
AcDbLine
 10
-2209.71205282258
 20
-1592.099987464244
 30
0.0
 11
-2232.11205282258
 21
-1654.099987464244
 31
0.0
  0
LINE
  5
217
330
1F
100
AcDbEntity
  8
LAYER0048
  6
CONTINUOUS
 62
     7
100
AcDbLine
 10
-2120.112052822579
 20
-1654.099987464244
 30
0.0
 11
-2142.512052822579
 21
-1710.099987464243
 31
0.0
  0
LINE
  5
218
330
1F
100
AcDbEntity
  8
LAYER0048
  6
CONTINUOUS
 62
     7
100
AcDbLine
 10
-2120.112052822579
 20
-1654.099987464244
 30
0.0
 11
-2142.51205282258
 21
-1592.099987464244
 31
0.0
  0
ARC
  5
219
330
1F
100
AcDbEntity
  8
LAYER0048
  6
CONTINUOUS
 62
     7
100
AcDbCircle
 10
-2176.112052822579
 20
-1654.099987464244
 30
0.0
 40
24.63999999999909
100
AcDbArc
 50
223.2354670295922
 51
316.7645329704119
  0
ARC
  5
21A
330
1F
100
AcDbEntity
  8
LAYER0048
  6
CONTINUOUS
 62
     7
100
AcDbCircle
 10
-2176.112052822579
 20
-1654.099987464244
 30
0.0
 40
24.64000000000141
100
AcDbArc
 50
43.23546702959138
 51
136.7645329704061
  0
CIRCLE
  5
21B
330
1F
100
AcDbEntity
  8
LAYER0048
  6
CONTINUOUS
 62
     7
100
AcDbCircle
 10
-2176.112052822579
 20
-1654.099987464244
 30
0.0
 40
22.4
  0
TEXT
  5
21C
330
1F
100
AcDbEntity
  8
LAYER0048
 62
     2
100
AcDbText
 10
-2256.550318571043
 20
-633.6258660880783
 30
0.0
 40
100.0
  1
防油堤は、地震等の振動により容易に破損、移動
 41
0.6504793717381251
  7
DCSTYLE0
 72
     5
 11
-286.5503185710431
 21
-633.6258660880783
 31
0.0
100
AcDbText
  0
TEXT
  5
21D
330
1F
100
AcDbEntity
  8
LAYER0048
 62
     2
100
AcDbText
 10
-2256.550318571043
 20
-757.6258660880784
 30
0.0
 40
100.0
  1
しないように、水平で丈夫なコンクリート床面な
 41
0.7011540447197889
  7
DCSTYLE0
 72
     5
 11
-286.5503185710431
 21
-757.6258660880784
 31
0.0
100
AcDbText
  0
TEXT
  5
21E
330
1F
100
AcDbEntity
  8
LAYER0048
 62
     2
100
AcDbText
 10
-2256.550318571043
 20
-881.6258660880784
 30
0.0
 40
100.0
  1
どにアンカーボルトで、正しく固定して下さい。
 41
0.7151847648447429
  7
DCSTYLE0
 72
     5
 11
-286.5503185710431
 21
-881.6258660880784
 31
0.0
100
AcDbText
  0
TEXT
  5
21F
330
1F
100
AcDbEntity
  8
LAYER0048
 62
     2
100
AcDbText
 10
-1701.770102348984
 20
1104.329753864359
 30
0.0
 40
80.0
  1
仕　様　明　細　書
 41
1.005550565834381
  7
DCSTYLE0
 72
     5
 11
-805.7701023489844
 21
1104.329753864359
 31
0.0
100
AcDbText
  0
TEXT
  5
220
330
1F
100
AcDbEntity
  8
LAYER0048
 62
     2
100
AcDbText
 10
-1428.736192437744
 20
1392.329753864358
 30
0.0
 40
80.0
  1
型　　式
 41
0.9707102272727273
  7
DCSTYLE0
 72
     5
 11
-1052.736192437744
 21
1392.329753864358
 31
0.0
100
AcDbText
  0
TEXT
  5
222
330
1F
100
AcDbEntity
  8
LAYER0048
 62
     2
100
AcDbText
 10
-1583.706204650558
 20
1620.800897437159
 30
0.0
 40
260.0
  1
サンダイヤ　防油堤　仕様書
 41
0.8142042925481567
  7
DCSTYLE1
 72
     5
 11
1600.293795349442
 21
1620.800897437159
 31
0.0
100
AcDbText
  0
TEXT
  5
223
330
1F
100
AcDbEntity
  8
LAYER0048
 62
     2
100
AcDbText
 10
-1593.770102348984
 20
1238.329753864358
 30
0.0
 40
100.0
  1
AL-500G
 41
1.213830357142857
  7
DCSTYLE0
 72
     5
 11
-913.7701023489844
 21
1238.329753864358
 31
0.0
100
AcDbText
  0
TEXT
  5
225
330
1F
100
AcDbEntity
  8
LAYER0048
 62
     2
100
AcDbText
 10
1642.0
 20
-1982.000000000001
 30
0.0
 40
80.0
  1
96471-58010-02
 41
1.230307692307693
  7
DCSTYLE2
 72
     5
 11
2538.0
 21
-1982.000000000001
 31
0.0
100
AcDbText
  0
INSERT
  5
226
330
1F
100
AcDbEntity
  8
LAYER0048
  6
CONTINUOUS
100
AcDbBlockReference
  2
DC_GROUP_1
 10
0.0
 20
0.0
 30
0.0
  0
INSERT
  5
227
330
1F
100
AcDbEntity
  8
LAYER0048
  6
CONTINUOUS
100
AcDbBlockReference
  2
DC_GROUP_14
 10
0.0
 20
0.0
 30
0.0
  0
TEXT
  5
228
330
1F
100
AcDbEntity
  8
LAYER0048
 62
     4
100
AcDbText
 10
-2205.770102348984
 20
989.3297538643585
 30
0.0
 40
70.0
  1
容　　　量
 41
0.8460976329905031
  7
DCSTYLE0
 72
     5
 11
-1861.770102348984
 21
989.3297538643585
 31
0.0
100
AcDbText
  0
TEXT
  5
229
330
1F
100
AcDbEntity
  8
LAYER0048
 62
     4
100
AcDbText
 10
-2205.770102348984
 20
797.3297538643578
 30
0.0
 40
70.0
  1
本体材質
 41
0.8446428571428577
  7
DCSTYLE0
 72
     5
 11
-1861.770102348984
 21
797.3297538643578
 31
0.0
100
AcDbText
  0
TEXT
  5
22A
330
1F
100
AcDbEntity
  8
LAYER0048
 62
     4
100
AcDbText
 10
-2205.770102348984
 20
701.3297538643575
 30
0.0
 40
70.0
  1
本体板厚
 41
0.8446428571428577
  7
DCSTYLE0
 72
     5
 11
-1861.770102348984
 21
701.3297538643575
 31
0.0
100
AcDbText
  0
TEXT
  5
22B
330
1F
100
AcDbEntity
  8
LAYER0048
 62
     4
100
AcDbText
 10
-2205.770102348984
 20
397.3297538643583
 30
0.0
 40
70.0
  1
水　抜　口
 41
0.7804961641472611
  7
DCSTYLE0
 72
     5
 11
-1861.770102348984
 21
397.3297538643583
 31
0.0
100
AcDbText
  0
TEXT
  5
22C
330
1F
100
AcDbEntity
  8
LAYER0048
 62
     4
100
AcDbText
 10
-1734.534847563036
 20
989.329753864358
 30
0.0
 40
70.0
  1
５０８　リットル
 41
0.9175188279595199
  7
DCSTYLE0
 72
     5
 11
-1188.534847563036
 21
989.329753864358
 31
0.0
100
AcDbText
  0
TEXT
  5
22D
330
1F
100
AcDbEntity
  8
LAYER0048
 62
     4
100
AcDbText
 10
-1734.230914259035
 20
797.3297538643578
 30
0.0
 40
70.0
  1
Ａ５０５２Ｐ
 41
0.9584766077037526
  7
DCSTYLE0
 72
     5
 11
-1328.230914259035
 21
797.3297538643578
 31
0.0
100
AcDbText
  0
TEXT
  5
22E
330
1F
100
AcDbEntity
  8
LAYER0048
 62
     4
100
AcDbText
 10
-1732.659259155035
 20
701.3297538643575
 30
0.0
 40
70.0
  1
２．０ｍｍ
 41
0.8447535211267605
  7
DCSTYLE0
 72
     5
 11
-1396.659259155035
 21
701.3297538643575
 31
0.0
100
AcDbText
  0
TEXT
  5
22F
330
1F
100
AcDbEntity
  8
LAYER0048
 62
     4
100
AcDbText
 10
-1730.787669859035
 20
397.3297538643583
 30
0.0
 40
70.0
  1
Ｒ1/2　おねじ
 41
0.9520238095238096
  7
DCSTYLE0
 72
     5
 11
-1184.787669859035
 21
397.3297538643583
 31
0.0
100
AcDbText
  0
TEXT
  5
230
330
1F
100
AcDbEntity
  8
LAYER0048
 62
     4
100
AcDbText
 10
-1732.659259155035
 20
13.32975386435791
 30
0.0
 40
70.0
  1
アルミニウム素地
 41
0.7252418379685612
  7
DCSTYLE0
 72
     5
 11
-1186.659259155035
 21
13.32975386435791
 31
0.0
100
AcDbText
  0
TEXT
  5
231
330
1F
100
AcDbEntity
  8
LAYER0048
 62
     4
100
AcDbText
 10
-1732.659259155035
 20
-82.67024613564189
 30
0.0
 40
70.0
  1
約24ｋｇ
 41
1.040372940156115
  7
DCSTYLE0
 72
     5
 11
-1396.659259155035
 21
-82.67024613564189
 31
0.0
100
AcDbText
  0
TEXT
  5
232
330
1F
100
AcDbEntity
  8
LAYER0048
 62
     4
100
AcDbText
 10
-2205.770102348984
 20
-82.67024613564196
 30
0.0
 40
70.0
  1
完成重量
 41
0.8446428571428577
  7
DCSTYLE0
 72
     5
 11
-1861.770102348984
 21
-82.67024613564196
 31
0.0
100
AcDbText
  0
TEXT
  5
233
330
1F
100
AcDbEntity
  8
LAYER0048
 62
     4
100
AcDbText
 10
-2205.770102348984
 20
301.3297538643585
 30
0.0
 40
70.0
  1
付　属　品
 41
0.7804961641472611
  7
DCSTYLE0
 72
     5
 11
-1861.770102348984
 21
301.3297538643585
 31
0.0
100
AcDbText
  0
TEXT
  5
234
330
1F
100
AcDbEntity
  8
LAYER0048
 62
     4
100
AcDbText
 10
-1732.659259155035
 20
301.3297538643586
 30
0.0
 40
70.0
  1
Ｒｃ１／２ボールバルブ、ニップル、エルボ
 41
0.7919247389268995
  7
DCSTYLE0
 72
     5
 11
-346.659259155035
 21
301.3297538643586
 31
0.0
100
AcDbText
  0
TEXT
  5
235
330
1F
100
AcDbEntity
  8
LAYER0048
 62
     4
100
AcDbText
 10
-1732.659259155035
 20
205.3297538643585
 30
0.0
 40
70.0
  1
ステンレス六角ボルト（Ｍ12×35）、
 41
0.8849571482388395
  7
DCSTYLE0
 72
     5
 11
-416.659259155035
 21
205.3297538643585
 31
0.0
100
AcDbText
  0
TEXT
  5
236
330
1F
100
AcDbEntity
  8
LAYER0048
 62
     4
100
AcDbText
 10
217.5466285005855
 20
-1845.251691672589
 30
0.0
 40
80.0
  1
（1525-4）×（917-4）×（370-4）/10　=508リットル
 41
0.9756735689836303
  7
DCSTYLE0
 72
     5
 11
2521.546628500585
 21
-1845.251691672589
 31
0.0
100
AcDbText
  0
TEXT
  5
237
330
1F
100
AcDbEntity
  8
LAYER0048
 62
     4
100
AcDbText
 10
158.0838745062912
 20
-1729.941095717025
 30
0.0
 40
100.0
  1
容量計算
 41
0.653125
  7
DCSTYLE0
 72
     5
 11
538.0838745062912
 21
-1729.941095717025
 31
0.0
100
AcDbText
  0
TEXT
  5
238
330
1F
100
AcDbEntity
  8
LAYER0048
 62
     4
100
AcDbText
 10
-1732.659259155035
 20
509.3297538643574
 30
0.0
 40
70.0
  1
３．０ｍｍ
 41
0.8447535211267605
  7
DCSTYLE0
 72
     5
 11
-1396.659259155035
 21
509.3297538643574
 31
0.0
100
AcDbText
  0
TEXT
  5
239
330
1F
100
AcDbEntity
  8
LAYER0048
 62
     4
100
AcDbText
 10
-2205.770102348984
 20
605.3297538643579
 30
0.0
 40
70.0
  1
架台材質
 41
0.8446428571428577
  7
DCSTYLE0
 72
     5
 11
-1861.770102348984
 21
605.3297538643579
 31
0.0
100
AcDbText
  0
TEXT
  5
23A
330
1F
100
AcDbEntity
  8
LAYER0048
 62
     4
100
AcDbText
 10
-2205.770102348984
 20
509.3297538643574
 30
0.0
 40
70.0
  1
架台板厚
 41
0.8446428571428577
  7
DCSTYLE0
 72
     5
 11
-1861.770102348984
 21
509.3297538643574
 31
0.0
100
AcDbText
  0
TEXT
  5
23B
330
1F
100
AcDbEntity
  8
LAYER0048
 62
     4
100
AcDbText
 10
-1734.230914259035
 20
605.3297538643579
 30
0.0
 40
70.0
  1
Ａ５０５２Ｐ
 41
0.9584766077037526
  7
DCSTYLE0
 72
     5
 11
-1328.230914259035
 21
605.3297538643579
 31
0.0
100
AcDbText
  0
TEXT
  5
23C
330
1F
100
AcDbEntity
  8
LAYER0048
 62
     4
100
AcDbText
 10
-2205.770102348984
 20
13.32975386435791
 30
0.0
 40
70.0
  1
表面処理
 41
0.8446428571428577
  7
DCSTYLE0
 72
     5
 11
-1861.770102348984
 21
13.32975386435791
 31
0.0
100
AcDbText
  0
TEXT
  5
23D
330
1F
100
AcDbEntity
  8
LAYER0048
 62
     4
100
AcDbText
 10
1957.643405889885
 20
-1794.867157490396
 30
0.0
 40
50.0
  1
６
 41
0.8045271629778672
  7
DCSTYLE0
 72
     5
 11
1997.643405889885
 21
-1794.867157490396
 31
0.0
100
AcDbText
  0
TEXT
  5
23E
330
1F
100
AcDbEntity
  8
LAYER0048
 62
     4
100
AcDbText
 10
-1732.659259155035
 20
109.3297538643583
 30
0.0
 40
70.0
  1
ステンレスワッシャ－、樹脂板（電蝕防止用）
 41
0.7112230062574891
  7
DCSTYLE0
 72
     5
 11
-396.659259155035
 21
109.3297538643583
 31
0.0
100
AcDbText
  0
TEXT
  5
23F
330
1F
100
AcDbEntity
  8
LAYER0048
 62
     4
100
AcDbText
 10
-2205.770102348984
 20
-194.670246135642
 30
0.0
 40
70.0
  1
耐震条件
 41
0.8446428571428577
  7
DCSTYLE0
 72
     5
 11
-1861.770102348984
 21
-194.670246135642
 31
0.0
100
AcDbText
  0
TEXT
  5
240
330
1F
100
AcDbEntity
  8
LAYER0048
 62
     4
100
AcDbText
 10
-1730.787669859035
 20
-194.670246135642
 30
0.0
 40
70.0
  1
耐震設計震度　1.0以下
 41
0.822163170000697
  7
DCSTYLE0
 72
     5
 11
-904.7876698590351
 21
-194.670246135642
 31
0.0
100
AcDbText
  0
TEXT
  5
241
330
1F
100
AcDbEntity
  8
LAYER0048
 62
     4
100
AcDbText
 10
-1727.409259155035
 20
-298.6702461356423
 30
0.0
 40
70.0
  1
アンカーボルト（あと施工接着式　M12　深さ90mm以上）
 41
0.6070476985894581
  7
DCSTYLE0
 72
     5
 11
-295.909259155035
 21
-298.6702461356423
 31
0.0
100
AcDbText
  0
TEXT
  5
242
330
1F
100
AcDbEntity
  8
LAYER0048
 62
     4
100
AcDbText
 10
-2205.770102348984
 20
-298.6702461356423
 30
0.0
 40
70.0
  1
防油堤固定
 41
0.6757142857142862
  7
DCSTYLE0
 72
     5
 11
-1861.770102348984
 21
-298.6702461356423
 31
0.0
100
AcDbText
  0
TEXT
  5
243
330
1F
100
AcDbEntity
  8
LAYER0048
 62
     4
100
AcDbText
 10
-1732.659259155035
 20
893.329753864358
 30
0.0
 40
70.0
  1
ＫＳ2－５００Ｓ、４９０Ｓ、ＫＭ２－４９０Ｓ
 41
0.7527554338524729
  7
DCSTYLE0
 72
     5
 11
-500.6592591550352
 21
893.329753864358
 31
0.0
100
AcDbText
  0
TEXT
  5
244
330
1F
100
AcDbEntity
  8
LAYER0048
 62
     4
100
AcDbText
 10
-2205.770102348984
 20
893.3297538643586
 30
0.0
 40
70.0
  1
適用タンク
 41
0.7620916626036084
  7
DCSTYLE0
 72
     5
 11
-1861.770102348984
 21
893.3297538643586
 31
0.0
100
AcDbText
  0
LINE
  5
245
330
1F
100
AcDbEntity
  8
LAYER0032
  6
CONTINUOUS
 62
     3
100
AcDbLine
 10
352.105840468344
 20
324.2300438104593
 30
0.0
 11
352.105840468344
 21
404.2300438104593
 31
0.0
  0
LINE
  5
246
330
1F
100
AcDbEntity
  8
LAYER0032
  6
CONTINUOUS
 62
     3
100
AcDbLine
 10
1982.105840468344
 20
324.2300438104593
 30
0.0
 11
1982.105840468344
 21
404.2300438104593
 31
0.0
  0
CIRCLE
  5
247
330
1F
100
AcDbEntity
  8
LAYER0032
  6
CONTINUOUS
 62
     3
100
AcDbCircle
 10
1887.105840468344
 20
9.730043810459279
 30
0.0
 40
7.5
  0
LINE
  5
248
330
1F
100
AcDbEntity
  8
LAYER0032
  6
CONTINUOUS
 62
     3
100
AcDbLine
 10
377.1058404683445
 20
-1220.691434924843
 30
0.0
 11
1929.605840468344
 21
-1220.691434924843
 31
0.0
  0
LINE
  5
249
330
1F
100
AcDbEntity
  8
LAYER0032
  6
CONTINUOUS
 62
     3
100
AcDbLine
 10
352.105840468344
 20
-1245.691434924844
 30
0.0
 11
352.105840468344
 21
-1280.691434924844
 31
0.0
  0
LINE
  5
24A
330
1F
100
AcDbEntity
  8
LAYER0032
  6
CONTINUOUS
 62
     3
100
AcDbLine
 10
352.1058404683445
 20
-1280.691434924843
 30
0.0
 11
1816.258265568679
 21
-1280.691434924843
 31
0.0
  0
LINE
  5
24B
330
1F
100
AcDbEntity
  8
LAYER0032
  6
CONTINUOUS
 62
     3
100
AcDbLine
 10
377.105840468344
 20
-1220.691434924844
 30
0.0
 11
352.105840468344
 21
-1245.691434924844
 31
0.0
  0
LINE
  5
24C
330
1F
100
AcDbEntity
  8
LAYER0032
  6
CONTINUOUS
 62
     3
100
AcDbLine
 10
352.1058404683445
 20
404.2300438104593
 30
0.0
 11
404.605840468344
 21
404.2300438104593
 31
0.0
  0
LINE
  5
24D
330
1F
100
AcDbEntity
  8
LAYER0032
  6
CONTINUOUS
 62
     3
100
AcDbLine
 10
352.1058404683445
 20
324.2300438104593
 30
0.0
 11
404.605840468344
 21
324.2300438104593
 31
0.0
  0
LINE
  5
24E
330
1F
100
AcDbEntity
  8
LAYER0032
  6
CONTINUOUS
 62
     3
100
AcDbLine
 10
1929.605840468344
 20
404.2300438104593
 30
0.0
 11
1982.105840468344
 21
404.2300438104593
 31
0.0
  0
LINE
  5
24F
330
1F
100
AcDbEntity
  8
LAYER0032
  6
CONTINUOUS
 62
     3
100
AcDbLine
 10
1929.605840468344
 20
324.2300438104593
 30
0.0
 11
1982.105840468344
 21
324.2300438104593
 31
0.0
  0
LINE
  5
250
330
1F
100
AcDbEntity
  8
LAYER0032
  6
CONTINUOUS
 62
     3
100
AcDbLine
 10
352.105840468344
 20
-304.7699561895407
 30
0.0
 11
352.105840468344
 21
-384.7699561895408
 31
0.0
  0
LINE
  5
251
330
1F
100
AcDbEntity
  8
LAYER0032
  6
CONTINUOUS
 62
     3
100
AcDbLine
 10
352.1058404683445
 20
-304.7699561895398
 30
0.0
 11
404.605840468344
 21
-304.7699561895398
 31
0.0
  0
LINE
  5
252
330
1F
100
AcDbEntity
  8
LAYER0032
  6
CONTINUOUS
 62
     3
100
AcDbLine
 10
352.1058404683445
 20
-384.7699561895399
 30
0.0
 11
404.605840468344
 21
-384.7699561895399
 31
0.0
  0
LINE
  5
253
330
1F
100
AcDbEntity
  8
LAYER0032
  6
CONTINUOUS
 62
     3
100
AcDbLine
 10
1982.105840468344
 20
-304.7699561895407
 30
0.0
 11
1982.105840468344
 21
-384.7699561895408
 31
0.0
  0
LINE
  5
254
330
1F
100
AcDbEntity
  8
LAYER0032
  6
CONTINUOUS
 62
     3
100
AcDbLine
 10
1929.605840468344
 20
-384.7699561895399
 30
0.0
 11
1982.105840468344
 21
-384.7699561895399
 31
0.0
  0
LINE
  5
255
330
1F
100
AcDbEntity
  8
LAYER0032
  6
CONTINUOUS
 62
     3
100
AcDbLine
 10
1929.605840468344
 20
-304.7699561895398
 30
0.0
 11
1982.105840468344
 21
-304.7699561895398
 31
0.0
  0
LINE
  5
256
330
1F
100
AcDbEntity
  8
LAYER0032
  6
CONTINUOUS
 62
     3
100
AcDbLine
 10
1929.605840468344
 20
401.2300438104602
 30
0.0
 11
1982.105840468344
 21
401.2300438104602
 31
0.0
  0
LINE
  5
257
330
1F
100
AcDbEntity
  8
LAYER0032
  6
CONTINUOUS
 62
     3
100
AcDbLine
 10
1929.605840468344
 20
327.2300438104602
 30
0.0
 11
1982.105840468344
 21
327.2300438104602
 31
0.0
  0
LINE
  5
258
330
1F
100
AcDbEntity
  8
LAYER0032
  6
CONTINUOUS
 62
     3
100
AcDbLine
 10
1929.605840468344
 20
-307.7699561895398
 30
0.0
 11
1982.105840468344
 21
-307.7699561895398
 31
0.0
  0
LINE
  5
259
330
1F
100
AcDbEntity
  8
LAYER0032
  6
CONTINUOUS
 62
     3
100
AcDbLine
 10
1929.605840468344
 20
-381.7699561895408
 30
0.0
 11
1982.105840468344
 21
-381.7699561895408
 31
0.0
  0
LINE
  5
25A
330
1F
100
AcDbEntity
  8
LAYER0032
  6
CONTINUOUS
 62
     3
100
AcDbLine
 10
404.605840468344
 20
401.2300438104602
 30
0.0
 11
352.1058404683445
 21
401.2300438104602
 31
0.0
  0
LINE
  5
25B
330
1F
100
AcDbEntity
  8
LAYER0032
  6
CONTINUOUS
 62
     3
100
AcDbLine
 10
404.605840468344
 20
327.2300438104602
 30
0.0
 11
352.1058404683445
 21
327.2300438104602
 31
0.0
  0
LINE
  5
25C
330
1F
100
AcDbEntity
  8
LAYER0032
  6
CONTINUOUS
 62
     3
100
AcDbLine
 10
404.605840468344
 20
-307.7699561895398
 30
0.0
 11
352.1058404683445
 21
-307.7699561895398
 31
0.0
  0
LINE
  5
25D
330
1F
100
AcDbEntity
  8
LAYER0032
  6
CONTINUOUS
 62
     3
100
AcDbLine
 10
404.605840468344
 20
-381.7699561895399
 30
0.0
 11
352.1058404683445
 21
-381.7699561895399
 31
0.0
  0
LINE
  5
25E
330
1F
100
AcDbEntity
  8
LAYER0032
  6
CONTINUOUS
 62
     3
100
AcDbLine
 10
1929.605840468344
 20
-1218.691434924844
 30
0.0
 11
1718.490158928608
 21
-1218.691434924844
 31
0.0
  0
LINE
  5
25F
330
1F
100
AcDbEntity
  8
LAYER0032
  6
CONTINUOUS
 62
     3
100
AcDbLine
 10
1929.605840468344
 20
468.2300438104593
 30
0.0
 11
404.605840468344
 21
468.2300438104593
 31
0.0
  0
LINE
  5
260
330
1F
100
AcDbEntity
  8
LAYER0032
  6
CONTINUOUS
 62
     3
100
AcDbLine
 10
404.605840468344
 20
468.2300438104593
 30
0.0
 11
404.605840468344
 21
-448.7699561895408
 31
0.0
  0
LINE
  5
261
330
1F
100
AcDbEntity
  8
LAYER0032
  6
CONTINUOUS
 62
     3
100
AcDbLine
 10
404.605840468344
 20
438.2300438104593
 30
0.0
 11
1929.605840468344
 21
438.2300438104593
 31
0.0
  0
LINE
  5
262
330
1F
100
AcDbEntity
  8
LAYER0032
  6
CONTINUOUS
 62
     3
100
AcDbLine
 10
434.605840468344
 20
438.2300438104593
 30
0.0
 11
434.605840468344
 21
-418.7699561895399
 31
0.0
  0
LINE
  5
263
330
1F
100
AcDbEntity
  8
LAYER0032
  6
CONTINUOUS
 62
     3
100
AcDbLine
 10
1929.605840468344
 20
-448.7699561895408
 30
0.0
 11
404.605840468344
 21
-448.7699561895408
 31
0.0
  0
LINE
  5
264
330
1F
100
AcDbEntity
  8
LAYER0032
  6
CONTINUOUS
 62
     3
100
AcDbLine
 10
404.605840468344
 20
-418.7699561895399
 30
0.0
 11
1929.605840468344
 21
-418.7699561895399
 31
0.0
  0
LINE
  5
265
330
1F
100
AcDbEntity
  8
LAYER0032
  6
CONTINUOUS
 62
     3
100
AcDbLine
 10
1929.605840468344
 20
468.2300438104593
 30
0.0
 11
1929.605840468344
 21
-448.7699561895408
 31
0.0
  0
LINE
  5
266
330
1F
100
AcDbEntity
  8
LAYER0032
  6
CONTINUOUS
 62
     3
100
AcDbLine
 10
1899.605840468344
 20
438.2300438104593
 30
0.0
 11
1899.605840468344
 21
-418.7699561895408
 31
0.0
  0
LINE
  5
267
330
1F
100
AcDbEntity
  8
LAYER0032
  6
CONTINUOUS
 62
     3
100
AcDbLine
 10
1899.605840468344
 20
-855.6914349248439
 30
0.0
 11
1899.605840468344
 21
-862.6914349248439
 31
0.0
  0
LINE
  5
268
330
1F
100
AcDbEntity
  8
LAYER0032
  6
CONTINUOUS
 62
     3
100
AcDbLine
 10
1901.605840468344
 20
-855.6914349248439
 30
0.0
 11
1901.605840468344
 21
-862.6914349248439
 31
0.0
  0
LINE
  5
269
330
1F
100
AcDbEntity
  8
LAYER0032
  6
CONTINUOUS
 62
     3
100
AcDbLine
 10
409.6058404683445
 20
-850.691434924843
 30
0.0
 11
1924.605840468344
 21
-850.691434924843
 31
0.0
  0
LINE
  5
26A
330
1F
100
AcDbEntity
  8
LAYER0032
  6
CONTINUOUS
 62
     3
100
AcDbLine
 10
404.6058404683445
 20
-855.691434924843
 30
0.0
 11
404.6058404683445
 21
-1220.691434924843
 31
0.0
  0
LINE
  5
26B
330
1F
100
AcDbEntity
  8
LAYER0032
  6
CONTINUOUS
 62
     3
100
AcDbLine
 10
1815.033257113692
 20
-862.6914349248439
 30
0.0
 11
1927.605840468344
 21
-862.6914349248439
 31
0.0
  0
LINE
  5
26C
330
1F
100
AcDbEntity
  8
LAYER0032
  6
CONTINUOUS
 62
     3
100
AcDbLine
 10
1927.605840468344
 20
-855.6914349248439
 30
0.0
 11
1927.605840468344
 21
-1218.691434924844
 31
0.0
  0
LINE
  5
26D
330
1F
100
AcDbEntity
  8
LAYER0032
  6
CONTINUOUS
 62
     3
100
AcDbLine
 10
1924.605840468344
 20
-852.6914349248439
 30
0.0
 11
1904.605840468344
 21
-852.6914349248439
 31
0.0
  0
ARC
  5
26E
330
1F
100
AcDbEntity
  8
LAYER0032
  6
CONTINUOUS
 62
     3
100
AcDbCircle
 10
1904.605840468344
 20
-855.6914349248439
 30
0.0
 40
3.0
100
AcDbArc
 50
90.0
 51
180.0
  0
ARC
  5
26F
330
1F
100
AcDbEntity
  8
LAYER0032
  6
CONTINUOUS
 62
     3
100
AcDbCircle
 10
1904.605840468344
 20
-855.6914349248439
 30
0.0
 40
5.0
100
AcDbArc
 50
90.0
 51
180.0
  0
ARC
  5
270
330
1F
100
AcDbEntity
  8
LAYER0032
  6
CONTINUOUS
 62
     3
100
AcDbCircle
 10
1924.605840468344
 20
-855.6914349248439
 30
0.0
 40
3.0
100
AcDbArc
 50
0.0
 51
90.0
  0
ARC
  5
271
330
1F
100
AcDbEntity
  8
LAYER0032
  6
CONTINUOUS
 62
     3
100
AcDbCircle
 10
1924.605840468344
 20
-855.6914349248439
 30
0.0
 40
5.0
100
AcDbArc
 50
0.0
 51
90.0
  0
LINE
  5
272
330
1F
100
AcDbEntity
  8
LAYER0032
  6
CONTINUOUS
 62
     3
100
AcDbLine
 10
1929.605840468344
 20
-855.691434924843
 30
0.0
 11
1929.605840468344
 21
-1220.691434924843
 31
0.0
  0
ARC
  5
273
330
1F
100
AcDbEntity
  8
LAYER0032
  6
CONTINUOUS
 62
     3
100
AcDbCircle
 10
409.6058404683445
 20
-855.691434924843
 30
0.0
 40
5.0
100
AcDbArc
 50
90.0
 51
180.0
  0
LINE
  5
274
330
1F
100
AcDbEntity
  8
LAYER0032
  6
CONTINUOUS
 62
     3
100
AcDbLine
 10
2018.605840468344
 20
19.73004381045985
 30
0.0
 11
2046.745352468344
 21
17.76233681046006
 31
0.0
  0
LINE
  5
275
330
1F
100
AcDbEntity
  8
LAYER0032
  6
CONTINUOUS
 62
     3
100
AcDbLine
 10
2018.605840468344
 20
3.730043810459847
 30
0.0
 11
2046.745352468344
 21
5.697749810460209
 31
0.0
  0
CIRCLE
  5
276
330
1F
100
AcDbEntity
  8
LAYER0032
  6
CONTINUOUS
 62
     3
100
AcDbCircle
 10
1963.605840468344
 20
9.730043810459847
 30
0.0
 40
6.1
  0
LINE
  5
277
330
1F
100
AcDbEntity
  8
LAYER0032
  6
CONTINUOUS
 62
     3
100
AcDbLine
 10
1967.105840468344
 20
20.73004381045985
 30
0.0
 11
1977.605840468344
 21
20.73004381045985
 31
0.0
  0
LINE
  5
278
330
1F
100
AcDbEntity
  8
LAYER0032
  6
CONTINUOUS
 62
     3
100
AcDbLine
 10
1954.605840468344
 20
2.730043810459847
 30
0.0
 11
1977.605840468344
 21
2.730043810459847
 31
0.0
  0
ARC
  5
279
330
1F
100
AcDbEntity
  8
LAYER0032
  6
CONTINUOUS
 62
     3
100
AcDbCircle
 10
1963.605840468344
 20
9.730043810459847
 30
0.0
 40
8.75
100
AcDbArc
 50
109.4276419999999
 51
199.9156889999999
  0
ARC
  5
27A
330
1F
100
AcDbEntity
  8
LAYER0032
  6
CONTINUOUS
 62
     3
100
AcDbCircle
 10
1963.605840468344
 20
9.730043810459847
 30
0.0
 40
8.0
100
AcDbArc
 50
74.67060800000003
 51
195.329392
  0
ARC
  5
27B
330
1F
100
AcDbEntity
  8
LAYER0032
  6
CONTINUOUS
 62
     3
100
AcDbCircle
 10
1951.652277468344
 20
14.70492881046039
 30
0.0
 40
20.257762
100
AcDbArc
 50
167.032449
 51
192.9675509999999
  0
LINE
  5
27C
330
1F
100
AcDbEntity
  8
LAYER0032
  6
CONTINUOUS
 62
     3
100
AcDbLine
 10
1954.105840468344
 20
25.40941981045989
 30
0.0
 11
1954.105840468344
 21
9.730043810459847
 31
0.0
  0
LINE
  5
27D
330
1F
100
AcDbEntity
  8
LAYER0032
  6
CONTINUOUS
 62
     3
100
AcDbLine
 10
1950.105840468344
 20
26.23004381045985
 30
0.0
 11
1950.105840468344
 21
9.730043810459847
 31
0.0
  0
LINE
  5
27E
330
1F
100
AcDbEntity
  8
LAYER0032
  6
CONTINUOUS
 62
     3
100
AcDbLine
 10
1931.105840468344
 20
22.23004381045985
 30
0.0
 11
1931.105840468344
 21
9.730043810459847
 31
0.0
  0
LINE
  5
27F
330
1F
100
AcDbEntity
  8
LAYER0032
  6
CONTINUOUS
 62
     3
100
AcDbLine
 10
1947.105840468344
 20
25.23004381045985
 30
0.0
 11
1947.105840468344
 21
9.730043810459847
 31
0.0
  0
LINE
  5
280
330
1F
100
AcDbEntity
  8
LAYER0032
  6
CONTINUOUS
 62
     3
100
AcDbLine
 10
1931.911142468344
 20
0.2093338104600662
 30
0.0
 11
1945.605840468344
 21
0.2093338104600662
 31
0.0
  0
LINE
  5
281
330
1F
100
AcDbEntity
  8
LAYER0032
  6
CONTINUOUS
 62
     3
100
AcDbLine
 10
1931.911142468344
 20
-0.397448189539773
 30
0.0
 11
1945.605840468344
 21
-0.397448189539773
 31
0.0
  0
LINE
  5
282
330
1F
100
AcDbEntity
  8
LAYER0032
  6
CONTINUOUS
 62
     3
100
AcDbLine
 10
1931.911142468344
 20
9.300984810459795
 30
0.0
 11
1945.605840468344
 21
9.300984810459795
 31
0.0
  0
LINE
  5
283
330
1F
100
AcDbEntity
  8
LAYER0032
  6
CONTINUOUS
 62
     3
100
AcDbLine
 10
1931.911142468344
 20
10.1591028104599
 30
0.0
 11
1945.605840468344
 21
10.1591028104599
 31
0.0
  0
LINE
  5
284
330
1F
100
AcDbEntity
  8
LAYER0032
  6
CONTINUOUS
 62
     3
100
AcDbLine
 10
1931.914217468344
 20
-4.169956189539789
 30
0.0
 11
1945.605840468344
 21
-4.169956189539789
 31
0.0
  0
ARC
  5
285
330
1F
100
AcDbEntity
  8
LAYER0032
  6
CONTINUOUS
 62
     3
100
AcDbCircle
 10
1951.652277468344
 20
4.755158810460216
 30
0.0
 40
20.257762
100
AcDbArc
 50
167.032449
 51
192.9675509999999
  0
LINE
  5
286
330
1F
100
AcDbEntity
  8
LAYER0032
  6
CONTINUOUS
 62
     3
100
AcDbLine
 10
1931.105840468344
 20
-2.769956189540153
 30
0.0
 11
1931.105840468344
 21
9.730043810459847
 31
0.0
  0
LINE
  5
287
330
1F
100
AcDbEntity
  8
LAYER0032
  6
CONTINUOUS
 62
     3
100
AcDbLine
 10
1931.911142468344
 20
-0.397448189539773
 30
0.0
 11
1931.911142468344
 21
0.2093338104600662
 31
0.0
  0
LINE
  5
288
330
1F
100
AcDbEntity
  8
LAYER0032
  6
CONTINUOUS
 62
     3
100
AcDbLine
 10
1931.105840468344
 20
-2.769956189540153
 30
0.0
 11
1931.911142468344
 21
-4.164781189540463
 31
0.0
  0
ARC
  5
289
330
1F
100
AcDbEntity
  8
LAYER0032
  6
CONTINUOUS
 62
     3
100
AcDbCircle
 10
1935.086831468344
 20
-2.281114189540403
 30
0.0
 40
3.692316
100
AcDbArc
 50
149.3256090000002
 51
210.7678040000001
  0
LINE
  5
28A
330
1F
100
AcDbEntity
  8
LAYER0032
  6
CONTINUOUS
 62
     3
100
AcDbLine
 10
1931.911142468344
 20
10.1591028104599
 30
0.0
 11
1931.911142468344
 21
9.730043810459847
 31
0.0
  0
LINE
  5
28B
330
1F
100
AcDbEntity
  8
LAYER0032
  6
CONTINUOUS
 62
     3
100
AcDbLine
 10
1931.911142468344
 20
9.300984810459795
 30
0.0
 11
1931.911142468344
 21
9.730043810459847
 31
0.0
  0
ARC
  5
28C
330
1F
100
AcDbEntity
  8
LAYER0032
  6
CONTINUOUS
 62
     3
100
AcDbCircle
 10
1953.137594468345
 20
-4.769956189540153
 30
0.0
 40
2.0
100
AcDbArc
 50
270.0
 51
298.955024
  0
LINE
  5
28D
330
1F
100
AcDbEntity
  8
LAYER0032
  6
CONTINUOUS
 62
     3
100
AcDbLine
 10
1950.105840468344
 20
-6.469956189539971
 30
0.0
 11
1949.805840468344
 21
-6.769956189540153
 31
0.0
  0
ARC
  5
28E
330
1F
100
AcDbEntity
  8
LAYER0032
  6
CONTINUOUS
 62
     3
100
AcDbCircle
 10
1948.105840468344
 20
-5.769956189540153
 30
0.0
 40
1.0
100
AcDbArc
 50
180.0
 51
270.0
  0
LINE
  5
28F
330
1F
100
AcDbEntity
  8
LAYER0032
  6
CONTINUOUS
 62
     3
100
AcDbLine
 10
1950.105840468344
 20
-6.769956189540153
 30
0.0
 11
1950.105840468344
 21
9.730043810459847
 31
0.0
  0
LINE
  5
290
330
1F
100
AcDbEntity
  8
LAYER0032
  6
CONTINUOUS
 62
     3
100
AcDbLine
 10
1955.215369468344
 20
6.730043810459847
 30
0.0
 11
1953.105840468344
 21
6.730043810459847
 31
0.0
  0
ARC
  5
291
330
1F
100
AcDbEntity
  8
LAYER0032
  6
CONTINUOUS
 62
     3
100
AcDbCircle
 10
1954.605840468344
 20
4.730043810459847
 30
0.0
 40
2.0
100
AcDbArc
 50
180.0
 51
270.0
  0
LINE
  5
292
330
1F
100
AcDbEntity
  8
LAYER0032
  6
CONTINUOUS
 62
     3
100
AcDbLine
 10
1947.105840468344
 20
-5.769956189540153
 30
0.0
 11
1947.105840468344
 21
9.730043810459847
 31
0.0
  0
ARC
  5
293
330
1F
100
AcDbEntity
  8
LAYER0032
  6
CONTINUOUS
 62
     3
100
AcDbCircle
 10
1945.605840468344
 20
-5.669956189539789
 30
0.0
 40
1.5
100
AcDbArc
 50
0.0
 51
90.0
  0
LINE
  5
294
330
1F
100
AcDbEntity
  8
LAYER0032
  6
CONTINUOUS
 62
     3
100
AcDbLine
 10
1952.605840468344
 20
6.230043810459847
 30
0.0
 11
1952.605840468344
 21
4.730043810459847
 31
0.0
  0
ARC
  5
295
330
1F
100
AcDbEntity
  8
LAYER0032
  6
CONTINUOUS
 62
     3
100
AcDbCircle
 10
1953.105840468344
 20
6.230043810459847
 30
0.0
 40
0.5
100
AcDbArc
 50
90.0
 51
180.0
  0
ARC
  5
296
330
1F
100
AcDbEntity
  8
LAYER0032
  6
CONTINUOUS
 62
     3
100
AcDbCircle
 10
1963.605840468344
 20
9.730043810459847
 30
0.0
 40
8.0
100
AcDbArc
 50
241.044976
 51
298.955024
  0
ARC
  5
297
330
1F
100
AcDbEntity
  8
LAYER0032
  6
CONTINUOUS
 62
     3
100
AcDbCircle
 10
1963.605840468344
 20
9.730043810459847
 30
0.0
 40
8.75
100
AcDbArc
 50
233.1301020000001
 51
306.8698979999999
  0
ARC
  5
298
330
1F
100
AcDbEntity
  8
LAYER0032
  6
CONTINUOUS
 62
     3
100
AcDbCircle
 10
1960.271762468344
 20
-7.519956189540153
 30
0.0
 40
2.0
100
AcDbArc
 50
90.0
 51
125.6590880000003
  0
ARC
  5
299
330
1F
100
AcDbEntity
  8
LAYER0032
  6
CONTINUOUS
 62
     3
100
AcDbCircle
 10
1957.939917468344
 20
-4.269956189540153
 30
0.0
 40
2.0
100
AcDbArc
 50
270.0
 51
305.6590880000003
  0
ARC
  5
29A
330
1F
100
AcDbEntity
  8
LAYER0032
  6
CONTINUOUS
 62
     3
100
AcDbCircle
 10
1955.074085468344
 20
-8.269956189540153
 30
0.0
 40
2.0
100
AcDbArc
 50
90.0
 51
118.955024
  0
LINE
  5
29B
330
1F
100
AcDbEntity
  8
LAYER0032
  6
CONTINUOUS
 62
     3
100
AcDbLine
 10
1954.105840468344
 20
-5.94933318953963
 30
0.0
 11
1954.105840468344
 21
2.793551810460031
 31
0.0
  0
LINE
  5
29C
330
1F
100
AcDbEntity
  8
LAYER0032
  6
CONTINUOUS
 62
     3
100
AcDbLine
 10
1959.105840468344
 20
-4.99575318954021
 30
0.0
 11
1959.105840468344
 21
1.738023810460163
 31
0.0
  0
CIRCLE
  5
29D
330
1F
100
AcDbEntity
  8
LAYER0032
  6
CONTINUOUS
 62
     3
100
AcDbCircle
 10
1963.605840468344
 20
9.730043810459847
 30
0.0
 40
3.0
  0
CIRCLE
  5
29E
330
1F
100
AcDbEntity
  8
LAYER0032
  6
CONTINUOUS
 62
     3
100
AcDbCircle
 10
1963.605840468344
 20
9.730043810459847
 30
0.0
 40
5.0
  0
ARC
  5
29F
330
1F
100
AcDbEntity
  8
LAYER0032
  6
CONTINUOUS
 62
     3
100
AcDbCircle
 10
1955.215369468344
 20
7.430043810459665
 30
0.0
 40
0.7
100
AcDbArc
 50
270.0
 51
15.3293919999997
  0
LINE
  5
2A0
330
1F
100
AcDbEntity
  8
LAYER0032
  6
CONTINUOUS
 62
     3
100
AcDbLine
 10
1954.105840468344
 20
6.730043810459847
 30
0.0
 11
1954.105840468344
 21
9.730043810459847
 31
0.0
  0
CIRCLE
  5
2A1
330
1F
100
AcDbEntity
  8
LAYER0032
  6
CONTINUOUS
 62
     3
100
AcDbCircle
 10
1963.605840468344
 20
9.730043810459847
 30
0.0
 40
2.0
  0
LINE
  5
2A2
330
1F
100
AcDbEntity
  8
LAYER0032
  6
CONTINUOUS
 62
     3
100
AcDbLine
 10
1931.914217468344
 20
23.63004381046039
 30
0.0
 11
1945.605840468344
 21
23.63004381046039
 31
0.0
  0
LINE
  5
2A3
330
1F
100
AcDbEntity
  8
LAYER0032
  6
CONTINUOUS
 62
     3
100
AcDbLine
 10
1931.911142468344
 20
19.85753481046004
 30
0.0
 11
1945.605840468344
 21
19.85753481046004
 31
0.0
  0
LINE
  5
2A4
330
1F
100
AcDbEntity
  8
LAYER0032
  6
CONTINUOUS
 62
     3
100
AcDbLine
 10
1931.911142468344
 20
19.25075381045963
 30
0.0
 11
1945.605840468344
 21
19.25075381045963
 31
0.0
  0
LINE
  5
2A5
330
1F
100
AcDbEntity
  8
LAYER0032
  6
CONTINUOUS
 62
     3
100
AcDbLine
 10
1931.105840468344
 20
22.23004381045985
 30
0.0
 11
1931.911142468344
 21
23.62486881046016
 31
0.0
  0
LINE
  5
2A6
330
1F
100
AcDbEntity
  8
LAYER0032
  6
CONTINUOUS
 62
     3
100
AcDbLine
 10
1931.911142468344
 20
19.85753481046004
 30
0.0
 11
1931.911142468344
 21
19.25075381045963
 31
0.0
  0
ARC
  5
2A7
330
1F
100
AcDbEntity
  8
LAYER0032
  6
CONTINUOUS
 62
     3
100
AcDbCircle
 10
1935.086831468344
 20
21.7412018104601
 30
0.0
 40
3.692316
100
AcDbArc
 50
149.232196
 51
210.6743909999998
  0
ARC
  5
2A8
330
1F
100
AcDbEntity
  8
LAYER0032
  6
CONTINUOUS
 62
     3
100
AcDbCircle
 10
1953.137594468345
 20
24.23004381045985
 30
0.0
 40
2.0
100
AcDbArc
 50
61.044976
 51
90.0
  0
ARC
  5
2A9
330
1F
100
AcDbEntity
  8
LAYER0032
  6
CONTINUOUS
 62
     3
100
AcDbCircle
 10
1948.105840468344
 20
25.23004381045985
 30
0.0
 40
1.0
100
AcDbArc
 50
90.0
 51
180.0
  0
LINE
  5
2AA
330
1F
100
AcDbEntity
  8
LAYER0032
  6
CONTINUOUS
 62
     3
100
AcDbLine
 10
1950.105840468344
 20
25.93004381045967
 30
0.0
 11
1949.805840468344
 21
26.23004381045985
 31
0.0
  0
ARC
  5
2AB
330
1F
100
AcDbEntity
  8
LAYER0032
  6
CONTINUOUS
 62
     3
100
AcDbCircle
 10
1945.605840468344
 20
25.13004381046039
 30
0.0
 40
1.5
100
AcDbArc
 50
270.0
 51
0.0
  0
ARC
  5
2AC
330
1F
100
AcDbEntity
  8
LAYER0032
  6
CONTINUOUS
 62
     3
100
AcDbCircle
 10
1963.605840468344
 20
9.730043810459847
 30
0.0
 40
8.7
100
AcDbArc
 50
70.87766699999996
 51
109.1223330000001
  0
ARC
  5
2AD
330
1F
100
AcDbEntity
  8
LAYER0032
  6
CONTINUOUS
 62
     3
100
AcDbCircle
 10
1961.755840468345
 20
20.73004381045985
 30
0.0
 40
1.0
100
AcDbArc
 50
90.0
 51
180.0
  0
ARC
  5
2AE
330
1F
100
AcDbEntity
  8
LAYER0032
  6
CONTINUOUS
 62
     3
100
AcDbCircle
 10
1957.939917468344
 20
23.73004381045985
 30
0.0
 40
2.0
100
AcDbArc
 50
54.3409119999997
 51
90.0
  0
ARC
  5
2AF
330
1F
100
AcDbEntity
  8
LAYER0032
  6
CONTINUOUS
 62
     3
100
AcDbCircle
 10
1960.271762468344
 20
26.98004381045985
 30
0.0
 40
2.0
100
AcDbArc
 50
234.3409119999997
 51
270.0
  0
ARC
  5
2B0
330
1F
100
AcDbEntity
  8
LAYER0032
  6
CONTINUOUS
 62
     3
100
AcDbCircle
 10
1955.074085468344
 20
27.73004381045985
 30
0.0
 40
2.0
100
AcDbArc
 50
241.044976
 51
270.0
  0
LINE
  5
2B1
330
1F
100
AcDbEntity
  8
LAYER0032
  6
CONTINUOUS
 62
     3
100
AcDbLine
 10
1960.755840468345
 20
17.5420538104604
 30
0.0
 11
1960.755840468345
 21
20.73004381045985
 31
0.0
  0
ARC
  5
2B2
330
1F
100
AcDbEntity
  8
LAYER0032
  6
CONTINUOUS
 62
     3
100
AcDbCircle
 10
1958.755840468345
 20
18.46960681045994
 30
0.0
 40
2.0
100
AcDbArc
 50
302.6080329999999
 51
0.0
  0
LINE
  5
2B3
330
1F
100
AcDbEntity
  8
LAYER0032
  6
CONTINUOUS
 62
     3
100
AcDbLine
 10
1959.105840468344
 20
24.4558408104599
 30
0.0
 11
1959.105840468344
 21
17.72206381045953
 31
0.0
  0
LINE
  5
2B4
330
1F
100
AcDbEntity
  8
LAYER0032
  6
CONTINUOUS
 62
     3
100
AcDbLine
 10
1961.755840468345
 20
21.73004381045985
 30
0.0
 11
1965.455840468344
 21
21.73004381045985
 31
0.0
  0
ARC
  5
2B5
330
1F
100
AcDbEntity
  8
LAYER0032
  6
CONTINUOUS
 62
     3
100
AcDbCircle
 10
1963.605840468344
 20
9.730043810459847
 30
0.0
 40
8.75
100
AcDbArc
 50
70.08431100000004
 51
70.57235800000005
  0
ARC
  5
2B6
330
1F
100
AcDbEntity
  8
LAYER0032
  6
CONTINUOUS
 62
     3
100
AcDbCircle
 10
1968.455840468344
 20
18.46960681045994
 30
0.0
 40
2.0
100
AcDbArc
 50
180.0
 51
197.934231
  0
LINE
  5
2B7
330
1F
100
AcDbEntity
  8
LAYER0032
  6
CONTINUOUS
 62
     3
100
AcDbLine
 10
1966.605840468344
 20
20.23004381045985
 30
0.0
 11
1966.605840468344
 21
18.12051481045955
 31
0.0
  0
ARC
  5
2B8
330
1F
100
AcDbEntity
  8
LAYER0032
  6
CONTINUOUS
 62
     3
100
AcDbCircle
 10
1965.905840468344
 20
18.12051481045955
 30
0.0
 40
0.7
100
AcDbArc
 50
254.670608
 51
0.0
  0
ARC
  5
2B9
330
1F
100
AcDbEntity
  8
LAYER0032
  6
CONTINUOUS
 62
     3
100
AcDbCircle
 10
1967.105840468344
 20
20.23004381045985
 30
0.0
 40
0.5
100
AcDbArc
 50
90.0
 51
180.0
  0
LINE
  5
2BA
330
1F
100
AcDbEntity
  8
LAYER0032
  6
CONTINUOUS
 62
     3
100
AcDbLine
 10
1966.455840468344
 20
17.94998881045967
 30
0.0
 11
1966.455840468344
 21
20.73004381045985
 31
0.0
  0
ARC
  5
2BB
330
1F
100
AcDbEntity
  8
LAYER0032
  6
CONTINUOUS
 62
     3
100
AcDbCircle
 10
1965.455840468344
 20
20.73004381045985
 30
0.0
 40
1.0
100
AcDbArc
 50
0.0
 51
90.0
  0
LINE
  5
2BC
330
1F
100
AcDbEntity
  8
LAYER0032
  6
CONTINUOUS
 62
     3
100
AcDbLine
 10
1989.152845468344
 20
3.730043810459847
 30
0.0
 11
1989.152845468344
 21
19.73004381045985
 31
0.0
  0
LINE
  5
2BD
330
1F
100
AcDbEntity
  8
LAYER0032
  6
CONTINUOUS
 62
     3
100
AcDbLine
 10
1977.605840468344
 20
20.73004381045985
 30
0.0
 11
1977.605840468344
 21
2.730043810459847
 31
0.0
  0
LINE
  5
2BE
330
1F
100
AcDbEntity
  8
LAYER0032
  6
CONTINUOUS
 62
     3
100
AcDbLine
 10
1977.605840468344
 20
22.20654581046028
 30
0.0
 11
1977.605840468344
 21
9.730043810459847
 31
0.0
  0
LINE
  5
2BF
330
1F
100
AcDbEntity
  8
LAYER0032
  6
CONTINUOUS
 62
     3
100
AcDbLine
 10
1989.152845468344
 20
3.730043810459847
 30
0.0
 11
2018.605840468344
 21
3.730043810459847
 31
0.0
  0
LINE
  5
2C0
330
1F
100
AcDbEntity
  8
LAYER0032
  6
CONTINUOUS
 62
     3
100
AcDbLine
 10
1995.297549468345
 20
-4.169956189539789
 30
0.0
 11
1984.255840468345
 21
-4.169956189539789
 31
0.0
  0
LINE
  5
2C1
330
1F
100
AcDbEntity
  8
LAYER0032
  6
CONTINUOUS
 62
     3
100
AcDbLine
 10
1995.297549468345
 20
-0.397448189539773
 30
0.0
 11
1984.255840468345
 21
-0.397448189539773
 31
0.0
  0
LINE
  5
2C2
330
1F
100
AcDbEntity
  8
LAYER0032
  6
CONTINUOUS
 62
     3
100
AcDbLine
 10
1995.297549468345
 20
0.2093338104600662
 30
0.0
 11
1984.255840468345
 21
0.2093338104600662
 31
0.0
  0
LINE
  5
2C3
330
1F
100
AcDbEntity
  8
LAYER0032
  6
CONTINUOUS
 62
     3
100
AcDbLine
 10
1977.605840468344
 20
2.730043810459847
 30
0.0
 11
1989.152845468344
 21
3.730043810459847
 31
0.0
  0
ARC
  5
2C4
330
1F
100
AcDbEntity
  8
LAYER0032
  6
CONTINUOUS
 62
     3
100
AcDbCircle
 10
1978.434267468344
 20
-5.019956189540153
 30
0.0
 40
2.0
100
AcDbArc
 50
90.0
 51
135.0
  0
LINE
  5
2C5
330
1F
100
AcDbEntity
  8
LAYER0032
  6
CONTINUOUS
 62
     3
100
AcDbLine
 10
1977.020053468344
 20
-3.605743189540135
 30
0.0
 11
1976.941626468345
 21
-3.6841701895396
 31
0.0
  0
LINE
  5
2C6
330
1F
100
AcDbEntity
  8
LAYER0032
  6
CONTINUOUS
 62
     3
100
AcDbLine
 10
1971.812946468344
 20
-4.562849189539975
 30
0.0
 11
1971.441626468345
 21
-4.9341701895396
 31
0.0
  0
ARC
  5
2C7
330
1F
100
AcDbEntity
  8
LAYER0032
  6
CONTINUOUS
 62
     3
100
AcDbCircle
 10
1970.027412468344
 20
-3.519956189540153
 30
0.0
 40
2.0
100
AcDbArc
 50
270.0
 51
315.0
  0
ARC
  5
2C8
330
1F
100
AcDbEntity
  8
LAYER0032
  6
CONTINUOUS
 62
     3
100
AcDbCircle
 10
1972.520053468344
 20
-5.269956189540153
 30
0.0
 40
1.0
100
AcDbArc
 50
90.0
 51
135.0
  0
ARC
  5
2C9
330
1F
100
AcDbEntity
  8
LAYER0032
  6
CONTINUOUS
 62
     3
100
AcDbCircle
 10
1975.527412468344
 20
-2.269956189540153
 30
0.0
 40
2.0
100
AcDbArc
 50
270.0
 51
315.0
  0
LINE
  5
2CA
330
1F
100
AcDbEntity
  8
LAYER0032
  6
CONTINUOUS
 62
     3
100
AcDbLine
 10
1977.605840468344
 20
-2.517917189540185
 30
0.0
 11
1977.605840468344
 21
2.730043810459847
 31
0.0
  0
LINE
  5
2CB
330
1F
100
AcDbEntity
  8
LAYER0032
  6
CONTINUOUS
 62
     3
100
AcDbLine
 10
1976.355840468344
 20
-3.113226189540455
 30
0.0
 11
1976.355840468344
 21
2.730043810459847
 31
0.0
  0
LINE
  5
2CC
330
1F
100
AcDbEntity
  8
LAYER0032
  6
CONTINUOUS
 62
     3
100
AcDbLine
 10
1971.005840468345
 20
-4.492969189539963
 30
0.0
 11
1971.005840468345
 21
2.730043810459847
 31
0.0
  0
LINE
  5
2CD
330
1F
100
AcDbEntity
  8
LAYER0032
  6
CONTINUOUS
 62
     3
100
AcDbLine
 10
1972.105840468344
 20
-3.752534189540256
 30
0.0
 11
1972.105840468344
 21
2.730043810459847
 31
0.0
  0
ARC
  5
2CE
330
1F
100
AcDbEntity
  8
LAYER0032
  6
CONTINUOUS
 62
     3
100
AcDbCircle
 10
1995.286133468344
 20
4.755158810460216
 30
0.0
 40
11.930293
100
AcDbArc
 50
187.313687
 51
202.397631
  0
LINE
  5
2CF
330
1F
100
AcDbEntity
  8
LAYER0032
  6
CONTINUOUS
 62
     3
100
AcDbLine
 10
1984.255840468345
 20
-0.397448189539773
 30
0.0
 11
1984.255840468345
 21
0.2093338104600662
 31
0.0
  0
ARC
  5
2D0
330
1F
100
AcDbEntity
  8
LAYER0032
  6
CONTINUOUS
 62
     3
100
AcDbCircle
 10
1982.277412468344
 20
-5.019956189540153
 30
0.0
 40
2.0
100
AcDbArc
 50
45.0
 51
90.0
  0
LINE
  5
2D1
330
1F
100
AcDbEntity
  8
LAYER0032
  6
CONTINUOUS
 62
     3
100
AcDbLine
 10
1984.255840468345
 20
-4.169956189539789
 30
0.0
 11
1983.691626468345
 21
-3.605743189540135
 31
0.0
  0
LINE
  5
2D2
330
1F
100
AcDbEntity
  8
LAYER0032
  6
CONTINUOUS
 62
     3
100
AcDbLine
 10
1983.105840468344
 20
-2.769956189540153
 30
0.0
 11
1983.105840468344
 21
3.206357810460304
 31
0.0
  0
ARC
  5
2D3
330
1F
100
AcDbEntity
  8
LAYER0032
  6
CONTINUOUS
 62
     3
100
AcDbCircle
 10
1985.782481468344
 20
-2.283702189539781
 30
0.0
 40
2.426642
100
AcDbArc
 50
128.9850120000001
 51
218.9850120000001
  0
ARC
  5
2D4
330
1F
100
AcDbEntity
  8
LAYER0032
  6
CONTINUOUS
 62
     3
100
AcDbCircle
 10
1975.672906468345
 20
4.755158810460216
 30
0.0
 40
20.144259
100
AcDbArc
 50
346.9580990000001
 51
357.083032
  0
LINE
  5
2D5
330
1F
100
AcDbEntity
  8
LAYER0032
  6
CONTINUOUS
 62
     3
100
AcDbLine
 10
1995.297549468345
 20
-0.397448189539773
 30
0.0
 11
1995.297549468345
 21
0.2093338104600662
 31
0.0
  0
LINE
  5
2D6
330
1F
100
AcDbEntity
  8
LAYER0032
  6
CONTINUOUS
 62
     3
100
AcDbLine
 10
1995.297549468345
 20
-4.169956189539789
 30
0.0
 11
1996.105840468344
 21
-2.769956189540153
 31
0.0
  0
LINE
  5
2D7
330
1F
100
AcDbEntity
  8
LAYER0032
  6
CONTINUOUS
 62
     3
100
AcDbLine
 10
1996.105840468344
 20
-2.769956189540153
 30
0.0
 11
1996.105840468344
 21
3.730043810459847
 31
0.0
  0
ARC
  5
2D8
330
1F
100
AcDbEntity
  8
LAYER0032
  6
CONTINUOUS
 62
     3
100
AcDbCircle
 10
1992.133723468344
 20
-2.283702189539781
 30
0.0
 40
3.683443
100
AcDbArc
 50
329.1968529999999
 51
30.80314700000012
  0
LINE
  5
2D9
330
1F
100
AcDbEntity
  8
LAYER0032
  6
CONTINUOUS
 62
     3
100
AcDbLine
 10
1989.152845468344
 20
19.73004381045985
 30
0.0
 11
2018.605840468344
 21
19.73004381045985
 31
0.0
  0
LINE
  5
2DA
330
1F
100
AcDbEntity
  8
LAYER0032
  6
CONTINUOUS
 62
     3
100
AcDbLine
 10
1995.297549468345
 20
23.63004381046039
 30
0.0
 11
1984.255840468345
 21
23.63004381046039
 31
0.0
  0
LINE
  5
2DB
330
1F
100
AcDbEntity
  8
LAYER0032
  6
CONTINUOUS
 62
     3
100
AcDbLine
 10
1977.605840468344
 20
20.73004381045985
 30
0.0
 11
1989.152845468344
 21
19.73004381045985
 31
0.0
  0
ARC
  5
2DC
330
1F
100
AcDbEntity
  8
LAYER0032
  6
CONTINUOUS
 62
     3
100
AcDbCircle
 10
1978.434267468344
 20
24.48004381045985
 30
0.0
 40
2.0
100
AcDbArc
 50
225.0
 51
270.0
  0
LINE
  5
2DD
330
1F
100
AcDbEntity
  8
LAYER0032
  6
CONTINUOUS
 62
     3
100
AcDbLine
 10
1977.020053468344
 20
23.0658298104604
 30
0.0
 11
1976.941626468345
 21
23.14425681045986
 31
0.0
  0
ARC
  5
2DE
330
1F
100
AcDbEntity
  8
LAYER0032
  6
CONTINUOUS
 62
     3
100
AcDbCircle
 10
1972.520053468344
 20
24.73004381045985
 30
0.0
 40
1.0
100
AcDbArc
 50
225.0
 51
270.0
  0
LINE
  5
2DF
330
1F
100
AcDbEntity
  8
LAYER0032
  6
CONTINUOUS
 62
     3
100
AcDbLine
 10
1971.812946468344
 20
24.02293681045967
 30
0.0
 11
1971.441626468345
 21
24.39425681045986
 31
0.0
  0
ARC
  5
2E0
330
1F
100
AcDbEntity
  8
LAYER0032
  6
CONTINUOUS
 62
     3
100
AcDbCircle
 10
1970.027412468344
 20
22.98004381045985
 30
0.0
 40
2.0
100
AcDbArc
 50
45.0
 51
90.0
  0
ARC
  5
2E1
330
1F
100
AcDbEntity
  8
LAYER0032
  6
CONTINUOUS
 62
     3
100
AcDbCircle
 10
1975.527412468344
 20
21.73004381045985
 30
0.0
 40
2.0
100
AcDbArc
 50
45.0
 51
90.0
  0
LINE
  5
2E2
330
1F
100
AcDbEntity
  8
LAYER0032
  6
CONTINUOUS
 62
     3
100
AcDbLine
 10
1976.355840468344
 20
22.57331381046015
 30
0.0
 11
1976.355840468344
 21
20.73004381045985
 31
0.0
  0
LINE
  5
2E3
330
1F
100
AcDbEntity
  8
LAYER0032
  6
CONTINUOUS
 62
     3
100
AcDbLine
 10
1972.105840468344
 20
23.21262181045995
 30
0.0
 11
1972.105840468344
 21
20.73004381045985
 31
0.0
  0
LINE
  5
2E4
330
1F
100
AcDbEntity
  8
LAYER0032
  6
CONTINUOUS
 62
     3
100
AcDbLine
 10
1971.005840468345
 20
23.95305681045966
 30
0.0
 11
1971.005840468345
 21
20.73004381045985
 31
0.0
  0
ARC
  5
2E5
330
1F
100
AcDbEntity
  8
LAYER0032
  6
CONTINUOUS
 62
     3
100
AcDbCircle
 10
1982.277412468344
 20
24.48004381045985
 30
0.0
 40
2.0
100
AcDbArc
 50
270.0
 51
315.0
  0
LINE
  5
2E6
330
1F
100
AcDbEntity
  8
LAYER0032
  6
CONTINUOUS
 62
     3
100
AcDbLine
 10
1984.255840468345
 20
23.63004381046039
 30
0.0
 11
1983.691626468345
 21
23.0658298104604
 31
0.0
  0
ARC
  5
2E7
330
1F
100
AcDbEntity
  8
LAYER0032
  6
CONTINUOUS
 62
     3
100
AcDbCircle
 10
1985.782481468344
 20
21.74378981046038
 30
0.0
 40
2.426642
100
AcDbArc
 50
141.0149879999999
 51
220.0352950000002
  0
LINE
  5
2E8
330
1F
100
AcDbEntity
  8
LAYER0032
  6
CONTINUOUS
 62
     3
100
AcDbLine
 10
1983.105840468344
 20
22.03543981045959
 30
0.0
 11
1983.105840468344
 21
20.2537298104603
 31
0.0
  0
LINE
  5
2E9
330
1F
100
AcDbEntity
  8
LAYER0032
  6
CONTINUOUS
 62
     3
100
AcDbLine
 10
1995.297549468345
 20
19.85753481046004
 30
0.0
 11
1987.680701468344
 21
19.85753481046004
 31
0.0
  0
LINE
  5
2EA
330
1F
100
AcDbEntity
  8
LAYER0032
  6
CONTINUOUS
 62
     3
100
AcDbLine
 10
1995.297549468345
 20
23.63004381046039
 30
0.0
 11
1996.105840468344
 21
22.23004381045985
 31
0.0
  0
ARC
  5
2EB
330
1F
100
AcDbEntity
  8
LAYER0032
  6
CONTINUOUS
 62
     3
100
AcDbCircle
 10
1992.133723468344
 20
21.74378981046038
 30
0.0
 40
3.683443
100
AcDbArc
 50
329.1968529999999
 51
30.80314700000012
  0
LINE
  5
2EC
330
1F
100
AcDbEntity
  8
LAYER0032
  6
CONTINUOUS
 62
     3
100
AcDbLine
 10
2048.605840468344
 20
15.76720881045958
 30
0.0
 11
2048.605840468344
 21
7.692877810459777
 31
0.0
  0
ARC
  5
2ED
330
1F
100
AcDbEntity
  8
LAYER0032
  6
CONTINUOUS
 62
     3
100
AcDbCircle
 10
2046.605840468344
 20
7.692877810459777
 30
0.0
 40
2.0
100
AcDbArc
 50
273.9999999999998
 51
0.0
  0
ARC
  5
2EE
330
1F
100
AcDbEntity
  8
LAYER0032
  6
CONTINUOUS
 62
     3
100
AcDbCircle
 10
2046.605840468344
 20
15.76720881045958
 30
0.0
 40
2.0
100
AcDbArc
 50
0.0
 51
86.00000000000023
  0
ARC
  5
2EF
330
1F
100
AcDbEntity
  8
LAYER0032
  6
CONTINUOUS
 62
     3
100
AcDbCircle
 10
1960.255840468345
 20
17.5420538104604
 30
0.0
 40
0.5
100
AcDbArc
 50
293.210955
 51
0.0
  0
LINE
  5
2F0
330
1F
100
AcDbEntity
  8
LAYER0032
  6
CONTINUOUS
 62
     3
100
AcDbLine
 10
1960.271762468344
 20
24.98004381045985
 30
0.0
 11
1970.027412468344
 21
24.98004381045985
 31
0.0
  0
LINE
  5
2F1
330
1F
100
AcDbEntity
  8
LAYER0032
  6
CONTINUOUS
 62
     3
100
AcDbLine
 10
1960.271762468344
 20
-5.519956189540153
 30
0.0
 11
1970.027412468344
 21
-5.519956189540153
 31
0.0
  0
LINE
  5
2F2
330
1F
100
AcDbEntity
  8
LAYER0032
  6
CONTINUOUS
 62
     3
100
AcDbLine
 10
1949.805840468344
 20
-6.769956189540153
 30
0.0
 11
1948.105840468344
 21
-6.769956189540153
 31
0.0
  0
LINE
  5
2F3
330
1F
100
AcDbEntity
  8
LAYER0032
  6
CONTINUOUS
 62
     3
100
AcDbLine
 10
1950.105840468344
 20
-6.769956189540153
 30
0.0
 11
1953.137594468345
 21
-6.769956189540153
 31
0.0
  0
LINE
  5
2F4
330
1F
100
AcDbEntity
  8
LAYER0032
  6
CONTINUOUS
 62
     3
100
AcDbLine
 10
1955.074085468344
 20
-6.269956189540153
 30
0.0
 11
1957.939917468344
 21
-6.269956189540153
 31
0.0
  0
LINE
  5
2F5
330
1F
100
AcDbEntity
  8
LAYER0032
  6
CONTINUOUS
 62
     3
100
AcDbLine
 10
1949.805840468344
 20
26.23004381045985
 30
0.0
 11
1948.105840468344
 21
26.23004381045985
 31
0.0
  0
LINE
  5
2F6
330
1F
100
AcDbEntity
  8
LAYER0032
  6
CONTINUOUS
 62
     3
100
AcDbLine
 10
1950.105840468344
 20
26.23004381045985
 30
0.0
 11
1953.137594468345
 21
26.23004381045985
 31
0.0
  0
LINE
  5
2F7
330
1F
100
AcDbEntity
  8
LAYER0032
  6
CONTINUOUS
 62
     3
100
AcDbLine
 10
1955.074085468344
 20
25.73004381045985
 30
0.0
 11
1957.939917468344
 21
25.73004381045985
 31
0.0
  0
LINE
  5
2F8
330
1F
100
AcDbEntity
  8
LAYER0032
  6
CONTINUOUS
 62
     3
100
AcDbLine
 10
1972.520053468344
 20
-4.269956189540153
 30
0.0
 11
1975.527412468344
 21
-4.269956189540153
 31
0.0
  0
LINE
  5
2F9
330
1F
100
AcDbEntity
  8
LAYER0032
  6
CONTINUOUS
 62
     3
100
AcDbLine
 10
1972.520053468344
 20
23.73004381045985
 30
0.0
 11
1975.527412468344
 21
23.73004381045985
 31
0.0
  0
LINE
  5
2FA
330
1F
100
AcDbEntity
  8
LAYER0032
  6
CONTINUOUS
 62
     3
100
AcDbLine
 10
1978.434267468344
 20
-3.019956189540153
 30
0.0
 11
1982.277412468344
 21
-3.019956189540153
 31
0.0
  0
LINE
  5
2FB
330
1F
100
AcDbEntity
  8
LAYER0032
  6
CONTINUOUS
 62
     3
100
AcDbLine
 10
1978.434267468344
 20
22.48004381045985
 30
0.0
 11
1982.277412468344
 21
22.48004381045985
 31
0.0
  0
LINE
  5
2FC
330
1F
100
AcDbEntity
  8
LAYER0032
  6
CONTINUOUS
 62
     3
100
AcDbLine
 10
1896.785702179666
 20
-1229.508187547449
 30
0.0
 11
1896.955840468344
 21
-1223.723485732412
 31
0.0
  0
LINE
  5
2FD
330
1F
100
AcDbEntity
  8
LAYER0032
  6
CONTINUOUS
 62
     3
100
AcDbLine
 10
1897.784837875431
 20
-1229.537573891442
 30
0.0
 11
1897.955840468344
 21
-1223.723485732412
 31
0.0
  0
LINE
  5
2FE
330
1F
100
AcDbEntity
  8
LAYER0032
  6
CONTINUOUS
 62
     3
100
AcDbLine
 10
1896.955840468344
 20
-1223.723485732412
 30
0.0
 11
1897.955840468344
 21
-1221.991434924843
 31
0.0
  0
LINE
  5
2FF
330
1F
100
AcDbEntity
  8
LAYER0032
  6
CONTINUOUS
 62
     3
100
AcDbLine
 10
1897.955840468344
 20
-1221.991434924843
 30
0.0
 11
1876.255840468344
 21
-1221.991434924843
 31
0.0
  0
LINE
  5
300
330
1F
100
AcDbEntity
  8
LAYER0032
  6
CONTINUOUS
 62
     3
100
AcDbLine
 10
1876.426843061256
 20
-1229.537573891442
 30
0.0
 11
1876.255840468344
 21
-1223.723485732412
 31
0.0
  0
LINE
  5
301
330
1F
100
AcDbEntity
  8
LAYER0032
  6
CONTINUOUS
 62
     3
100
AcDbLine
 10
1877.425978757022
 20
-1229.508187547449
 30
0.0
 11
1877.255840468344
 21
-1223.723485732412
 31
0.0
  0
LINE
  5
302
330
1F
100
AcDbEntity
  8
LAYER0032
  6
CONTINUOUS
 62
     3
100
AcDbLine
 10
1877.255840468344
 20
-1223.723485732412
 30
0.0
 11
1876.255840468344
 21
-1221.991434924843
 31
0.0
  0
LINE
  5
303
330
1F
100
AcDbEntity
  8
LAYER0032
  6
CONTINUOUS
 62
     3
100
AcDbLine
 10
1898.605840468344
 20
-1269.72348573241
 30
0.0
 11
1914.105840468343
 21
-1269.72348573241
 31
0.0
  0
LINE
  5
304
330
1F
100
AcDbEntity
  8
LAYER0032
  6
CONTINUOUS
 62
     3
100
AcDbLine
 10
1905.605840468342
 20
-1242.72348573241
 30
0.0
 11
1914.105840468343
 21
-1242.72348573241
 31
0.0
  0
LINE
  5
305
330
1F
100
AcDbEntity
  8
LAYER0032
  6
CONTINUOUS
 62
     3
100
AcDbLine
 10
1922.605840468344
 20
-1242.72348573241
 30
0.0
 11
1931.105840468344
 21
-1244.22348573241
 31
0.0
  0
LINE
  5
306
330
1F
100
AcDbEntity
  8
LAYER0032
  6
CONTINUOUS
 62
     3
100
AcDbLine
 10
1922.605840468343
 20
-1242.72348573241
 30
0.0
 11
1914.105840468343
 21
-1244.22348573241
 31
0.0
  0
LINE
  5
307
330
1F
100
AcDbEntity
  8
LAYER0032
  6
CONTINUOUS
 62
     3
100
AcDbLine
 10
1914.105840468343
 20
-1269.72348573241
 30
0.0
 11
1914.105840468343
 21
-1242.72348573241
 31
0.0
  0
LINE
  5
308
330
1F
100
AcDbEntity
  8
LAYER0032
  6
CONTINUOUS
 62
     3
100
AcDbLine
 10
1922.605840468343
 20
-1242.72348573241
 30
0.0
 11
1922.605840468343
 21
-1269.72348573241
 31
0.0
  0
LINE
  5
309
330
1F
100
AcDbEntity
  8
LAYER0032
  6
CONTINUOUS
 62
     3
100
AcDbLine
 10
1922.605840468344
 20
-1269.723485732411
 30
0.0
 11
1931.105840468344
 21
-1268.223485732411
 31
0.0
  0
LINE
  5
30A
330
1F
100
AcDbEntity
  8
LAYER0032
  6
CONTINUOUS
 62
     3
100
AcDbLine
 10
1922.605840468343
 20
-1269.723485732411
 30
0.0
 11
1914.105840468343
 21
-1268.223485732411
 31
0.0
  0
ARC
  5
30B
330
1F
100
AcDbEntity
  8
LAYER0032
  6
CONTINUOUS
 62
     3
100
AcDbCircle
 10
1905.605840468342
 20
-1237.72348573241
 30
0.0
 40
5.0
100
AcDbArc
 50
180.0
 51
270.0
  0
ARC
  5
30C
330
1F
100
AcDbEntity
  8
LAYER0032
  6
CONTINUOUS
 62
     3
100
AcDbCircle
 10
1898.605840468344
 20
-1244.72348573241
 30
0.0
 40
25.0
100
AcDbArc
 50
180.0
 51
270.0
  0
LINE
  5
30D
330
1F
100
AcDbEntity
  8
LAYER0032
  6
CONTINUOUS
 62
     3
100
AcDbLine
 10
1873.605840468344
 20
-1229.22348573241
 30
0.0
 11
1900.605840468342
 21
-1229.22348573241
 31
0.0
  0
LINE
  5
30E
330
1F
100
AcDbEntity
  8
LAYER0032
  6
CONTINUOUS
 62
     3
100
AcDbLine
 10
1873.605840468344
 20
-1229.22348573241
 30
0.0
 11
1873.605840468344
 21
-1244.72348573241
 31
0.0
  0
LINE
  5
30F
330
1F
100
AcDbEntity
  8
LAYER0032
  6
CONTINUOUS
 62
     3
100
AcDbLine
 10
1900.605840468342
 20
-1229.22348573241
 30
0.0
 11
1900.605840468342
 21
-1237.72348573241
 31
0.0
  0
LINE
  5
310
330
1F
100
AcDbEntity
  8
LAYER0032
  6
CONTINUOUS
 62
     3
100
AcDbLine
 10
1996.105840468343
 20
-1243.72348573241
 30
0.0
 11
1996.105840468343
 21
-1256.22348573241
 31
0.0
  0
LINE
  5
311
330
1F
100
AcDbEntity
  8
LAYER0032
  6
CONTINUOUS
 62
     3
100
AcDbLine
 10
1931.105840468343
 20
-1243.72348573241
 30
0.0
 11
1931.105840468343
 21
-1256.22348573241
 31
0.0
  0
LINE
  5
312
330
1F
100
AcDbEntity
  8
LAYER0032
  6
CONTINUOUS
 62
     3
100
AcDbLine
 10
1931.914217468344
 20
-1270.12348573241
 30
0.0
 11
1945.605840468343
 21
-1270.12348573241
 31
0.0
  0
LINE
  5
313
330
1F
100
AcDbEntity
  8
LAYER0032
  6
CONTINUOUS
 62
     3
100
AcDbLine
 10
1931.105840468343
 20
-1268.72348573241
 30
0.0
 11
1931.105840468343
 21
-1256.22348573241
 31
0.0
  0
LINE
  5
314
330
1F
100
AcDbEntity
  8
LAYER0032
  6
CONTINUOUS
 62
     3
100
AcDbLine
 10
1931.105840468343
 20
-1268.72348573241
 30
0.0
 11
1931.911142468344
 21
-1270.11831073241
 31
0.0
  0
ARC
  5
315
330
1F
100
AcDbEntity
  8
LAYER0032
  6
CONTINUOUS
 62
     3
100
AcDbCircle
 10
1953.137594468343
 20
-1270.72348573241
 30
0.0
 40
2.0
100
AcDbArc
 50
270.0
 51
298.9550240000002
  0
LINE
  5
316
330
1F
100
AcDbEntity
  8
LAYER0032
  6
CONTINUOUS
 62
     3
100
AcDbLine
 10
1950.105840468343
 20
-1272.42348573241
 30
0.0
 11
1949.805840468344
 21
-1272.72348573241
 31
0.0
  0
ARC
  5
317
330
1F
100
AcDbEntity
  8
LAYER0032
  6
CONTINUOUS
 62
     3
100
AcDbCircle
 10
1948.105840468343
 20
-1271.72348573241
 30
0.0
 40
1.0
100
AcDbArc
 50
180.0
 51
270.0
  0
ARC
  5
318
330
1F
100
AcDbEntity
  8
LAYER0032
  6
CONTINUOUS
 62
     3
100
AcDbCircle
 10
1945.605840468343
 20
-1271.62348573241
 30
0.0
 40
1.5
100
AcDbArc
 50
0.0
 51
90.0
  0
ARC
  5
319
330
1F
100
AcDbEntity
  8
LAYER0032
  6
CONTINUOUS
 62
     3
100
AcDbCircle
 10
1957.939917468344
 20
-1270.22348573241
 30
0.0
 40
2.0
100
AcDbArc
 50
270.0
 51
305.6590880000001
  0
ARC
  5
31A
330
1F
100
AcDbEntity
  8
LAYER0032
  6
CONTINUOUS
 62
     3
100
AcDbCircle
 10
1960.271762468343
 20
-1273.47348573241
 30
0.0
 40
2.0
100
AcDbArc
 50
90.0
 51
125.6590880000001
  0
ARC
  5
31B
330
1F
100
AcDbEntity
  8
LAYER0032
  6
CONTINUOUS
 62
     3
100
AcDbCircle
 10
1955.074085468343
 20
-1274.22348573241
 30
0.0
 40
2.0
100
AcDbArc
 50
90.0
 51
118.9550240000002
  0
LINE
  5
31C
330
1F
100
AcDbEntity
  8
LAYER0032
  6
CONTINUOUS
 62
     3
100
AcDbLine
 10
1984.255840468344
 20
-1270.12348573241
 30
0.0
 11
1995.297549468344
 21
-1270.12348573241
 31
0.0
  0
ARC
  5
31D
330
1F
100
AcDbEntity
  8
LAYER0032
  6
CONTINUOUS
 62
     3
100
AcDbCircle
 10
1978.434267468344
 20
-1270.97348573241
 30
0.0
 40
2.0
100
AcDbArc
 50
90.0
 51
135.0000000000003
  0
LINE
  5
31E
330
1F
100
AcDbEntity
  8
LAYER0032
  6
CONTINUOUS
 62
     3
100
AcDbLine
 10
1977.020053468343
 20
-1269.55927273241
 30
0.0
 11
1976.941626468344
 21
-1269.63769973241
 31
0.0
  0
ARC
  5
31F
330
1F
100
AcDbEntity
  8
LAYER0032
  6
CONTINUOUS
 62
     3
100
AcDbCircle
 10
1970.027412468344
 20
-1269.47348573241
 30
0.0
 40
2.0
100
AcDbArc
 50
270.0
 51
315.0000000000003
  0
LINE
  5
320
330
1F
100
AcDbEntity
  8
LAYER0032
  6
CONTINUOUS
 62
     3
100
AcDbLine
 10
1971.812946468344
 20
-1270.51637973241
 30
0.0
 11
1971.441626468343
 21
-1270.88769973241
 31
0.0
  0
ARC
  5
321
330
1F
100
AcDbEntity
  8
LAYER0032
  6
CONTINUOUS
 62
     3
100
AcDbCircle
 10
1972.520053468343
 20
-1271.22348573241
 30
0.0
 40
1.0
100
AcDbArc
 50
90.0
 51
135.0
  0
ARC
  5
322
330
1F
100
AcDbEntity
  8
LAYER0032
  6
CONTINUOUS
 62
     3
100
AcDbCircle
 10
1975.527412468344
 20
-1268.22348573241
 30
0.0
 40
2.0
100
AcDbArc
 50
270.0
 51
315.0000000000003
  0
LINE
  5
323
330
1F
100
AcDbEntity
  8
LAYER0032
  6
CONTINUOUS
 62
     3
100
AcDbLine
 10
1984.255840468344
 20
-1270.12348573241
 30
0.0
 11
1983.691626468344
 21
-1269.55927273241
 31
0.0
  0
ARC
  5
324
330
1F
100
AcDbEntity
  8
LAYER0032
  6
CONTINUOUS
 62
     3
100
AcDbCircle
 10
1982.277412468344
 20
-1270.97348573241
 30
0.0
 40
2.0
100
AcDbArc
 50
44.99999999999972
 51
90.0
  0
LINE
  5
325
330
1F
100
AcDbEntity
  8
LAYER0032
  6
CONTINUOUS
 62
     3
100
AcDbLine
 10
1996.105840468343
 20
-1268.72348573241
 30
0.0
 11
1996.105840468343
 21
-1256.22348573241
 31
0.0
  0
LINE
  5
326
330
1F
100
AcDbEntity
  8
LAYER0032
  6
CONTINUOUS
 62
     3
100
AcDbLine
 10
1995.297549468344
 20
-1270.12348573241
 30
0.0
 11
1996.105840468343
 21
-1268.72348573241
 31
0.0
  0
LINE
  5
327
330
1F
100
AcDbEntity
  8
LAYER0032
  6
CONTINUOUS
 62
     3
100
AcDbLine
 10
1969.705840468344
 20
-1226.42348573241
 30
0.0
 11
1957.505840468343
 21
-1226.42348573241
 31
0.0
  0
LINE
  5
328
330
1F
100
AcDbEntity
  8
LAYER0032
  6
CONTINUOUS
 62
     3
100
AcDbLine
 10
1952.605840468343
 20
-1227.92348573241
 30
0.0
 11
1976.451139468344
 21
-1227.92348573241
 31
0.0
  0
LINE
  5
329
330
1F
100
AcDbEntity
  8
LAYER0032
  6
CONTINUOUS
 62
     3
100
AcDbLine
 10
1969.055840468344
 20
-1231.42348573241
 30
0.0
 11
1971.605840468343
 21
-1231.42348573241
 31
0.0
  0
LINE
  5
32A
330
1F
100
AcDbEntity
  8
LAYER0032
  6
CONTINUOUS
 62
     3
100
AcDbLine
 10
1952.605840468343
 20
-1230.92348573241
 30
0.0
 11
1976.451139468344
 21
-1230.92348573241
 31
0.0
  0
LINE
  5
32B
330
1F
100
AcDbEntity
  8
LAYER0032
  6
CONTINUOUS
 62
     3
100
AcDbLine
 10
1931.914217468344
 20
-1242.32348573241
 30
0.0
 11
1945.605840468343
 21
-1242.32348573241
 31
0.0
  0
LINE
  5
32C
330
1F
100
AcDbEntity
  8
LAYER0032
  6
CONTINUOUS
 62
     3
100
AcDbLine
 10
1931.105840468343
 20
-1243.72348573241
 30
0.0
 11
1931.911142468344
 21
-1242.32866073241
 31
0.0
  0
LINE
  5
32D
330
1F
100
AcDbEntity
  8
LAYER0032
  6
CONTINUOUS
 62
     3
100
AcDbLine
 10
1952.605840468343
 20
-1230.92348573241
 30
0.0
 11
1952.605840468343
 21
-1227.92348573241
 31
0.0
  0
ARC
  5
32E
330
1F
100
AcDbEntity
  8
LAYER0032
  6
CONTINUOUS
 62
     3
100
AcDbCircle
 10
1953.137594468343
 20
-1241.72348573241
 30
0.0
 40
2.0
100
AcDbArc
 50
83.27745900000012
 51
90.0
  0
ARC
  5
32F
330
1F
100
AcDbEntity
  8
LAYER0032
  6
CONTINUOUS
 62
     3
100
AcDbCircle
 10
1948.105840468343
 20
-1240.72348573241
 30
0.0
 40
1.0
100
AcDbArc
 50
90.0
 51
180.0
  0
LINE
  5
330
330
1F
100
AcDbEntity
  8
LAYER0032
  6
CONTINUOUS
 62
     3
100
AcDbLine
 10
1950.105840468343
 20
-1240.02348573241
 30
0.0
 11
1949.805840468344
 21
-1239.72348573241
 31
0.0
  0
LINE
  5
331
330
1F
100
AcDbEntity
  8
LAYER0032
  6
CONTINUOUS
 62
     3
100
AcDbLine
 10
1947.105840468343
 20
-1240.72348573241
 30
0.0
 11
1947.105840468343
 21
-1240.82348573241
 31
0.0
  0
ARC
  5
332
330
1F
100
AcDbEntity
  8
LAYER0032
  6
CONTINUOUS
 62
     3
100
AcDbCircle
 10
1945.605840468343
 20
-1240.82348573241
 30
0.0
 40
1.5
100
AcDbArc
 50
270.0
 51
0.0
  0
LINE
  5
333
330
1F
100
AcDbEntity
  8
LAYER0032
  6
CONTINUOUS
 62
     3
100
AcDbLine
 10
1950.105840468343
 20
-1239.72348573241
 30
0.0
 11
1950.105840468343
 21
-1241.52348573241
 31
0.0
  0
ARC
  5
334
330
1F
100
AcDbEntity
  8
LAYER0032
  6
CONTINUOUS
 62
     3
100
AcDbCircle
 10
1953.605840468343
 20
-1237.75098773241
 30
0.0
 40
2.0
100
AcDbArc
 50
263.2774590000001
 51
0.0
  0
LINE
  5
335
330
1F
100
AcDbEntity
  8
LAYER0032
  6
CONTINUOUS
 62
     3
100
AcDbLine
 10
1958.155840468344
 20
-1231.17348573241
 30
0.0
 11
1963.605840468343
 21
-1231.17348573241
 31
0.0
  0
LINE
  5
336
330
1F
100
AcDbEntity
  8
LAYER0032
  6
CONTINUOUS
 62
     3
100
AcDbLine
 10
1958.155840468344
 20
-1231.17348573241
 30
0.0
 11
1958.405840468344
 21
-1230.92348573241
 31
0.0
  0
LINE
  5
337
330
1F
100
AcDbEntity
  8
LAYER0032
  6
CONTINUOUS
 62
     3
100
AcDbLine
 10
1958.105840468343
 20
-1231.42348573241
 30
0.0
 11
1958.105840468343
 21
-1230.92348573241
 31
0.0
  0
LINE
  5
338
330
1F
100
AcDbEntity
  8
LAYER0032
  6
CONTINUOUS
 62
     3
100
AcDbLine
 10
1955.605840468343
 20
-1231.42348573241
 30
0.0
 11
1955.605840468343
 21
-1230.92348573241
 31
0.0
  0
LINE
  5
339
330
1F
100
AcDbEntity
  8
LAYER0032
  6
CONTINUOUS
 62
     3
100
AcDbLine
 10
1955.605840468343
 20
-1237.75098773241
 30
0.0
 11
1955.605840468343
 21
-1231.42348573241
 31
0.0
  0
LINE
  5
33A
330
1F
100
AcDbEntity
  8
LAYER0032
  6
CONTINUOUS
 62
     3
100
AcDbLine
 10
1969.055840468344
 20
-1231.17348573241
 30
0.0
 11
1968.805840468344
 21
-1230.92348573241
 31
0.0
  0
LINE
  5
33B
330
1F
100
AcDbEntity
  8
LAYER0032
  6
CONTINUOUS
 62
     3
100
AcDbLine
 10
1969.105840468343
 20
-1231.42348573241
 30
0.0
 11
1969.105840468343
 21
-1230.92348573241
 31
0.0
  0
LINE
  5
33C
330
1F
100
AcDbEntity
  8
LAYER0032
  6
CONTINUOUS
 62
     3
100
AcDbLine
 10
1969.055840468344
 20
-1231.17348573241
 30
0.0
 11
1963.605840468343
 21
-1231.17348573241
 31
0.0
  0
LINE
  5
33D
330
1F
100
AcDbEntity
  8
LAYER0032
  6
CONTINUOUS
 62
     3
100
AcDbLine
 10
1960.605840468343
 20
-1221.62348573241
 30
0.0
 11
1963.605840468343
 21
-1221.62348573241
 31
0.0
  0
LINE
  5
33E
330
1F
100
AcDbEntity
  8
LAYER0032
  6
CONTINUOUS
 62
     3
100
AcDbLine
 10
1961.206320468343
 20
-1226.42348573241
 30
0.0
 11
1963.804397468343
 21
-1227.92348573241
 31
0.0
  0
ARC
  5
33F
330
1F
100
AcDbEntity
  8
LAYER0032
  6
CONTINUOUS
 62
     3
100
AcDbCircle
 10
1963.605840468343
 20
-1232.37690373241
 30
0.0
 40
9.553418
100
AcDbArc
 50
72.41204599999999
 51
107.587954
  0
ARC
  5
340
330
1F
100
AcDbEntity
  8
LAYER0032
  6
CONTINUOUS
 62
     3
100
AcDbCircle
 10
1963.605840468343
 20
-1216.87006773241
 30
0.0
 40
9.553418
100
AcDbArc
 50
252.412046
 51
287.587954
  0
LINE
  5
341
330
1F
100
AcDbEntity
  8
LAYER0032
  6
CONTINUOUS
 62
     3
100
AcDbLine
 10
1958.605840468343
 20
-1222.82348573241
 30
0.0
 11
1968.605840468343
 21
-1222.82348573241
 31
0.0
  0
LINE
  5
342
330
1F
100
AcDbEntity
  8
LAYER0032
  6
CONTINUOUS
 62
     3
100
AcDbLine
 10
1960.719088468343
 20
-1225.97690373241
 30
0.0
 11
1960.719088468343
 21
-1223.27006773241
 31
0.0
  0
LINE
  5
343
330
1F
100
AcDbEntity
  8
LAYER0032
  6
CONTINUOUS
 62
     3
100
AcDbLine
 10
1960.605840468343
 20
-1222.82348573241
 30
0.0
 11
1960.605840468343
 21
-1221.62348573241
 31
0.0
  0
LINE
  5
344
330
1F
100
AcDbEntity
  8
LAYER0032
  6
CONTINUOUS
 62
     3
100
AcDbLine
 10
1957.832337468343
 20
-1223.27006773241
 30
0.0
 11
1958.605840468343
 21
-1222.82348573241
 31
0.0
  0
LINE
  5
345
330
1F
100
AcDbEntity
  8
LAYER0032
  6
CONTINUOUS
 62
     3
100
AcDbLine
 10
1957.832337468343
 20
-1225.97690373241
 30
0.0
 11
1958.605840468343
 21
-1226.42348573241
 31
0.0
  0
LINE
  5
346
330
1F
100
AcDbEntity
  8
LAYER0032
  6
CONTINUOUS
 62
     3
100
AcDbLine
 10
1957.505840468343
 20
-1226.42348573241
 30
0.0
 11
1957.505840468343
 21
-1227.92348573241
 31
0.0
  0
LINE
  5
347
330
1F
100
AcDbEntity
  8
LAYER0032
  6
CONTINUOUS
 62
     3
100
AcDbLine
 10
1957.832337468343
 20
-1225.97690373241
 30
0.0
 11
1957.832337468343
 21
-1223.27006773241
 31
0.0
  0
ARC
  5
348
330
1F
100
AcDbEntity
  8
LAYER0032
  6
CONTINUOUS
 62
     3
100
AcDbCircle
 10
1959.275713468344
 20
-1225.37930873241
 30
0.0
 40
2.555823
100
AcDbArc
 50
55.61575300000003
 51
115.615753
  0
ARC
  5
349
330
1F
100
AcDbEntity
  8
LAYER0032
  6
CONTINUOUS
 62
     3
100
AcDbCircle
 10
1959.275713468344
 20
-1223.86766373241
 30
0.0
 40
2.555823
100
AcDbArc
 50
244.384247
 51
304.384247
  0
LINE
  5
34A
330
1F
100
AcDbEntity
  8
LAYER0032
  6
CONTINUOUS
 62
     3
100
AcDbLine
 10
1969.379342468343
 20
-1223.27006773241
 30
0.0
 11
1968.605840468343
 21
-1222.82348573241
 31
0.0
  0
LINE
  5
34B
330
1F
100
AcDbEntity
  8
LAYER0032
  6
CONTINUOUS
 62
     3
100
AcDbLine
 10
1969.379342468343
 20
-1225.97690373241
 30
0.0
 11
1968.605840468343
 21
-1226.42348573241
 31
0.0
  0
LINE
  5
34C
330
1F
100
AcDbEntity
  8
LAYER0032
  6
CONTINUOUS
 62
     3
100
AcDbLine
 10
1969.379342468343
 20
-1225.97690373241
 30
0.0
 11
1969.379342468343
 21
-1223.27006773241
 31
0.0
  0
LINE
  5
34D
330
1F
100
AcDbEntity
  8
LAYER0032
  6
CONTINUOUS
 62
     3
100
AcDbLine
 10
1966.605840468343
 20
-1221.62348573241
 30
0.0
 11
1963.605840468343
 21
-1221.62348573241
 31
0.0
  0
LINE
  5
34E
330
1F
100
AcDbEntity
  8
LAYER0032
  6
CONTINUOUS
 62
     3
100
AcDbLine
 10
1966.492591468343
 20
-1225.97690373241
 30
0.0
 11
1966.492591468343
 21
-1223.27006773241
 31
0.0
  0
LINE
  5
34F
330
1F
100
AcDbEntity
  8
LAYER0032
  6
CONTINUOUS
 62
     3
100
AcDbLine
 10
1963.206320468343
 20
-1226.42348573241
 30
0.0
 11
1965.804397468343
 21
-1227.92348573241
 31
0.0
  0
LINE
  5
350
330
1F
100
AcDbEntity
  8
LAYER0032
  6
CONTINUOUS
 62
     3
100
AcDbLine
 10
1966.605840468343
 20
-1222.82348573241
 30
0.0
 11
1966.605840468343
 21
-1221.62348573241
 31
0.0
  0
ARC
  5
351
330
1F
100
AcDbEntity
  8
LAYER0032
  6
CONTINUOUS
 62
     3
100
AcDbCircle
 10
1967.935967468344
 20
-1225.37930873241
 30
0.0
 40
2.555823
100
AcDbArc
 50
64.38424699999996
 51
124.384247
  0
ARC
  5
352
330
1F
100
AcDbEntity
  8
LAYER0032
  6
CONTINUOUS
 62
     3
100
AcDbCircle
 10
1967.935967468344
 20
-1223.86766373241
 30
0.0
 40
2.555823
100
AcDbArc
 50
235.615753
 51
295.615753
  0
ARC
  5
353
330
1F
100
AcDbEntity
  8
LAYER0032
  6
CONTINUOUS
 62
     3
100
AcDbCircle
 10
1976.451139468344
 20
-1225.92348573241
 30
0.0
 40
5.0
100
AcDbArc
 50
270.0
 51
329.9999999999999
  0
LINE
  5
354
330
1F
100
AcDbEntity
  8
LAYER0032
  6
CONTINUOUS
 62
     3
100
AcDbLine
 10
1984.255840468344
 20
-1242.32348573241
 30
0.0
 11
1995.297549468344
 21
-1242.32348573241
 31
0.0
  0
ARC
  5
355
330
1F
100
AcDbEntity
  8
LAYER0032
  6
CONTINUOUS
 62
     3
100
AcDbCircle
 10
1971.355840468343
 20
-1239.98473573241
 30
0.0
 40
1.0
100
AcDbArc
 50
0.0
 51
51.31781300000039
  0
ARC
  5
356
330
1F
100
AcDbEntity
  8
LAYER0032
  6
CONTINUOUS
 62
     3
100
AcDbCircle
 10
1978.434267468344
 20
-1241.47348573241
 30
0.0
 40
2.0
100
AcDbArc
 50
224.9999999999997
 51
270.0
  0
LINE
  5
357
330
1F
100
AcDbEntity
  8
LAYER0032
  6
CONTINUOUS
 62
     3
100
AcDbLine
 10
1977.020053468343
 20
-1242.88769973241
 30
0.0
 11
1976.941626468344
 21
-1242.80927273241
 31
0.0
  0
ARC
  5
358
330
1F
100
AcDbEntity
  8
LAYER0032
  6
CONTINUOUS
 62
     3
100
AcDbCircle
 10
1974.355840468343
 20
-1240.22348573241
 30
0.0
 40
2.0
100
AcDbArc
 50
180.0
 51
270.0
  0
ARC
  5
359
330
1F
100
AcDbEntity
  8
LAYER0032
  6
CONTINUOUS
 62
     3
100
AcDbCircle
 10
1975.527412468344
 20
-1244.22348573241
 30
0.0
 40
2.0
100
AcDbArc
 50
44.99999999999972
 51
90.0
  0
LINE
  5
35A
330
1F
100
AcDbEntity
  8
LAYER0032
  6
CONTINUOUS
 62
     3
100
AcDbLine
 10
1972.355840468343
 20
-1239.98473573241
 30
0.0
 11
1972.355840468343
 21
-1240.22348573241
 31
0.0
  0
ARC
  5
35B
330
1F
100
AcDbEntity
  8
LAYER0032
  6
CONTINUOUS
 62
     3
100
AcDbCircle
 10
1982.277412468344
 20
-1241.47348573241
 30
0.0
 40
2.0
100
AcDbArc
 50
270.0
 51
315.0000000000003
  0
LINE
  5
35C
330
1F
100
AcDbEntity
  8
LAYER0032
  6
CONTINUOUS
 62
     3
100
AcDbLine
 10
1984.255840468344
 20
-1242.32348573241
 30
0.0
 11
1983.691626468344
 21
-1242.88769973241
 31
0.0
  0
LINE
  5
35D
330
1F
100
AcDbEntity
  8
LAYER0032
  6
CONTINUOUS
 62
     3
100
AcDbLine
 10
1971.605840468343
 20
-1231.42348573241
 30
0.0
 11
1971.605840468343
 21
-1230.92348573241
 31
0.0
  0
ARC
  5
35E
330
1F
100
AcDbEntity
  8
LAYER0032
  6
CONTINUOUS
 62
     3
100
AcDbCircle
 10
1972.605840468343
 20
-1238.42348573241
 30
0.0
 40
1.0
100
AcDbArc
 50
180.0
 51
231.3178130000004
  0
LINE
  5
35F
330
1F
100
AcDbEntity
  8
LAYER0032
  6
CONTINUOUS
 62
     3
100
AcDbLine
 10
1971.605840468343
 20
-1231.42348573241
 30
0.0
 11
1971.605840468343
 21
-1238.42348573241
 31
0.0
  0
LINE
  5
360
330
1F
100
AcDbEntity
  8
LAYER0032
  6
CONTINUOUS
 62
     3
100
AcDbLine
 10
1995.297549468344
 20
-1242.32348573241
 30
0.0
 11
1996.105840468343
 21
-1243.72348573241
 31
0.0
  0
ARC
  5
361
330
1F
100
AcDbEntity
  8
LAYER0032
  6
CONTINUOUS
 62
     3
100
AcDbCircle
 10
1976.451139468344
 20
-1225.92348573241
 30
0.0
 40
2.0
100
AcDbArc
 50
270.0
 51
329.9999999999999
  0
LINE
  5
362
330
1F
100
AcDbEntity
  8
LAYER0032
  6
CONTINUOUS
 62
     3
100
AcDbLine
 10
1969.705840468344
 20
-1226.42348573241
 30
0.0
 11
1969.705840468344
 21
-1227.92348573241
 31
0.0
  0
LINE
  5
363
330
1F
100
AcDbEntity
  8
LAYER0032
  6
CONTINUOUS
 62
     3
100
AcDbLine
 10
1960.271762468343
 20
-1271.47348573241
 30
0.0
 11
1970.027412468344
 21
-1271.47348573241
 31
0.0
  0
LINE
  5
364
330
1F
100
AcDbEntity
  8
LAYER0032
  6
CONTINUOUS
 62
     3
100
AcDbLine
 10
1949.805840468344
 20
-1272.72348573241
 30
0.0
 11
1948.105840468343
 21
-1272.72348573241
 31
0.0
  0
LINE
  5
365
330
1F
100
AcDbEntity
  8
LAYER0032
  6
CONTINUOUS
 62
     3
100
AcDbLine
 10
1950.105840468343
 20
-1272.72348573241
 30
0.0
 11
1953.137594468343
 21
-1272.72348573241
 31
0.0
  0
LINE
  5
366
330
1F
100
AcDbEntity
  8
LAYER0032
  6
CONTINUOUS
 62
     3
100
AcDbLine
 10
1955.074085468343
 20
-1272.22348573241
 30
0.0
 11
1957.939917468344
 21
-1272.22348573241
 31
0.0
  0
LINE
  5
367
330
1F
100
AcDbEntity
  8
LAYER0032
  6
CONTINUOUS
 62
     3
100
AcDbLine
 10
1972.520053468343
 20
-1270.22348573241
 30
0.0
 11
1975.527412468344
 21
-1270.22348573241
 31
0.0
  0
LINE
  5
368
330
1F
100
AcDbEntity
  8
LAYER0032
  6
CONTINUOUS
 62
     3
100
AcDbLine
 10
1949.805840468344
 20
-1239.72348573241
 30
0.0
 11
1948.105840468343
 21
-1239.72348573241
 31
0.0
  0
LINE
  5
369
330
1F
100
AcDbEntity
  8
LAYER0032
  6
CONTINUOUS
 62
     3
100
AcDbLine
 10
1950.105840468343
 20
-1239.72348573241
 30
0.0
 11
1953.137594468343
 21
-1239.72348573241
 31
0.0
  0
LINE
  5
36A
330
1F
100
AcDbEntity
  8
LAYER0032
  6
CONTINUOUS
 62
     3
100
AcDbLine
 10
1958.155840468344
 20
-1231.42348573241
 30
0.0
 11
1955.605840468343
 21
-1231.42348573241
 31
0.0
  0
LINE
  5
36B
330
1F
100
AcDbEntity
  8
LAYER0032
  6
CONTINUOUS
 62
     3
100
AcDbLine
 10
1974.355840468343
 20
-1242.22348573241
 30
0.0
 11
1975.527412468344
 21
-1242.22348573241
 31
0.0
  0
LINE
  5
36C
330
1F
100
AcDbEntity
  8
LAYER0032
  6
CONTINUOUS
 62
     3
100
AcDbLine
 10
1978.434267468344
 20
-1268.97348573241
 30
0.0
 11
1982.277412468344
 21
-1268.97348573241
 31
0.0
  0
LINE
  5
36D
330
1F
100
AcDbEntity
  8
LAYER0032
  6
CONTINUOUS
 62
     3
100
AcDbLine
 10
1978.434267468344
 20
-1243.47348573241
 30
0.0
 11
1982.277412468344
 21
-1243.47348573241
 31
0.0
  0
LINE
  5
36E
330
1F
100
AcDbEntity
  8
LAYER0032
  6
CONTINUOUS
 62
     3
100
AcDbLine
 10
1931.911142468344
 20
-1246.09599473241
 30
0.0
 11
1931.911142468344
 21
-1246.70277573241
 31
0.0
  0
LINE
  5
36F
330
1F
100
AcDbEntity
  8
LAYER0032
  6
CONTINUOUS
 62
     3
100
AcDbLine
 10
1931.911142468344
 20
-1256.65254473241
 30
0.0
 11
1945.605840468343
 21
-1256.65254473241
 31
0.0
  0
LINE
  5
370
330
1F
100
AcDbEntity
  8
LAYER0032
  6
CONTINUOUS
 62
     3
100
AcDbLine
 10
1931.911142468344
 20
-1255.79442673241
 30
0.0
 11
1945.605840468343
 21
-1255.79442673241
 31
0.0
  0
ARC
  5
371
330
1F
100
AcDbEntity
  8
LAYER0032
  6
CONTINUOUS
 62
     3
100
AcDbCircle
 10
1951.652277468343
 20
-1251.24860073241
 30
0.0
 40
20.257762
100
AcDbArc
 50
167.032449
 51
192.9675509999999
  0
LINE
  5
372
330
1F
100
AcDbEntity
  8
LAYER0032
  6
CONTINUOUS
 62
     3
100
AcDbLine
 10
1931.911142468344
 20
-1246.09599473241
 30
0.0
 11
1945.605840468343
 21
-1246.09599473241
 31
0.0
  0
LINE
  5
373
330
1F
100
AcDbEntity
  8
LAYER0032
  6
CONTINUOUS
 62
     3
100
AcDbLine
 10
1931.911142468344
 20
-1246.70277573241
 30
0.0
 11
1945.605840468343
 21
-1246.70277573241
 31
0.0
  0
ARC
  5
374
330
1F
100
AcDbEntity
  8
LAYER0032
  6
CONTINUOUS
 62
     3
100
AcDbCircle
 10
1935.086831468344
 20
-1244.21232773241
 30
0.0
 40
3.692316
100
AcDbArc
 50
149.232196
 51
210.6743909999998
  0
LINE
  5
375
330
1F
100
AcDbEntity
  8
LAYER0032
  6
CONTINUOUS
 62
     3
100
AcDbLine
 10
1931.911142468344
 20
-1265.74419573241
 30
0.0
 11
1945.605840468343
 21
-1265.74419573241
 31
0.0
  0
LINE
  5
376
330
1F
100
AcDbEntity
  8
LAYER0032
  6
CONTINUOUS
 62
     3
100
AcDbLine
 10
1931.911142468344
 20
-1266.35097773241
 30
0.0
 11
1945.605840468343
 21
-1266.35097773241
 31
0.0
  0
ARC
  5
377
330
1F
100
AcDbEntity
  8
LAYER0032
  6
CONTINUOUS
 62
     3
100
AcDbCircle
 10
1951.652277468343
 20
-1261.19837073241
 30
0.0
 40
20.257762
100
AcDbArc
 50
167.032449
 51
192.9675509999999
  0
LINE
  5
378
330
1F
100
AcDbEntity
  8
LAYER0032
  6
CONTINUOUS
 62
     3
100
AcDbLine
 10
1931.911142468344
 20
-1266.35097773241
 30
0.0
 11
1931.911142468344
 21
-1265.74419573241
 31
0.0
  0
ARC
  5
379
330
1F
100
AcDbEntity
  8
LAYER0032
  6
CONTINUOUS
 62
     3
100
AcDbCircle
 10
1935.086831468344
 20
-1268.23464373241
 30
0.0
 40
3.692316
100
AcDbArc
 50
149.3256090000002
 51
210.7678040000001
  0
LINE
  5
37A
330
1F
100
AcDbEntity
  8
LAYER0032
  6
CONTINUOUS
 62
     3
100
AcDbLine
 10
1931.911142468344
 20
-1255.79442673241
 30
0.0
 11
1931.911142468344
 21
-1256.22348573241
 31
0.0
  0
LINE
  5
37B
330
1F
100
AcDbEntity
  8
LAYER0032
  6
CONTINUOUS
 62
     3
100
AcDbLine
 10
1931.911142468344
 20
-1256.65254473241
 30
0.0
 11
1931.911142468344
 21
-1256.22348573241
 31
0.0
  0
LINE
  5
37C
330
1F
100
AcDbEntity
  8
LAYER0032
  6
CONTINUOUS
 62
     3
100
AcDbLine
 10
1950.105840468343
 20
-1272.72348573241
 30
0.0
 11
1950.105840468343
 21
-1241.52348573241
 31
0.0
  0
LINE
  5
37D
330
1F
100
AcDbEntity
  8
LAYER0032
  6
CONTINUOUS
 62
     3
100
AcDbLine
 10
1947.105840468343
 20
-1271.72348573241
 30
0.0
 11
1947.105840468343
 21
-1240.82348573241
 31
0.0
  0
LINE
  5
37E
330
1F
100
AcDbEntity
  8
LAYER0032
  6
CONTINUOUS
 62
     3
100
AcDbLine
 10
1959.105840468343
 20
-1271.848485726226
 30
0.0
 11
1959.105840468343
 21
-1239.72348573241
 31
0.0
  0
LINE
  5
37F
330
1F
100
AcDbEntity
  8
LAYER0032
  6
CONTINUOUS
 62
     3
100
AcDbLine
 10
1954.105840468343
 20
-1272.473485738694
 30
0.0
 11
1954.105840468343
 21
-1239.72348573241
 31
0.0
  0
ARC
  5
380
330
1F
100
AcDbEntity
  8
LAYER0032
  6
CONTINUOUS
 62
     3
100
AcDbCircle
 10
1992.133723468344
 20
-1268.23723173241
 30
0.0
 40
3.683443
100
AcDbArc
 50
329.1968529999999
 51
30.80314700000012
  0
ARC
  5
381
330
1F
100
AcDbEntity
  8
LAYER0032
  6
CONTINUOUS
 62
     3
100
AcDbCircle
 10
1985.782481468343
 20
-1268.23723173241
 30
0.0
 40
2.426642
100
AcDbArc
 50
128.9850120000001
 51
218.9850120000001
  0
ARC
  5
382
330
1F
100
AcDbEntity
  8
LAYER0032
  6
CONTINUOUS
 62
     3
100
AcDbCircle
 10
1975.672906468344
 20
-1261.19837073241
 30
0.0
 40
20.144259
100
AcDbArc
 50
346.9580990000001
 51
14.2978658563414
  0
LINE
  5
383
330
1F
100
AcDbEntity
  8
LAYER0032
  6
CONTINUOUS
 62
     3
100
AcDbLine
 10
1995.297549468344
 20
-1266.35097773241
 30
0.0
 11
1984.255840468344
 21
-1266.35097773241
 31
0.0
  0
LINE
  5
384
330
1F
100
AcDbEntity
  8
LAYER0032
  6
CONTINUOUS
 62
     3
100
AcDbLine
 10
1995.297549468344
 20
-1265.74419573241
 30
0.0
 11
1984.255840468344
 21
-1265.74419573241
 31
0.0
  0
LINE
  5
385
330
1F
100
AcDbEntity
  8
LAYER0032
  6
CONTINUOUS
 62
     3
100
AcDbLine
 10
1995.297549468344
 20
-1266.35097773241
 30
0.0
 11
1995.297549468344
 21
-1265.74419573241
 31
0.0
  0
ARC
  5
386
330
1F
100
AcDbEntity
  8
LAYER0032
  6
CONTINUOUS
 62
     3
100
AcDbCircle
 10
1995.286133468344
 20
-1261.19837073241
 30
0.0
 40
11.930293
100
AcDbArc
 50
155.3549199977387
 51
202.397631
  0
LINE
  5
387
330
1F
100
AcDbEntity
  8
LAYER0032
  6
CONTINUOUS
 62
     3
100
AcDbLine
 10
1984.255840468344
 20
-1266.35097773241
 30
0.0
 11
1984.255840468344
 21
-1265.74419573241
 31
0.0
  0
ARC
  5
388
330
1F
100
AcDbEntity
  8
LAYER0032
  6
CONTINUOUS
 62
     3
100
AcDbCircle
 10
1992.133723468344
 20
-1244.209739732411
 30
0.0
 40
3.683443
100
AcDbArc
 50
329.1968529999999
 51
30.80314700000012
  0
ARC
  5
389
330
1F
100
AcDbEntity
  8
LAYER0032
  6
CONTINUOUS
 62
     3
100
AcDbCircle
 10
1975.672906468344
 20
-1251.24860073241
 30
0.0
 40
20.144259
100
AcDbArc
 50
345.7021341436586
 51
13.04190099999996
  0
LINE
  5
38A
330
1F
100
AcDbEntity
  8
LAYER0032
  6
CONTINUOUS
 62
     3
100
AcDbLine
 10
1995.297549468344
 20
-1246.09599373241
 30
0.0
 11
1984.255840468344
 21
-1246.09599373241
 31
0.0
  0
LINE
  5
38B
330
1F
100
AcDbEntity
  8
LAYER0032
  6
CONTINUOUS
 62
     3
100
AcDbLine
 10
1995.297549468344
 20
-1246.70277573241
 30
0.0
 11
1984.255840468344
 21
-1246.70277573241
 31
0.0
  0
LINE
  5
38C
330
1F
100
AcDbEntity
  8
LAYER0032
  6
CONTINUOUS
 62
     3
100
AcDbLine
 10
1995.297549468344
 20
-1246.09599373241
 30
0.0
 11
1995.297549468344
 21
-1246.70277573241
 31
0.0
  0
ARC
  5
38D
330
1F
100
AcDbEntity
  8
LAYER0032
  6
CONTINUOUS
 62
     3
100
AcDbCircle
 10
1995.286133468344
 20
-1251.24860073241
 30
0.0
 40
11.930293
100
AcDbArc
 50
157.602369
 51
204.6450800022612
  0
LINE
  5
38E
330
1F
100
AcDbEntity
  8
LAYER0032
  6
CONTINUOUS
 62
     3
100
AcDbLine
 10
1984.255840468344
 20
-1246.09599373241
 30
0.0
 11
1984.255840468344
 21
-1246.70277573241
 31
0.0
  0
ARC
  5
38F
330
1F
100
AcDbEntity
  8
LAYER0032
  6
CONTINUOUS
 62
     3
100
AcDbCircle
 10
1985.782481468343
 20
-1244.209739732411
 30
0.0
 40
2.426642
100
AcDbArc
 50
141.0149879999999
 51
231.0149879999999
  0
LINE
  5
390
330
1F
100
AcDbEntity
  8
LAYER0032
  6
CONTINUOUS
 62
     3
100
AcDbLine
 10
1984.442591136494
 20
-1256.22348573241
 30
0.0
 11
1995.193195654106
 21
-1256.22348573241
 31
0.0
  0
LINE
  5
391
330
1F
100
AcDbEntity
  8
LAYER0032
  6
CONTINUOUS
 62
     3
100
AcDbLine
 10
1977.605840468343
 20
-1243.293845231429
 30
0.0
 11
1977.605840468343
 21
-1269.153126233388
 31
0.0
  0
LINE
  5
392
330
1F
100
AcDbEntity
  8
LAYER0032
  6
CONTINUOUS
 62
     3
100
AcDbLine
 10
1976.355840468343
 20
-1242.403126688479
 30
0.0
 11
1976.355840468343
 21
-1270.043844776337
 31
0.0
  0
LINE
  5
393
330
1F
100
AcDbEntity
  8
LAYER0032
  6
CONTINUOUS
 62
     3
100
AcDbLine
 10
1972.105840468343
 20
-1239.72348573241
 30
0.0
 11
1972.105840468343
 21
-1270.22348573241
 31
0.0
  0
LINE
  5
394
330
1F
100
AcDbEntity
  8
LAYER0032
  6
CONTINUOUS
 62
     3
100
AcDbLine
 10
1971.005840468343
 20
-1239.72348573241
 30
0.0
 11
1971.005840468343
 21
-1271.217813295916
 31
0.0
  0
LINE
  5
395
330
1F
100
AcDbEntity
  8
LAYER0032
  6
CONTINUOUS
 62
     3
100
AcDbLine
 10
1954.105840468343
 20
-1239.72348573241
 30
0.0
 11
1972.355840468343
 21
-1239.72348573241
 31
0.0
  0
LINE
  5
396
330
1F
100
AcDbEntity
  8
LAYER0032
  6
CONTINUOUS
 62
     3
100
AcDbLine
 10
1992.039596468344
 20
-1207.92348573241
 30
0.0
 11
2048.605840468344
 21
-1207.92348573241
 31
0.0
  0
LINE
  5
397
330
1F
100
AcDbEntity
  8
LAYER0032
  6
CONTINUOUS
 62
     3
100
AcDbLine
 10
1992.039596468344
 20
-1210.92348573241
 30
0.0
 11
2048.605840468344
 21
-1210.92348573241
 31
0.0
  0
LINE
  5
398
330
1F
100
AcDbEntity
  8
LAYER0032
  6
CONTINUOUS
 62
     3
100
AcDbLine
 10
1961.605840468343
 20
-1220.62348573241
 30
0.0
 11
1963.605840468343
 21
-1220.62348573241
 31
0.0
  0
LINE
  5
399
330
1F
100
AcDbEntity
  8
LAYER0032
  6
CONTINUOUS
 62
     3
100
AcDbLine
 10
1965.605840468343
 20
-1220.62348573241
 30
0.0
 11
1963.605840468343
 21
-1220.62348573241
 31
0.0
  0
ARC
  5
39A
330
1F
100
AcDbEntity
  8
LAYER0032
  6
CONTINUOUS
 62
     3
100
AcDbCircle
 10
1992.039596468344
 20
-1212.92348573241
 30
0.0
 40
5.0
100
AcDbArc
 50
90.0
 51
150.0
  0
ARC
  5
39B
330
1F
100
AcDbEntity
  8
LAYER0032
  6
CONTINUOUS
 62
     3
100
AcDbCircle
 10
1992.039596468344
 20
-1212.92348573241
 30
0.0
 40
2.0
100
AcDbArc
 50
90.0
 51
149.9999999999999
  0
LINE
  5
39C
330
1F
100
AcDbEntity
  8
LAYER0032
  6
CONTINUOUS
 62
     3
100
AcDbLine
 10
2018.605840468343
 20
-1210.92348573241
 30
0.0
 11
2018.605840468343
 21
-1207.92348573241
 31
0.0
  0
LINE
  5
39D
330
1F
100
AcDbEntity
  8
LAYER0032
  6
CONTINUOUS
 62
     3
100
AcDbLine
 10
2048.605840468344
 20
-1210.92348573241
 30
0.0
 11
2048.605840468344
 21
-1207.92348573241
 31
0.0
  0
LINE
  5
39E
330
1F
100
AcDbEntity
  8
LAYER0032
  6
CONTINUOUS
 62
     3
100
AcDbLine
 10
1929.605840468344
 20
-2.534662071894218
 30
0.0
 11
1931.105840468345
 21
-2.269956189541062
 31
0.0
  0
LINE
  5
39F
330
1F
100
AcDbEntity
  8
LAYER0032
  6
CONTINUOUS
 62
     3
100
AcDbLine
 10
1929.605840468344
 20
21.994749692813
 30
0.0
 11
1931.105840468345
 21
21.73004381045985
 31
0.0
  0
LINE
  5
3A0
330
1F
100
AcDbEntity
  8
LAYER0032
  6
CONTINUOUS
 62
     3
100
AcDbLine
 10
1897.955840468344
 20
-1223.723485732412
 30
0.0
 11
1897.955840468344
 21
-1220.723485732408
 31
0.0
  0
LINE
  5
3A1
330
1F
100
AcDbEntity
  8
LAYER0032
  6
CONTINUOUS
 62
     3
100
AcDbLine
 10
1876.255840468342
 20
-1220.723485732411
 30
0.0
 11
1876.255840468342
 21
-1225.723485732411
 31
0.0
  0
LINE
  5
3A2
330
1F
100
AcDbEntity
  8
LAYER0032
  6
CONTINUOUS
 62
     3
100
AcDbLine
 10
1960.605840468343
 20
-1221.62348573241
 30
0.0
 11
1961.605840468343
 21
-1220.62348573241
 31
0.0
  0
LINE
  5
3A3
330
1F
100
AcDbEntity
  8
LAYER0032
  6
CONTINUOUS
 62
     3
100
AcDbLine
 10
1966.605840468343
 20
-1221.62348573241
 30
0.0
 11
1965.605840468343
 21
-1220.62348573241
 31
0.0
  0
LINE
  5
3A4
330
1F
100
AcDbEntity
  8
LAYER0032
  6
CONTINUOUS
 62
     3
100
AcDbLine
 10
1980.781266468344
 20
-1228.42348573241
 30
0.0
 11
1990.307545468344
 21
-1211.92348573241
 31
0.0
  0
LINE
  5
3A5
330
1F
100
AcDbEntity
  8
LAYER0032
  6
CONTINUOUS
 62
     3
100
AcDbLine
 10
1978.183190468344
 20
-1226.92348573241
 30
0.0
 11
1987.709469468344
 21
-1210.42348573241
 31
0.0
  0
LINE
  5
3A6
330
1F
100
AcDbEntity
  8
LAYER0032
  6
CONTINUOUS
 62
     3
100
AcDbLine
 10
1961.145840468343
 20
-1222.82348573241
 30
0.0
 11
1961.145840468343
 21
-1221.08348573241
 31
0.0
  0
LINE
  5
3A7
330
1F
100
AcDbEntity
  8
LAYER0032
  6
CONTINUOUS
 62
     3
100
AcDbLine
 10
1966.065840468343
 20
-1222.82348573241
 30
0.0
 11
1966.065840468343
 21
-1221.08348573241
 31
0.0
  0
LINE
  5
3A8
330
1F
100
AcDbEntity
  8
LAYER0032
  6
CONTINUOUS
 62
     3
100
AcDbLine
 10
1866.698903188203
 20
1377.967812118437
 30
0.0
 11
2155.964195312318
 21
1377.967812118437
 31
0.0
  0
ELLIPSE
  5
3A9
330
1F
100
AcDbEntity
  8
LAYER0032
  6
CONTINUOUS
 62
     3
100
AcDbEllipse
 10
2055.46279930383
 20
1314.533797248548
 30
0.0
 11
14.99999999999953
 21
4.499999999999452
 31
0.0
210
0.0
220
0.0
230
1.0
 40
0.6704783996547937
 41
0.0
 42
6.283185307179586
  0
LINE
  5
3AA
330
1F
100
AcDbEntity
  8
LAYER0032
  6
CONTINUOUS
 62
     3
100
AcDbLine
 10
1781.546084835361
 20
1251.099782378661
 30
0.0
 11
2070.811376959476
 21
1251.099782378661
 31
0.0
  0
LINE
  5
3AB
330
1F
100
AcDbEntity
  8
LAYER0032
  6
CONTINUOUS
 62
     3
100
AcDbLine
 10
1866.698903188203
 20
1377.967812118437
 30
0.0
 11
1781.54608483536
 21
1251.09978237866
 31
0.0
  0
LINE
  5
3AC
330
1F
100
AcDbEntity
  8
LAYER0032
  6
CONTINUOUS
 62
     3
100
AcDbLine
 10
2044.96279930383
 20
1699.415473905257
 30
0.0
 11
2065.96279930383
 21
1699.415473905257
 31
0.0
  0
LINE
  5
3AD
330
1F
100
AcDbEntity
  8
LAYER0032
  6
CONTINUOUS
 62
     3
100
AcDbLine
 10
2044.96279930383
 20
1729.415473905257
 30
0.0
 11
2065.96279930383
 21
1729.415473905257
 31
0.0
  0
LINE
  5
3AE
330
1F
100
AcDbEntity
  8
LAYER0032
  6
CONTINUOUS
 62
     3
100
AcDbLine
 10
2065.962799303831
 20
1729.415473905257
 30
0.0
 11
2080.962799303831
 21
1714.415473905257
 31
0.0
  0
LINE
  5
3AF
330
1F
100
AcDbEntity
  8
LAYER0032
  6
CONTINUOUS
 62
     3
100
AcDbLine
 10
2044.96279930383
 20
1729.415473905257
 30
0.0
 11
2029.96279930383
 21
1714.415473905257
 31
0.0
  0
LINE
  5
3B0
330
1F
100
AcDbEntity
  8
LAYER0032
  6
CONTINUOUS
 62
     3
100
AcDbLine
 10
2044.96279930383
 20
1699.415473905257
 30
0.0
 11
2029.96279930383
 21
1714.415473905257
 31
0.0
  0
LINE
  5
3B1
330
1F
100
AcDbEntity
  8
LAYER0032
  6
CONTINUOUS
 62
     3
100
AcDbLine
 10
2065.962799303831
 20
1699.415473905257
 30
0.0
 11
2080.962799303831
 21
1714.415473905257
 31
0.0
  0
LINE
  5
3B2
330
1F
100
AcDbEntity
  8
LAYER0032
  6
CONTINUOUS
 62
     3
100
AcDbLine
 10
2065.962799303831
 20
1684.415473905258
 30
0.0
 11
2080.962799303831
 21
1699.415473905258
 31
0.0
  0
LINE
  5
3B3
330
1F
100
AcDbEntity
  8
LAYER0032
  6
CONTINUOUS
 62
     3
100
AcDbLine
 10
2044.96279930383
 20
1684.415473905258
 30
0.0
 11
2065.96279930383
 21
1684.415473905258
 31
0.0
  0
LINE
  5
3B4
330
1F
100
AcDbEntity
  8
LAYER0032
  6
CONTINUOUS
 62
     3
100
AcDbLine
 10
2044.96279930383
 20
1684.415473905258
 30
0.0
 11
2029.96279930383
 21
1699.415473905258
 31
0.0
  0
LINE
  5
3B5
330
1F
100
AcDbEntity
  8
LAYER0032
  6
CONTINUOUS
 62
     3
100
AcDbLine
 10
2029.96279930383
 20
1714.415473905257
 30
0.0
 11
2029.96279930383
 21
1699.415473905259
 31
0.0
  0
LINE
  5
3B6
330
1F
100
AcDbEntity
  8
LAYER0032
  6
CONTINUOUS
 62
     3
100
AcDbLine
 10
2080.962799303831
 20
1714.415473905257
 30
0.0
 11
2080.962799303831
 21
1699.415473905259
 31
0.0
  0
LINE
  5
3B7
330
1F
100
AcDbEntity
  8
LAYER0032
  6
CONTINUOUS
 62
     3
100
AcDbLine
 10
2044.96279930383
 20
1699.415473905257
 30
0.0
 11
2044.96279930383
 21
1684.415473905259
 31
0.0
  0
LINE
  5
3B8
330
1F
100
AcDbEntity
  8
LAYER0032
  6
CONTINUOUS
 62
     3
100
AcDbLine
 10
2065.962799303831
 20
1699.415473905257
 30
0.0
 11
2065.962799303831
 21
1684.415473905259
 31
0.0
  0
ARC
  5
3B9
330
1F
100
AcDbEntity
  8
LAYER0032
  6
CONTINUOUS
 62
     3
100
AcDbCircle
 10
2055.46279930383
 20
1635.042361824657
 30
0.0
 40
27.2442516150716
100
AcDbArc
 50
243.8667725562368
 51
296.1332274437652
  0
LINE
  5
3BA
330
1F
100
AcDbEntity
  8
LAYER0032
  6
CONTINUOUS
 62
     3
100
AcDbLine
 10
2067.462799303831
 20
1685.915473905259
 30
0.0
 11
2067.462799303831
 21
1610.583227619512
 31
0.0
  0
LINE
  5
3BB
330
1F
100
AcDbEntity
  8
LAYER0032
  6
CONTINUOUS
 62
     3
100
AcDbLine
 10
2043.46279930383
 20
1685.915473905258
 30
0.0
 11
2043.46279930383
 21
1610.583227619508
 31
0.0
  0
ARC
  5
3BC
330
1F
100
AcDbEntity
  8
LAYER0032
  6
CONTINUOUS
 62
     3
100
AcDbCircle
 10
2055.46279930383
 20
1642.542361824657
 30
0.0
 40
27.2442516150716
100
AcDbArc
 50
243.8667725562368
 51
296.1332274437652
  0
ARC
  5
3BD
330
1F
100
AcDbEntity
  8
LAYER0032
  6
CONTINUOUS
 62
     3
100
AcDbCircle
 10
2055.46279930383
 20
1650.042361824657
 30
0.0
 40
27.2442516150716
100
AcDbArc
 50
243.8667725562368
 51
296.1332274437652
  0
ARC
  5
3BE
330
1F
100
AcDbEntity
  8
LAYER0032
  6
CONTINUOUS
 62
     3
100
AcDbCircle
 10
2055.46279930383
 20
1657.542361824657
 30
0.0
 40
27.2442516150716
100
AcDbArc
 50
243.8667725562368
 51
296.1332274437652
  0
ARC
  5
3BF
330
1F
100
AcDbEntity
  8
LAYER0032
  6
CONTINUOUS
 62
     3
100
AcDbCircle
 10
2055.46279930383
 20
1665.042361824657
 30
0.0
 40
27.2442516150716
100
AcDbArc
 50
243.8667725562368
 51
296.1332274437652
  0
ARC
  5
3C0
330
1F
100
AcDbEntity
  8
LAYER0032
  6
CONTINUOUS
 62
     3
100
AcDbCircle
 10
2055.46279930383
 20
1672.542361824657
 30
0.0
 40
27.2442516150716
100
AcDbArc
 50
243.8667725562368
 51
296.1332274437652
  0
ARC
  5
3C1
330
1F
100
AcDbEntity
  8
LAYER0032
  6
CONTINUOUS
 62
     3
100
AcDbCircle
 10
2055.46279930383
 20
1680.042361824657
 30
0.0
 40
27.2442516150716
100
AcDbArc
 50
243.8667725562368
 51
296.1332274437652
  0
ARC
  5
3C2
330
1F
100
AcDbEntity
  8
LAYER0032
  6
CONTINUOUS
 62
     3
100
AcDbCircle
 10
2055.46279930383
 20
1687.542361824657
 30
0.0
 40
27.2442516150716
100
AcDbArc
 50
243.8667725562368
 51
296.1332274437652
  0
ARC
  5
3C3
330
1F
100
AcDbEntity
  8
LAYER0032
  6
CONTINUOUS
 62
     3
100
AcDbCircle
 10
2055.46279930383
 20
1695.042361824657
 30
0.0
 40
27.2442516150716
100
AcDbArc
 50
243.8667725562368
 51
296.1332274437652
  0
ELLIPSE
  5
3C4
330
1F
100
AcDbEntity
  8
LAYER0032
  6
CONTINUOUS
 62
     3
100
AcDbEllipse
 10
2055.46279930383
 20
1576.415473905266
 30
0.0
 11
38.25000000000091
 21
0.0
 31
0.0
210
0.0
220
0.0
230
1.0
 40
0.5882352941176412
 41
0.0
 42
6.283185307179586
  0
ELLIPSE
  5
3C5
330
1F
100
AcDbEntity
  8
LAYER0032
  6
CONTINUOUS
 62
     3
100
AcDbEllipse
 10
2055.46279930383
 20
1576.415473905266
 30
0.0
 11
19.12500000000045
 21
0.0
 31
0.0
210
0.0
220
0.0
230
1.0
 40
0.5882352941176412
 41
0.0
 42
6.283185307179586
  0
LINE
  5
3C6
330
1F
100
AcDbEntity
  8
LAYER0032
  6
CONTINUOUS
 62
     3
100
AcDbLine
 10
1709.034338436521
 20
1203.1101307731
 30
0.0
 11
2155.03920848025
 21
1203.1101307731
 31
0.0
  0
ELLIPSE
  5
3C7
330
1F
100
AcDbEntity
  8
LAYER0032
  6
CONTINUOUS
 62
     3
100
AcDbEllipse
 10
2055.46279930383
 20
1126.533797248557
 30
0.0
 11
14.99999999999953
 21
4.499999999999452
 31
0.0
210
0.0
220
0.0
230
1.0
 40
0.6704783996547937
 41
0.0
 42
6.283185307179586
  0
LINE
  5
3C8
330
1F
100
AcDbEntity
  8
LAYER0032
  6
CONTINUOUS
 62
     3
100
AcDbLine
 10
2155.03920848025
 20
1203.1101307731
 30
0.0
 11
2155.03920848025
 21
1054.800609437159
 31
0.0
  0
CIRCLE
  5
3C9
330
1F
100
AcDbEntity
  8
LAYER0032
  6
CONTINUOUS
 62
     3
100
AcDbCircle
 10
497.105840468344
 20
379.7300438104593
 30
0.0
 40
6.5
  0
CIRCLE
  5
3CA
330
1F
100
AcDbEntity
  8
LAYER0032
  6
CONTINUOUS
 62
     3
100
AcDbCircle
 10
497.105840468344
 20
379.7300438104593
 30
0.0
 40
5.0
  0
CIRCLE
  5
3CB
330
1F
100
AcDbEntity
  8
LAYER0032
  6
CONTINUOUS
 62
     3
100
AcDbCircle
 10
497.105840468344
 20
-360.2699561895408
 30
0.0
 40
6.5
  0
CIRCLE
  5
3CC
330
1F
100
AcDbEntity
  8
LAYER0032
  6
CONTINUOUS
 62
     3
100
AcDbCircle
 10
497.105840468344
 20
-360.2699561895408
 30
0.0
 40
5.0
  0
CIRCLE
  5
3CD
330
1F
100
AcDbEntity
  8
LAYER0032
  6
CONTINUOUS
 62
     3
100
AcDbCircle
 10
1837.105840468344
 20
-360.2699561895408
 30
0.0
 40
6.5
  0
CIRCLE
  5
3CE
330
1F
100
AcDbEntity
  8
LAYER0032
  6
CONTINUOUS
 62
     3
100
AcDbCircle
 10
1837.105840468344
 20
-360.2699561895408
 30
0.0
 40
5.0
  0
CIRCLE
  5
3CF
330
1F
100
AcDbEntity
  8
LAYER0032
  6
CONTINUOUS
 62
     3
100
AcDbCircle
 10
1837.105840468344
 20
379.7300438104593
 30
0.0
 40
6.5
  0
CIRCLE
  5
3D0
330
1F
100
AcDbEntity
  8
LAYER0032
  6
CONTINUOUS
 62
     3
100
AcDbCircle
 10
1837.105840468344
 20
379.7300438104593
 30
0.0
 40
5.0
  0
ARC
  5
3D1
330
1F
100
AcDbEntity
  8
LAYER0032
  6
DIVIDE
 62
     3
100
AcDbCircle
 10
2088.208644809682
 20
1487.594206170475
 30
0.0
 40
27.0
100
AcDbArc
 50
307.6628788296703
 51
90.0
  0
ARC
  5
3D2
330
1F
100
AcDbEntity
  8
LAYER0032
  6
DIVIDE
 62
     3
100
AcDbCircle
 10
2022.716953797977
 20
1573.473388326608
 30
0.0
 40
135.0
100
AcDbArc
 50
270.0
 51
307.6628788296704
  0
LINE
  5
3D3
330
1F
100
AcDbEntity
  8
LAYER0032
  6
DIVIDE
 62
     3
100
AcDbLine
 10
1986.432982415997
 20
1514.594206170475
 30
0.0
 11
2088.208644809682
 21
1514.594206170475
 31
0.0
  0
LINE
  5
3D4
330
1F
100
AcDbEntity
  8
LAYER0032
  6
DIVIDE
 62
     3
100
AcDbLine
 10
1876.712770622749
 20
1438.473388326608
 30
0.0
 11
2022.716953797977
 21
1438.473388326608
 31
0.0
  0
ARC
  5
3D5
330
1F
100
AcDbEntity
  8
LAYER0032
  6
DIVIDE
 62
     3
100
AcDbCircle
 10
1876.712770622748
 20
1465.473388326608
 30
0.0
 40
27.0
100
AcDbArc
 50
127.6628788296703
 51
270.0
  0
ARC
  5
3D6
330
1F
100
AcDbEntity
  8
LAYER0032
  6
DIVIDE
 62
     3
100
AcDbCircle
 10
1942.204461634454
 20
1379.594206170476
 30
0.0
 40
135.0
100
AcDbArc
 50
119.1649942182783
 51
127.6628788296704
  0
LINE
  5
3D7
330
1F
100
AcDbEntity
  8
LAYER0032
  6
DIVIDE
 62
     3
100
AcDbLine
 10
1995.848339667587
 20
1499.594206170475
 30
0.0
 11
1962.620337913351
 21
1460.973388326608
 31
0.0
  0
ELLIPSE
  5
3D8
330
1F
100
AcDbEntity
  8
LAYER0032
  6
DIVIDE
 62
     3
100
AcDbEllipse
 10
2055.46279930383
 20
1476.533797248542
 30
0.0
 11
15.00000000000021
 21
4.499999999999452
 31
0.0
210
0.0
220
0.0
230
1.0
 40
0.6704783996547937
 41
0.0
 42
6.283185307179586
  0
LINE
  5
3D9
330
1F
100
AcDbEntity
  8
LAYER0032
  6
DIVIDE
 62
     3
100
AcDbLine
 10
1962.620337913351
 20
1460.973388326608
 30
0.0
 11
1899.329583381299
 21
1460.973388326608
 31
0.0
  0
LINE
  5
3DA
330
1F
100
AcDbEntity
  8
LAYER0032
  6
DIVIDE
 62
     3
100
AcDbLine
 10
1962.620337913351
 20
1460.973388326608
 30
0.0
 11
1859.849814387778
 21
1624.701413901355
 31
0.0
  0
LINE
  5
3DB
330
1F
100
AcDbEntity
  8
LAYER0032
  6
DIVIDE
 62
     3
100
AcDbLine
 10
1902.416101378415
 20
1648.445018400781
 30
0.0
 11
1995.848339667587
 21
1499.594206170475
 31
0.0
  0
LINE
  5
3DC
330
1F
100
AcDbEntity
  8
LAYER0032
  6
DIVIDE
 62
     3
100
AcDbLine
 10
1815.786919497782
 20
1594.068705346179
 30
0.0
 11
1899.329583381299
 21
1460.973388326608
 31
0.0
  0
ARC
  5
3DD
330
1F
100
AcDbEntity
  8
LAYER0032
  6
DIVIDE
 62
     3
100
AcDbCircle
 10
1892.747628634742
 20
1615.751044499402
 30
0.0
 40
34.09362542557228
100
AcDbArc
 50
73.52565817555578
 51
170.7065438918422
  0
ARC
  5
3DE
330
1F
100
AcDbEntity
  8
LAYER0032
  6
DIVIDE
 62
     3
100
AcDbCircle
 10
1825.455392241455
 20
1626.762679247558
 30
0.0
 40
34.09362542557228
100
AcDbArc
 50
253.525658175555
 51
350.706543891842
  0
LINE
  5
3DF
330
1F
100
AcDbEntity
  8
LAYER0032
  6
CENTER
 62
     6
100
AcDbLine
 10
1887.105840468344
 20
29.73004381045928
 30
0.0
 11
1887.105840468344
 21
-10.26995618954072
 31
0.0
  0
LINE
  5
3E0
330
1F
100
AcDbEntity
  8
LAYER0032
  6
CENTER
 62
     6
100
AcDbLine
 10
377.105840468344
 20
-1255.564487426504
 30
0.0
 11
377.105840468344
 21
-1303.936090729097
 31
0.0
  0
LINE
  5
3E1
330
1F
100
AcDbEntity
  8
LAYER0032
  6
CENTER
 62
     6
100
AcDbLine
 10
1887.105840468344
 20
-1199.935133518156
 30
0.0
 11
1887.105840468344
 21
-1263.094808385867
 31
0.0
  0
LINE
  5
3E2
330
1F
100
AcDbEntity
  8
LAYER0032
  6
CENTER
 62
     6
100
AcDbLine
 10
1167.105840468344
 20
-798.9740285877308
 30
0.0
 11
1167.105840468344
 21
-1335.936924515332
 31
0.0
  0
LINE
  5
3E3
330
1F
100
AcDbEntity
  8
LAYER0032
  6
CENTER
 62
     6
100
AcDbLine
 10
1167.105840468344
 20
519.3704827390683
 30
0.0
 11
1167.105840468344
 21
-509.6907417507275
 31
0.0
  0
LINE
  5
3E4
330
1F
100
AcDbEntity
  8
LAYER0032
  6
CENTER
 62
     6
100
AcDbLine
 10
2055.46279930383
 20
1607.798110209586
 30
0.0
 11
2055.46279930383
 21
1115.786726155563
 31
0.0
  0
LINE
  5
3E5
330
1F
100
AcDbEntity
  8
LAYER0032
  6
CENTER
 62
     6
100
AcDbLine
 10
528.6675198028101
 20
379.7300438104593
 30
0.0
 11
467.226837800235
 21
379.7300438104593
 31
0.0
  0
LINE
  5
3E6
330
1F
100
AcDbEntity
  8
LAYER0032
  6
CENTER
 62
     6
100
AcDbLine
 10
528.6675198028101
 20
-360.2699561895408
 30
0.0
 11
467.226837800235
 21
-360.2699561895408
 31
0.0
  0
LINE
  5
3E7
330
1F
100
AcDbEntity
  8
LAYER0032
  6
CENTER
 62
     6
100
AcDbLine
 10
1805.544161133878
 20
-360.2699561895408
 30
0.0
 11
1866.984843136454
 21
-360.2699561895408
 31
0.0
  0
LINE
  5
3E8
330
1F
100
AcDbEntity
  8
LAYER0032
  6
CENTER
 62
     6
100
AcDbLine
 10
1805.544161133878
 20
379.7300438104593
 30
0.0
 11
1866.984843136454
 21
379.7300438104593
 31
0.0
  0
LINE
  5
3E9
330
1F
100
AcDbEntity
  8
LAYER0032
  6
CENTER
 62
     6
100
AcDbLine
 10
497.105840468344
 20
347.9401341871024
 30
0.0
 11
497.105840468344
 21
409.7300438104593
 31
0.0
  0
LINE
  5
3EA
330
1F
100
AcDbEntity
  8
LAYER0032
  6
CENTER
 62
     6
100
AcDbLine
 10
497.105840468344
 20
-328.4800465661839
 30
0.0
 11
497.105840468344
 21
-390.2699561895408
 31
0.0
  0
LINE
  5
3EB
330
1F
100
AcDbEntity
  8
LAYER0032
  6
CENTER
 62
     6
100
AcDbLine
 10
1837.105840468344
 20
-328.4800465661839
 30
0.0
 11
1837.105840468344
 21
-390.2699561895408
 31
0.0
  0
LINE
  5
3EC
330
1F
100
AcDbEntity
  8
LAYER0032
  6
CENTER
 62
     6
100
AcDbLine
 10
1837.105840468344
 20
347.9401341871024
 30
0.0
 11
1837.105840468344
 21
409.7300438104593
 31
0.0
  0
LINE
  5
3ED
330
1F
100
AcDbEntity
  8
LAYER0032
  6
CENTER
 62
     6
100
AcDbLine
 10
1957.105840468344
 20
-314.7699561895405
 30
0.0
 11
1957.105840468344
 21
-374.7699561895405
 31
0.0
  0
LINE
  5
3EE
330
1F
100
AcDbEntity
  8
LAYER0032
  6
CENTER
 62
     6
100
AcDbLine
 10
1982.105840468344
 20
-344.7699561895396
 30
0.0
 11
1932.105840468344
 21
-344.7699561895396
 31
0.0
  0
LINE
  5
3EF
330
1F
100
AcDbEntity
  8
LAYER0032
  6
CENTER
 62
     6
100
AcDbLine
 10
1957.105840468344
 20
394.2300438104585
 30
0.0
 11
1957.105840468344
 21
334.2300438104585
 31
0.0
  0
LINE
  5
3F0
330
1F
100
AcDbEntity
  8
LAYER0032
  6
CENTER
 62
     6
100
AcDbLine
 10
1982.105840468344
 20
364.2300438104594
 30
0.0
 11
1932.105840468344
 21
364.2300438104594
 31
0.0
  0
LINE
  5
3F1
330
1F
100
AcDbEntity
  8
LAYER0032
  6
CENTER
 62
     6
100
AcDbLine
 10
377.105840468344
 20
394.2300438104585
 30
0.0
 11
377.105840468344
 21
334.2300438104585
 31
0.0
  0
LINE
  5
3F2
330
1F
100
AcDbEntity
  8
LAYER0032
  6
CENTER
 62
     6
100
AcDbLine
 10
352.105840468344
 20
364.2300438104594
 30
0.0
 11
402.105840468344
 21
364.2300438104594
 31
0.0
  0
LINE
  5
3F3
330
1F
100
AcDbEntity
  8
LAYER0032
  6
CENTER
 62
     6
100
AcDbLine
 10
352.105840468344
 20
-344.7699561895396
 30
0.0
 11
402.105840468344
 21
-344.7699561895396
 31
0.0
  0
LINE
  5
3F4
330
1F
100
AcDbEntity
  8
LAYER0032
  6
CENTER
 62
     6
100
AcDbLine
 10
377.105840468344
 20
-314.7699561895405
 30
0.0
 11
377.105840468344
 21
-374.7699561895405
 31
0.0
  0
LINE
  5
3F5
330
1F
100
AcDbEntity
  8
LAYER0032
  6
CENTER
 62
     6
100
AcDbLine
 10
346.599053138028
 20
9.730043810459392
 30
0.0
 11
596.5779543197625
 21
9.730043810459392
 31
0.0
  0
LINE
  5
3F6
330
1F
100
AcDbEntity
  8
LAYER0032
  6
CENTER
 62
     6
100
AcDbLine
 10
754.3116993557765
 20
9.730043810459392
 30
0.0
 11
2061.025494835699
 21
9.730043810459392
 31
0.0
  0
INSERT
  5
3F7
330
1F
100
AcDbEntity
  8
LAYER0032
  6
CONTINUOUS
100
AcDbBlockReference
  2
DC_GROUP_2
 10
0.0
 20
0.0
 30
0.0
  0
DIMENSION
  5
3F8
330
1F
100
AcDbEntity
  8
LAYER0032
  6
CONTINUOUS
100
AcDbDimension
  2
*D3
 10
1929.605840468344
 20
718.9407796924997
 30
0.0
 11
1167.105840468344
 21
718.9407796924997
 31
0.0
 70
   160
  3
DC_ROTATED
100
AcDbAlignedDimension
 13
404.605840468344
 23
468.2300438104593
 33
0.0
 14
1929.605840468344
 24
468.2300438104593
 34
0.0
100
AcDbRotatedDimension
1001
ACAD
1000
DSTYLE
1002
{
1070
     7
1000
OPEN30
1070
     6
1000
OPEN30
1070
   144
1040
1.0
1070
   274
1070
     4
1070
    41
1040
60.00003814697266
1070
    79
1070
     2
1070
   176
1070
     4
1070
   177
1070
     4
1070
   178
1070
     4
1070
   271
1070
     1
1070
    44
1040
20.0
1070
    42
1040
20.0
1070
   147
1040
19.99999999999886
1070
   173
1070
     1
1070
    77
1070
     3
1070
    73
1070
     0
1070
   172
1070
     1
1070
    74
1070
     0
1070
   283
1070
     0
1070
   340
1005
105
1070
   140
1040
60.0
1070
   284
1070
     8
1070
   288
1070
     1
1070
    78
1070
     8
1070
    90
1070
     1
1002
}
  0
DIMENSION
  5
3FA
330
1F
100
AcDbEntity
  8
LAYER0032
  6
CONTINUOUS
100
AcDbDimension
  2
*D4
 10
1957.105840468344
 20
849.1967829887517
 30
0.0
 11
1167.105840468344
 21
849.1967829887517
 31
0.0
 70
   160
  3
DC_ROTATED
100
AcDbAlignedDimension
 13
377.1058404683445
 23
394.2300438104593
 33
0.0
 14
1957.105840468344
 24
394.2300438104593
 34
0.0
100
AcDbRotatedDimension
1001
ACAD
1000
DSTYLE
1002
{
1070
     7
1000
OPEN30
1070
     6
1000
OPEN30
1070
   144
1040
1.0
1070
   274
1070
     4
1070
    41
1040
60.00003814697266
1070
    79
1070
     2
1070
   176
1070
     4
1070
   177
1070
     4
1070
   178
1070
     4
1070
   271
1070
     1
1070
    44
1040
20.0
1070
    42
1040
20.0
1070
   147
1040
19.99999999999795
1070
   173
1070
     1
1070
    77
1070
     3
1070
    73
1070
     0
1070
   172
1070
     1
1070
    74
1070
     0
1070
   283
1070
     0
1070
   340
1005
105
1070
   140
1040
60.0
1070
   284
1070
     8
1070
   288
1070
     1
1070
    78
1070
     8
1070
    90
1070
     1
1002
}
  0
DIMENSION
  5
3FB
330
1F
100
AcDbEntity
  8
LAYER0032
  6
CONTINUOUS
100
AcDbDimension
  2
*D5
 10
1982.105840468344
 20
979.4527862850009
 30
0.0
 11
1167.105840468344
 21
979.4527862850009
 31
0.0
 70
   160
  3
DC_ROTATED
100
AcDbAlignedDimension
 13
352.1058404683445
 23
404.2300438104593
 33
0.0
 14
1982.105840468344
 24
404.2300438104593
 34
0.0
100
AcDbRotatedDimension
1001
ACAD
1000
DSTYLE
1002
{
1070
     7
1000
OPEN30
1070
     6
1000
OPEN30
1070
   144
1040
1.0
1070
   274
1070
     4
1070
    41
1040
60.00003814697266
1070
    79
1070
     2
1070
   176
1070
     4
1070
   177
1070
     4
1070
   178
1070
     4
1070
   271
1070
     1
1070
    44
1040
20.0
1070
    42
1040
20.0
1070
   147
1040
19.99999999999909
1070
   173
1070
     1
1070
    77
1070
     3
1070
    73
1070
     0
1070
   172
1070
     1
1070
    74
1070
     0
1070
   283
1070
     0
1070
   340
1005
105
1070
   140
1040
60.0
1070
   284
1070
     8
1070
   288
1070
     1
1070
    78
1070
     8
1070
    90
1070
     1
1002
}
  0
DIMENSION
  5
3FC
330
1F
100
AcDbEntity
  8
LAYER0032
  6
CONTINUOUS
100
AcDbDimension
  2
*D6
 10
127.878302490792
 20
468.2300438104593
 30
0.0
 11
127.878302490792
 21
9.730043810460245
 31
0.0
 70
   160
  3
DC_ROTATED
100
AcDbAlignedDimension
 13
404.6058404683441
 23
-448.7699561895408
 33
0.0
 14
404.6058404683441
 24
468.2300438104593
 34
0.0
 50
90.0
100
AcDbRotatedDimension
1001
ACAD
1000
DSTYLE
1002
{
1070
     7
1000
OPEN30
1070
     6
1000
OPEN30
1070
   144
1040
1.0
1070
   274
1070
     4
1070
    41
1040
60.00003814697266
1070
    79
1070
     2
1070
   176
1070
     4
1070
   177
1070
     4
1070
   178
1070
     4
1070
   271
1070
     1
1070
    44
1040
20.0
1070
    42
1040
20.0
1070
   147
1040
20.00000000000003
1070
   173
1070
     1
1070
    77
1070
     3
1070
    73
1070
     0
1070
   172
1070
     1
1070
    74
1070
     0
1070
   283
1070
     0
1070
   340
1005
105
1070
   140
1040
60.0
1070
   284
1070
     8
1070
   288
1070
     1
1070
    78
1070
     8
1070
    90
1070
     1
1002
}
  0
INSERT
  5
3FD
330
1F
100
AcDbEntity
  8
LAYER0032
  6
CONTINUOUS
100
AcDbBlockReference
  2
DC_GROUP_3
 10
0.0
 20
0.0
 30
0.0
  0
DIMENSION
  5
3FE
330
1F
100
AcDbEntity
  8
LAYER0032
  6
CONTINUOUS
100
AcDbDimension
  2
*D8
 10
251.9949668745217
 20
-1220.691434924843
 30
0.0
 11
251.9949668745217
 21
-1406.647034924844
 31
0.0
 70
   160
  3
DC_ROTATED
100
AcDbAlignedDimension
 13
352.1058404683445
 23
-1280.691434924843
 33
0.0
 14
377.1058404683445
 24
-1220.691434924843
 34
0.0
 50
90.0
100
AcDbRotatedDimension
1001
ACAD
1000
DSTYLE
1002
{
1070
     7
1000
OPEN30
1070
     6
1000
OPEN30
1070
   144
1040
1.0
1070
   274
1070
     4
1070
    41
1040
60.00003814697266
1070
    79
1070
     2
1070
   176
1070
     4
1070
   177
1070
     4
1070
   178
1070
     4
1070
   271
1070
     1
1070
    44
1040
20.0
1070
    42
1040
20.0
1070
   147
1040
20.00000000000048
1070
   173
1070
     1
1070
    77
1070
     3
1070
    73
1070
     0
1070
   172
1070
     1
1070
    74
1070
     0
1070
   283
1070
     0
1070
   340
1005
105
1070
   140
1040
60.0
1070
   284
1070
     8
1070
   288
1070
     1
1070
    78
1070
     8
1070
    90
1070
     1
1002
}
  0
DIMENSION
  5
3FF
330
1F
100
AcDbEntity
  8
LAYER0032
  6
CONTINUOUS
100
AcDbDimension
  2
*D9
 10
251.9949668745217
 20
-850.691434924843
 30
0.0
 11
251.9949668745217
 21
-1035.691434924844
 31
0.0
 70
   160
  3
DC_ROTATED
100
AcDbAlignedDimension
 13
377.1058404683445
 23
-1220.691434924843
 33
0.0
 14
409.6058404683445
 24
-850.691434924843
 34
0.0
 50
90.0
100
AcDbRotatedDimension
1001
ACAD
1000
DSTYLE
1002
{
1070
     7
1000
OPEN30
1070
     6
1000
OPEN30
1070
   144
1040
1.0
1070
   274
1070
     4
1070
    41
1040
60.00003814697266
1070
    79
1070
     2
1070
   176
1070
     4
1070
   177
1070
     4
1070
   178
1070
     4
1070
   271
1070
     1
1070
    44
1040
20.0
1070
    42
1040
20.0
1070
   147
1040
20.00000000000048
1070
   173
1070
     1
1070
    77
1070
     3
1070
    73
1070
     0
1070
   172
1070
     1
1070
    74
1070
     0
1070
   283
1070
     0
1070
   340
1005
105
1070
   140
1040
60.0
1070
   284
1070
     8
1070
   288
1070
     1
1070
    78
1070
     8
1070
    90
1070
     1
1002
}
  0
INSERT
  5
400
330
1F
100
AcDbEntity
  8
LAYER0032
  6
CONTINUOUS
100
AcDbBlockReference
  2
DC_GROUP_4
 10
0.0
 20
0.0
 30
0.0
  0
DIMENSION
  5
401
330
1F
100
AcDbEntity
  8
LAYER0032
  6
CONTINUOUS
100
AcDbDimension
  2
*D11
 10
126.2305498988317
 20
-850.691434924843
 30
0.0
 11
126.2305498988317
 21
-1065.691434924843
 31
0.0
 70
   160
  3
DC_ROTATED
100
AcDbAlignedDimension
 13
352.1058404683445
 23
-1280.691434924843
 33
0.0
 14
409.6058404683445
 24
-850.691434924843
 34
0.0
 50
90.0
100
AcDbRotatedDimension
1001
ACAD
1000
DSTYLE
1002
{
1070
     7
1000
OPEN30
1070
     6
1000
OPEN30
1070
   144
1040
1.0
1070
   274
1070
     4
1070
    41
1040
60.00003814697266
1070
    79
1070
     2
1070
   176
1070
     4
1070
   177
1070
     4
1070
   178
1070
     4
1070
   271
1070
     1
1070
    44
1040
20.0
1070
    42
1040
20.0
1070
   147
1040
20.00000000000001
1070
   173
1070
     1
1070
    77
1070
     3
1070
    73
1070
     0
1070
   172
1070
     1
1070
    74
1070
     0
1070
   283
1070
     0
1070
   340
1005
105
1070
   140
1040
60.0
1070
   284
1070
     8
1070
   288
1070
     1
1070
    78
1070
     8
1070
    90
1070
     1
1002
}
  0
INSERT
  5
402
330
1F
100
AcDbEntity
  8
LAYER0032
  6
CONTINUOUS
100
AcDbBlockReference
  2
DC_GROUP_5
 10
0.0
 20
0.0
 30
0.0
  0
INSERT
  5
403
330
1F
100
AcDbEntity
  8
LAYER0032
  6
CONTINUOUS
100
AcDbBlockReference
  2
DC_GROUP_6
 10
0.0
 20
0.0
 30
0.0
  0
INSERT
  5
404
330
1F
100
AcDbEntity
  8
LAYER0032
  6
CONTINUOUS
100
AcDbBlockReference
  2
DC_GROUP_7
 10
0.0
 20
0.0
 30
0.0
  0
INSERT
  5
405
330
1F
100
AcDbEntity
  8
LAYER0032
  6
CONTINUOUS
100
AcDbBlockReference
  2
DC_GROUP_8
 10
0.0
 20
0.0
 30
0.0
  0
INSERT
  5
406
330
1F
100
AcDbEntity
  8
LAYER0032
  6
CONTINUOUS
100
AcDbBlockReference
  2
DC_GROUP_9
 10
0.0
 20
0.0
 30
0.0
  0
INSERT
  5
407
330
1F
100
AcDbEntity
  8
LAYER0032
  6
CONTINUOUS
100
AcDbBlockReference
  2
DC_GROUP_10
 10
0.0
 20
0.0
 30
0.0
  0
INSERT
  5
408
330
1F
100
AcDbEntity
  8
LAYER0032
  6
CONTINUOUS
100
AcDbBlockReference
  2
DC_GROUP_11
 10
0.0
 20
0.0
 30
0.0
  0
INSERT
  5
409
330
1F
100
AcDbEntity
  8
LAYER0032
  6
CONTINUOUS
100
AcDbBlockReference
  2
DC_GROUP_12
 10
0.0
 20
0.0
 30
0.0
  0
INSERT
  5
40A
330
1F
100
AcDbEntity
  8
LAYER0032
  6
CONTINUOUS
100
AcDbBlockReference
  2
DC_GROUP_13
 10
0.0
 20
0.0
 30
0.0
  0
DIMENSION
  5
40B
330
1F
100
AcDbEntity
  8
LAYER0032
  6
CONTINUOUS
100
AcDbDimension
  2
*D21
 10
1837.105840468344
 20
588.6847763962505
 30
0.0
 11
1167.105840468344
 21
588.6847763962505
 31
0.0
 70
   160
  3
DC_ROTATED
100
AcDbAlignedDimension
 13
497.1058404683445
 23
409.7300438104602
 33
0.0
 14
1837.105840468344
 24
409.7300438104602
 34
0.0
100
AcDbRotatedDimension
1001
ACAD
1000
DSTYLE
1002
{
1070
     7
1000
OPEN30
1070
     6
1000
OPEN30
1070
   144
1040
1.0
1070
   274
1070
     4
1070
    41
1040
60.00003814697266
1070
    79
1070
     2
1070
   176
1070
     4
1070
   177
1070
     4
1070
   178
1070
     4
1070
   271
1070
     1
1070
    44
1040
20.0
1070
    42
1040
20.0
1070
   147
1040
19.99999999999795
1070
   173
1070
     1
1070
    77
1070
     3
1070
    73
1070
     0
1070
   172
1070
     1
1070
    74
1070
     0
1070
   283
1070
     0
1070
   340
1005
105
1070
   140
1040
60.0
1070
   284
1070
     8
1070
   288
1070
     1
1070
    78
1070
     8
1070
    90
1070
     1
1002
}
  0
DIMENSION
  5
40C
330
1F
100
AcDbEntity
  8
LAYER0032
  6
CONTINUOUS
100
AcDbDimension
  2
*D23
 10
251.9949668745217
 20
-344.7699561895416
 30
0.0
 11
251.9949668745217
 21
9.730043810455697
 31
0.0
 70
   160
  3
DC_ROTATED
100
AcDbAlignedDimension
 13
352.105840468344
 23
364.2300438104584
 33
0.0
 14
352.105840468344
 24
-344.7699561895416
 34
0.0
 50
90.0
100
AcDbRotatedDimension
1001
ACAD
1000
DSTYLE
1002
{
1070
     7
1000
OPEN30
1070
     6
1000
OPEN30
1070
   144
1040
1.0
1070
   274
1070
     4
1070
    41
1040
60.00003814697266
1070
    79
1070
     2
1070
   176
1070
     4
1070
   177
1070
     4
1070
   178
1070
     4
1070
   271
1070
     1
1070
    44
1040
20.0
1070
    42
1040
20.0
1070
   147
1040
20.0
1070
   173
1070
     1
1070
    77
1070
     3
1070
    73
1070
     0
1070
   172
1070
     1
1070
    74
1070
     0
1070
   283
1070
     0
1070
   340
1005
105
1070
   140
1040
60.0
1070
   284
1070
     8
1070
   288
1070
     1
1070
    78
1070
     8
1070
    90
1070
     1
1002
}
  0
INSERT
  5
40D
330
1F
100
AcDbEntity
  8
LAYER0032
  6
CONTINUOUS
100
AcDbBlockReference
  2
DC_GROUP_15
 10
0.0
 20
0.0
 30
0.0
  0
DIMENSION
  5
40E
330
1F
100
AcDbEntity
  8
LAYER0032
  6
CONTINUOUS
100
AcDbDimension
  2
*D25
 10
713.5871827706059
 20
379.7300438104594
 30
0.0
 11
713.5871827706059
 21
9.730043810459222
 31
0.0
 70
   160
  3
DC_ROTATED
100
AcDbAlignedDimension
 13
528.6675198028101
 23
-360.2699561895408
 33
0.0
 14
528.6675198028101
 24
379.7300438104594
 34
0.0
 50
90.0
100
AcDbRotatedDimension
1001
ACAD
1000
DSTYLE
1002
{
1070
     7
1000
OPEN30
1070
     6
1000
OPEN30
1070
   144
1040
1.0
1070
   274
1070
     4
1070
    41
1040
60.00003814697266
1070
    79
1070
     2
1070
   176
1070
     4
1070
   177
1070
     4
1070
   178
1070
     4
1070
   271
1070
     1
1070
    44
1040
20.0
1070
    42
1040
20.0
1070
   147
1040
20.00000000000034
1070
   173
1070
     1
1070
    77
1070
     3
1070
    73
1070
     0
1070
   172
1070
     1
1070
    74
1070
     0
1070
   283
1070
     0
1070
   340
1005
105
1070
   140
1040
60.0
1070
   284
1070
     8
1070
   288
1070
     1
1070
    78
1070
     8
1070
    90
1070
     1
1002
}
  0
INSERT
  5
40F
330
1F
100
AcDbEntity
  8
LAYER0032
  6
CONTINUOUS
100
AcDbBlockReference
  2
DC_GROUP_16
 10
0.0
 20
0.0
 30
0.0
  0
INSERT
  5
410
330
1F
100
AcDbEntity
  8
LAYER0032
  6
CONTINUOUS
100
AcDbBlockReference
  2
DC_GROUP_17
 10
0.0
 20
0.0
 30
0.0
  0
LINE
  5
411
330
1F
100
AcDbEntity
  8
LAYER0032
  6
CONTINUOUS
 62
     2
100
AcDbLine
 10
1709.034338436521
 20
1054.800609437159
 30
0.0
 11
2509.034338436521
 21
1054.800609437159
 31
0.0
  0
LINE
  5
412
330
1F
100
AcDbEntity
  8
LAYER0032
  6
CONTINUOUS
 62
     2
100
AcDbLine
 10
2509.034338436521
 20
1904.800609437159
 30
0.0
 11
1709.034338436521
 21
1904.800609437159
 31
0.0
  0
LINE
  5
413
330
1F
100
AcDbEntity
  8
LAYER0032
  6
CONTINUOUS
 62
     2
100
AcDbLine
 10
1709.034338436521
 20
1904.800609437159
 30
0.0
 11
1709.034338436521
 21
1054.800609437159
 31
0.0
  0
LINE
  5
414
330
1F
100
AcDbEntity
  8
LAYER0032
  6
CONTINUOUS
 62
     2
100
AcDbLine
 10
2509.034338436521
 20
1054.800609437159
 30
0.0
 11
2509.034338436521
 21
1904.800609437159
 31
0.0
  0
TEXT
  5
415
330
1F
100
AcDbEntity
  8
LAYER0048
 62
     7
100
AcDbText
 10
-2109.208212839689
 20
-1717.576820696919
 30
0.0
 40
95.5691577595244
  1
　株式会社
 41
0.6694653891066917
  7
DCSTYLE0
 72
     5
 11
-1675.131423399262
 21
-1717.576820696919
 31
0.0
100
AcDbText
  0
LINE
  5
416
330
1F
100
AcDbEntity
  8
LAYER0048
  6
CONTINUOUS
 62
     3
100
AcDbLine
 10
-1299.928348488593
 20
-1649.251225312527
 30
0.0
 11
-1298.726141834029
 21
-1648.049018657962
 31
0.0
  0
LINE
  5
417
330
1F
100
AcDbEntity
  8
LAYER0048
  6
CONTINUOUS
 62
     3
100
AcDbLine
 10
-1300.457969228759
 20
-1652.269861922469
 30
0.0
 11
-1295.890494867568
 21
-1647.702387561278
 31
0.0
  0
LINE
  5
418
330
1F
100
AcDbEntity
  8
LAYER0048
  6
CONTINUOUS
 62
     3
100
AcDbLine
 10
-1300.987589968925
 20
-1655.288498532411
 30
0.0
 11
-1292.69116228711
 21
-1646.992070850597
 31
0.0
  0
LINE
  5
419
330
1F
100
AcDbEntity
  8
LAYER0048
  6
CONTINUOUS
 62
     3
100
AcDbLine
 10
-1307.913584682213
 20
-1694.571699552796
 30
0.0
 11
-1307.60190427366
 21
-1694.260019144244
 31
0.0
  0
LINE
  5
41A
330
1F
100
AcDbEntity
  8
LAYER0048
  6
CONTINUOUS
 62
     3
100
AcDbLine
 10
-1308.446418904737
 20
-1697.593549645096
 30
0.0
 11
-1305.112888403883
 21
-1694.260019144244
 31
0.0
  0
LINE
  5
41B
330
1F
100
AcDbEntity
  8
LAYER0048
  6
CONTINUOUS
 62
     3
100
AcDbLine
 10
-1308.979253127261
 20
-1700.615399737397
 30
0.0
 11
-1302.623872534106
 21
-1694.260019144244
 31
0.0
  0
LINE
  5
41C
330
1F
100
AcDbEntity
  8
LAYER0048
  6
CONTINUOUS
 62
     3
100
AcDbLine
 10
-1309.512087349785
 20
-1703.637249829697
 30
0.0
 11
-1300.134856664329
 21
-1694.260019144244
 31
0.0
  0
LINE
  5
41D
330
1F
100
AcDbEntity
  8
LAYER0048
  6
CONTINUOUS
 62
     3
100
AcDbLine
 10
-1310.044921572308
 20
-1706.659099921997
 30
0.0
 11
-1297.645840794553
 21
-1694.260019144244
 31
0.0
  0
LINE
  5
41E
330
1F
100
AcDbEntity
  8
LAYER0048
  6
CONTINUOUS
 62
     3
100
AcDbLine
 10
-1310.577755794831
 20
-1709.680950014298
 30
0.0
 11
-1295.156824924777
 21
-1694.260019144244
 31
0.0
  0
LINE
  5
41F
330
1F
100
AcDbEntity
  8
LAYER0048
  6
CONTINUOUS
 62
     3
100
AcDbLine
 10
-1308.507777374999
 20
-1710.099987464244
 30
0.0
 11
-1292.667809055
 21
-1694.260019144244
 31
0.0
  0
LINE
  5
420
330
1F
100
AcDbEntity
  8
LAYER0048
  6
CONTINUOUS
 62
     3
100
AcDbLine
 10
-1427.438451487472
 20
-1617.464312645699
 30
0.0
 11
-1425.034316386015
 21
-1615.060177544244
 31
0.0
  0
LINE
  5
421
330
1F
100
AcDbEntity
  8
LAYER0048
  6
CONTINUOUS
 62
     3
100
AcDbLine
 10
-1427.971285709995
 20
-1620.486162737999
 30
0.0
 11
-1422.545300516239
 21
-1615.060177544244
 31
0.0
  0
LINE
  5
422
330
1F
100
AcDbEntity
  8
LAYER0048
  6
CONTINUOUS
 62
     3
100
AcDbLine
 10
-1428.504119932519
 20
-1623.508012830299
 30
0.0
 11
-1420.056284646462
 21
-1615.060177544244
 31
0.0
  0
LINE
  5
423
330
1F
100
AcDbEntity
  8
LAYER0048
  6
CONTINUOUS
 62
     3
100
AcDbLine
 10
-1429.036954155042
 20
-1626.529862922599
 30
0.0
 11
-1417.567268776685
 21
-1615.060177544244
 31
0.0
  0
LINE
  5
424
330
1F
100
AcDbEntity
  8
LAYER0048
  6
CONTINUOUS
 62
     3
100
AcDbLine
 10
-1429.569788377565
 20
-1629.551713014899
 30
0.0
 11
-1415.078252906909
 21
-1615.060177544244
 31
0.0
  0
LINE
  5
425
330
1F
100
AcDbEntity
  8
LAYER0048
  6
CONTINUOUS
 62
     3
100
AcDbLine
 10
-1428.429205357132
 20
-1630.900145864244
 30
0.0
 11
-1412.589237037133
 21
-1615.060177544244
 31
0.0
  0
LINE
  5
426
330
1F
100
AcDbEntity
  8
LAYER0048
  6
CONTINUOUS
 62
     3
100
AcDbLine
 10
-1425.940189487355
 20
-1630.900145864244
 30
0.0
 11
-1410.100221167356
 21
-1615.060177544244
 31
0.0
  0
LINE
  5
427
330
1F
100
AcDbEntity
  8
LAYER0048
  6
CONTINUOUS
 62
     3
100
AcDbLine
 10
-1423.451173617579
 20
-1630.900145864244
 30
0.0
 11
-1407.611205297579
 21
-1615.060177544244
 31
0.0
  0
LINE
  5
428
330
1F
100
AcDbEntity
  8
LAYER0048
  6
CONTINUOUS
 62
     3
100
AcDbLine
 10
-1420.962157747802
 20
-1630.900145864244
 30
0.0
 11
-1405.122189427802
 21
-1615.060177544244
 31
0.0
  0
LINE
  5
429
330
1F
100
AcDbEntity
  8
LAYER0048
  6
CONTINUOUS
 62
     3
100
AcDbLine
 10
-1418.473141878026
 20
-1630.900145864244
 30
0.0
 11
-1402.633173558026
 21
-1615.060177544244
 31
0.0
  0
LINE
  5
42A
330
1F
100
AcDbEntity
  8
LAYER0048
  6
CONTINUOUS
 62
     3
100
AcDbLine
 10
-1415.984126008249
 20
-1630.900145864244
 30
0.0
 11
-1400.14415768825
 21
-1615.060177544244
 31
0.0
  0
LINE
  5
42B
330
1F
100
AcDbEntity
  8
LAYER0048
  6
CONTINUOUS
 62
     3
100
AcDbLine
 10
-1413.495110138472
 20
-1630.900145864244
 30
0.0
 11
-1397.655141818473
 21
-1615.060177544244
 31
0.0
  0
LINE
  5
42C
330
1F
100
AcDbEntity
  8
LAYER0048
  6
CONTINUOUS
 62
     3
100
AcDbLine
 10
-1411.006094268696
 20
-1630.900145864244
 30
0.0
 11
-1395.166125948696
 21
-1615.060177544244
 31
0.0
  0
LINE
  5
42D
330
1F
100
AcDbEntity
  8
LAYER0048
  6
CONTINUOUS
 62
     3
100
AcDbLine
 10
-1408.517078398919
 20
-1630.900145864244
 30
0.0
 11
-1392.677110078919
 21
-1615.060177544244
 31
0.0
  0
LINE
  5
42E
330
1F
100
AcDbEntity
  8
LAYER0048
  6
CONTINUOUS
 62
     3
100
AcDbLine
 10
-1406.028062529143
 20
-1630.900145864244
 30
0.0
 11
-1390.188094209143
 21
-1615.060177544244
 31
0.0
  0
LINE
  5
42F
330
1F
100
AcDbEntity
  8
LAYER0048
  6
CONTINUOUS
 62
     3
100
AcDbLine
 10
-1403.539046659366
 20
-1630.900145864244
 30
0.0
 11
-1387.699078339367
 21
-1615.060177544244
 31
0.0
  0
LINE
  5
430
330
1F
100
AcDbEntity
  8
LAYER0048
  6
CONTINUOUS
 62
     3
100
AcDbLine
 10
-1401.050030789589
 20
-1630.900145864244
 30
0.0
 11
-1385.21006246959
 21
-1615.060177544244
 31
0.0
  0
LINE
  5
431
330
1F
100
AcDbEntity
  8
LAYER0048
  6
CONTINUOUS
 62
     3
100
AcDbLine
 10
-1398.561014919813
 20
-1630.900145864244
 30
0.0
 11
-1382.721046599813
 21
-1615.060177544244
 31
0.0
  0
LINE
  5
432
330
1F
100
AcDbEntity
  8
LAYER0048
  6
CONTINUOUS
 62
     3
100
AcDbLine
 10
-1396.071999050036
 20
-1630.900145864244
 30
0.0
 11
-1380.232030730037
 21
-1615.060177544244
 31
0.0
  0
LINE
  5
433
330
1F
100
AcDbEntity
  8
LAYER0048
  6
CONTINUOUS
 62
     3
100
AcDbLine
 10
-1393.58298318026
 20
-1630.900145864244
 30
0.0
 11
-1377.74301486026
 21
-1615.060177544244
 31
0.0
  0
LINE
  5
434
330
1F
100
AcDbEntity
  8
LAYER0048
  6
CONTINUOUS
 62
     3
100
AcDbLine
 10
-1391.093967310483
 20
-1630.900145864244
 30
0.0
 11
-1375.253998990484
 21
-1615.060177544244
 31
0.0
  0
LINE
  5
435
330
1F
100
AcDbEntity
  8
LAYER0048
  6
CONTINUOUS
 62
     3
100
AcDbLine
 10
-1388.604951440707
 20
-1630.900145864244
 30
0.0
 11
-1372.764983120707
 21
-1615.060177544244
 31
0.0
  0
LINE
  5
436
330
1F
100
AcDbEntity
  8
LAYER0048
  6
CONTINUOUS
 62
     3
100
AcDbLine
 10
-1386.11593557093
 20
-1630.900145864244
 30
0.0
 11
-1370.27596725093
 21
-1615.060177544244
 31
0.0
  0
LINE
  5
437
330
1F
100
AcDbEntity
  8
LAYER0048
  6
CONTINUOUS
 62
     3
100
AcDbLine
 10
-1383.626919701153
 20
-1630.900145864244
 30
0.0
 11
-1367.786951381154
 21
-1615.060177544244
 31
0.0
  0
LINE
  5
438
330
1F
100
AcDbEntity
  8
LAYER0048
  6
CONTINUOUS
 62
     3
100
AcDbLine
 10
-1381.137903831377
 20
-1630.900145864244
 30
0.0
 11
-1365.297935511377
 21
-1615.060177544244
 31
0.0
  0
LINE
  5
439
330
1F
100
AcDbEntity
  8
LAYER0048
  6
CONTINUOUS
 62
     3
100
AcDbLine
 10
-1378.6488879616
 20
-1630.900145864244
 30
0.0
 11
-1362.808919641601
 21
-1615.060177544244
 31
0.0
  0
LINE
  5
43A
330
1F
100
AcDbEntity
  8
LAYER0048
  6
CONTINUOUS
 62
     3
100
AcDbLine
 10
-1376.159872091823
 20
-1630.900145864244
 30
0.0
 11
-1360.319903771824
 21
-1615.060177544244
 31
0.0
  0
LINE
  5
43B
330
1F
100
AcDbEntity
  8
LAYER0048
  6
CONTINUOUS
 62
     3
100
AcDbLine
 10
-1373.670856222047
 20
-1630.900145864244
 30
0.0
 11
-1359.809226365965
 21
-1617.038516008162
 31
0.0
  0
LINE
  5
43C
330
1F
100
AcDbEntity
  8
LAYER0048
  6
CONTINUOUS
 62
     3
100
AcDbLine
 10
-1371.181840352271
 20
-1630.900145864244
 30
0.0
 11
-1360.342060588488
 21
-1620.060366100462
 31
0.0
  0
LINE
  5
43D
330
1F
100
AcDbEntity
  8
LAYER0048
  6
CONTINUOUS
 62
     3
100
AcDbLine
 10
-1368.692824482494
 20
-1630.900145864244
 30
0.0
 11
-1360.874894811011
 21
-1623.082216192762
 31
0.0
  0
LINE
  5
43E
330
1F
100
AcDbEntity
  8
LAYER0048
  6
CONTINUOUS
 62
     3
100
AcDbLine
 10
-1366.203808612717
 20
-1630.900145864244
 30
0.0
 11
-1361.407729033534
 21
-1626.104066285061
 31
0.0
  0
LINE
  5
43F
330
1F
100
AcDbEntity
  8
LAYER0048
  6
CONTINUOUS
 62
     3
100
AcDbLine
 10
-1363.714792742941
 20
-1630.900145864244
 30
0.0
 11
-1361.940563256058
 21
-1629.125916377362
 31
0.0
  0
LINE
  5
440
330
1F
100
AcDbEntity
  8
LAYER0048
  6
CONTINUOUS
 62
     3
100
AcDbLine
 10
-1432.987718794579
 20
-1685.238976697224
 30
0.0
 11
-1432.504780249598
 21
-1684.756038152244
 31
0.0
  0
LINE
  5
441
330
1F
100
AcDbEntity
  8
LAYER0048
  6
CONTINUOUS
 62
     3
100
AcDbLine
 10
-1433.520553017103
 20
-1688.260826789523
 30
0.0
 11
-1430.015764379822
 21
-1684.756038152244
 31
0.0
  0
LINE
  5
442
330
1F
100
AcDbEntity
  8
LAYER0048
  6
CONTINUOUS
 62
     3
100
AcDbLine
 10
-1434.053387239626
 20
-1691.282676881823
 30
0.0
 11
-1427.526748510045
 21
-1684.756038152244
 31
0.0
  0
LINE
  5
443
330
1F
100
AcDbEntity
  8
LAYER0048
  6
CONTINUOUS
 62
     3
100
AcDbLine
 10
-1434.586221462149
 20
-1694.304526974123
 30
0.0
 11
-1425.037732640269
 21
-1684.756038152244
 31
0.0
  0
LINE
  5
444
330
1F
100
AcDbEntity
  8
LAYER0048
  6
CONTINUOUS
 62
     3
100
AcDbLine
 10
-1435.119055684672
 20
-1697.326377066423
 30
0.0
 11
-1422.548716770491
 21
-1684.756038152244
 31
0.0
  0
LINE
  5
445
330
1F
100
AcDbEntity
  8
LAYER0048
  6
CONTINUOUS
 62
     3
100
AcDbLine
 10
-1435.651889907196
 20
-1700.348227158723
 30
0.0
 11
-1420.059700900715
 21
-1684.756038152244
 31
0.0
  0
LINE
  5
446
330
1F
100
AcDbEntity
  8
LAYER0048
  6
CONTINUOUS
 62
     3
100
AcDbLine
 10
-1436.184724129719
 20
-1703.370077251023
 30
0.0
 11
-1417.570685030939
 21
-1684.756038152244
 31
0.0
  0
LINE
  5
447
330
1F
100
AcDbEntity
  8
LAYER0048
  6
CONTINUOUS
 62
     3
100
AcDbLine
 10
-1436.717558352242
 20
-1706.391927343323
 30
0.0
 11
-1415.081669161162
 21
-1684.756038152244
 31
0.0
  0
LINE
  5
448
330
1F
100
AcDbEntity
  8
LAYER0048
  6
CONTINUOUS
 62
     3
100
AcDbLine
 10
-1437.250392574765
 20
-1709.413777435623
 30
0.0
 11
-1412.592653291385
 21
-1684.756038152244
 31
0.0
  0
LINE
  5
449
330
1F
100
AcDbEntity
  8
LAYER0048
  6
CONTINUOUS
 62
     3
100
AcDbLine
 10
-1435.447586733609
 20
-1710.099987464244
 30
0.0
 11
-1410.103637421609
 21
-1684.756038152244
 31
0.0
  0
LINE
  5
44A
330
1F
100
AcDbEntity
  8
LAYER0048
  6
CONTINUOUS
 62
     3
100
AcDbLine
 10
-1432.958570863832
 20
-1710.099987464244
 30
0.0
 11
-1407.614621551832
 21
-1684.756038152244
 31
0.0
  0
LINE
  5
44B
330
1F
100
AcDbEntity
  8
LAYER0048
  6
CONTINUOUS
 62
     3
100
AcDbLine
 10
-1430.469554994056
 20
-1710.099987464244
 30
0.0
 11
-1405.125605682055
 21
-1684.756038152244
 31
0.0
  0
LINE
  5
44C
330
1F
100
AcDbEntity
  8
LAYER0048
  6
CONTINUOUS
 62
     3
100
AcDbLine
 10
-1427.980539124278
 20
-1710.099987464244
 30
0.0
 11
-1402.636589812279
 21
-1684.756038152244
 31
0.0
  0
LINE
  5
44D
330
1F
100
AcDbEntity
  8
LAYER0048
  6
CONTINUOUS
 62
     3
100
AcDbLine
 10
-1425.491523254502
 20
-1710.099987464244
 30
0.0
 11
-1400.147573942502
 21
-1684.756038152244
 31
0.0
  0
LINE
  5
44E
330
1F
100
AcDbEntity
  8
LAYER0048
  6
CONTINUOUS
 62
     3
100
AcDbLine
 10
-1423.002507384726
 20
-1710.099987464244
 30
0.0
 11
-1397.658558072726
 21
-1684.756038152244
 31
0.0
  0
LINE
  5
44F
330
1F
100
AcDbEntity
  8
LAYER0048
  6
CONTINUOUS
 62
     3
100
AcDbLine
 10
-1327.006122872478
 20
-1616.592618821771
 30
0.0
 11
-1325.47368159495
 21
-1615.060177544244
 31
0.0
  0
LINE
  5
450
330
1F
100
AcDbEntity
  8
LAYER0048
  6
CONTINUOUS
 62
     3
100
AcDbLine
 10
-1420.513491514949
 20
-1710.099987464244
 30
0.0
 11
-1395.169542202949
 21
-1684.756038152244
 31
0.0
  0
LINE
  5
451
330
1F
100
AcDbEntity
  8
LAYER0048
  6
CONTINUOUS
 62
     3
100
AcDbLine
 10
-1327.538961047511
 20
-1619.614472866581
 30
0.0
 11
-1322.984665725174
 21
-1615.060177544244
 31
0.0
  0
LINE
  5
452
330
1F
100
AcDbEntity
  8
LAYER0048
  6
CONTINUOUS
 62
     3
100
AcDbLine
 10
-1418.024475645173
 20
-1710.099987464244
 30
0.0
 11
-1392.680526333173
 21
-1684.756038152244
 31
0.0
  0
LINE
  5
453
330
1F
100
AcDbEntity
  8
LAYER0048
  6
CONTINUOUS
 62
     3
100
AcDbLine
 10
-1328.071799222544
 20
-1622.636326911391
 30
0.0
 11
-1320.495649855397
 21
-1615.060177544244
 31
0.0
  0
LINE
  5
454
330
1F
100
AcDbEntity
  8
LAYER0048
  6
CONTINUOUS
 62
     3
100
AcDbLine
 10
-1415.535459775396
 20
-1710.099987464244
 30
0.0
 11
-1390.191510463396
 21
-1684.756038152244
 31
0.0
  0
LINE
  5
455
330
1F
100
AcDbEntity
  8
LAYER0048
  6
CONTINUOUS
 62
     3
100
AcDbLine
 10
-1328.604637397577
 20
-1625.6581809562
 30
0.0
 11
-1318.006633985621
 21
-1615.060177544244
 31
0.0
  0
LINE
  5
456
330
1F
100
AcDbEntity
  8
LAYER0048
  6
CONTINUOUS
 62
     3
100
AcDbLine
 10
-1413.046443905619
 20
-1710.099987464244
 30
0.0
 11
-1387.70249459362
 21
-1684.756038152244
 31
0.0
  0
LINE
  5
457
330
1F
100
AcDbEntity
  8
LAYER0048
  6
CONTINUOUS
 62
     3
100
AcDbLine
 10
-1329.137475572611
 20
-1628.68003500101
 30
0.0
 11
-1315.517618115844
 21
-1615.060177544244
 31
0.0
  0
LINE
  5
458
330
1F
100
AcDbEntity
  8
LAYER0048
  6
CONTINUOUS
 62
     3
100
AcDbLine
 10
-1410.557428035843
 20
-1710.099987464244
 30
0.0
 11
-1385.213478723843
 21
-1684.756038152244
 31
0.0
  0
LINE
  5
459
330
1F
100
AcDbEntity
  8
LAYER0048
  6
CONTINUOUS
 62
     3
100
AcDbLine
 10
-1329.670313747644
 20
-1631.70188904582
 30
0.0
 11
-1313.028602246068
 21
-1615.060177544244
 31
0.0
  0
LINE
  5
45A
330
1F
100
AcDbEntity
  8
LAYER0048
  6
CONTINUOUS
 62
     3
100
AcDbLine
 10
-1408.068412166067
 20
-1710.099987464244
 30
0.0
 11
-1382.724462854066
 21
-1684.756038152244
 31
0.0
  0
LINE
  5
45B
330
1F
100
AcDbEntity
  8
LAYER0048
  6
CONTINUOUS
 62
     3
100
AcDbLine
 10
-1330.203151922677
 20
-1634.72374309063
 30
0.0
 11
-1310.675632016163
 21
-1615.196223184118
 31
0.0
  0
LINE
  5
45C
330
1F
100
AcDbEntity
  8
LAYER0048
  6
CONTINUOUS
 62
     3
100
AcDbLine
 10
-1405.57939629629
 20
-1710.099987464244
 30
0.0
 11
-1380.23544698429
 21
-1684.756038152244
 31
0.0
  0
LINE
  5
45D
330
1F
100
AcDbEntity
  8
LAYER0048
  6
CONTINUOUS
 62
     3
100
AcDbLine
 10
-1330.73599009771
 20
-1637.74559713544
 30
0.0
 11
-1311.208466255358
 21
-1618.21807329309
 31
0.0
  0
LINE
  5
45E
330
1F
100
AcDbEntity
  8
LAYER0048
  6
CONTINUOUS
 62
     3
100
AcDbLine
 10
-1403.090380426513
 20
-1710.099987464244
 30
0.0
 11
-1377.746431114513
 21
-1684.756038152244
 31
0.0
  0
LINE
  5
45F
330
1F
100
AcDbEntity
  8
LAYER0048
  6
CONTINUOUS
 62
     3
100
AcDbLine
 10
-1331.268828272743
 20
-1640.76745118025
 30
0.0
 11
-1311.741300494554
 21
-1621.239923402062
 31
0.0
  0
LINE
  5
460
330
1F
100
AcDbEntity
  8
LAYER0048
  6
CONTINUOUS
 62
     3
100
AcDbLine
 10
-1400.601364556736
 20
-1710.099987464244
 30
0.0
 11
-1375.257415244736
 21
-1684.756038152244
 31
0.0
  0
LINE
  5
461
330
1F
100
AcDbEntity
  8
LAYER0048
  6
CONTINUOUS
 62
     3
100
AcDbLine
 10
-1331.801666447776
 20
-1643.789305225059
 30
0.0
 11
-1312.274134733749
 21
-1624.261773511033
 31
0.0
  0
LINE
  5
462
330
1F
100
AcDbEntity
  8
LAYER0048
  6
CONTINUOUS
 62
     3
100
AcDbLine
 10
-1398.11234868696
 20
-1710.099987464244
 30
0.0
 11
-1372.76839937496
 21
-1684.756038152244
 31
0.0
  0
LINE
  5
463
330
1F
100
AcDbEntity
  8
LAYER0048
  6
CONTINUOUS
 62
     3
100
AcDbLine
 10
-1332.334504622809
 20
-1646.811159269869
 30
0.0
 11
-1312.806968972944
 21
-1627.283623620006
 31
0.0
  0
LINE
  5
464
330
1F
100
AcDbEntity
  8
LAYER0048
  6
CONTINUOUS
 62
     3
100
AcDbLine
 10
-1395.623332817183
 20
-1710.099987464244
 30
0.0
 11
-1370.279383505183
 21
-1684.756038152244
 31
0.0
  0
LINE
  5
465
330
1F
100
AcDbEntity
  8
LAYER0048
  6
CONTINUOUS
 62
     3
100
AcDbLine
 10
-1332.867342797842
 20
-1649.833013314679
 30
0.0
 11
-1313.339803212139
 21
-1630.305473728977
 31
0.0
  0
LINE
  5
466
330
1F
100
AcDbEntity
  8
LAYER0048
  6
CONTINUOUS
 62
     3
100
AcDbLine
 10
-1393.134316947406
 20
-1710.099987464244
 30
0.0
 11
-1367.790367635407
 21
-1684.756038152244
 31
0.0
  0
LINE
  5
467
330
1F
100
AcDbEntity
  8
LAYER0048
  6
CONTINUOUS
 62
     3
100
AcDbLine
 10
-1333.400180972876
 20
-1652.854867359489
 30
0.0
 11
-1313.872637451334
 21
-1633.327323837949
 31
0.0
  0
LINE
  5
468
330
1F
100
AcDbEntity
  8
LAYER0048
  6
CONTINUOUS
 62
     3
100
AcDbLine
 10
-1390.64530107763
 20
-1710.099987464244
 30
0.0
 11
-1365.30135176563
 21
-1684.756038152244
 31
0.0
  0
LINE
  5
469
330
1F
100
AcDbEntity
  8
LAYER0048
  6
CONTINUOUS
 62
     3
100
AcDbLine
 10
-1333.933019147909
 20
-1655.876721404299
 30
0.0
 11
-1314.40547169053
 21
-1636.34917394692
 31
0.0
  0
LINE
  5
46A
330
1F
100
AcDbEntity
  8
LAYER0048
  6
CONTINUOUS
 62
     3
100
AcDbLine
 10
-1388.156285207853
 20
-1710.099987464244
 30
0.0
 11
-1362.812335895853
 21
-1684.756038152244
 31
0.0
  0
LINE
  5
46B
330
1F
100
AcDbEntity
  8
LAYER0048
  6
CONTINUOUS
 62
     3
100
AcDbLine
 10
-1334.465857322942
 20
-1658.898575449108
 30
0.0
 11
-1314.938305929725
 21
-1639.371024055892
 31
0.0
  0
LINE
  5
46C
330
1F
100
AcDbEntity
  8
LAYER0048
  6
CONTINUOUS
 62
     3
100
AcDbLine
 10
-1385.667269338077
 20
-1710.099987464244
 30
0.0
 11
-1360.323320026077
 21
-1684.756038152244
 31
0.0
  0
LINE
  5
46D
330
1F
100
AcDbEntity
  8
LAYER0048
  6
CONTINUOUS
 62
     3
100
AcDbLine
 10
-1334.998695497975
 20
-1661.920429493918
 30
0.0
 11
-1315.47114016892
 21
-1642.392874164864
 31
0.0
  0
LINE
  5
46E
330
1F
100
AcDbEntity
  8
LAYER0048
  6
CONTINUOUS
 62
     3
100
AcDbLine
 10
-1383.1782534683
 20
-1710.099987464244
 30
0.0
 11
-1357.8343041563
 21
-1684.756038152244
 31
0.0
  0
LINE
  5
46F
330
1F
100
AcDbEntity
  8
LAYER0048
  6
CONTINUOUS
 62
     3
100
AcDbLine
 10
-1335.531533673008
 20
-1664.942283538728
 30
0.0
 11
-1316.003974408115
 21
-1645.414724273836
 31
0.0
  0
LINE
  5
470
330
1F
100
AcDbEntity
  8
LAYER0048
  6
CONTINUOUS
 62
     3
100
AcDbLine
 10
-1380.689237598524
 20
-1710.099987464244
 30
0.0
 11
-1355.212074229845
 21
-1684.622824095565
 31
0.0
  0
LINE
  5
471
330
1F
100
AcDbEntity
  8
LAYER0048
  6
CONTINUOUS
 62
     3
100
AcDbLine
 10
-1336.140475709374
 20
-1668.040241444871
 30
0.0
 11
-1316.53680864731
 21
-1648.436574382807
 31
0.0
  0
LINE
  5
472
330
1F
100
AcDbEntity
  8
LAYER0048
  6
CONTINUOUS
 62
     3
100
AcDbLine
 10
-1378.200221728747
 20
-1710.099987464244
 30
0.0
 11
-1352.172902992209
 21
-1684.072668727706
 31
0.0
  0
LINE
  5
473
330
1F
100
AcDbEntity
  8
LAYER0048
  6
CONTINUOUS
 62
     3
100
AcDbLine
 10
-1337.511004107446
 20
-1671.899785712719
 30
0.0
 11
-1317.069642886505
 21
-1651.45842449178
 31
0.0
  0
LINE
  5
474
330
1F
100
AcDbEntity
  8
LAYER0048
  6
CONTINUOUS
 62
     3
100
AcDbLine
 10
-1375.71120585897
 20
-1710.099987464244
 30
0.0
 11
-1348.313358724361
 21
-1682.702140329634
 31
0.0
  0
LINE
  5
475
330
1F
100
AcDbEntity
  8
LAYER0048
  6
CONTINUOUS
 62
     3
100
AcDbLine
 10
-1373.222189989194
 20
-1710.099987464244
 30
0.0
 11
-1317.602477125701
 21
-1654.480274600751
 31
0.0
  0
LINE
  5
476
330
1F
100
AcDbEntity
  8
LAYER0048
  6
CONTINUOUS
 62
     3
100
AcDbLine
 10
-1370.733174119417
 20
-1710.099987464244
 30
0.0
 11
-1318.135311364896
 21
-1657.502124709723
 31
0.0
  0
LINE
  5
477
330
1F
100
AcDbEntity
  8
LAYER0048
  6
CONTINUOUS
 62
     3
100
AcDbLine
 10
-1368.244158249641
 20
-1710.099987464244
 30
0.0
 11
-1318.668145604091
 21
-1660.523974818694
 31
0.0
  0
LINE
  5
478
330
1F
100
AcDbEntity
  8
LAYER0048
  6
CONTINUOUS
 62
     3
100
AcDbLine
 10
-1365.728909389111
 20
-1710.073754473491
 30
0.0
 11
-1319.200979843286
 21
-1663.545824927666
 31
0.0
  0
LINE
  5
479
330
1F
100
AcDbEntity
  8
LAYER0048
  6
CONTINUOUS
 62
     3
100
AcDbLine
 10
-1363.079255214222
 20
-1709.913116168378
 30
0.0
 11
-1319.733814082481
 21
-1666.567675036638
 31
0.0
  0
LINE
  5
47A
330
1F
100
AcDbEntity
  8
LAYER0048
  6
CONTINUOUS
 62
     3
100
AcDbLine
 10
-1360.252182843212
 20
-1709.575059667146
 30
0.0
 11
-1320.266648321676
 21
-1669.58952514561
 31
0.0
  0
LINE
  5
47B
330
1F
100
AcDbEntity
  8
LAYER0048
  6
CONTINUOUS
 62
     3
100
AcDbLine
 10
-1357.20579378178
 20
-1709.01768647549
 30
0.0
 11
-1320.846050191989
 21
-1672.657942885699
 31
0.0
  0
LINE
  5
47C
330
1F
100
AcDbEntity
  8
LAYER0048
  6
CONTINUOUS
 62
     3
100
AcDbLine
 10
-1353.862632208831
 20
-1708.163540772317
 30
0.0
 11
-1321.700195895162
 21
-1676.001104458649
 31
0.0
  0
LINE
  5
47D
330
1F
100
AcDbEntity
  8
LAYER0048
  6
CONTINUOUS
 62
     3
100
AcDbLine
 10
-1350.088668269384
 20
-1706.878592702647
 30
0.0
 11
-1322.985143964832
 21
-1679.775068398096
 31
0.0
  0
LINE
  5
47E
330
1F
100
AcDbEntity
  8
LAYER0048
  6
CONTINUOUS
 62
     3
100
AcDbLine
 10
-1345.567439405475
 20
-1704.846379708515
 30
0.0
 11
-1325.017356958964
 21
-1684.296297262005
 31
0.0
  0
LINE
  5
47F
330
1F
100
AcDbEntity
  8
LAYER0048
  6
CONTINUOUS
 62
     3
100
AcDbLine
 10
-1338.984449032333
 20
-1700.75240520515
 30
0.0
 11
-1329.11133146233
 21
-1690.879287635146
 31
0.0
  0
LINE
  5
480
330
1F
100
AcDbEntity
  8
LAYER0048
  6
CONTINUOUS
 62
     3
100
AcDbLine
 10
-1542.425990928007
 20
-1617.957122076509
 30
0.0
 11
-1539.529046395744
 21
-1615.060177544244
 31
0.0
  0
LINE
  5
481
330
1F
100
AcDbEntity
  8
LAYER0048
  6
CONTINUOUS
 62
     3
100
AcDbLine
 10
-1561.889203019145
 20
-1637.420334167647
 30
0.0
 11
-1561.705002043743
 21
-1637.236133192244
 31
0.0
  0
LINE
  5
482
330
1F
100
AcDbEntity
  8
LAYER0048
  6
CONTINUOUS
 62
     3
100
AcDbLine
 10
-1542.95882515053
 20
-1620.978972168809
 30
0.0
 11
-1537.040030525967
 21
-1615.060177544244
 31
0.0
  0
LINE
  5
483
330
1F
100
AcDbEntity
  8
LAYER0048
  6
CONTINUOUS
 62
     3
100
AcDbLine
 10
-1562.422037241669
 20
-1640.442184259947
 30
0.0
 11
-1559.215986173966
 21
-1637.236133192244
 31
0.0
  0
LINE
  5
484
330
1F
100
AcDbEntity
  8
LAYER0048
  6
CONTINUOUS
 62
     3
100
AcDbLine
 10
-1543.491659373054
 20
-1624.000822261109
 30
0.0
 11
-1534.55101465619
 21
-1615.060177544244
 31
0.0
  0
LINE
  5
485
330
1F
100
AcDbEntity
  8
LAYER0048
  6
CONTINUOUS
 62
     3
100
AcDbLine
 10
-1562.954871464192
 20
-1643.464034352246
 30
0.0
 11
-1556.72697030419
 21
-1637.236133192244
 31
0.0
  0
LINE
  5
486
330
1F
100
AcDbEntity
  8
LAYER0048
  6
CONTINUOUS
 62
     3
100
AcDbLine
 10
-1544.024493595577
 20
-1627.022672353409
 30
0.0
 11
-1532.061998786413
 21
-1615.060177544244
 31
0.0
  0
LINE
  5
487
330
1F
100
AcDbEntity
  8
LAYER0048
  6
CONTINUOUS
 62
     3
100
AcDbLine
 10
-1563.487705686715
 20
-1646.485884444547
 30
0.0
 11
-1554.237954434413
 21
-1637.236133192244
 31
0.0
  0
LINE
  5
488
330
1F
100
AcDbEntity
  8
LAYER0048
  6
CONTINUOUS
 62
     3
100
AcDbLine
 10
-1544.557327818101
 20
-1630.04452244571
 30
0.0
 11
-1529.572982916637
 21
-1615.060177544244
 31
0.0
  0
LINE
  5
489
330
1F
100
AcDbEntity
  8
LAYER0048
  6
CONTINUOUS
 62
     3
100
AcDbLine
 10
-1564.020539909238
 20
-1649.507734536847
 30
0.0
 11
-1551.748938564636
 21
-1637.236133192244
 31
0.0
  0
LINE
  5
48A
330
1F
100
AcDbEntity
  8
LAYER0048
  6
CONTINUOUS
 62
     3
100
AcDbLine
 10
-1545.090162040625
 20
-1633.06637253801
 30
0.0
 11
-1527.08396704686
 21
-1615.060177544244
 31
0.0
  0
LINE
  5
48B
330
1F
100
AcDbEntity
  8
LAYER0048
  6
CONTINUOUS
 62
     3
100
AcDbLine
 10
-1561.93189735086
 20
-1649.908107848245
 30
0.0
 11
-1549.259922694859
 21
-1637.236133192244
 31
0.0
  0
LINE
  5
48C
330
1F
100
AcDbEntity
  8
LAYER0048
  6
CONTINUOUS
 62
     3
100
AcDbLine
 10
-1545.622996263148
 20
-1636.08822263031
 30
0.0
 11
-1524.594951177083
 21
-1615.060177544244
 31
0.0
  0
LINE
  5
48D
330
1F
100
AcDbEntity
  8
LAYER0048
  6
CONTINUOUS
 62
     3
100
AcDbLine
 10
-1559.442881481083
 20
-1649.908107848245
 30
0.0
 11
-1546.770906825082
 21
-1637.236133192244
 31
0.0
  0
LINE
  5
48E
330
1F
100
AcDbEntity
  8
LAYER0048
  6
CONTINUOUS
 62
     3
100
AcDbLine
 10
-1556.953865611306
 20
-1649.908107848245
 30
0.0
 11
-1522.105935307306
 21
-1615.060177544244
 31
0.0
  0
LINE
  5
48F
330
1F
100
AcDbEntity
  8
LAYER0048
  6
CONTINUOUS
 62
     3
100
AcDbLine
 10
-1554.46484974153
 20
-1649.908107848245
 30
0.0
 11
-1519.61691943753
 21
-1615.060177544244
 31
0.0
  0
LINE
  5
490
330
1F
100
AcDbEntity
  8
LAYER0048
  6
CONTINUOUS
 62
     3
100
AcDbLine
 10
-1551.975833871753
 20
-1649.908107848245
 30
0.0
 11
-1517.127903567753
 21
-1615.060177544244
 31
0.0
  0
LINE
  5
491
330
1F
100
AcDbEntity
  8
LAYER0048
  6
CONTINUOUS
 62
     3
100
AcDbLine
 10
-1549.486818001977
 20
-1649.908107848245
 30
0.0
 11
-1514.638887697977
 21
-1615.060177544244
 31
0.0
  0
LINE
  5
492
330
1F
100
AcDbEntity
  8
LAYER0048
  6
CONTINUOUS
 62
     3
100
AcDbLine
 10
-1548.287167375765
 20
-1651.19747309181
 30
0.0
 11
-1512.149871828199
 21
-1615.060177544244
 31
0.0
  0
LINE
  5
493
330
1F
100
AcDbEntity
  8
LAYER0048
  6
CONTINUOUS
 62
     3
100
AcDbLine
 10
-1548.820001598289
 20
-1654.219323184111
 30
0.0
 11
-1510.35820606613
 21
-1615.757527651952
 31
0.0
  0
LINE
  5
494
330
1F
100
AcDbEntity
  8
LAYER0048
  6
CONTINUOUS
 62
     3
100
AcDbLine
 10
-1549.352835820812
 20
-1657.241173276411
 30
0.0
 11
-1510.891040288654
 21
-1618.779377744252
 31
0.0
  0
LINE
  5
495
330
1F
100
AcDbEntity
  8
LAYER0048
  6
CONTINUOUS
 62
     3
100
AcDbLine
 10
-1549.885670043336
 20
-1660.263023368711
 30
0.0
 11
-1511.423874511177
 21
-1621.801227836552
 31
0.0
  0
LINE
  5
496
330
1F
100
AcDbEntity
  8
LAYER0048
  6
CONTINUOUS
 62
     3
100
AcDbLine
 10
-1550.418504265859
 20
-1663.284873461011
 30
0.0
 11
-1511.956708733701
 21
-1624.823077928852
 31
0.0
  0
LINE
  5
497
330
1F
100
AcDbEntity
  8
LAYER0048
  6
CONTINUOUS
 62
     3
100
AcDbLine
 10
-1550.951338488383
 20
-1666.306723553311
 30
0.0
 11
-1512.489542956225
 21
-1627.844928021153
 31
0.0
  0
LINE
  5
498
330
1F
100
AcDbEntity
  8
LAYER0048
  6
CONTINUOUS
 62
     3
100
AcDbLine
 10
-1551.484172710907
 20
-1669.328573645611
 30
0.0
 11
-1513.022377178748
 21
-1630.866778113453
 31
0.0
  0
LINE
  5
499
330
1F
100
AcDbEntity
  8
LAYER0048
  6
CONTINUOUS
 62
     3
100
AcDbLine
 10
-1551.750646691764
 20
-1672.084063496244
 30
0.0
 11
-1513.555211401271
 21
-1633.888628205753
 31
0.0
  0
LINE
  5
49A
330
1F
100
AcDbEntity
  8
LAYER0048
  6
CONTINUOUS
 62
     3
100
AcDbLine
 10
-1549.261630821987
 20
-1672.084063496244
 30
0.0
 11
-1514.088045623795
 21
-1636.910478298053
 31
0.0
  0
LINE
  5
49B
330
1F
100
AcDbEntity
  8
LAYER0048
  6
CONTINUOUS
 62
     3
100
AcDbLine
 10
-1546.77261495221
 20
-1672.084063496244
 30
0.0
 11
-1511.924684648209
 21
-1637.236133192244
 31
0.0
  0
LINE
  5
49C
330
1F
100
AcDbEntity
  8
LAYER0048
  6
CONTINUOUS
 62
     3
100
AcDbLine
 10
-1544.283599082434
 20
-1672.084063496244
 30
0.0
 11
-1509.435668778433
 21
-1637.236133192244
 31
0.0
  0
LINE
  5
49D
330
1F
100
AcDbEntity
  8
LAYER0048
  6
CONTINUOUS
 62
     3
100
AcDbLine
 10
-1541.794583212657
 20
-1672.084063496244
 30
0.0
 11
-1506.946652908656
 21
-1637.236133192244
 31
0.0
  0
LINE
  5
49E
330
1F
100
AcDbEntity
  8
LAYER0048
  6
CONTINUOUS
 62
     3
100
AcDbLine
 10
-1539.30556734288
 20
-1672.084063496244
 30
0.0
 11
-1504.457637038879
 21
-1637.236133192244
 31
0.0
  0
LINE
  5
49F
330
1F
100
AcDbEntity
  8
LAYER0048
  6
CONTINUOUS
 62
     3
100
AcDbLine
 10
-1482.13660075747
 20
-1617.404112780612
 30
0.0
 11
-1479.792665521102
 21
-1615.060177544244
 31
0.0
  0
LINE
  5
4A0
330
1F
100
AcDbEntity
  8
LAYER0048
  6
CONTINUOUS
 62
     3
100
AcDbLine
 10
-1514.640595825103
 20
-1649.908107848245
 30
0.0
 11
-1501.968621169102
 21
-1637.236133192244
 31
0.0
  0
LINE
  5
4A1
330
1F
100
AcDbEntity
  8
LAYER0048
  6
CONTINUOUS
 62
     3
100
AcDbLine
 10
-1536.816551473104
 20
-1672.084063496244
 30
0.0
 11
-1516.752216736412
 21
-1652.019728759554
 31
0.0
  0
LINE
  5
4A2
330
1F
100
AcDbEntity
  8
LAYER0048
  6
CONTINUOUS
 62
     3
100
AcDbLine
 10
-1482.669434979994
 20
-1620.425962872912
 30
0.0
 11
-1477.303649651326
 21
-1615.060177544244
 31
0.0
  0
LINE
  5
4A3
330
1F
100
AcDbEntity
  8
LAYER0048
  6
CONTINUOUS
 62
     3
100
AcDbLine
 10
-1512.151579955327
 20
-1649.908107848245
 30
0.0
 11
-1499.479605299326
 21
-1637.236133192244
 31
0.0
  0
LINE
  5
4A4
330
1F
100
AcDbEntity
  8
LAYER0048
  6
CONTINUOUS
 62
     3
100
AcDbLine
 10
-1534.327535603327
 20
-1672.084063496244
 30
0.0
 11
-1517.285050958935
 21
-1655.041578851854
 31
0.0
  0
LINE
  5
4A5
330
1F
100
AcDbEntity
  8
LAYER0048
  6
CONTINUOUS
 62
     3
100
AcDbLine
 10
-1562.324526687132
 20
-1700.08105458005
 30
0.0
 11
-1559.671484915327
 21
-1697.428012808244
 31
0.0
  0
LINE
  5
4A6
330
1F
100
AcDbEntity
  8
LAYER0048
  6
CONTINUOUS
 62
     3
100
AcDbLine
 10
-1483.202269202518
 20
-1623.447812965213
 30
0.0
 11
-1474.81463378155
 21
-1615.060177544244
 31
0.0
  0
LINE
  5
4A7
330
1F
100
AcDbEntity
  8
LAYER0048
  6
CONTINUOUS
 62
     3
100
AcDbLine
 10
-1509.66256408555
 20
-1649.908107848245
 30
0.0
 11
-1496.990589429549
 21
-1637.236133192244
 31
0.0
  0
LINE
  5
4A8
330
1F
100
AcDbEntity
  8
LAYER0048
  6
CONTINUOUS
 62
     3
100
AcDbLine
 10
-1531.83851973355
 20
-1672.084063496244
 30
0.0
 11
-1517.817885181459
 21
-1658.063428944154
 31
0.0
  0
LINE
  5
4A9
330
1F
100
AcDbEntity
  8
LAYER0048
  6
CONTINUOUS
 62
     3
100
AcDbLine
 10
-1562.857360909655
 20
-1703.10290467235
 30
0.0
 11
-1557.182469045551
 21
-1697.428012808244
 31
0.0
  0
LINE
  5
4AA
330
1F
100
AcDbEntity
  8
LAYER0048
  6
CONTINUOUS
 62
     3
100
AcDbLine
 10
-1483.735103425041
 20
-1626.469663057513
 30
0.0
 11
-1472.325617911773
 21
-1615.060177544244
 31
0.0
  0
LINE
  5
4AB
330
1F
100
AcDbEntity
  8
LAYER0048
  6
CONTINUOUS
 62
     3
100
AcDbLine
 10
-1507.173548215773
 20
-1649.908107848245
 30
0.0
 11
-1494.501573559772
 21
-1637.236133192244
 31
0.0
  0
LINE
  5
4AC
330
1F
100
AcDbEntity
  8
LAYER0048
  6
CONTINUOUS
 62
     3
100
AcDbLine
 10
-1529.349503863773
 20
-1672.084063496244
 30
0.0
 11
-1518.350719403983
 21
-1661.085279036454
 31
0.0
  0
LINE
  5
4AD
330
1F
100
AcDbEntity
  8
LAYER0048
  6
CONTINUOUS
 62
     3
100
AcDbLine
 10
-1563.390195132178
 20
-1706.12475476465
 30
0.0
 11
-1554.693453175774
 21
-1697.428012808244
 31
0.0
  0
LINE
  5
4AE
330
1F
100
AcDbEntity
  8
LAYER0048
  6
CONTINUOUS
 62
     3
100
AcDbLine
 10
-1484.267937647564
 20
-1629.491513149813
 30
0.0
 11
-1469.836602041996
 21
-1615.060177544244
 31
0.0
  0
LINE
  5
4AF
330
1F
100
AcDbEntity
  8
LAYER0048
  6
CONTINUOUS
 62
     3
100
AcDbLine
 10
-1504.684532345997
 20
-1649.908107848245
 30
0.0
 11
-1492.012557689996
 21
-1637.236133192244
 31
0.0
  0
LINE
  5
4B0
330
1F
100
AcDbEntity
  8
LAYER0048
  6
CONTINUOUS
 62
     3
100
AcDbLine
 10
-1526.860487993996
 20
-1672.084063496244
 30
0.0
 11
-1518.883553626506
 21
-1664.107129128754
 31
0.0
  0
LINE
  5
4B1
330
1F
100
AcDbEntity
  8
LAYER0048
  6
CONTINUOUS
 62
     3
100
AcDbLine
 10
-1563.923029354702
 20
-1709.14660485695
 30
0.0
 11
-1552.204437305997
 21
-1697.428012808244
 31
0.0
  0
LINE
  5
4B2
330
1F
100
AcDbEntity
  8
LAYER0048
  6
CONTINUOUS
 62
     3
100
AcDbLine
 10
-1484.800771870088
 20
-1632.513363242113
 30
0.0
 11
-1467.347586172219
 21
-1615.060177544244
 31
0.0
  0
LINE
  5
4B3
330
1F
100
AcDbEntity
  8
LAYER0048
  6
CONTINUOUS
 62
     3
100
AcDbLine
 10
-1502.19551647622
 20
-1649.908107848245
 30
0.0
 11
-1489.523541820219
 21
-1637.236133192244
 31
0.0
  0
LINE
  5
4B4
330
1F
100
AcDbEntity
  8
LAYER0048
  6
CONTINUOUS
 62
     3
100
AcDbLine
 10
-1524.37147212422
 20
-1672.084063496244
 30
0.0
 11
-1519.41638784903
 21
-1667.128979221055
 31
0.0
  0
LINE
  5
4B5
330
1F
100
AcDbEntity
  8
LAYER0048
  6
CONTINUOUS
 62
     3
100
AcDbLine
 10
-1562.387396092222
 20
-1710.099987464244
 30
0.0
 11
-1549.71542143622
 21
-1697.428012808244
 31
0.0
  0
LINE
  5
4B6
330
1F
100
AcDbEntity
  8
LAYER0048
  6
CONTINUOUS
 62
     3
100
AcDbLine
 10
-1485.333606092612
 20
-1635.535213334413
 30
0.0
 11
-1464.858570302443
 21
-1615.060177544244
 31
0.0
  0
LINE
  5
4B7
330
1F
100
AcDbEntity
  8
LAYER0048
  6
CONTINUOUS
 62
     3
100
AcDbLine
 10
-1499.706500606443
 20
-1649.908107848245
 30
0.0
 11
-1487.034525950443
 21
-1637.236133192244
 31
0.0
  0
LINE
  5
4B8
330
1F
100
AcDbEntity
  8
LAYER0048
  6
CONTINUOUS
 62
     3
100
AcDbLine
 10
-1521.882456254443
 20
-1672.084063496244
 30
0.0
 11
-1519.949222071554
 21
-1670.150829313355
 31
0.0
  0
LINE
  5
4B9
330
1F
100
AcDbEntity
  8
LAYER0048
  6
CONTINUOUS
 62
     3
100
AcDbLine
 10
-1559.898380222445
 20
-1710.099987464244
 30
0.0
 11
-1547.226405566444
 21
-1697.428012808244
 31
0.0
  0
LINE
  5
4BA
330
1F
100
AcDbEntity
  8
LAYER0048
  6
CONTINUOUS
 62
     3
100
AcDbLine
 10
-1497.217484736666
 20
-1649.908107848245
 30
0.0
 11
-1462.369554432667
 21
-1615.060177544244
 31
0.0
  0
LINE
  5
4BB
330
1F
100
AcDbEntity
  8
LAYER0048
  6
CONTINUOUS
 62
     3
100
AcDbLine
 10
-1557.409364352668
 20
-1710.099987464244
 30
0.0
 11
-1544.737389696667
 21
-1697.428012808244
 31
0.0
  0
LINE
  5
4BC
330
1F
100
AcDbEntity
  8
LAYER0048
  6
CONTINUOUS
 62
     3
100
AcDbLine
 10
-1494.72846886689
 20
-1649.908107848245
 30
0.0
 11
-1459.88053856289
 21
-1615.060177544244
 31
0.0
  0
LINE
  5
4BD
330
1F
100
AcDbEntity
  8
LAYER0048
  6
CONTINUOUS
 62
     3
100
AcDbLine
 10
-1554.920348482891
 20
-1710.099987464244
 30
0.0
 11
-1542.24837382689
 21
-1697.428012808244
 31
0.0
  0
LINE
  5
4BE
330
1F
100
AcDbEntity
  8
LAYER0048
  6
CONTINUOUS
 62
     3
100
AcDbLine
 10
-1492.239452997113
 20
-1649.908107848245
 30
0.0
 11
-1457.391522693114
 21
-1615.060177544244
 31
0.0
  0
LINE
  5
4BF
330
1F
100
AcDbEntity
  8
LAYER0048
  6
CONTINUOUS
 62
     3
100
AcDbLine
 10
-1552.431332613115
 20
-1710.099987464244
 30
0.0
 11
-1539.759357957113
 21
-1697.428012808244
 31
0.0
  0
LINE
  5
4C0
330
1F
100
AcDbEntity
  8
LAYER0048
  6
CONTINUOUS
 62
     3
100
AcDbLine
 10
-1489.750437127336
 20
-1649.908107848245
 30
0.0
 11
-1454.902506823337
 21
-1615.060177544244
 31
0.0
  0
LINE
  5
4C1
330
1F
100
AcDbEntity
  8
LAYER0048
  6
CONTINUOUS
 62
     3
100
AcDbLine
 10
-1549.942316743338
 20
-1710.099987464244
 30
0.0
 11
-1537.270342087336
 21
-1697.428012808244
 31
0.0
  0
LINE
  5
4C2
330
1F
100
AcDbEntity
  8
LAYER0048
  6
CONTINUOUS
 62
     3
100
AcDbLine
 10
-1487.997775352103
 20
-1650.644461942787
 30
0.0
 11
-1452.41349095356
 21
-1615.060177544244
 31
0.0
  0
LINE
  5
4C3
330
1F
100
AcDbEntity
  8
LAYER0048
  6
CONTINUOUS
 62
     3
100
AcDbLine
 10
-1547.453300873561
 20
-1710.099987464244
 30
0.0
 11
-1534.78132621756
 21
-1697.428012808244
 31
0.0
  0
LINE
  5
4C4
330
1F
100
AcDbEntity
  8
LAYER0048
  6
CONTINUOUS
 62
     3
100
AcDbLine
 10
-1488.530601969787
 20
-1653.666304430249
 30
0.0
 11
-1450.068815895594
 21
-1615.204518356055
 31
0.0
  0
LINE
  5
4C5
330
1F
100
AcDbEntity
  8
LAYER0048
  6
CONTINUOUS
 62
     3
100
AcDbLine
 10
-1544.964285003784
 20
-1710.099987464244
 30
0.0
 11
-1532.292310347783
 21
-1697.428012808244
 31
0.0
  0
LINE
  5
4C6
330
1F
100
AcDbEntity
  8
LAYER0048
  6
CONTINUOUS
 62
     3
100
AcDbLine
 10
-1489.063428587473
 20
-1656.688146917711
 30
0.0
 11
-1450.601650118117
 21
-1618.226368448356
 31
0.0
  0
LINE
  5
4C7
330
1F
100
AcDbEntity
  8
LAYER0048
  6
CONTINUOUS
 62
     3
100
AcDbLine
 10
-1542.475269134008
 20
-1710.099987464244
 30
0.0
 11
-1529.803294478006
 21
-1697.428012808244
 31
0.0
  0
LINE
  5
4C8
330
1F
100
AcDbEntity
  8
LAYER0048
  6
CONTINUOUS
 62
     3
100
AcDbLine
 10
-1489.596255205158
 20
-1659.709989405173
 30
0.0
 11
-1451.134484340641
 21
-1621.248218540656
 31
0.0
  0
LINE
  5
4C9
330
1F
100
AcDbEntity
  8
LAYER0048
  6
CONTINUOUS
 62
     3
100
AcDbLine
 10
-1539.986253264231
 20
-1710.099987464244
 30
0.0
 11
-1527.31427860823
 21
-1697.428012808244
 31
0.0
  0
LINE
  5
4CA
330
1F
100
AcDbEntity
  8
LAYER0048
  6
CONTINUOUS
 62
     3
100
AcDbLine
 10
-1490.129081822844
 20
-1662.731831892635
 30
0.0
 11
-1451.667318563164
 21
-1624.270068632956
 31
0.0
  0
LINE
  5
4CB
330
1F
100
AcDbEntity
  8
LAYER0048
  6
CONTINUOUS
 62
     3
100
AcDbLine
 10
-1537.497237394454
 20
-1710.099987464244
 30
0.0
 11
-1524.825262738453
 21
-1697.428012808244
 31
0.0
  0
LINE
  5
4CC
330
1F
100
AcDbEntity
  8
LAYER0048
  6
CONTINUOUS
 62
     3
100
AcDbLine
 10
-1490.661908440529
 20
-1665.753674380097
 30
0.0
 11
-1452.200152785688
 21
-1627.291918725256
 31
0.0
  0
LINE
  5
4CD
330
1F
100
AcDbEntity
  8
LAYER0048
  6
CONTINUOUS
 62
     3
100
AcDbLine
 10
-1535.008221524678
 20
-1710.099987464244
 30
0.0
 11
-1522.336246868676
 21
-1697.428012808244
 31
0.0
  0
LINE
  5
4CE
330
1F
100
AcDbEntity
  8
LAYER0048
  6
CONTINUOUS
 62
     3
100
AcDbLine
 10
-1491.194735058214
 20
-1668.775516867559
 30
0.0
 11
-1452.732987008212
 21
-1630.313768817556
 31
0.0
  0
LINE
  5
4CF
330
1F
100
AcDbEntity
  8
LAYER0048
  6
CONTINUOUS
 62
     3
100
AcDbLine
 10
-1532.519205654901
 20
-1710.099987464244
 30
0.0
 11
-1519.8472309989
 21
-1697.428012808244
 31
0.0
  0
LINE
  5
4D0
330
1F
100
AcDbEntity
  8
LAYER0048
  6
CONTINUOUS
 62
     3
100
AcDbLine
 10
-1491.727561675899
 20
-1671.797359355021
 30
0.0
 11
-1453.265821230735
 21
-1633.335618909856
 31
0.0
  0
LINE
  5
4D1
330
1F
100
AcDbEntity
  8
LAYER0048
  6
CONTINUOUS
 62
     3
100
AcDbLine
 10
-1530.030189785124
 20
-1710.099987464244
 30
0.0
 11
-1517.356852276278
 21
-1697.4266499554
 31
0.0
  0
LINE
  5
4D2
330
1F
100
AcDbEntity
  8
LAYER0048
  6
CONTINUOUS
 62
     3
100
AcDbLine
 10
-1492.260388293585
 20
-1674.819201842483
 30
0.0
 11
-1453.798655453259
 21
-1636.357469002156
 31
0.0
  0
LINE
  5
4D3
330
1F
100
AcDbEntity
  8
LAYER0048
  6
CONTINUOUS
 62
     3
100
AcDbLine
 10
-1527.541173915347
 20
-1710.099987464244
 30
0.0
 11
-1514.713197074598
 21
-1697.272010623496
 31
0.0
  0
LINE
  5
4D4
330
1F
100
AcDbEntity
  8
LAYER0048
  6
CONTINUOUS
 62
     3
100
AcDbLine
 10
-1492.844303822194
 20
-1677.892133240869
 30
0.0
 11
-1452.188303773569
 21
-1637.236133192244
 31
0.0
  0
LINE
  5
4D5
330
1F
100
AcDbEntity
  8
LAYER0048
  6
CONTINUOUS
 62
     3
100
AcDbLine
 10
-1525.052158045571
 20
-1710.099987464244
 30
0.0
 11
-1511.704949999411
 21
-1696.752779418085
 31
0.0
  0
LINE
  5
4D6
330
1F
100
AcDbEntity
  8
LAYER0048
  6
CONTINUOUS
 62
     3
100
AcDbLine
 10
-1493.99715999876
 20
-1681.534005287211
 30
0.0
 11
-1449.699287903793
 21
-1637.236133192244
 31
0.0
  0
LINE
  5
4D7
330
1F
100
AcDbEntity
  8
LAYER0048
  6
CONTINUOUS
 62
     3
100
AcDbLine
 10
-1522.563142175794
 20
-1710.099987464244
 30
0.0
 11
-1508.063077953068
 21
-1695.599923241519
 31
0.0
  0
LINE
  5
4D8
330
1F
100
AcDbEntity
  8
LAYER0048
  6
CONTINUOUS
 62
     3
100
AcDbLine
 10
-1497.16394018876
 20
-1687.189801346988
 30
0.0
 11
-1447.210272034016
 21
-1637.236133192244
 31
0.0
  0
LINE
  5
4D9
330
1F
100
AcDbEntity
  8
LAYER0048
  6
CONTINUOUS
 62
     3
100
AcDbLine
 10
-1520.074126306017
 20
-1710.099987464244
 30
0.0
 11
-1502.407281893291
 21
-1692.433143051519
 31
0.0
  0
LINE
  5
4DA
330
1F
100
AcDbEntity
  8
LAYER0048
  6
CONTINUOUS
 62
     3
100
AcDbLine
 10
-1517.58511043624
 20
-1710.099987464244
 30
0.0
 11
-1444.721256164239
 21
-1637.236133192244
 31
0.0
  0
LINE
  5
4DB
330
1F
100
AcDbEntity
  8
LAYER0048
  6
CONTINUOUS
 62
     3
100
AcDbLine
 10
-1454.904214950463
 20
-1649.908107848245
 30
0.0
 11
-1442.232240294463
 21
-1637.236133192244
 31
0.0
  0
LINE
  5
4DC
330
1F
100
AcDbEntity
  8
LAYER0048
  6
CONTINUOUS
 62
     3
100
AcDbLine
 10
-1515.096094566464
 20
-1710.099987464244
 30
0.0
 11
-1456.462826588796
 21
-1651.466719486576
 31
0.0
  0
LINE
  5
4DD
330
1F
100
AcDbEntity
  8
LAYER0048
  6
CONTINUOUS
 62
     3
100
AcDbLine
 10
-1452.415199080686
 20
-1649.908107848245
 30
0.0
 11
-1439.743224424686
 21
-1637.236133192244
 31
0.0
  0
LINE
  5
4DE
330
1F
100
AcDbEntity
  8
LAYER0048
  6
CONTINUOUS
 62
     3
100
AcDbLine
 10
-1512.607078696687
 20
-1710.099987464244
 30
0.0
 11
-1456.995660855757
 21
-1654.488569623314
 31
0.0
  0
LINE
  5
4DF
330
1F
100
AcDbEntity
  8
LAYER0048
  6
CONTINUOUS
 62
     3
100
AcDbLine
 10
-1449.92618321091
 20
-1649.908107848245
 30
0.0
 11
-1437.25420855491
 21
-1637.236133192244
 31
0.0
  0
LINE
  5
4E0
330
1F
100
AcDbEntity
  8
LAYER0048
  6
CONTINUOUS
 62
     3
100
AcDbLine
 10
-1510.11806282691
 20
-1710.099987464244
 30
0.0
 11
-1457.528495122718
 21
-1657.510419760052
 31
0.0
  0
LINE
  5
4E1
330
1F
100
AcDbEntity
  8
LAYER0048
  6
CONTINUOUS
 62
     3
100
AcDbLine
 10
-1447.437167341134
 20
-1649.908107848245
 30
0.0
 11
-1435.216566239209
 21
-1637.68750674632
 31
0.0
  0
LINE
  5
4E2
330
1F
100
AcDbEntity
  8
LAYER0048
  6
CONTINUOUS
 62
     3
100
AcDbLine
 10
-1507.629046957133
 20
-1710.099987464244
 30
0.0
 11
-1458.06132938968
 21
-1660.53226989679
 31
0.0
  0
LINE
  5
4E3
330
1F
100
AcDbEntity
  8
LAYER0048
  6
CONTINUOUS
 62
     3
100
AcDbLine
 10
-1444.948151471357
 20
-1649.908107848245
 30
0.0
 11
-1435.749400461732
 21
-1640.70935683862
 31
0.0
  0
LINE
  5
4E4
330
1F
100
AcDbEntity
  8
LAYER0048
  6
CONTINUOUS
 62
     3
100
AcDbLine
 10
-1505.113614370022
 20
-1710.073570746909
 30
0.0
 11
-1458.594163656641
 21
-1663.554120033528
 31
0.0
  0
LINE
  5
4E5
330
1F
100
AcDbEntity
  8
LAYER0048
  6
CONTINUOUS
 62
     3
100
AcDbLine
 10
-1442.45913560158
 20
-1649.908107848245
 30
0.0
 11
-1436.282234684256
 21
-1643.73120693092
 31
0.0
  0
LINE
  5
4E6
330
1F
100
AcDbEntity
  8
LAYER0048
  6
CONTINUOUS
 62
     3
100
AcDbLine
 10
-1502.463415928167
 20
-1709.912388174831
 30
0.0
 11
-1459.126997923602
 21
-1666.575970170266
 31
0.0
  0
LINE
  5
4E7
330
1F
100
AcDbEntity
  8
LAYER0048
  6
CONTINUOUS
 62
     3
100
AcDbLine
 10
-1439.970119731804
 20
-1649.908107848245
 30
0.0
 11
-1436.815068906779
 21
-1646.75305702322
 31
0.0
  0
LINE
  5
4E8
330
1F
100
AcDbEntity
  8
LAYER0048
  6
CONTINUOUS
 62
     3
100
AcDbLine
 10
-1499.635871002306
 20
-1709.573859118747
 30
0.0
 11
-1459.659832190564
 21
-1669.597820307004
 31
0.0
  0
LINE
  5
4E9
330
1F
100
AcDbEntity
  8
LAYER0048
  6
CONTINUOUS
 62
     3
100
AcDbLine
 10
-1437.481103862027
 20
-1649.908107848245
 30
0.0
 11
-1437.347903129302
 21
-1649.77490711552
 31
0.0
  0
LINE
  5
4EA
330
1F
100
AcDbEntity
  8
LAYER0048
  6
CONTINUOUS
 62
     3
100
AcDbLine
 10
-1496.588736298496
 20
-1709.015740284714
 30
0.0
 11
-1460.239717598767
 21
-1672.666721584984
 31
0.0
  0
LINE
  5
4EB
330
1F
100
AcDbEntity
  8
LAYER0048
  6
CONTINUOUS
 62
     3
100
AcDbLine
 10
-1493.244645212952
 20
-1708.160665068947
 30
0.0
 11
-1461.094792814533
 21
-1676.010812670528
 31
0.0
  0
LINE
  5
4EC
330
1F
100
AcDbEntity
  8
LAYER0048
  6
CONTINUOUS
 62
     3
100
AcDbLine
 10
-1489.469116384244
 20
-1706.874152110015
 30
0.0
 11
-1462.381305773465
 21
-1679.786341499236
 31
0.0
  0
LINE
  5
4ED
330
1F
100
AcDbEntity
  8
LAYER0048
  6
CONTINUOUS
 62
     3
100
AcDbLine
 10
-1484.944909392985
 20
-1704.838960988532
 30
0.0
 11
-1464.416496894947
 21
-1684.310548490495
 31
0.0
  0
LINE
  5
4EE
330
1F
100
AcDbEntity
  8
LAYER0048
  6
CONTINUOUS
 62
     3
100
AcDbLine
 10
-1478.349895303115
 20
-1700.73296276844
 30
0.0
 11
-1468.522495115041
 21
-1690.905562580365
 31
0.0
  0
LINE
  5
4EF
330
1F
100
AcDbEntity
  8
LAYER0048
  6
CONTINUOUS
 62
     3
100
AcDbLine
 10
-1301.123441856035
 20
-1656.062802574644
 30
0.0
 11
-1299.728301542435
 21
-1648.111033870644
 31
0.0
  0
LINE
  5
4F0
330
1F
100
AcDbEntity
  8
LAYER0048
  6
CONTINUOUS
 62
     3
100
AcDbLine
 10
-1310.651643475236
 20
-1710.099987464244
 30
0.0
 11
-1307.858626963235
 21
-1694.260019144244
 31
0.0
  0
LINE
  5
4F1
330
1F
100
AcDbEntity
  8
LAYER0048
  6
CONTINUOUS
 62
     3
100
AcDbLine
 10
-1320.485700921636
 20
-1670.831832929844
 30
0.0
 11
-1310.651643475236
 21
-1615.060177544244
 31
0.0
  0
LINE
  5
4F2
330
1F
100
AcDbEntity
  8
LAYER0048
  6
CONTINUOUS
 62
     3
100
AcDbLine
 10
-1437.371390035235
 20
-1710.099987464244
 30
0.0
 11
-1367.283654163235
 21
-1710.099987464244
 31
0.0
  0
LINE
  5
4F3
330
1F
100
AcDbEntity
  8
LAYER0048
  6
CONTINUOUS
 62
     3
100
AcDbLine
 10
-1432.902563616036
 20
-1684.756038152244
 30
0.0
 11
-1437.371390035235
 21
-1710.099987464244
 31
0.0
  0
LINE
  5
4F4
330
1F
100
AcDbEntity
  8
LAYER0048
  6
CONTINUOUS
 62
     3
100
AcDbLine
 10
-1357.633061932836
 20
-1684.756038152244
 30
0.0
 11
-1432.902563616036
 21
-1684.756038152244
 31
0.0
  0
LINE
  5
4F5
330
1F
100
AcDbEntity
  8
LAYER0048
  6
CONTINUOUS
 62
     3
100
AcDbLine
 10
-1326.735910214436
 20
-1615.060177544244
 30
0.0
 11
-1335.794022451236
 21
-1666.430920827445
 31
0.0
  0
LINE
  5
4F6
330
1F
100
AcDbEntity
  8
LAYER0048
  6
CONTINUOUS
 62
     3
100
AcDbLine
 10
-1310.651643475236
 20
-1615.060177544244
 30
0.0
 11
-1326.735910214436
 21
-1615.060177544244
 31
0.0
  0
LINE
  5
4F7
330
1F
100
AcDbEntity
  8
LAYER0048
  6
CONTINUOUS
 62
     3
100
AcDbLine
 10
-1359.460391577635
 20
-1615.060177544244
 30
0.0
 11
-1427.014537190436
 21
-1615.060177544244
 31
0.0
  0
LINE
  5
4F8
330
1F
100
AcDbEntity
  8
LAYER0048
  6
CONTINUOUS
 62
     3
100
AcDbLine
 10
-1362.253408089635
 20
-1630.900145864244
 30
0.0
 11
-1359.460391577635
 21
-1615.060177544244
 31
0.0
  0
LINE
  5
4F9
330
1F
100
AcDbEntity
  8
LAYER0048
  6
CONTINUOUS
 62
     3
100
AcDbLine
 10
-1429.807553702436
 20
-1630.900145864244
 30
0.0
 11
-1362.253408089635
 21
-1630.900145864244
 31
0.0
  0
LINE
  5
4FA
330
1F
100
AcDbEntity
  8
LAYER0048
  6
CONTINUOUS
 62
     3
100
AcDbLine
 10
-1427.014537190436
 20
-1615.060177544244
 30
0.0
 11
-1429.807553702436
 21
-1630.900145864244
 31
0.0
  0
LINE
  5
4FB
330
1F
100
AcDbEntity
  8
LAYER0048
  6
CONTINUOUS
 62
     3
100
AcDbLine
 10
-1453.953587808036
 20
-1637.236133192244
 30
0.0
 11
-1450.043364691236
 21
-1615.060177544244
 31
0.0
  0
LINE
  5
4FC
330
1F
100
AcDbEntity
  8
LAYER0048
  6
CONTINUOUS
 62
     3
100
AcDbLine
 10
-1459.877422137635
 20
-1670.831832929844
 30
0.0
 11
-1456.188001017636
 21
-1649.908107848245
 31
0.0
  0
LINE
  5
4FD
330
1F
100
AcDbEntity
  8
LAYER0048
  6
CONTINUOUS
 62
     3
100
AcDbLine
 10
-1487.867937657636
 20
-1649.908107848245
 30
0.0
 11
-1492.554105984036
 21
-1676.484975598644
 31
0.0
  0
LINE
  5
4FE
330
1F
100
AcDbEntity
  8
LAYER0048
  6
CONTINUOUS
 62
     3
100
AcDbLine
 10
-1481.723301331235
 20
-1615.060177544244
 30
0.0
 11
-1485.633524448036
 21
-1637.236133192244
 31
0.0
  0
LINE
  5
4FF
330
1F
100
AcDbEntity
  8
LAYER0048
  6
CONTINUOUS
 62
     3
100
AcDbLine
 10
-1485.633524448036
 20
-1637.236133192244
 30
0.0
 11
-1514.145467424036
 21
-1637.236133192244
 31
0.0
  0
LINE
  5
500
330
1F
100
AcDbEntity
  8
LAYER0048
  6
CONTINUOUS
 62
     3
100
AcDbLine
 10
-1435.136976825636
 20
-1637.236133192244
 30
0.0
 11
-1453.953587808036
 21
-1637.236133192244
 31
0.0
  0
LINE
  5
501
330
1F
100
AcDbEntity
  8
LAYER0048
  6
CONTINUOUS
 62
     3
100
AcDbLine
 10
-1456.188001017636
 20
-1649.908107848245
 30
0.0
 11
-1437.371390035235
 21
-1649.908107848245
 31
0.0
  0
LINE
  5
502
330
1F
100
AcDbEntity
  8
LAYER0048
  6
CONTINUOUS
 62
     3
100
AcDbLine
 10
-1516.379880633636
 20
-1649.908107848245
 30
0.0
 11
-1487.867937657636
 21
-1649.908107848245
 31
0.0
  0
LINE
  5
503
330
1F
100
AcDbEntity
  8
LAYER0048
  6
CONTINUOUS
 62
     3
100
AcDbLine
 10
-1514.145467424036
 20
-1637.236133192244
 30
0.0
 11
-1510.235244307235
 21
-1615.060177544244
 31
0.0
  0
LINE
  5
504
330
1F
100
AcDbEntity
  8
LAYER0048
  6
CONTINUOUS
 62
     3
100
AcDbLine
 10
-1520.290103750437
 20
-1672.084063496244
 30
0.0
 11
-1516.379880633636
 21
-1649.908107848245
 31
0.0
  0
LINE
  5
505
330
1F
100
AcDbEntity
  8
LAYER0048
  6
CONTINUOUS
 62
     3
100
AcDbLine
 10
-1548.059817273636
 20
-1649.908107848245
 30
0.0
 11
-1551.970040390436
 21
-1672.084063496244
 31
0.0
  0
LINE
  5
506
330
1F
100
AcDbEntity
  8
LAYER0048
  6
CONTINUOUS
 62
     3
100
AcDbLine
 10
-1541.915180947235
 20
-1615.060177544244
 30
0.0
 11
-1545.825404064036
 21
-1637.236133192244
 31
0.0
  0
LINE
  5
507
330
1F
100
AcDbEntity
  8
LAYER0048
  6
CONTINUOUS
 62
     3
100
AcDbLine
 10
-1564.091136595236
 20
-1649.908107848245
 30
0.0
 11
-1548.059817273636
 21
-1649.908107848245
 31
0.0
  0
LINE
  5
508
330
1F
100
AcDbEntity
  8
LAYER0048
  6
CONTINUOUS
 62
     3
100
AcDbLine
 10
-1545.825404064036
 20
-1637.236133192244
 30
0.0
 11
-1561.856723385637
 21
-1637.236133192244
 31
0.0
  0
LINE
  5
509
330
1F
100
AcDbEntity
  8
LAYER0048
  6
CONTINUOUS
 62
     3
100
AcDbLine
 10
-1450.043364691236
 20
-1615.060177544244
 30
0.0
 11
-1481.723301331235
 21
-1615.060177544244
 31
0.0
  0
LINE
  5
50A
330
1F
100
AcDbEntity
  8
LAYER0048
  6
CONTINUOUS
 62
     3
100
AcDbLine
 10
-1564.091136595236
 20
-1710.099987464244
 30
0.0
 11
-1506.675375379236
 21
-1710.099987464244
 31
0.0
  0
LINE
  5
50B
330
1F
100
AcDbEntity
  8
LAYER0048
  6
CONTINUOUS
 62
     3
100
AcDbLine
 10
-1561.856723385637
 20
-1697.428012808244
 30
0.0
 11
-1564.091136595236
 21
-1710.099987464244
 31
0.0
  0
LINE
  5
50C
330
1F
100
AcDbEntity
  8
LAYER0048
  6
CONTINUOUS
 62
     3
100
AcDbLine
 10
-1517.513019744035
 20
-1697.428012808244
 30
0.0
 11
-1561.856723385637
 21
-1697.428012808244
 31
0.0
  0
LINE
  5
50D
330
1F
100
AcDbEntity
  8
LAYER0048
  6
CONTINUOUS
 62
     3
100
AcDbLine
 10
-1510.235244307235
 20
-1615.060177544244
 30
0.0
 11
-1541.915180947235
 21
-1615.060177544244
 31
0.0
  0
LINE
  5
50E
330
1F
100
AcDbEntity
  8
LAYER0048
  6
CONTINUOUS
 62
     3
100
AcDbLine
 10
-1551.970040390436
 20
-1672.084063496244
 30
0.0
 11
-1520.290103750437
 21
-1672.084063496244
 31
0.0
  0
LINE
  5
50F
330
1F
100
AcDbEntity
  8
LAYER0048
  6
CONTINUOUS
 62
     3
100
AcDbLine
 10
-1437.371390035235
 20
-1649.908107848245
 30
0.0
 11
-1435.136976825636
 21
-1637.236133192244
 31
0.0
  0
LINE
  5
510
330
1F
100
AcDbEntity
  8
LAYER0048
  6
CONTINUOUS
 62
     3
100
AcDbLine
 10
-1561.856723385637
 20
-1637.236133192244
 30
0.0
 11
-1564.091136595236
 21
-1649.908107848245
 31
0.0
  0
ARC
  5
511
330
1F
100
AcDbEntity
  8
LAYER0048
  6
CONTINUOUS
 62
     3
100
AcDbCircle
 10
-1357.633061932836
 20
-1662.580082504244
 30
0.0
 40
22.17595564799971
100
AcDbArc
 50
270.0000000000006
 51
349.999932750911
  0
ARC
  5
512
330
1F
100
AcDbEntity
  8
LAYER0048
  6
CONTINUOUS
 62
     3
100
AcDbCircle
 10
-1367.283654163235
 20
-1662.580082504244
 30
0.0
 40
47.51990496000001
100
AcDbArc
 50
270.0000000000006
 51
349.9999897560571
  0
ARC
  5
513
330
1F
100
AcDbEntity
  8
LAYER0048
  6
CONTINUOUS
 62
     3
100
AcDbCircle
 10
-1517.513019744035
 20
-1672.084063496244
 30
0.0
 40
25.34394931199965
100
AcDbArc
 50
270.0000000000006
 51
350.0000396355528
  0
ARC
  5
514
330
1F
100
AcDbEntity
  8
LAYER0048
  6
CONTINUOUS
 62
     3
100
AcDbCircle
 10
-1506.675375379236
 20
-1662.580082504244
 30
0.0
 40
47.51990496000001
100
AcDbArc
 50
270.0000000000006
 51
349.9999897560575
  0
LINE
  5
515
330
1F
100
AcDbEntity
  8
LAYER0048
  6
CONTINUOUS
 62
     3
100
AcDbLine
 10
-1059.263127973631
 20
-1632.597433077462
 30
0.0
 11
-1056.838819608412
 21
-1630.173124712244
 31
0.0
  0
LINE
  5
516
330
1F
100
AcDbEntity
  8
LAYER0048
  6
CONTINUOUS
 62
     3
100
AcDbLine
 10
-1040.714622443155
 20
-1616.537943416763
 30
0.0
 11
-1039.236856570635
 21
-1615.060177544244
 31
0.0
  0
LINE
  5
517
330
1F
100
AcDbEntity
  8
LAYER0048
  6
CONTINUOUS
 62
     3
100
AcDbLine
 10
-1059.795962196155
 20
-1635.619283169763
 30
0.0
 11
-1054.349803738636
 21
-1630.173124712244
 31
0.0
  0
LINE
  5
518
330
1F
100
AcDbEntity
  8
LAYER0048
  6
CONTINUOUS
 62
     3
100
AcDbLine
 10
-1041.247458928174
 20
-1619.559795771559
 30
0.0
 11
-1036.747840700859
 21
-1615.060177544244
 31
0.0
  0
LINE
  5
519
330
1F
100
AcDbEntity
  8
LAYER0048
  6
CONTINUOUS
 62
     3
100
AcDbLine
 10
-1060.328796418678
 20
-1638.641133262063
 30
0.0
 11
-1051.860787868859
 21
-1630.173124712244
 31
0.0
  0
LINE
  5
51A
330
1F
100
AcDbEntity
  8
LAYER0048
  6
CONTINUOUS
 62
     3
100
AcDbLine
 10
-1041.780295413192
 20
-1622.581648126354
 30
0.0
 11
-1034.258824831082
 21
-1615.060177544244
 31
0.0
  0
LINE
  5
51B
330
1F
100
AcDbEntity
  8
LAYER0048
  6
CONTINUOUS
 62
     3
100
AcDbLine
 10
-1060.861630641201
 20
-1641.662983354363
 30
0.0
 11
-1049.371771999082
 21
-1630.173124712244
 31
0.0
  0
LINE
  5
51C
330
1F
100
AcDbEntity
  8
LAYER0048
  6
CONTINUOUS
 62
     3
100
AcDbLine
 10
-1042.31313189821
 20
-1625.603500481149
 30
0.0
 11
-1031.769808961306
 21
-1615.060177544244
 31
0.0
  0
LINE
  5
51D
330
1F
100
AcDbEntity
  8
LAYER0048
  6
CONTINUOUS
 62
     3
100
AcDbLine
 10
-1061.394464863724
 20
-1644.684833446663
 30
0.0
 11
-1046.882756129306
 21
-1630.173124712244
 31
0.0
  0
LINE
  5
51E
330
1F
100
AcDbEntity
  8
LAYER0048
  6
CONTINUOUS
 62
     3
100
AcDbLine
 10
-1042.845968383229
 20
-1628.625352835943
 30
0.0
 11
-1029.28079309153
 21
-1615.060177544244
 31
0.0
  0
LINE
  5
51F
330
1F
100
AcDbEntity
  8
LAYER0048
  6
CONTINUOUS
 62
     3
100
AcDbLine
 10
-1060.233708579529
 20
-1646.013093032244
 30
0.0
 11
-1044.393740259529
 21
-1630.173124712244
 31
0.0
  0
LINE
  5
520
330
1F
100
AcDbEntity
  8
LAYER0048
  6
CONTINUOUS
 62
     3
100
AcDbLine
 10
-1057.744692709753
 20
-1646.013093032244
 30
0.0
 11
-1026.791777221753
 21
-1615.060177544244
 31
0.0
  0
LINE
  5
521
330
1F
100
AcDbEntity
  8
LAYER0048
  6
CONTINUOUS
 62
     3
100
AcDbLine
 10
-1055.255676839976
 20
-1646.013093032244
 30
0.0
 11
-1024.302761351976
 21
-1615.060177544244
 31
0.0
  0
LINE
  5
522
330
1F
100
AcDbEntity
  8
LAYER0048
  6
CONTINUOUS
 62
     3
100
AcDbLine
 10
-1052.766660970199
 20
-1646.013093032244
 30
0.0
 11
-1021.8137454822
 21
-1615.060177544244
 31
0.0
  0
LINE
  5
523
330
1F
100
AcDbEntity
  8
LAYER0048
  6
CONTINUOUS
 62
     3
100
AcDbLine
 10
-1050.277645100423
 20
-1646.013093032244
 30
0.0
 11
-1019.324729612423
 21
-1615.060177544244
 31
0.0
  0
LINE
  5
524
330
1F
100
AcDbEntity
  8
LAYER0048
  6
CONTINUOUS
 62
     3
100
AcDbLine
 10
-1047.788629230646
 20
-1646.013093032244
 30
0.0
 11
-1016.835713742646
 21
-1615.060177544244
 31
0.0
  0
LINE
  5
525
330
1F
100
AcDbEntity
  8
LAYER0048
  6
CONTINUOUS
 62
     3
100
AcDbLine
 10
-1046.042974745955
 20
-1646.756454417331
 30
0.0
 11
-1014.34669787287
 21
-1615.060177544244
 31
0.0
  0
LINE
  5
526
330
1F
100
AcDbEntity
  8
LAYER0048
  6
CONTINUOUS
 62
     3
100
AcDbLine
 10
-1046.575808434938
 20
-1649.778303976091
 30
0.0
 11
-1011.857682003093
 21
-1615.060177544244
 31
0.0
  0
LINE
  5
527
330
1F
100
AcDbEntity
  8
LAYER0048
  6
CONTINUOUS
 62
     3
100
AcDbLine
 10
-1047.108642123922
 20
-1652.800153534851
 30
0.0
 11
-1009.368666133317
 21
-1615.060177544244
 31
0.0
  0
LINE
  5
528
330
1F
100
AcDbEntity
  8
LAYER0048
  6
CONTINUOUS
 62
     3
100
AcDbLine
 10
-1047.641475812905
 20
-1655.82200309361
 30
0.0
 11
-1008.586283745382
 21
-1616.766811026087
 31
0.0
  0
LINE
  5
529
330
1F
100
AcDbEntity
  8
LAYER0048
  6
CONTINUOUS
 62
     3
100
AcDbLine
 10
-1048.174309501888
 20
-1658.84385265237
 30
0.0
 11
-1009.119120230401
 21
-1619.788663380882
 31
0.0
  0
LINE
  5
52A
330
1F
100
AcDbEntity
  8
LAYER0048
  6
CONTINUOUS
 62
     3
100
AcDbLine
 10
-1048.707143190871
 20
-1661.86570221113
 30
0.0
 11
-1009.65195671542
 21
-1622.810515735678
 31
0.0
  0
LINE
  5
52B
330
1F
100
AcDbEntity
  8
LAYER0048
  6
CONTINUOUS
 62
     3
100
AcDbLine
 10
-1049.239976879854
 20
-1664.88755176989
 30
0.0
 11
-1010.184793200438
 21
-1625.832368090473
 31
0.0
  0
LINE
  5
52C
330
1F
100
AcDbEntity
  8
LAYER0048
  6
CONTINUOUS
 62
     3
100
AcDbLine
 10
-1049.772810568838
 20
-1667.90940132865
 30
0.0
 11
-1010.717629685457
 21
-1628.854220445268
 31
0.0
  0
LINE
  5
52D
330
1F
100
AcDbEntity
  8
LAYER0048
  6
CONTINUOUS
 62
     3
100
AcDbLine
 10
-1050.305644257821
 20
-1670.93125088741
 30
0.0
 11
-1009.547518082654
 21
-1630.173124712244
 31
0.0
  0
LINE
  5
52E
330
1F
100
AcDbEntity
  8
LAYER0048
  6
CONTINUOUS
 62
     3
100
AcDbLine
 10
-1050.838477946804
 20
-1673.953100446169
 30
0.0
 11
-1007.058502212878
 21
-1630.173124712244
 31
0.0
  0
LINE
  5
52F
330
1F
100
AcDbEntity
  8
LAYER0048
  6
CONTINUOUS
 62
     3
100
AcDbLine
 10
-1051.371311635787
 20
-1676.974950004929
 30
0.0
 11
-1004.569486343101
 21
-1630.173124712244
 31
0.0
  0
LINE
  5
530
330
1F
100
AcDbEntity
  8
LAYER0048
  6
CONTINUOUS
 62
     3
100
AcDbLine
 10
-1051.904145324771
 20
-1679.996799563689
 30
0.0
 11
-1002.080470473324
 21
-1630.173124712244
 31
0.0
  0
LINE
  5
531
330
1F
100
AcDbEntity
  8
LAYER0048
  6
CONTINUOUS
 62
     3
100
AcDbLine
 10
-1052.436979013754
 20
-1683.018649122449
 30
0.0
 11
-999.5914546035477
 21
-1630.173124712244
 31
0.0
  0
LINE
  5
532
330
1F
100
AcDbEntity
  8
LAYER0048
  6
CONTINUOUS
 62
     3
100
AcDbLine
 10
-1012.942407053772
 20
-1646.013093032244
 30
0.0
 11
-997.1024387337711
 21
-1630.173124712244
 31
0.0
  0
LINE
  5
533
330
1F
100
AcDbEntity
  8
LAYER0048
  6
CONTINUOUS
 62
     3
100
AcDbLine
 10
-1052.969812702737
 20
-1686.040498681209
 30
0.0
 11
-1013.914635836417
 21
-1646.985321814889
 31
0.0
  0
LINE
  5
534
330
1F
100
AcDbEntity
  8
LAYER0048
  6
CONTINUOUS
 62
     3
100
AcDbLine
 10
-1010.453391183995
 20
-1646.013093032244
 30
0.0
 11
-994.6134228639946
 21
-1630.173124712244
 31
0.0
  0
LINE
  5
535
330
1F
100
AcDbEntity
  8
LAYER0048
  6
CONTINUOUS
 62
     3
100
AcDbLine
 10
-1053.50264639172
 20
-1689.062348239968
 30
0.0
 11
-1014.4474695254
 21
-1650.007171373649
 31
0.0
  0
LINE
  5
536
330
1F
100
AcDbEntity
  8
LAYER0048
  6
CONTINUOUS
 62
     3
100
AcDbLine
 10
-1007.964375314219
 20
-1646.013093032244
 30
0.0
 11
-992.1244069942179
 21
-1630.173124712244
 31
0.0
  0
LINE
  5
537
330
1F
100
AcDbEntity
  8
LAYER0048
  6
CONTINUOUS
 62
     3
100
AcDbLine
 10
-1054.035480080703
 20
-1692.084197798728
 30
0.0
 11
-1014.980303214384
 21
-1653.029020932409
 31
0.0
  0
LINE
  5
538
330
1F
100
AcDbEntity
  8
LAYER0048
  6
CONTINUOUS
 62
     3
100
AcDbLine
 10
-1005.475359444442
 20
-1646.013093032244
 30
0.0
 11
-989.6353911244412
 21
-1630.173124712244
 31
0.0
  0
LINE
  5
539
330
1F
100
AcDbEntity
  8
LAYER0048
  6
CONTINUOUS
 62
     3
100
AcDbLine
 10
-1054.568313769687
 20
-1695.106047357488
 30
0.0
 11
-1015.513136903367
 21
-1656.050870491169
 31
0.0
  0
LINE
  5
53A
330
1F
100
AcDbEntity
  8
LAYER0048
  6
CONTINUOUS
 62
     3
100
AcDbLine
 10
-1002.986343574665
 20
-1646.013093032244
 30
0.0
 11
-987.146375254665
 21
-1630.173124712244
 31
0.0
  0
LINE
  5
53B
330
1F
100
AcDbEntity
  8
LAYER0048
  6
CONTINUOUS
 62
     3
100
AcDbLine
 10
-1055.10114745867
 20
-1698.127896916248
 30
0.0
 11
-1016.04597059235
 21
-1659.072720049928
 31
0.0
  0
LINE
  5
53C
330
1F
100
AcDbEntity
  8
LAYER0048
  6
CONTINUOUS
 62
     3
100
AcDbLine
 10
-1000.497327704889
 20
-1646.013093032244
 30
0.0
 11
-984.6573593848883
 21
-1630.173124712244
 31
0.0
  0
LINE
  5
53D
330
1F
100
AcDbEntity
  8
LAYER0048
  6
CONTINUOUS
 62
     3
100
AcDbLine
 10
-1055.633981147653
 20
-1701.149746475007
 30
0.0
 11
-1016.578804281333
 21
-1662.094569608688
 31
0.0
  0
LINE
  5
53E
330
1F
100
AcDbEntity
  8
LAYER0048
  6
CONTINUOUS
 62
     3
100
AcDbLine
 10
-998.0083118351126
 20
-1646.013093032244
 30
0.0
 11
-982.1683435151117
 21
-1630.173124712244
 31
0.0
  0
LINE
  5
53F
330
1F
100
AcDbEntity
  8
LAYER0048
  6
CONTINUOUS
 62
     3
100
AcDbLine
 10
-1056.166814836636
 20
-1704.171596033767
 30
0.0
 11
-1017.111637970317
 21
-1665.116419167448
 31
0.0
  0
LINE
  5
540
330
1F
100
AcDbEntity
  8
LAYER0048
  6
CONTINUOUS
 62
     3
100
AcDbLine
 10
-995.5192959653359
 20
-1646.013093032244
 30
0.0
 11
-979.6793276453348
 21
-1630.173124712244
 31
0.0
  0
LINE
  5
541
330
1F
100
AcDbEntity
  8
LAYER0048
  6
CONTINUOUS
 62
     3
100
AcDbLine
 10
-1056.69964852562
 20
-1707.193445592527
 30
0.0
 11
-1017.6444716593
 21
-1668.138268726208
 31
0.0
  0
LINE
  5
542
330
1F
100
AcDbEntity
  8
LAYER0048
  6
CONTINUOUS
 62
     3
100
AcDbLine
 10
-993.0302800955589
 20
-1646.013093032244
 30
0.0
 11
-977.1903117755585
 21
-1630.173124712244
 31
0.0
  0
LINE
  5
543
330
1F
100
AcDbEntity
  8
LAYER0048
  6
CONTINUOUS
 62
     3
100
AcDbLine
 10
-1057.117174527559
 20
-1710.099987464244
 30
0.0
 11
-1018.177305348283
 21
-1671.160118284968
 31
0.0
  0
LINE
  5
544
330
1F
100
AcDbEntity
  8
LAYER0048
  6
CONTINUOUS
 62
     3
100
AcDbLine
 10
-990.5412642257827
 20
-1646.013093032244
 30
0.0
 11
-974.7012959057818
 21
-1630.173124712244
 31
0.0
  0
LINE
  5
545
330
1F
100
AcDbEntity
  8
LAYER0048
  6
CONTINUOUS
 62
     3
100
AcDbLine
 10
-1054.628158657782
 20
-1710.099987464244
 30
0.0
 11
-1018.710139037266
 21
-1674.181967843728
 31
0.0
  0
LINE
  5
546
330
1F
100
AcDbEntity
  8
LAYER0048
  6
CONTINUOUS
 62
     3
100
AcDbLine
 10
-988.052248356006
 20
-1646.013093032244
 30
0.0
 11
-972.2122800360052
 21
-1630.173124712244
 31
0.0
  0
LINE
  5
547
330
1F
100
AcDbEntity
  8
LAYER0048
  6
CONTINUOUS
 62
     3
100
AcDbLine
 10
-1052.139142788006
 20
-1710.099987464244
 30
0.0
 11
-1019.242972726249
 21
-1677.203817402487
 31
0.0
  0
LINE
  5
548
330
1F
100
AcDbEntity
  8
LAYER0048
  6
CONTINUOUS
 62
     3
100
AcDbLine
 10
-985.5632324862295
 20
-1646.013093032244
 30
0.0
 11
-969.7232641662287
 21
-1630.173124712244
 31
0.0
  0
LINE
  5
549
330
1F
100
AcDbEntity
  8
LAYER0048
  6
CONTINUOUS
 62
     3
100
AcDbLine
 10
-1049.650126918229
 20
-1710.099987464244
 30
0.0
 11
-1019.775806415232
 21
-1680.225666961247
 31
0.0
  0
LINE
  5
54A
330
1F
100
AcDbEntity
  8
LAYER0048
  6
CONTINUOUS
 62
     3
100
AcDbLine
 10
-983.0742166164528
 20
-1646.013093032244
 30
0.0
 11
-967.2342482964523
 21
-1630.173124712244
 31
0.0
  0
LINE
  5
54B
330
1F
100
AcDbEntity
  8
LAYER0048
  6
CONTINUOUS
 62
     3
100
AcDbLine
 10
-1047.161111048453
 20
-1710.099987464244
 30
0.0
 11
-1020.308640104215
 21
-1683.247516520007
 31
0.0
  0
LINE
  5
54C
330
1F
100
AcDbEntity
  8
LAYER0048
  6
CONTINUOUS
 62
     3
100
AcDbLine
 10
-980.5852007466765
 20
-1646.013093032244
 30
0.0
 11
-964.7452324266753
 21
-1630.173124712244
 31
0.0
  0
LINE
  5
54D
330
1F
100
AcDbEntity
  8
LAYER0048
  6
CONTINUOUS
 62
     3
100
AcDbLine
 10
-1044.672095178676
 20
-1710.099987464244
 30
0.0
 11
-1020.841473793199
 21
-1686.269366078767
 31
0.0
  0
LINE
  5
54E
330
1F
100
AcDbEntity
  8
LAYER0048
  6
CONTINUOUS
 62
     3
100
AcDbLine
 10
-978.0961848768994
 20
-1646.013093032244
 30
0.0
 11
-962.2562165568991
 21
-1630.173124712244
 31
0.0
  0
LINE
  5
54F
330
1F
100
AcDbEntity
  8
LAYER0048
  6
CONTINUOUS
 62
     3
100
AcDbLine
 10
-1042.1830793089
 20
-1710.099987464244
 30
0.0
 11
-1021.374307482182
 21
-1689.291215637527
 31
0.0
  0
LINE
  5
550
330
1F
100
AcDbEntity
  8
LAYER0048
  6
CONTINUOUS
 62
     3
100
AcDbLine
 10
-975.6071690071233
 20
-1646.013093032244
 30
0.0
 11
-959.7672006871223
 21
-1630.173124712244
 31
0.0
  0
LINE
  5
551
330
1F
100
AcDbEntity
  8
LAYER0048
  6
CONTINUOUS
 62
     3
100
AcDbLine
 10
-1039.694063439123
 20
-1710.099987464244
 30
0.0
 11
-1021.907141171165
 21
-1692.313065196286
 31
0.0
  0
LINE
  5
552
330
1F
100
AcDbEntity
  8
LAYER0048
  6
CONTINUOUS
 62
     3
100
AcDbLine
 10
-973.1181531373466
 20
-1646.013093032244
 30
0.0
 11
-957.2781848173457
 21
-1630.173124712244
 31
0.0
  0
LINE
  5
553
330
1F
100
AcDbEntity
  8
LAYER0048
  6
CONTINUOUS
 62
     3
100
AcDbLine
 10
-1004.104737510534
 20
-1676.999677405431
 30
0.0
 11
-1003.878993418947
 21
-1676.773933313845
 31
0.0
  0
LINE
  5
554
330
1F
100
AcDbEntity
  8
LAYER0048
  6
CONTINUOUS
 62
     3
100
AcDbLine
 10
-1037.205047569347
 20
-1710.099987464244
 30
0.0
 11
-1022.439974860148
 21
-1695.334914755046
 31
0.0
  0
LINE
  5
555
330
1F
100
AcDbEntity
  8
LAYER0048
  6
CONTINUOUS
 62
     3
100
AcDbLine
 10
-970.6291372675701
 20
-1646.013093032244
 30
0.0
 11
-954.7891689475692
 21
-1630.173124712244
 31
0.0
  0
LINE
  5
556
330
1F
100
AcDbEntity
  8
LAYER0048
  6
CONTINUOUS
 62
     3
100
AcDbLine
 10
-1004.637571733057
 20
-1680.021527497731
 30
0.0
 11
-1001.38997754917
 21
-1676.773933313845
 31
0.0
  0
LINE
  5
557
330
1F
100
AcDbEntity
  8
LAYER0048
  6
CONTINUOUS
 62
     3
100
AcDbLine
 10
-1034.71603169957
 20
-1710.099987464244
 30
0.0
 11
-1022.972808549132
 21
-1698.356764313806
 31
0.0
  0
LINE
  5
558
330
1F
100
AcDbEntity
  8
LAYER0048
  6
CONTINUOUS
 62
     3
100
AcDbLine
 10
-968.1401213977933
 20
-1646.013093032244
 30
0.0
 11
-952.3001530777925
 21
-1630.173124712244
 31
0.0
  0
LINE
  5
559
330
1F
100
AcDbEntity
  8
LAYER0048
  6
CONTINUOUS
 62
     3
100
AcDbLine
 10
-1005.17040595558
 20
-1683.043377590031
 30
0.0
 11
-998.9009616793937
 21
-1676.773933313845
 31
0.0
  0
LINE
  5
55A
330
1F
100
AcDbEntity
  8
LAYER0048
  6
CONTINUOUS
 62
     3
100
AcDbLine
 10
-1032.227015829793
 20
-1710.099987464244
 30
0.0
 11
-1023.505642238115
 21
-1701.378613872566
 31
0.0
  0
LINE
  5
55B
330
1F
100
AcDbEntity
  8
LAYER0048
  6
CONTINUOUS
 62
     3
100
AcDbLine
 10
-965.6511055280167
 20
-1646.013093032244
 30
0.0
 11
-949.8111372080164
 21
-1630.173124712244
 31
0.0
  0
LINE
  5
55C
330
1F
100
AcDbEntity
  8
LAYER0048
  6
CONTINUOUS
 62
     3
100
AcDbLine
 10
-1005.703240178103
 20
-1686.06522768233
 30
0.0
 11
-996.4119458096171
 21
-1676.773933313845
 31
0.0
  0
LINE
  5
55D
330
1F
100
AcDbEntity
  8
LAYER0048
  6
CONTINUOUS
 62
     3
100
AcDbLine
 10
-1029.737999960017
 20
-1710.099987464244
 30
0.0
 11
-1024.038475927098
 21
-1704.400463431326
 31
0.0
  0
LINE
  5
55E
330
1F
100
AcDbEntity
  8
LAYER0048
  6
CONTINUOUS
 62
     3
100
AcDbLine
 10
-963.1620896582405
 20
-1646.013093032244
 30
0.0
 11
-947.3221213382392
 21
-1630.173124712244
 31
0.0
  0
LINE
  5
55F
330
1F
100
AcDbEntity
  8
LAYER0048
  6
CONTINUOUS
 62
     3
100
AcDbLine
 10
-1006.236074400627
 20
-1689.087077774631
 30
0.0
 11
-993.9206765148731
 21
-1676.771679888877
 31
0.0
  0
LINE
  5
560
330
1F
100
AcDbEntity
  8
LAYER0048
  6
CONTINUOUS
 62
     3
100
AcDbLine
 10
-1027.24898409024
 20
-1710.099987464244
 30
0.0
 11
-1024.571309616081
 21
-1707.422312990085
 31
0.0
  0
LINE
  5
561
330
1F
100
AcDbEntity
  8
LAYER0048
  6
CONTINUOUS
 62
     3
100
AcDbLine
 10
-962.4932716578354
 20
-1647.833290901616
 30
0.0
 11
-944.8331054684626
 21
-1630.173124712244
 31
0.0
  0
LINE
  5
562
330
1F
100
AcDbEntity
  8
LAYER0048
  6
CONTINUOUS
 62
     3
100
AcDbLine
 10
-1006.76890862315
 20
-1692.108927866931
 30
0.0
 11
-991.3022341350497
 21
-1676.64225337883
 31
0.0
  0
LINE
  5
563
330
1F
100
AcDbEntity
  8
LAYER0048
  6
CONTINUOUS
 62
     3
100
AcDbLine
 10
-963.0289598061431
 20
-1650.857994919701
 30
0.0
 11
-942.3440895986863
 21
-1630.173124712244
 31
0.0
  0
LINE
  5
564
330
1F
100
AcDbEntity
  8
LAYER0048
  6
CONTINUOUS
 62
     3
100
AcDbLine
 10
-1004.784866520286
 20
-1692.613901633845
 30
0.0
 11
-988.4148951941796
 21
-1676.243930307737
 31
0.0
  0
LINE
  5
565
330
1F
100
AcDbEntity
  8
LAYER0048
  6
CONTINUOUS
 62
     3
100
AcDbLine
 10
-963.8179638487713
 20
-1654.136014832106
 30
0.0
 11
-939.8550737289094
 21
-1630.173124712244
 31
0.0
  0
LINE
  5
566
330
1F
100
AcDbEntity
  8
LAYER0048
  6
CONTINUOUS
 62
     3
100
AcDbLine
 10
-1002.29585065051
 20
-1692.613901633845
 30
0.0
 11
-985.1368752817747
 21
-1675.454926265108
 31
0.0
  0
LINE
  5
567
330
1F
100
AcDbEntity
  8
LAYER0048
  6
CONTINUOUS
 62
     3
100
AcDbLine
 10
-965.292683720485
 20
-1658.099750573596
 30
0.0
 11
-937.3660578591331
 21
-1630.173124712244
 31
0.0
  0
LINE
  5
568
330
1F
100
AcDbEntity
  8
LAYER0048
  6
CONTINUOUS
 62
     3
100
AcDbLine
 10
-999.8068347807333
 20
-1692.613901633845
 30
0.0
 11
-981.1731395402843
 21
-1673.980206393395
 31
0.0
  0
LINE
  5
569
330
1F
100
AcDbEntity
  8
LAYER0048
  6
CONTINUOUS
 62
     3
100
AcDbLine
 10
-968.9269642622003
 20
-1664.223046985087
 30
0.0
 11
-934.8770419893565
 21
-1630.173124712244
 31
0.0
  0
LINE
  5
56A
330
1F
100
AcDbEntity
  8
LAYER0048
  6
CONTINUOUS
 62
     3
100
AcDbLine
 10
-997.3178189109568
 20
-1692.613901633845
 30
0.0
 11
-975.0498431287924
 21
-1670.34592585168
 31
0.0
  0
LINE
  5
56B
330
1F
100
AcDbEntity
  8
LAYER0048
  6
CONTINUOUS
 62
     3
100
AcDbLine
 10
-994.8288030411801
 20
-1692.613901633845
 30
0.0
 11
-932.3880261195798
 21
-1630.173124712244
 31
0.0
  0
LINE
  5
56C
330
1F
100
AcDbEntity
  8
LAYER0048
  6
CONTINUOUS
 62
     3
100
AcDbLine
 10
-992.3397871714035
 20
-1692.613901633845
 30
0.0
 11
-930.619432901952
 21
-1630.893547364394
 31
0.0
  0
LINE
  5
56D
330
1F
100
AcDbEntity
  8
LAYER0048
  6
CONTINUOUS
 62
     3
100
AcDbLine
 10
-989.8507713016272
 20
-1692.613901633845
 30
0.0
 11
-931.1522621937053
 21
-1633.915392525923
 31
0.0
  0
LINE
  5
56E
330
1F
100
AcDbEntity
  8
LAYER0048
  6
CONTINUOUS
 62
     3
100
AcDbLine
 10
-987.3617554318503
 20
-1692.613901633845
 30
0.0
 11
-931.6850914854582
 21
-1636.937237687452
 31
0.0
  0
LINE
  5
56F
330
1F
100
AcDbEntity
  8
LAYER0048
  6
CONTINUOUS
 62
     3
100
AcDbLine
 10
-984.8727395620739
 20
-1692.613901633845
 30
0.0
 11
-932.2179207772112
 21
-1639.959082848982
 31
0.0
  0
LINE
  5
570
330
1F
100
AcDbEntity
  8
LAYER0048
  6
CONTINUOUS
 62
     3
100
AcDbLine
 10
-982.3837236922974
 20
-1692.613901633845
 30
0.0
 11
-932.7507500689637
 21
-1642.980928010511
 31
0.0
  0
LINE
  5
571
330
1F
100
AcDbEntity
  8
LAYER0048
  6
CONTINUOUS
 62
     3
100
AcDbLine
 10
-979.8947078225203
 20
-1692.613901633845
 30
0.0
 11
-933.2835793607167
 21
-1646.002773172041
 31
0.0
  0
LINE
  5
572
330
1F
100
AcDbEntity
  8
LAYER0048
  6
CONTINUOUS
 62
     3
100
AcDbLine
 10
-977.4056919527441
 20
-1692.613901633845
 30
0.0
 11
-933.8164086524699
 21
-1649.02461833357
 31
0.0
  0
LINE
  5
573
330
1F
100
AcDbEntity
  8
LAYER0048
  6
CONTINUOUS
 62
     3
100
AcDbLine
 10
-974.9166760829678
 20
-1692.613901633845
 30
0.0
 11
-934.3492379442225
 21
-1652.0464634951
 31
0.0
  0
LINE
  5
574
330
1F
100
AcDbEntity
  8
LAYER0048
  6
CONTINUOUS
 62
     3
100
AcDbLine
 10
-972.4133676027279
 20
-1692.599609023382
 30
0.0
 11
-934.8820672359755
 21
-1655.068308656629
 31
0.0
  0
LINE
  5
575
330
1F
100
AcDbEntity
  8
LAYER0048
  6
CONTINUOUS
 62
     3
100
AcDbLine
 10
-969.7626303967625
 20
-1692.437887687192
 30
0.0
 11
-935.4148965277279
 21
-1658.090153818158
 31
0.0
  0
LINE
  5
576
330
1F
100
AcDbEntity
  8
LAYER0048
  6
CONTINUOUS
 62
     3
100
AcDbLine
 10
-966.8865390245945
 20
-1692.050812184802
 30
0.0
 11
-935.9477258194809
 21
-1661.111998979688
 31
0.0
  0
LINE
  5
577
330
1F
100
AcDbEntity
  8
LAYER0048
  6
CONTINUOUS
 62
     3
100
AcDbLine
 10
-963.7011665291786
 20
-1691.354455559162
 30
0.0
 11
-936.6450603019177
 21
-1664.298349331901
 31
0.0
  0
LINE
  5
578
330
1F
100
AcDbEntity
  8
LAYER0048
  6
CONTINUOUS
 62
     3
100
AcDbLine
 10
-960.0473618126249
 20
-1690.189666712385
 30
0.0
 11
-937.8098491486948
 21
-1667.952154048455
 31
0.0
  0
LINE
  5
579
330
1F
100
AcDbEntity
  8
LAYER0048
  6
CONTINUOUS
 62
     3
100
AcDbLine
 10
-955.5072820640145
 20
-1688.138602833551
 30
0.0
 11
-939.8609130275291
 21
-1672.492233797066
 31
0.0
  0
LINE
  5
57A
330
1F
100
AcDbEntity
  8
LAYER0048
  6
CONTINUOUS
 62
     3
100
AcDbLine
 10
-1181.200391910896
 20
-1654.974062223662
 30
0.0
 11
-1180.886428031477
 21
-1654.660098344244
 31
0.0
  0
LINE
  5
57B
330
1F
100
AcDbEntity
  8
LAYER0048
  6
CONTINUOUS
 62
     3
100
AcDbLine
 10
-1181.806855291191
 20
-1658.069541473733
 30
0.0
 11
-1178.3974121617
 21
-1654.660098344244
 31
0.0
  0
LINE
  5
57C
330
1F
100
AcDbEntity
  8
LAYER0048
  6
CONTINUOUS
 62
     3
100
AcDbLine
 10
-1182.413318671486
 20
-1661.165020723805
 30
0.0
 11
-1175.908396291924
 21
-1654.660098344244
 31
0.0
  0
LINE
  5
57D
330
1F
100
AcDbEntity
  8
LAYER0048
  6
CONTINUOUS
 62
     3
100
AcDbLine
 10
-1183.019782051781
 20
-1664.260499973876
 30
0.0
 11
-1173.419380422147
 21
-1654.660098344244
 31
0.0
  0
LINE
  5
57E
330
1F
100
AcDbEntity
  8
LAYER0048
  6
CONTINUOUS
 62
     3
100
AcDbLine
 10
-1183.626245432076
 20
-1667.355979223948
 30
0.0
 11
-1170.930364552371
 21
-1654.660098344244
 31
0.0
  0
LINE
  5
57F
330
1F
100
AcDbEntity
  8
LAYER0048
  6
CONTINUOUS
 62
     3
100
AcDbLine
 10
-1182.697320170595
 20
-1668.916069832244
 30
0.0
 11
-1168.441348682594
 21
-1654.660098344244
 31
0.0
  0
LINE
  5
580
330
1F
100
AcDbEntity
  8
LAYER0048
  6
CONTINUOUS
 62
     3
100
AcDbLine
 10
-1180.208304300818
 20
-1668.916069832244
 30
0.0
 11
-1165.952332812818
 21
-1654.660098344244
 31
0.0
  0
LINE
  5
581
330
1F
100
AcDbEntity
  8
LAYER0048
  6
CONTINUOUS
 62
     3
100
AcDbLine
 10
-1177.719288431042
 20
-1668.916069832244
 30
0.0
 11
-1163.463316943041
 21
-1654.660098344244
 31
0.0
  0
LINE
  5
582
330
1F
100
AcDbEntity
  8
LAYER0048
  6
CONTINUOUS
 62
     3
100
AcDbLine
 10
-1175.230272561265
 20
-1668.916069832244
 30
0.0
 11
-1160.974301073264
 21
-1654.660098344244
 31
0.0
  0
LINE
  5
583
330
1F
100
AcDbEntity
  8
LAYER0048
  6
CONTINUOUS
 62
     3
100
AcDbLine
 10
-1172.741256691489
 20
-1668.916069832244
 30
0.0
 11
-1158.485285203488
 21
-1654.660098344244
 31
0.0
  0
LINE
  5
584
330
1F
100
AcDbEntity
  8
LAYER0048
  6
CONTINUOUS
 62
     3
100
AcDbLine
 10
-1170.252240821712
 20
-1668.916069832244
 30
0.0
 11
-1155.996269333712
 21
-1654.660098344244
 31
0.0
  0
LINE
  5
585
330
1F
100
AcDbEntity
  8
LAYER0048
  6
CONTINUOUS
 62
     3
100
AcDbLine
 10
-1167.763224951935
 20
-1668.916069832244
 30
0.0
 11
-1153.507253463934
 21
-1654.660098344244
 31
0.0
  0
LINE
  5
586
330
1F
100
AcDbEntity
  8
LAYER0048
  6
CONTINUOUS
 62
     3
100
AcDbLine
 10
-1165.274209082159
 20
-1668.916069832244
 30
0.0
 11
-1151.018237594158
 21
-1654.660098344244
 31
0.0
  0
LINE
  5
587
330
1F
100
AcDbEntity
  8
LAYER0048
  6
CONTINUOUS
 62
     3
100
AcDbLine
 10
-1162.785193212382
 20
-1668.916069832244
 30
0.0
 11
-1148.529221724382
 21
-1654.660098344244
 31
0.0
  0
LINE
  5
588
330
1F
100
AcDbEntity
  8
LAYER0048
  6
CONTINUOUS
 62
     3
100
AcDbLine
 10
-1160.296177342606
 20
-1668.916069832244
 30
0.0
 11
-1146.039281306727
 21
-1654.659173796366
 31
0.0
  0
LINE
  5
589
330
1F
100
AcDbEntity
  8
LAYER0048
  6
CONTINUOUS
 62
     3
100
AcDbLine
 10
-1157.807161472829
 20
-1668.916069832244
 30
0.0
 11
-1143.455613851952
 21
-1654.564522211367
 31
0.0
  0
LINE
  5
58A
330
1F
100
AcDbEntity
  8
LAYER0048
  6
CONTINUOUS
 62
     3
100
AcDbLine
 10
-1103.145151210733
 20
-1616.743075439925
 30
0.0
 11
-1101.462253315052
 21
-1615.060177544244
 31
0.0
  0
LINE
  5
58B
330
1F
100
AcDbEntity
  8
LAYER0048
  6
CONTINUOUS
 62
     3
100
AcDbLine
 10
-1155.318145603052
 20
-1668.916069832244
 30
0.0
 11
-1140.663701140954
 21
-1654.261625370145
 31
0.0
  0
LINE
  5
58C
330
1F
100
AcDbEntity
  8
LAYER0048
  6
CONTINUOUS
 62
     3
100
AcDbLine
 10
-1105.985204031389
 20
-1622.072144130357
 30
0.0
 11
-1098.973237445275
 21
-1615.060177544244
 31
0.0
  0
LINE
  5
58D
330
1F
100
AcDbEntity
  8
LAYER0048
  6
CONTINUOUS
 62
     3
100
AcDbLine
 10
-1152.829129733276
 20
-1668.916069832244
 30
0.0
 11
-1137.600325307186
 21
-1653.687265406154
 31
0.0
  0
LINE
  5
58E
330
1F
100
AcDbEntity
  8
LAYER0048
  6
CONTINUOUS
 62
     3
100
AcDbLine
 10
-1108.825256852044
 20
-1627.401212820789
 30
0.0
 11
-1096.484221575498
 21
-1615.060177544244
 31
0.0
  0
LINE
  5
58F
330
1F
100
AcDbEntity
  8
LAYER0048
  6
CONTINUOUS
 62
     3
100
AcDbLine
 10
-1150.340113863499
 20
-1668.916069832244
 30
0.0
 11
-1134.13594178955
 21
-1652.711897758295
 31
0.0
  0
LINE
  5
590
330
1F
100
AcDbEntity
  8
LAYER0048
  6
CONTINUOUS
 62
     3
100
AcDbLine
 10
-1111.665309672699
 20
-1632.730281511221
 30
0.0
 11
-1093.995205705722
 21
-1615.060177544244
 31
0.0
  0
LINE
  5
591
330
1F
100
AcDbEntity
  8
LAYER0048
  6
CONTINUOUS
 62
     3
100
AcDbLine
 10
-1147.851097993723
 20
-1668.916069832244
 30
0.0
 11
-1129.991681562959
 21
-1651.056653401481
 31
0.0
  0
LINE
  5
592
330
1F
100
AcDbEntity
  8
LAYER0048
  6
CONTINUOUS
 62
     3
100
AcDbLine
 10
-1115.276022435463
 20
-1638.830010143761
 30
0.0
 11
-1091.506189835945
 21
-1615.060177544244
 31
0.0
  0
LINE
  5
593
330
1F
100
AcDbEntity
  8
LAYER0048
  6
CONTINUOUS
 62
     3
100
AcDbLine
 10
-1145.362082123946
 20
-1668.916069832244
 30
0.0
 11
-1123.959388232518
 21
-1647.513375940816
 31
0.0
  0
LINE
  5
594
330
1F
100
AcDbEntity
  8
LAYER0048
  6
CONTINUOUS
 62
     3
100
AcDbLine
 10
-1145.443323482737
 20
-1671.486327060813
 30
0.0
 11
-1089.017173966168
 21
-1615.060177544244
 31
0.0
  0
LINE
  5
595
330
1F
100
AcDbEntity
  8
LAYER0048
  6
CONTINUOUS
 62
     3
100
AcDbLine
 10
-1145.976157705261
 20
-1674.508177153113
 30
0.0
 11
-1086.528158096392
 21
-1615.060177544244
 31
0.0
  0
LINE
  5
596
330
1F
100
AcDbEntity
  8
LAYER0048
  6
CONTINUOUS
 62
     3
100
AcDbLine
 10
-1146.508991927784
 20
-1677.530027245413
 30
0.0
 11
-1084.039142226615
 21
-1615.060177544244
 31
0.0
  0
LINE
  5
597
330
1F
100
AcDbEntity
  8
LAYER0048
  6
CONTINUOUS
 62
     3
100
AcDbLine
 10
-1147.041826150308
 20
-1680.551877337713
 30
0.0
 11
-1081.550126356839
 21
-1615.060177544244
 31
0.0
  0
LINE
  5
598
330
1F
100
AcDbEntity
  8
LAYER0048
  6
CONTINUOUS
 62
     3
100
AcDbLine
 10
-1147.574660372831
 20
-1683.573727430013
 30
0.0
 11
-1079.061110487062
 21
-1615.060177544244
 31
0.0
  0
LINE
  5
599
330
1F
100
AcDbEntity
  8
LAYER0048
  6
CONTINUOUS
 62
     3
100
AcDbLine
 10
-1148.107494595355
 20
-1686.595577522313
 30
0.0
 11
-1076.572094617286
 21
-1615.060177544244
 31
0.0
  0
LINE
  5
59A
330
1F
100
AcDbEntity
  8
LAYER0048
  6
CONTINUOUS
 62
     3
100
AcDbLine
 10
-1148.640328817878
 20
-1689.617427614613
 30
0.0
 11
-1074.083078747509
 21
-1615.060177544244
 31
0.0
  0
LINE
  5
59B
330
1F
100
AcDbEntity
  8
LAYER0048
  6
CONTINUOUS
 62
     3
100
AcDbLine
 10
-1149.173163040402
 20
-1692.639277706913
 30
0.0
 11
-1071.594062877732
 21
-1615.060177544244
 31
0.0
  0
LINE
  5
59C
330
1F
100
AcDbEntity
  8
LAYER0048
  6
CONTINUOUS
 62
     3
100
AcDbLine
 10
-1149.705997262925
 20
-1695.661127799214
 30
0.0
 11
-1069.105047007956
 21
-1615.060177544244
 31
0.0
  0
LINE
  5
59D
330
1F
100
AcDbEntity
  8
LAYER0048
  6
CONTINUOUS
 62
     3
100
AcDbLine
 10
-1150.238831485448
 20
-1698.682977891514
 30
0.0
 11
-1066.616031138179
 21
-1615.060177544244
 31
0.0
  0
LINE
  5
59E
330
1F
100
AcDbEntity
  8
LAYER0048
  6
CONTINUOUS
 62
     3
100
AcDbLine
 10
-1150.771665707972
 20
-1701.704827983813
 30
0.0
 11
-1064.127015268403
 21
-1615.060177544244
 31
0.0
  0
LINE
  5
59F
330
1F
100
AcDbEntity
  8
LAYER0048
  6
CONTINUOUS
 62
     3
100
AcDbLine
 10
-1151.304499930495
 20
-1704.726678076114
 30
0.0
 11
-1061.637999398626
 21
-1615.060177544244
 31
0.0
  0
LINE
  5
5A0
330
1F
100
AcDbEntity
  8
LAYER0048
  6
CONTINUOUS
 62
     3
100
AcDbLine
 10
-1113.004875816849
 20
-1668.916069832244
 30
0.0
 11
-1059.14898352885
 21
-1615.060177544244
 31
0.0
  0
LINE
  5
5A1
330
1F
100
AcDbEntity
  8
LAYER0048
  6
CONTINUOUS
 62
     3
100
AcDbLine
 10
-1151.837334153019
 20
-1707.748528168413
 30
0.0
 11
-1113.375538620863
 21
-1669.286732636258
 31
0.0
  0
LINE
  5
5A2
330
1F
100
AcDbEntity
  8
LAYER0048
  6
CONTINUOUS
 62
     3
100
AcDbLine
 10
-1110.444229612836
 20
-1668.844439498007
 30
0.0
 11
-1058.69399899704
 21
-1617.094208882212
 31
0.0
  0
LINE
  5
5A3
330
1F
100
AcDbEntity
  8
LAYER0048
  6
CONTINUOUS
 62
     3
100
AcDbLine
 10
-1151.699777579072
 20
-1710.099987464244
 30
0.0
 11
-1113.908372843386
 21
-1672.308582728558
 31
0.0
  0
LINE
  5
5A4
330
1F
100
AcDbEntity
  8
LAYER0048
  6
CONTINUOUS
 62
     3
100
AcDbLine
 10
-1107.641928175792
 20
-1668.531153930741
 30
0.0
 11
-1065.37357228263
 21
-1626.262798037578
 31
0.0
  0
LINE
  5
5A5
330
1F
100
AcDbEntity
  8
LAYER0048
  6
CONTINUOUS
 62
     3
100
AcDbLine
 10
-1149.210761709295
 20
-1710.099987464244
 30
0.0
 11
-1114.44120706591
 21
-1675.330432820858
 31
0.0
  0
LINE
  5
5A6
330
1F
100
AcDbEntity
  8
LAYER0048
  6
CONTINUOUS
 62
     3
100
AcDbLine
 10
-1104.491222547626
 20
-1667.869464172351
 30
0.0
 11
-1072.053145568219
 21
-1635.431387192945
 31
0.0
  0
LINE
  5
5A7
330
1F
100
AcDbEntity
  8
LAYER0048
  6
CONTINUOUS
 62
     3
100
AcDbLine
 10
-1146.721745839518
 20
-1710.099987464244
 30
0.0
 11
-1114.974041288433
 21
-1678.352282913158
 31
0.0
  0
LINE
  5
5A8
330
1F
100
AcDbEntity
  8
LAYER0048
  6
CONTINUOUS
 62
     3
100
AcDbLine
 10
-1100.771890728049
 20
-1666.639148222551
 30
0.0
 11
-1078.732718853809
 21
-1644.599976348311
 31
0.0
  0
LINE
  5
5A9
330
1F
100
AcDbEntity
  8
LAYER0048
  6
CONTINUOUS
 62
     3
100
AcDbLine
 10
-1144.232729969742
 20
-1710.099987464244
 30
0.0
 11
-1115.506875510956
 21
-1681.374133005457
 31
0.0
  0
LINE
  5
5AA
330
1F
100
AcDbEntity
  8
LAYER0048
  6
CONTINUOUS
 62
     3
100
AcDbLine
 10
-1095.693753156892
 20
-1664.05002652117
 30
0.0
 11
-1085.412292139398
 21
-1653.768565503677
 31
0.0
  0
LINE
  5
5AB
330
1F
100
AcDbEntity
  8
LAYER0048
  6
CONTINUOUS
 62
     3
100
AcDbLine
 10
-1141.743714099965
 20
-1710.099987464244
 30
0.0
 11
-1116.039709733479
 21
-1684.395983097758
 31
0.0
  0
LINE
  5
5AC
330
1F
100
AcDbEntity
  8
LAYER0048
  6
CONTINUOUS
 62
     3
100
AcDbLine
 10
-1139.254698230189
 20
-1710.099987464244
 30
0.0
 11
-1116.572543956003
 21
-1687.417833190058
 31
0.0
  0
LINE
  5
5AD
330
1F
100
AcDbEntity
  8
LAYER0048
  6
CONTINUOUS
 62
     3
100
AcDbLine
 10
-1136.765682360412
 20
-1710.099987464244
 30
0.0
 11
-1117.105378178526
 21
-1690.439683282357
 31
0.0
  0
LINE
  5
5AE
330
1F
100
AcDbEntity
  8
LAYER0048
  6
CONTINUOUS
 62
     3
100
AcDbLine
 10
-1134.276666490636
 20
-1710.099987464244
 30
0.0
 11
-1117.63821240105
 21
-1693.461533374657
 31
0.0
  0
LINE
  5
5AF
330
1F
100
AcDbEntity
  8
LAYER0048
  6
CONTINUOUS
 62
     3
100
AcDbLine
 10
-1131.787650620859
 20
-1710.099987464244
 30
0.0
 11
-1118.171046623573
 21
-1696.483383466957
 31
0.0
  0
LINE
  5
5B0
330
1F
100
AcDbEntity
  8
LAYER0048
  6
CONTINUOUS
 62
     3
100
AcDbLine
 10
-1129.298634751083
 20
-1710.099987464244
 30
0.0
 11
-1118.703880846096
 21
-1699.505233559258
 31
0.0
  0
LINE
  5
5B1
330
1F
100
AcDbEntity
  8
LAYER0048
  6
CONTINUOUS
 62
     3
100
AcDbLine
 10
-1126.809618881306
 20
-1710.099987464244
 30
0.0
 11
-1119.236715068619
 21
-1702.527083651557
 31
0.0
  0
LINE
  5
5B2
330
1F
100
AcDbEntity
  8
LAYER0048
  6
CONTINUOUS
 62
     3
100
AcDbLine
 10
-1124.320603011529
 20
-1710.099987464244
 30
0.0
 11
-1119.769549291143
 21
-1705.548933743858
 31
0.0
  0
LINE
  5
5B3
330
1F
100
AcDbEntity
  8
LAYER0048
  6
CONTINUOUS
 62
     3
100
AcDbLine
 10
-1121.831587141753
 20
-1710.099987464244
 30
0.0
 11
-1120.302383513666
 21
-1708.570783836157
 31
0.0
  0
LINE
  5
5B4
330
1F
100
AcDbEntity
  8
LAYER0048
  6
CONTINUOUS
 62
     3
100
AcDbLine
 10
-1158.022762911395
 20
-1616.435290396171
 30
0.0
 11
-1156.647650059469
 21
-1615.060177544244
 31
0.0
  0
LINE
  5
5B5
330
1F
100
AcDbEntity
  8
LAYER0048
  6
CONTINUOUS
 62
     3
100
AcDbLine
 10
-1158.555597133918
 20
-1619.457140488471
 30
0.0
 11
-1154.158634189692
 21
-1615.060177544244
 31
0.0
  0
LINE
  5
5B6
330
1F
100
AcDbEntity
  8
LAYER0048
  6
CONTINUOUS
 62
     3
100
AcDbLine
 10
-1159.088431356442
 20
-1622.478990580771
 30
0.0
 11
-1151.669618319916
 21
-1615.060177544244
 31
0.0
  0
LINE
  5
5B7
330
1F
100
AcDbEntity
  8
LAYER0048
  6
CONTINUOUS
 62
     3
100
AcDbLine
 10
-1159.621265578965
 20
-1625.500840673071
 30
0.0
 11
-1151.810209287949
 21
-1617.689784382055
 31
0.0
  0
LINE
  5
5B8
330
1F
100
AcDbEntity
  8
LAYER0048
  6
CONTINUOUS
 62
     3
100
AcDbLine
 10
-1160.154099801488
 20
-1628.522690765371
 30
0.0
 11
-1152.343043510473
 21
-1620.711634474354
 31
0.0
  0
LINE
  5
5B9
330
1F
100
AcDbEntity
  8
LAYER0048
  6
CONTINUOUS
 62
     3
100
AcDbLine
 10
-1160.042539030586
 20
-1630.900145864244
 30
0.0
 11
-1152.875877732995
 21
-1623.733484566654
 31
0.0
  0
LINE
  5
5BA
330
1F
100
AcDbEntity
  8
LAYER0048
  6
CONTINUOUS
 62
     3
100
AcDbLine
 10
-1157.553523160809
 20
-1630.900145864244
 30
0.0
 11
-1153.408711955518
 21
-1626.755334658955
 31
0.0
  0
LINE
  5
5BB
330
1F
100
AcDbEntity
  8
LAYER0048
  6
CONTINUOUS
 62
     3
100
AcDbLine
 10
-1155.064507291032
 20
-1630.900145864244
 30
0.0
 11
-1153.941546178042
 21
-1629.777184751254
 31
0.0
  0
LINE
  5
5BC
330
1F
100
AcDbEntity
  8
LAYER0048
  6
CONTINUOUS
 62
     3
100
AcDbLine
 10
-1174.423917560168
 20
-1616.87136569606
 30
0.0
 11
-1172.612729408352
 21
-1615.060177544244
 31
0.0
  0
LINE
  5
5BD
330
1F
100
AcDbEntity
  8
LAYER0048
  6
CONTINUOUS
 62
     3
100
AcDbLine
 10
-1174.956751782691
 20
-1619.89321578836
 30
0.0
 11
-1170.123713538576
 21
-1615.060177544244
 31
0.0
  0
LINE
  5
5BE
330
1F
100
AcDbEntity
  8
LAYER0048
  6
CONTINUOUS
 62
     3
100
AcDbLine
 10
-1175.489586005214
 20
-1622.91506588066
 30
0.0
 11
-1167.678529714196
 21
-1615.104009589642
 31
0.0
  0
LINE
  5
5BF
330
1F
100
AcDbEntity
  8
LAYER0048
  6
CONTINUOUS
 62
     3
100
AcDbLine
 10
-1176.022420227737
 20
-1625.93691597296
 30
0.0
 11
-1168.21136393672
 21
-1618.125859681942
 31
0.0
  0
LINE
  5
5C0
330
1F
100
AcDbEntity
  8
LAYER0048
  6
CONTINUOUS
 62
     3
100
AcDbLine
 10
-1176.555254450261
 20
-1628.95876606526
 30
0.0
 11
-1168.744198159243
 21
-1621.147709774242
 31
0.0
  0
LINE
  5
5C1
330
1F
100
AcDbEntity
  8
LAYER0048
  6
CONTINUOUS
 62
     3
100
AcDbLine
 10
-1176.007618379469
 20
-1630.900145864244
 30
0.0
 11
-1169.277032381767
 21
-1624.169559866542
 31
0.0
  0
LINE
  5
5C2
330
1F
100
AcDbEntity
  8
LAYER0048
  6
CONTINUOUS
 62
     3
100
AcDbLine
 10
-1173.518602509692
 20
-1630.900145864244
 30
0.0
 11
-1169.809866604289
 21
-1627.191409958842
 31
0.0
  0
LINE
  5
5C3
330
1F
100
AcDbEntity
  8
LAYER0048
  6
CONTINUOUS
 62
     3
100
AcDbLine
 10
-1171.029586639916
 20
-1630.900145864244
 30
0.0
 11
-1170.342700826813
 21
-1630.213260051142
 31
0.0
  0
LINE
  5
5C4
330
1F
100
AcDbEntity
  8
LAYER0048
  6
CONTINUOUS
 62
     3
100
AcDbLine
 10
-1269.467725843235
 20
-1616.301586797392
 30
0.0
 11
-1268.226316590085
 21
-1615.060177544244
 31
0.0
  0
LINE
  5
5C5
330
1F
100
AcDbEntity
  8
LAYER0048
  6
CONTINUOUS
 62
     3
100
AcDbLine
 10
-1269.561525599917
 20
-1618.884402423851
 30
0.0
 11
-1265.737300720309
 21
-1615.060177544244
 31
0.0
  0
LINE
  5
5C6
330
1F
100
AcDbEntity
  8
LAYER0048
  6
CONTINUOUS
 62
     3
100
AcDbLine
 10
-1269.908156696602
 20
-1621.720049390311
 30
0.0
 11
-1263.248284850533
 21
-1615.060177544244
 31
0.0
  0
LINE
  5
5C7
330
1F
100
AcDbEntity
  8
LAYER0048
  6
CONTINUOUS
 62
     3
100
AcDbLine
 10
-1270.618473407282
 20
-1624.919381970769
 30
0.0
 11
-1260.759268980756
 21
-1615.060177544244
 31
0.0
  0
LINE
  5
5C8
330
1F
100
AcDbEntity
  8
LAYER0048
  6
CONTINUOUS
 62
     3
100
AcDbLine
 10
-1271.939996055512
 20
-1628.729920488775
 30
0.0
 11
-1258.270253110979
 21
-1615.060177544244
 31
0.0
  0
LINE
  5
5C9
330
1F
100
AcDbEntity
  8
LAYER0048
  6
CONTINUOUS
 62
     3
100
AcDbLine
 10
-1274.853693222248
 20
-1634.132633525287
 30
0.0
 11
-1255.781237241203
 21
-1615.060177544244
 31
0.0
  0
LINE
  5
5CA
330
1F
100
AcDbEntity
  8
LAYER0048
  6
CONTINUOUS
 62
     3
100
AcDbLine
 10
-1289.316814662274
 20
-1656.062802574644
 30
0.0
 11
-1248.314189631873
 21
-1615.060177544244
 31
0.0
  0
LINE
  5
5CB
330
1F
100
AcDbEntity
  8
LAYER0048
  6
CONTINUOUS
 62
     3
100
AcDbLine
 10
-1286.827798792498
 20
-1656.062802574644
 30
0.0
 11
-1245.825173762096
 21
-1615.060177544244
 31
0.0
  0
LINE
  5
5CC
330
1F
100
AcDbEntity
  8
LAYER0048
  6
CONTINUOUS
 62
     3
100
AcDbLine
 10
-1284.338782922721
 20
-1656.062802574644
 30
0.0
 11
-1243.33615789232
 21
-1615.060177544244
 31
0.0
  0
LINE
  5
5CD
330
1F
100
AcDbEntity
  8
LAYER0048
  6
CONTINUOUS
 62
     3
100
AcDbLine
 10
-1281.849767052945
 20
-1656.062802574644
 30
0.0
 11
-1240.847142022543
 21
-1615.060177544244
 31
0.0
  0
LINE
  5
5CE
330
1F
100
AcDbEntity
  8
LAYER0048
  6
CONTINUOUS
 62
     3
100
AcDbLine
 10
-1279.360751183168
 20
-1656.062802574644
 30
0.0
 11
-1238.358126152767
 21
-1615.060177544244
 31
0.0
  0
LINE
  5
5CF
330
1F
100
AcDbEntity
  8
LAYER0048
  6
CONTINUOUS
 62
     3
100
AcDbLine
 10
-1276.802874328962
 20
-1655.993941590215
 30
0.0
 11
-1235.86911028299
 21
-1615.060177544244
 31
0.0
  0
LINE
  5
5D0
330
1F
100
AcDbEntity
  8
LAYER0048
  6
CONTINUOUS
 62
     3
100
AcDbLine
 10
-1274.029835799366
 20
-1655.709918930395
 30
0.0
 11
-1233.380094413214
 21
-1615.060177544244
 31
0.0
  0
LINE
  5
5D1
330
1F
100
AcDbEntity
  8
LAYER0048
  6
CONTINUOUS
 62
     3
100
AcDbLine
 10
-1270.95882753711
 20
-1655.127926537916
 30
0.0
 11
-1230.891078543437
 21
-1615.060177544244
 31
0.0
  0
LINE
  5
5D2
330
1F
100
AcDbEntity
  8
LAYER0048
  6
CONTINUOUS
 62
     3
100
AcDbLine
 10
-1244.242030993661
 20
-1630.900145864244
 30
0.0
 11
-1228.40206267366
 21
-1615.060177544244
 31
0.0
  0
LINE
  5
5D3
330
1F
100
AcDbEntity
  8
LAYER0048
  6
CONTINUOUS
 62
     3
100
AcDbLine
 10
-1267.440216355904
 20
-1654.098331226487
 30
0.0
 11
-1246.088247879393
 21
-1632.746362749976
 31
0.0
  0
LINE
  5
5D4
330
1F
100
AcDbEntity
  8
LAYER0048
  6
CONTINUOUS
 62
     3
100
AcDbLine
 10
-1241.753015123884
 20
-1630.900145864244
 30
0.0
 11
-1225.913046803883
 21
-1615.060177544244
 31
0.0
  0
LINE
  5
5D5
330
1F
100
AcDbEntity
  8
LAYER0048
  6
CONTINUOUS
 62
     3
100
AcDbLine
 10
-1263.080989000447
 20
-1652.228119740806
 30
0.0
 11
-1247.958459365074
 21
-1637.105590105433
 31
0.0
  0
LINE
  5
5D6
330
1F
100
AcDbEntity
  8
LAYER0048
  6
CONTINUOUS
 62
     3
100
AcDbLine
 10
-1239.263999254108
 20
-1630.900145864244
 30
0.0
 11
-1223.424030934107
 21
-1615.060177544244
 31
0.0
  0
LINE
  5
5D7
330
1F
100
AcDbEntity
  8
LAYER0048
  6
CONTINUOUS
 62
     3
100
AcDbLine
 10
-1236.774983384331
 20
-1630.900145864244
 30
0.0
 11
-1220.935015064331
 21
-1615.060177544244
 31
0.0
  0
LINE
  5
5D8
330
1F
100
AcDbEntity
  8
LAYER0048
  6
CONTINUOUS
 62
     3
100
AcDbLine
 10
-1234.285967514554
 20
-1630.900145864244
 30
0.0
 11
-1218.445999194554
 21
-1615.060177544244
 31
0.0
  0
LINE
  5
5D9
330
1F
100
AcDbEntity
  8
LAYER0048
  6
CONTINUOUS
 62
     3
100
AcDbLine
 10
-1231.796951644778
 20
-1630.900145864244
 30
0.0
 11
-1215.956983324777
 21
-1615.060177544244
 31
0.0
  0
LINE
  5
5DA
330
1F
100
AcDbEntity
  8
LAYER0048
  6
CONTINUOUS
 62
     3
100
AcDbLine
 10
-1229.307935775001
 20
-1630.900145864244
 30
0.0
 11
-1213.467967455001
 21
-1615.060177544244
 31
0.0
  0
LINE
  5
5DB
330
1F
100
AcDbEntity
  8
LAYER0048
  6
CONTINUOUS
 62
     3
100
AcDbLine
 10
-1248.644218342477
 20
-1650.236428431721
 30
0.0
 11
-1248.315897759001
 21
-1649.908107848245
 31
0.0
  0
LINE
  5
5DC
330
1F
100
AcDbEntity
  8
LAYER0048
  6
CONTINUOUS
 62
     3
100
AcDbLine
 10
-1226.818919905225
 20
-1630.900145864244
 30
0.0
 11
-1210.978951585224
 21
-1615.060177544244
 31
0.0
  0
LINE
  5
5DD
330
1F
100
AcDbEntity
  8
LAYER0048
  6
CONTINUOUS
 62
     3
100
AcDbLine
 10
-1249.177052565001
 20
-1653.25827852402
 30
0.0
 11
-1245.826881889225
 21
-1649.908107848245
 31
0.0
  0
LINE
  5
5DE
330
1F
100
AcDbEntity
  8
LAYER0048
  6
CONTINUOUS
 62
     3
100
AcDbLine
 10
-1224.329904035448
 20
-1630.900145864244
 30
0.0
 11
-1208.489935715447
 21
-1615.060177544244
 31
0.0
  0
LINE
  5
5DF
330
1F
100
AcDbEntity
  8
LAYER0048
  6
CONTINUOUS
 62
     3
100
AcDbLine
 10
-1249.709886787524
 20
-1656.28012861632
 30
0.0
 11
-1243.337866019448
 21
-1649.908107848245
 31
0.0
  0
LINE
  5
5E0
330
1F
100
AcDbEntity
  8
LAYER0048
  6
CONTINUOUS
 62
     3
100
AcDbLine
 10
-1221.840888165672
 20
-1630.900145864244
 30
0.0
 11
-1206.000919845671
 21
-1615.060177544244
 31
0.0
  0
LINE
  5
5E1
330
1F
100
AcDbEntity
  8
LAYER0048
  6
CONTINUOUS
 62
     3
100
AcDbLine
 10
-1250.242721010047
 20
-1659.30197870862
 30
0.0
 11
-1240.848850149671
 21
-1649.908107848245
 31
0.0
  0
LINE
  5
5E2
330
1F
100
AcDbEntity
  8
LAYER0048
  6
CONTINUOUS
 62
     3
100
AcDbLine
 10
-1219.351872295895
 20
-1630.900145864244
 30
0.0
 11
-1203.511903975894
 21
-1615.060177544244
 31
0.0
  0
LINE
  5
5E3
330
1F
100
AcDbEntity
  8
LAYER0048
  6
CONTINUOUS
 62
     3
100
AcDbLine
 10
-1250.775555232571
 20
-1662.32382880092
 30
0.0
 11
-1238.359834279895
 21
-1649.908107848245
 31
0.0
  0
LINE
  5
5E4
330
1F
100
AcDbEntity
  8
LAYER0048
  6
CONTINUOUS
 62
     3
100
AcDbLine
 10
-1219.32824174659
 20
-1633.365531184716
 30
0.0
 11
-1201.022888106118
 21
-1615.060177544244
 31
0.0
  0
LINE
  5
5E5
330
1F
100
AcDbEntity
  8
LAYER0048
  6
CONTINUOUS
 62
     3
100
AcDbLine
 10
-1248.542793066117
 20
-1662.580082504244
 30
0.0
 11
-1235.870818410118
 21
-1649.908107848245
 31
0.0
  0
LINE
  5
5E6
330
1F
100
AcDbEntity
  8
LAYER0048
  6
CONTINUOUS
 62
     3
100
AcDbLine
 10
-1219.861075969113
 20
-1636.387381277016
 30
0.0
 11
-1198.533872236341
 21
-1615.060177544244
 31
0.0
  0
LINE
  5
5E7
330
1F
100
AcDbEntity
  8
LAYER0048
  6
CONTINUOUS
 62
     3
100
AcDbLine
 10
-1246.05377719634
 20
-1662.580082504244
 30
0.0
 11
-1233.381802540342
 21
-1649.908107848245
 31
0.0
  0
LINE
  5
5E8
330
1F
100
AcDbEntity
  8
LAYER0048
  6
CONTINUOUS
 62
     3
100
AcDbLine
 10
-1220.393910191637
 20
-1639.409231369316
 30
0.0
 11
-1196.044856366564
 21
-1615.060177544244
 31
0.0
  0
LINE
  5
5E9
330
1F
100
AcDbEntity
  8
LAYER0048
  6
CONTINUOUS
 62
     3
100
AcDbLine
 10
-1243.564761326564
 20
-1662.580082504244
 30
0.0
 11
-1230.892786670565
 21
-1649.908107848245
 31
0.0
  0
LINE
  5
5EA
330
1F
100
AcDbEntity
  8
LAYER0048
  6
CONTINUOUS
 62
     3
100
AcDbLine
 10
-1291.084666286563
 20
-1710.099987464244
 30
0.0
 11
-1275.244697966564
 21
-1694.260019144244
 31
0.0
  0
LINE
  5
5EB
330
1F
100
AcDbEntity
  8
LAYER0048
  6
CONTINUOUS
 62
     3
100
AcDbLine
 10
-1220.92674441416
 20
-1642.431081461616
 30
0.0
 11
-1193.555840496788
 21
-1615.060177544244
 31
0.0
  0
LINE
  5
5EC
330
1F
100
AcDbEntity
  8
LAYER0048
  6
CONTINUOUS
 62
     3
100
AcDbLine
 10
-1241.075745456787
 20
-1662.580082504244
 30
0.0
 11
-1228.403770800788
 21
-1649.908107848245
 31
0.0
  0
LINE
  5
5ED
330
1F
100
AcDbEntity
  8
LAYER0048
  6
CONTINUOUS
 62
     3
100
AcDbLine
 10
-1288.595650416787
 20
-1710.099987464244
 30
0.0
 11
-1272.755682096787
 21
-1694.260019144244
 31
0.0
  0
LINE
  5
5EE
330
1F
100
AcDbEntity
  8
LAYER0048
  6
CONTINUOUS
 62
     3
100
AcDbLine
 10
-1221.459578636684
 20
-1645.452931553916
 30
0.0
 11
-1191.066824627012
 21
-1615.060177544244
 31
0.0
  0
LINE
  5
5EF
330
1F
100
AcDbEntity
  8
LAYER0048
  6
CONTINUOUS
 62
     3
100
AcDbLine
 10
-1238.586729587011
 20
-1662.580082504244
 30
0.0
 11
-1225.914754931012
 21
-1649.908107848245
 31
0.0
  0
LINE
  5
5F0
330
1F
100
AcDbEntity
  8
LAYER0048
  6
CONTINUOUS
 62
     3
100
AcDbLine
 10
-1286.106634547011
 20
-1710.099987464244
 30
0.0
 11
-1270.266666227011
 21
-1694.260019144244
 31
0.0
  0
LINE
  5
5F1
330
1F
100
AcDbEntity
  8
LAYER0048
  6
CONTINUOUS
 62
     3
100
AcDbLine
 10
-1221.992412859207
 20
-1648.474781646216
 30
0.0
 11
-1188.577808757235
 21
-1615.060177544244
 31
0.0
  0
LINE
  5
5F2
330
1F
100
AcDbEntity
  8
LAYER0048
  6
CONTINUOUS
 62
     3
100
AcDbLine
 10
-1236.097713717234
 20
-1662.580082504244
 30
0.0
 11
-1223.425739061235
 21
-1649.908107848245
 31
0.0
  0
LINE
  5
5F3
330
1F
100
AcDbEntity
  8
LAYER0048
  6
CONTINUOUS
 62
     3
100
AcDbLine
 10
-1283.617618677234
 20
-1710.099987464244
 30
0.0
 11
-1267.777650357234
 21
-1694.260019144244
 31
0.0
  0
LINE
  5
5F4
330
1F
100
AcDbEntity
  8
LAYER0048
  6
CONTINUOUS
 62
     3
100
AcDbLine
 10
-1233.608697847458
 20
-1662.580082504244
 30
0.0
 11
-1186.088792887458
 21
-1615.060177544244
 31
0.0
  0
LINE
  5
5F5
330
1F
100
AcDbEntity
  8
LAYER0048
  6
CONTINUOUS
 62
     3
100
AcDbLine
 10
-1281.128602807457
 20
-1710.099987464244
 30
0.0
 11
-1265.288634487458
 21
-1694.260019144244
 31
0.0
  0
LINE
  5
5F6
330
1F
100
AcDbEntity
  8
LAYER0048
  6
CONTINUOUS
 62
     3
100
AcDbLine
 10
-1231.119681977681
 20
-1662.580082504244
 30
0.0
 11
-1184.002995237701
 21
-1615.463395764265
 31
0.0
  0
LINE
  5
5F7
330
1F
100
AcDbEntity
  8
LAYER0048
  6
CONTINUOUS
 62
     3
100
AcDbLine
 10
-1278.639586937681
 20
-1710.099987464244
 30
0.0
 11
-1262.799618617681
 21
-1694.260019144244
 31
0.0
  0
LINE
  5
5F8
330
1F
100
AcDbEntity
  8
LAYER0048
  6
CONTINUOUS
 62
     3
100
AcDbLine
 10
-1228.630666107905
 20
-1662.580082504244
 30
0.0
 11
-1184.535829476897
 21
-1618.485245873237
 31
0.0
  0
LINE
  5
5F9
330
1F
100
AcDbEntity
  8
LAYER0048
  6
CONTINUOUS
 62
     3
100
AcDbLine
 10
-1276.150571067904
 20
-1710.099987464244
 30
0.0
 11
-1260.310602747904
 21
-1694.260019144244
 31
0.0
  0
LINE
  5
5FA
330
1F
100
AcDbEntity
  8
LAYER0048
  6
CONTINUOUS
 62
     3
100
AcDbLine
 10
-1226.141650238128
 20
-1662.580082504244
 30
0.0
 11
-1185.068663716092
 21
-1621.507095982209
 31
0.0
  0
LINE
  5
5FB
330
1F
100
AcDbEntity
  8
LAYER0048
  6
CONTINUOUS
 62
     3
100
AcDbLine
 10
-1273.661555198127
 20
-1710.099987464244
 30
0.0
 11
-1257.821586878128
 21
-1694.260019144244
 31
0.0
  0
LINE
  5
5FC
330
1F
100
AcDbEntity
  8
LAYER0048
  6
CONTINUOUS
 62
     3
100
AcDbLine
 10
-1224.656581678878
 20
-1663.58402981477
 30
0.0
 11
-1185.601497955287
 21
-1624.528946091181
 31
0.0
  0
LINE
  5
5FD
330
1F
100
AcDbEntity
  8
LAYER0048
  6
CONTINUOUS
 62
     3
100
AcDbLine
 10
-1271.172539328351
 20
-1710.099987464244
 30
0.0
 11
-1255.332571008351
 21
-1694.260019144244
 31
0.0
  0
LINE
  5
5FE
330
1F
100
AcDbEntity
  8
LAYER0048
  6
CONTINUOUS
 62
     3
100
AcDbLine
 10
-1225.189408999715
 20
-1666.605873005384
 30
0.0
 11
-1186.134332194482
 21
-1627.550796200152
 31
0.0
  0
LINE
  5
5FF
330
1F
100
AcDbEntity
  8
LAYER0048
  6
CONTINUOUS
 62
     3
100
AcDbLine
 10
-1268.683523458575
 20
-1710.099987464244
 30
0.0
 11
-1252.843555138574
 21
-1694.260019144244
 31
0.0
  0
LINE
  5
600
330
1F
100
AcDbEntity
  8
LAYER0048
  6
CONTINUOUS
 62
     3
100
AcDbLine
 10
-1225.722236320553
 20
-1669.627716195998
 30
0.0
 11
-1186.667166433677
 21
-1630.572646309124
 31
0.0
  0
LINE
  5
601
330
1F
100
AcDbEntity
  8
LAYER0048
  6
CONTINUOUS
 62
     3
100
AcDbLine
 10
-1266.194507588798
 20
-1710.099987464244
 30
0.0
 11
-1250.354539268798
 21
-1694.260019144244
 31
0.0
  0
LINE
  5
602
330
1F
100
AcDbEntity
  8
LAYER0048
  6
CONTINUOUS
 62
     3
100
AcDbLine
 10
-1226.25506364139
 20
-1672.649559386613
 30
0.0
 11
-1187.200000672872
 21
-1633.594496418096
 31
0.0
  0
LINE
  5
603
330
1F
100
AcDbEntity
  8
LAYER0048
  6
CONTINUOUS
 62
     3
100
AcDbLine
 10
-1263.705491719021
 20
-1710.099987464244
 30
0.0
 11
-1247.849848206687
 21
-1694.24434395191
 31
0.0
  0
LINE
  5
604
330
1F
100
AcDbEntity
  8
LAYER0048
  6
CONTINUOUS
 62
     3
100
AcDbLine
 10
-1226.787890962227
 20
-1675.671402577227
 30
0.0
 11
-1187.732834912068
 21
-1636.616346527068
 31
0.0
  0
LINE
  5
605
330
1F
100
AcDbEntity
  8
LAYER0048
  6
CONTINUOUS
 62
     3
100
AcDbLine
 10
-1261.216475849245
 20
-1710.099987464244
 30
0.0
 11
-1245.083221790481
 21
-1693.96673340548
 31
0.0
  0
LINE
  5
606
330
1F
100
AcDbEntity
  8
LAYER0048
  6
CONTINUOUS
 62
     3
100
AcDbLine
 10
-1227.592118447696
 20
-1678.964645932472
 30
0.0
 11
-1188.265669151263
 21
-1639.63819663604
 31
0.0
  0
LINE
  5
607
330
1F
100
AcDbEntity
  8
LAYER0048
  6
CONTINUOUS
 62
     3
100
AcDbLine
 10
-1258.727459979468
 20
-1710.099987464244
 30
0.0
 11
-1241.79280958301
 21
-1693.165337067785
 31
0.0
  0
LINE
  5
608
330
1F
100
AcDbEntity
  8
LAYER0048
  6
CONTINUOUS
 62
     3
100
AcDbLine
 10
-1229.697975373591
 20
-1683.559518728144
 30
0.0
 11
-1188.798503390458
 21
-1642.660046745011
 31
0.0
  0
LINE
  5
609
330
1F
100
AcDbEntity
  8
LAYER0048
  6
CONTINUOUS
 62
     3
100
AcDbLine
 10
-1256.238444109691
 20
-1710.099987464244
 30
0.0
 11
-1237.197936787337
 21
-1691.059480141889
 31
0.0
  0
LINE
  5
60A
330
1F
100
AcDbEntity
  8
LAYER0048
  6
CONTINUOUS
 62
     3
100
AcDbLine
 10
-1253.749428239915
 20
-1710.099987464244
 30
0.0
 11
-1189.331337629653
 21
-1645.681896853983
 31
0.0
  0
LINE
  5
60B
330
1F
100
AcDbEntity
  8
LAYER0048
  6
CONTINUOUS
 62
     3
100
AcDbLine
 10
-1251.260412370138
 20
-1710.099987464244
 30
0.0
 11
-1189.864171868848
 21
-1648.703746962955
 31
0.0
  0
LINE
  5
60C
330
1F
100
AcDbEntity
  8
LAYER0048
  6
CONTINUOUS
 62
     3
100
AcDbLine
 10
-1248.771396500362
 20
-1710.099987464244
 30
0.0
 11
-1190.397006108044
 21
-1651.725597071927
 31
0.0
  0
LINE
  5
60D
330
1F
100
AcDbEntity
  8
LAYER0048
  6
CONTINUOUS
 62
     3
100
AcDbLine
 10
-1246.282380630585
 20
-1710.099987464244
 30
0.0
 11
-1190.929840347238
 21
-1654.747447180898
 31
0.0
  0
LINE
  5
60E
330
1F
100
AcDbEntity
  8
LAYER0048
  6
CONTINUOUS
 62
     3
100
AcDbLine
 10
-1243.793364760809
 20
-1710.099987464244
 30
0.0
 11
-1191.462674586434
 21
-1657.76929728987
 31
0.0
  0
LINE
  5
60F
330
1F
100
AcDbEntity
  8
LAYER0048
  6
CONTINUOUS
 62
     3
100
AcDbLine
 10
-1241.304348891032
 20
-1710.099987464244
 30
0.0
 11
-1191.995508825629
 21
-1660.791147398842
 31
0.0
  0
LINE
  5
610
330
1F
100
AcDbEntity
  8
LAYER0048
  6
CONTINUOUS
 62
     3
100
AcDbLine
 10
-1238.78094768218
 20
-1710.065602125169
 30
0.0
 11
-1192.528343064824
 21
-1663.812997507814
 31
0.0
  0
LINE
  5
611
330
1F
100
AcDbEntity
  8
LAYER0048
  6
CONTINUOUS
 62
     3
100
AcDbLine
 10
-1236.115998494065
 20
-1709.88966880683
 30
0.0
 11
-1193.06117730402
 21
-1666.834847616785
 31
0.0
  0
LINE
  5
612
330
1F
100
AcDbEntity
  8
LAYER0048
  6
CONTINUOUS
 62
     3
100
AcDbLine
 10
-1233.273705982009
 20
-1709.536392164552
 30
0.0
 11
-1193.594011543214
 21
-1669.856697725757
 31
0.0
  0
LINE
  5
613
330
1F
100
AcDbEntity
  8
LAYER0048
  6
CONTINUOUS
 62
     3
100
AcDbLine
 10
-1230.203301121957
 20
-1708.955003174276
 30
0.0
 11
-1194.188986933204
 21
-1672.940688985523
 31
0.0
  0
LINE
  5
614
330
1F
100
AcDbEntity
  8
LAYER0048
  6
CONTINUOUS
 62
     3
100
AcDbLine
 10
-1226.830201621737
 20
-1708.070919543833
 30
0.0
 11
-1195.073070563648
 21
-1676.313788485743
 31
0.0
  0
LINE
  5
615
330
1F
100
AcDbEntity
  8
LAYER0048
  6
CONTINUOUS
 62
     3
100
AcDbLine
 10
-1223.005835416425
 20
-1706.735569208298
 30
0.0
 11
-1196.408420899182
 21
-1680.138154691055
 31
0.0
  0
LINE
  5
616
330
1F
100
AcDbEntity
  8
LAYER0048
  6
CONTINUOUS
 62
     3
100
AcDbLine
 10
-1218.388686432039
 20
-1704.607436093687
 30
0.0
 11
-1198.536554013793
 21
-1684.755303675442
 31
0.0
  0
LINE
  5
617
330
1F
100
AcDbEntity
  8
LAYER0048
  6
CONTINUOUS
 62
     3
100
AcDbLine
 10
-1211.354065141088
 20
-1700.061830672514
 30
0.0
 11
-1203.082159434966
 21
-1691.789924966392
 31
0.0
  0
LINE
  5
618
330
1F
100
AcDbEntity
  8
LAYER0048
  6
CONTINUOUS
 62
     3
100
AcDbLine
 10
-1113.310180704036
 20
-1668.916069832244
 30
0.0
 11
-1112.563525555236
 21
-1668.916069832244
 31
0.0
  0
LINE
  5
619
330
1F
100
AcDbEntity
  8
LAYER0048
  6
CONTINUOUS
 62
     3
100
AcDbLine
 10
-1222.245147187235
 20
-1649.908107848245
 30
0.0
 11
-1218.893527372836
 21
-1630.900145864244
 31
0.0
  0
LINE
  5
61A
330
1F
100
AcDbEntity
  8
LAYER0048
  6
CONTINUOUS
 62
     3
100
AcDbLine
 10
-1226.834352537636
 20
-1675.934901819444
 30
0.0
 11
-1224.479560396836
 21
-1662.580082504244
 31
0.0
  0
LINE
  5
61B
330
1F
100
AcDbEntity
  8
LAYER0048
  6
CONTINUOUS
 62
     3
100
AcDbLine
 10
-1183.931896915235
 20
-1668.916069832244
 30
0.0
 11
-1144.990117344035
 21
-1668.916069832244
 31
0.0
  0
LINE
  5
61C
330
1F
100
AcDbEntity
  8
LAYER0048
  6
CONTINUOUS
 62
     3
100
AcDbLine
 10
-1010.950189132836
 20
-1630.173124712244
 30
0.0
 11
-1008.285356870435
 21
-1615.060177544244
 31
0.0
  0
LINE
  5
61D
330
1F
100
AcDbEntity
  8
LAYER0048
  6
CONTINUOUS
 62
     3
100
AcDbLine
 10
-1025.043455942435
 20
-1710.099987464244
 30
0.0
 11
-1013.743205644835
 21
-1646.013093032244
 31
0.0
  0
LINE
  5
61E
330
1F
100
AcDbEntity
  8
LAYER0048
  6
CONTINUOUS
 62
     3
100
AcDbLine
 10
-1045.911900057636
 20
-1646.013093032244
 30
0.0
 11
-1057.212150355236
 21
-1710.099987464244
 31
0.0
  0
LINE
  5
61F
330
1F
100
AcDbEntity
  8
LAYER0048
  6
CONTINUOUS
 62
     3
100
AcDbLine
 10
-1040.454051283236
 20
-1615.060177544244
 30
0.0
 11
-1043.118883545635
 21
-1630.173124712244
 31
0.0
  0
LINE
  5
620
330
1F
100
AcDbEntity
  8
LAYER0048
  6
CONTINUOUS
 62
     3
100
AcDbLine
 10
-1013.743205644835
 20
-1646.013093032244
 30
0.0
 11
-962.1723404352358
 21
-1646.013093032244
 31
0.0
  0
LINE
  5
621
330
1F
100
AcDbEntity
  8
LAYER0048
  6
CONTINUOUS
 62
     3
100
AcDbLine
 10
-1061.628673094436
 20
-1646.013093032244
 30
0.0
 11
-1045.911900057636
 21
-1646.013093032244
 31
0.0
  0
LINE
  5
622
330
1F
100
AcDbEntity
  8
LAYER0048
  6
CONTINUOUS
 62
     3
100
AcDbLine
 10
-1043.118883545635
 20
-1630.173124712244
 30
0.0
 11
-1058.835656582436
 21
-1630.173124712244
 31
0.0
  0
LINE
  5
623
330
1F
100
AcDbEntity
  8
LAYER0048
  6
CONTINUOUS
 62
     3
100
AcDbLine
 10
-930.4924037952354
 20
-1630.173124712244
 30
0.0
 11
-1010.950189132836
 21
-1630.173124712244
 31
0.0
  0
LINE
  5
624
330
1F
100
AcDbEntity
  8
LAYER0048
  6
CONTINUOUS
 62
     3
100
AcDbLine
 10
-935.9631273216349
 20
-1661.199345819444
 30
0.0
 11
-930.4924037952354
 21
-1630.173124712244
 31
0.0
  0
LINE
  5
625
330
1F
100
AcDbEntity
  8
LAYER0048
  6
CONTINUOUS
 62
     3
100
AcDbLine
 10
-1006.857949209635
 20
-1692.613901633845
 30
0.0
 11
-973.401538195236
 21
-1692.613901633845
 31
0.0
  0
LINE
  5
626
330
1F
100
AcDbEntity
  8
LAYER0048
  6
CONTINUOUS
 62
     3
100
AcDbLine
 10
-1004.064932697635
 20
-1676.773933313845
 30
0.0
 11
-1006.857949209635
 21
-1692.613901633845
 31
0.0
  0
LINE
  5
627
330
1F
100
AcDbEntity
  8
LAYER0048
  6
CONTINUOUS
 62
     3
100
AcDbLine
 10
-994.178893440036
 20
-1676.773933313845
 30
0.0
 11
-1004.064932697635
 21
-1676.773933313845
 31
0.0
  0
LINE
  5
628
330
1F
100
AcDbEntity
  8
LAYER0048
  6
CONTINUOUS
 62
     3
100
AcDbLine
 10
-962.1723404352358
 20
-1646.013093032244
 30
0.0
 11
-962.9802311232357
 21
-1650.595136801845
 31
0.0
  0
LINE
  5
629
330
1F
100
AcDbEntity
  8
LAYER0048
  6
CONTINUOUS
 62
     3
100
AcDbLine
 10
-1058.835656582436
 20
-1630.173124712244
 30
0.0
 11
-1061.628673094436
 21
-1646.013093032244
 31
0.0
  0
LINE
  5
62A
330
1F
100
AcDbEntity
  8
LAYER0048
  6
CONTINUOUS
 62
     3
100
AcDbLine
 10
-1008.285356870435
 20
-1615.060177544244
 30
0.0
 11
-1040.454051283236
 21
-1615.060177544244
 31
0.0
  0
LINE
  5
62B
330
1F
100
AcDbEntity
  8
LAYER0048
  6
CONTINUOUS
 62
     3
100
AcDbLine
 10
-1057.212150355236
 20
-1710.099987464244
 30
0.0
 11
-1025.043455942435
 21
-1710.099987464244
 31
0.0
  0
LINE
  5
62C
330
1F
100
AcDbEntity
  8
LAYER0048
  6
CONTINUOUS
 62
     3
100
AcDbLine
 10
-1086.958138310435
 20
-1655.890441832245
 30
0.0
 11
-1057.212150355236
 21
-1615.060177544244
 31
0.0
  0
LINE
  5
62D
330
1F
100
AcDbEntity
  8
LAYER0048
  6
CONTINUOUS
 62
     3
100
AcDbLine
 10
-1120.572023635235
 20
-1710.099987464244
 30
0.0
 11
-1113.310180704036
 21
-1668.916069832244
 31
0.0
  0
LINE
  5
62E
330
1F
100
AcDbEntity
  8
LAYER0048
  6
CONTINUOUS
 62
     3
100
AcDbLine
 10
-1144.990117344035
 20
-1668.916069832244
 30
0.0
 11
-1152.251960275235
 21
-1710.099987464244
 31
0.0
  0
LINE
  5
62F
330
1F
100
AcDbEntity
  8
LAYER0048
  6
CONTINUOUS
 62
     3
100
AcDbLine
 10
-1102.248274252835
 20
-1615.060177544244
 30
0.0
 11
-1113.222471456035
 21
-1635.652136360244
 31
0.0
  0
LINE
  5
630
330
1F
100
AcDbEntity
  8
LAYER0048
  6
CONTINUOUS
 62
     3
100
AcDbLine
 10
-1146.145224000036
 20
-1654.660098344244
 30
0.0
 11
-1181.138880403236
 21
-1654.660098344244
 31
0.0
  0
LINE
  5
631
330
1F
100
AcDbEntity
  8
LAYER0048
  6
CONTINUOUS
 62
     3
100
AcDbLine
 10
-1120.572023635235
 20
-1710.099987464244
 30
0.0
 11
-1152.251960275235
 21
-1710.099987464244
 31
0.0
  0
LINE
  5
632
330
1F
100
AcDbEntity
  8
LAYER0048
  6
CONTINUOUS
 62
     3
100
AcDbLine
 10
-1057.212150355236
 20
-1615.060177544244
 30
0.0
 11
-1102.248274252835
 21
-1615.060177544244
 31
0.0
  0
LINE
  5
633
330
1F
100
AcDbEntity
  8
LAYER0048
  6
CONTINUOUS
 62
     3
100
AcDbLine
 10
-1181.138880403236
 20
-1654.660098344244
 30
0.0
 11
-1183.931896915235
 21
-1668.916069832244
 31
0.0
  0
LINE
  5
634
330
1F
100
AcDbEntity
  8
LAYER0048
  6
CONTINUOUS
 62
     3
100
AcDbLine
 10
-1151.346538201638
 20
-1615.060177544244
 30
0.0
 11
-1157.780293177637
 21
-1615.060177544244
 31
0.0
  0
LINE
  5
635
330
1F
100
AcDbEntity
  8
LAYER0048
  6
CONTINUOUS
 62
     3
100
AcDbLine
 10
-1154.139554713637
 20
-1630.900145864244
 30
0.0
 11
-1151.346538201638
 21
-1615.060177544244
 31
0.0
  0
LINE
  5
636
330
1F
100
AcDbEntity
  8
LAYER0048
  6
CONTINUOUS
 62
     3
100
AcDbLine
 10
-1160.573309689636
 20
-1630.900145864244
 30
0.0
 11
-1154.139554713637
 21
-1630.900145864244
 31
0.0
  0
LINE
  5
637
330
1F
100
AcDbEntity
  8
LAYER0048
  6
CONTINUOUS
 62
     3
100
AcDbLine
 10
-1157.780293177637
 20
-1615.060177544244
 30
0.0
 11
-1160.573309689636
 21
-1630.900145864244
 31
0.0
  0
LINE
  5
638
330
1F
100
AcDbEntity
  8
LAYER0048
  6
CONTINUOUS
 62
     3
100
AcDbLine
 10
-1167.670800934436
 20
-1615.060177544244
 30
0.0
 11
-1174.104555910437
 21
-1615.060177544244
 31
0.0
  0
LINE
  5
639
330
1F
100
AcDbEntity
  8
LAYER0048
  6
CONTINUOUS
 62
     3
100
AcDbLine
 10
-1170.463817446436
 20
-1630.900145864244
 30
0.0
 11
-1167.670800934436
 21
-1615.060177544244
 31
0.0
  0
LINE
  5
63A
330
1F
100
AcDbEntity
  8
LAYER0048
  6
CONTINUOUS
 62
     3
100
AcDbLine
 10
-1176.897572422436
 20
-1630.900145864244
 30
0.0
 11
-1170.463817446436
 21
-1630.900145864244
 31
0.0
  0
LINE
  5
63B
330
1F
100
AcDbEntity
  8
LAYER0048
  6
CONTINUOUS
 62
     3
100
AcDbLine
 10
-1174.104555910437
 20
-1615.060177544244
 30
0.0
 11
-1176.897572422436
 21
-1630.900145864244
 31
0.0
  0
LINE
  5
63C
330
1F
100
AcDbEntity
  8
LAYER0048
  6
CONTINUOUS
 62
     3
100
AcDbLine
 10
-1269.467725843235
 20
-1616.462881774644
 30
0.0
 11
-1269.467725843235
 21
-1615.060177544244
 31
0.0
  0
LINE
  5
63D
330
1F
100
AcDbEntity
  8
LAYER0048
  6
CONTINUOUS
 62
     3
100
AcDbLine
 10
-1250.820739718435
 20
-1662.580082504244
 30
0.0
 11
-1224.479560396836
 21
-1662.580082504244
 31
0.0
  0
LINE
  5
63E
330
1F
100
AcDbEntity
  8
LAYER0048
  6
CONTINUOUS
 62
     3
100
AcDbLine
 10
-1248.586326508836
 20
-1649.908107848245
 30
0.0
 11
-1250.820739718435
 21
-1662.580082504244
 31
0.0
  0
LINE
  5
63F
330
1F
100
AcDbEntity
  8
LAYER0048
  6
CONTINUOUS
 62
     3
100
AcDbLine
 10
-1222.245147187235
 20
-1649.908107848245
 30
0.0
 11
-1248.586326508836
 21
-1649.908107848245
 31
0.0
  0
LINE
  5
640
330
1F
100
AcDbEntity
  8
LAYER0048
  6
CONTINUOUS
 62
     3
100
AcDbLine
 10
-1218.893527372836
 20
-1630.900145864244
 30
0.0
 11
-1245.496707897636
 21
-1630.900145864244
 31
0.0
  0
LINE
  5
641
330
1F
100
AcDbEntity
  8
LAYER0048
  6
CONTINUOUS
 62
     3
100
AcDbLine
 10
-1183.931896915235
 20
-1615.060177544244
 30
0.0
 11
-1193.765954361636
 21
-1670.831832929844
 31
0.0
  0
LINE
  5
642
330
1F
100
AcDbEntity
  8
LAYER0048
  6
CONTINUOUS
 62
     3
100
AcDbLine
 10
-1269.467725843235
 20
-1615.060177544244
 30
0.0
 11
-1183.931896915235
 21
-1615.060177544244
 31
0.0
  0
ARC
  5
643
330
1F
100
AcDbEntity
  8
LAYER0048
  6
CONTINUOUS
 62
     3
100
AcDbCircle
 10
-973.401538195236
 20
-1654.597977665844
 30
0.0
 40
38.01592396800036
100
AcDbArc
 50
270.0000000000006
 51
350.0000501652083
  0
ARC
  5
644
330
1F
100
AcDbEntity
  8
LAYER0048
  6
CONTINUOUS
 62
     3
100
AcDbCircle
 10
-994.178893440036
 20
-1645.093996673844
 30
0.0
 40
31.67993664000041
100
AcDbArc
 50
270.0000000000006
 51
350.0000459533484
  0
ARC
  5
645
330
1F
100
AcDbEntity
  8
LAYER0048
  6
CONTINUOUS
 62
     3
100
AcDbCircle
 10
-1112.563525555236
 20
-1637.236133192244
 30
0.0
 40
31.67993664000032
100
AcDbArc
 50
270.0000000000006
 51
323.9255158738096
  0
ARC
  5
646
330
1F
100
AcDbEntity
  8
LAYER0048
  6
CONTINUOUS
 62
     3
100
AcDbCircle
 10
-1146.145224000036
 20
-1616.644174376244
 30
0.0
 40
38.01592396800005
100
AcDbArc
 50
270.0000000000006
 51
329.9999974675138
  0
ARC
  5
647
330
1F
100
AcDbEntity
  8
LAYER0048
  6
CONTINUOUS
 62
     3
100
AcDbCircle
 10
-1278.971706835236
 20
-1621.214872270644
 30
0.0
 40
34.84793030400002
100
AcDbArc
 50
270.0000000000006
 51
343.8633330758265
  0
ARC
  5
648
330
1F
100
AcDbEntity
  8
LAYER0048
  6
CONTINUOUS
 62
     3
100
AcDbCircle
 10
-1240.563907603236
 20
-1662.580082504244
 30
0.0
 40
47.51990496000001
100
AcDbArc
 50
270.0000000000006
 51
349.9999897560574
  0
ARC
  5
649
330
1F
100
AcDbEntity
  8
LAYER0048
  6
CONTINUOUS
 62
     3
100
AcDbCircle
 10
-1248.673392019236
 20
-1672.084063496245
 30
0.0
 40
22.17595564799892
100
AcDbArc
 50
270.0000000000006
 51
349.9999327509129
  0
LINE
  5
64A
330
1F
100
AcDbEntity
  8
LAYER0048
  6
CONTINUOUS
 62
     3
100
AcDbLine
 10
-1299.27287814138
 20
-1656.062802574644
 30
0.0
 11
-1288.880623769104
 21
-1645.670548202368
 31
0.0
  0
LINE
  5
64B
330
1F
100
AcDbEntity
  8
LAYER0048
  6
CONTINUOUS
 62
     3
100
AcDbLine
 10
-1296.783862271604
 20
-1656.062802574644
 30
0.0
 11
-1283.477910732592
 21
-1642.756851035631
 31
0.0
  0
LINE
  5
64C
330
1F
100
AcDbEntity
  8
LAYER0048
  6
CONTINUOUS
 62
     3
100
AcDbLine
 10
-1294.294846401827
 20
-1656.062802574644
 30
0.0
 11
-1253.292221371426
 21
-1615.060177544244
 31
0.0
  0
LINE
  5
64D
330
1F
100
AcDbEntity
  8
LAYER0048
  6
CONTINUOUS
 62
     3
100
AcDbLine
 10
-1291.805830532051
 20
-1656.062802574644
 30
0.0
 11
-1250.803205501649
 21
-1615.060177544244
 31
0.0
  0
LINE
  5
64E
330
1F
100
AcDbEntity
  8
LAYER0048
  6
CONTINUOUS
 62
     3
100
AcDbLine
 10
-1306.018761505223
 20
-1710.099987464244
 30
0.0
 11
-1290.178793185223
 21
-1694.260019144244
 31
0.0
  0
LINE
  5
64F
330
1F
100
AcDbEntity
  8
LAYER0048
  6
CONTINUOUS
 62
     3
100
AcDbLine
 10
-1303.529745635446
 20
-1710.099987464244
 30
0.0
 11
-1287.689777315446
 21
-1694.260019144244
 31
0.0
  0
LINE
  5
650
330
1F
100
AcDbEntity
  8
LAYER0048
  6
CONTINUOUS
 62
     3
100
AcDbLine
 10
-1301.04072976567
 20
-1710.099987464244
 30
0.0
 11
-1285.20076144567
 21
-1694.260019144244
 31
0.0
  0
LINE
  5
651
330
1F
100
AcDbEntity
  8
LAYER0048
  6
CONTINUOUS
 62
     3
100
AcDbLine
 10
-1298.551713895893
 20
-1710.099987464244
 30
0.0
 11
-1282.711745575894
 21
-1694.260019144244
 31
0.0
  0
LINE
  5
652
330
1F
100
AcDbEntity
  8
LAYER0048
  6
CONTINUOUS
 62
     3
100
AcDbLine
 10
-1296.062698026117
 20
-1710.099987464244
 30
0.0
 11
-1280.222729706117
 21
-1694.260019144244
 31
0.0
  0
LINE
  5
653
330
1F
100
AcDbEntity
  8
LAYER0048
  6
CONTINUOUS
 62
     3
100
AcDbLine
 10
-1293.573682156341
 20
-1710.099987464244
 30
0.0
 11
-1277.73371383634
 21
-1694.260019144244
 31
0.0
  0
LINE
  5
654
330
1F
100
AcDbEntity
  8
LAYER0048
  6
CONTINUOUS
 62
     3
100
AcDbLine
 10
-1301.123441856035
 20
-1656.062802574644
 30
0.0
 11
-1278.971706835236
 21
-1656.062802574644
 31
0.0
  0
LINE
  5
655
330
1F
100
AcDbEntity
  8
LAYER0048
  6
CONTINUOUS
 62
     3
100
AcDbLine
 10
-1307.858626963235
 20
-1694.260019144244
 30
0.0
 11
-1248.673392019236
 21
-1694.260019144244
 31
0.0
  0
LINE
  5
656
330
1F
100
AcDbEntity
  8
LAYER0048
  6
CONTINUOUS
 62
     3
100
AcDbLine
 10
-1240.563907603236
 20
-1710.099987464244
 30
0.0
 11
-1310.651643475236
 21
-1710.099987464244
 31
0.0
  0
ARC
  5
657
330
1F
100
AcDbEntity
  8
LAYER0048
  6
CONTINUOUS
 62
     3
100
AcDbCircle
 10
-1301.147662483235
 20
-1616.462881774644
 30
0.0
 40
31.67996396102462
100
AcDbArc
 50
272.5678887518231
 51
0.0
  0
LINE
  5
658
330
1F
100
AcDbEntity
  8
LAYER0048
  6
CONTINUOUS
 62
     3
100
AcDbLine
 10
2169.144981412639
 20
937.4814126394042
 30
0.0
 11
2115.068966711384
 21
937.4814126394042
 31
0.0
  0
LINE
  5
659
330
1F
100
AcDbEntity
  8
LAYER0048
  6
CONTINUOUS
 62
     3
100
AcDbLine
 10
2323.220996113893
 20
937.4814126394031
 30
0.0
 11
2269.144981412638
 21
937.4814126394031
 31
0.0
  0
ARC
  5
65A
330
1F
100
AcDbEntity
  8
LAYER0048
  6
CONTINUOUS
 62
     3
100
AcDbCircle
 10
2009.323344973902
 20
410.844713872459
 30
0.0
 40
162.0931984771423
100
AcDbArc
 50
199.5918135915186
 51
340.4081864084813
  0
ARC
  5
65B
330
1F
100
AcDbEntity
  8
LAYER0048
  6
CONTINUOUS
 62
     3
100
AcDbCircle
 10
1981.166981393494
 20
403.5864356929949
 30
0.0
 40
133.1585623424536
100
AcDbArc
 50
200.7120147048748
 51
352.3168201140359
  0
ARC
  5
65C
330
1F
100
AcDbEntity
  8
LAYER0048
  6
CONTINUOUS
 62
     3
100
AcDbCircle
 10
592.4281767736237
 20
946.2370229936139
 30
0.0
 40
1676.739664847093
100
AcDbArc
 50
339.407371627919
 51
359.7008111570827
  0
ARC
  5
65D
330
1F
100
AcDbEntity
  8
LAYER0048
  6
CONTINUOUS
 62
     3
100
AcDbCircle
 10
-789.3734497555425
 20
959.172725217606
 30
0.0
 40
2958.597948455181
100
AcDbArc
 50
348.8251183204972
 51
359.5799254177487
  0
LINE
  5
65E
330
1F
100
AcDbEntity
  8
LAYER0048
  6
CONTINUOUS
 62
     3
100
AcDbLine
 10
2115.068966711384
 20
937.4814126394042
 30
0.0
 11
2219.144981412639
 21
1037.481412639405
 31
0.0
  0
LINE
  5
65F
330
1F
100
AcDbEntity
  8
LAYER0048
  6
CONTINUOUS
 62
     3
100
AcDbLine
 10
2219.144981412639
 20
1037.481412639405
 30
0.0
 11
2323.220996113893
 21
937.4814126394031
 31
0.0
  0
LINE
  5
660
330
1F
100
AcDbEntity
  8
LAYER0048
  6
CONTINUOUS
 62
     2
100
AcDbLine
 10
-1662.089909083481
 20
1904.800609437159
 30
0.0
 11
-1662.089909083481
 21
1616.801185437159
 31
0.0
  0
LINE
  5
661
330
1F
100
AcDbEntity
  8
LAYER0048
  6
CONTINUOUS
 62
     2
100
AcDbLine
 10
1659.034338436521
 20
1904.800609437159
 30
0.0
 11
-1662.089909083481
 21
1904.800609437159
 31
0.0
  0
LINE
  5
662
330
1F
100
AcDbEntity
  8
LAYER0048
  6
CONTINUOUS
 62
     2
100
AcDbLine
 10
1659.034338436521
 20
1616.801185437159
 30
0.0
 11
1659.034338436521
 21
1904.800609437159
 31
0.0
  0
LINE
  5
663
330
1F
100
AcDbEntity
  8
LAYER0048
  6
CONTINUOUS
 62
     2
100
AcDbLine
 10
-1662.089909083481
 20
1616.801185437159
 30
0.0
 11
1659.034338436521
 21
1616.801185437159
 31
0.0
  0
CIRCLE
  5
664
330
1F
100
AcDbEntity
  8
LAYER0032
  6
CONTINUOUS
 62
     3
100
AcDbCircle
 10
1957.105840468344
 20
-344.7699561895396
 30
0.0
 40
7.000000000000001
  0
LINE
  5
665
330
1F
100
AcDbEntity
  8
LAYER0032
  6
CONTINUOUS
 62
     3
100
AcDbLine
 10
1977.105840468344
 20
-314.7699561895396
 30
0.0
 11
1937.105840468344
 21
-314.7699561895396
 31
0.0
  0
LINE
  5
666
330
1F
100
AcDbEntity
  8
LAYER0032
  6
CONTINUOUS
 62
     3
100
AcDbLine
 10
1937.105840468344
 20
-374.7699561895396
 30
0.0
 11
1977.105840468344
 21
-374.7699561895396
 31
0.0
  0
LINE
  5
667
330
1F
100
AcDbEntity
  8
LAYER0032
  6
CONTINUOUS
 62
     3
100
AcDbLine
 10
1977.105840468344
 20
-374.7699561895396
 30
0.0
 11
1977.105840468344
 21
-314.7699561895396
 31
0.0
  0
LINE
  5
668
330
1F
100
AcDbEntity
  8
LAYER0032
  6
CONTINUOUS
 62
     3
100
AcDbLine
 10
1937.105840468344
 20
-314.7699561895396
 30
0.0
 11
1937.105840468344
 21
-374.7699561895396
 31
0.0
  0
CIRCLE
  5
669
330
1F
100
AcDbEntity
  8
LAYER0032
  6
CONTINUOUS
 62
     3
100
AcDbCircle
 10
1957.105840468344
 20
364.2300438104594
 30
0.0
 40
7.000000000000001
  0
LINE
  5
66A
330
1F
100
AcDbEntity
  8
LAYER0032
  6
CONTINUOUS
 62
     3
100
AcDbLine
 10
1977.105840468344
 20
394.2300438104594
 30
0.0
 11
1937.105840468344
 21
394.2300438104594
 31
0.0
  0
LINE
  5
66B
330
1F
100
AcDbEntity
  8
LAYER0032
  6
CONTINUOUS
 62
     3
100
AcDbLine
 10
1977.105840468344
 20
334.2300438104594
 30
0.0
 11
1977.105840468344
 21
394.2300438104594
 31
0.0
  0
LINE
  5
66C
330
1F
100
AcDbEntity
  8
LAYER0032
  6
CONTINUOUS
 62
     3
100
AcDbLine
 10
1937.105840468344
 20
394.2300438104594
 30
0.0
 11
1937.105840468344
 21
334.2300438104594
 31
0.0
  0
LINE
  5
66D
330
1F
100
AcDbEntity
  8
LAYER0032
  6
CONTINUOUS
 62
     3
100
AcDbLine
 10
1937.105840468344
 20
334.2300438104594
 30
0.0
 11
1977.105840468344
 21
334.2300438104594
 31
0.0
  0
CIRCLE
  5
66E
330
1F
100
AcDbEntity
  8
LAYER0032
  6
CONTINUOUS
 62
     3
100
AcDbCircle
 10
377.105840468344
 20
364.2300438104594
 30
0.0
 40
7.000000000000001
  0
LINE
  5
66F
330
1F
100
AcDbEntity
  8
LAYER0032
  6
CONTINUOUS
 62
     3
100
AcDbLine
 10
357.105840468344
 20
394.2300438104594
 30
0.0
 11
397.105840468344
 21
394.2300438104594
 31
0.0
  0
LINE
  5
670
330
1F
100
AcDbEntity
  8
LAYER0032
  6
CONTINUOUS
 62
     3
100
AcDbLine
 10
357.105840468344
 20
334.2300438104594
 30
0.0
 11
357.105840468344
 21
394.2300438104594
 31
0.0
  0
LINE
  5
671
330
1F
100
AcDbEntity
  8
LAYER0032
  6
CONTINUOUS
 62
     3
100
AcDbLine
 10
397.105840468344
 20
394.2300438104594
 30
0.0
 11
397.105840468344
 21
334.2300438104594
 31
0.0
  0
LINE
  5
672
330
1F
100
AcDbEntity
  8
LAYER0032
  6
CONTINUOUS
 62
     3
100
AcDbLine
 10
397.105840468344
 20
334.2300438104594
 30
0.0
 11
357.105840468344
 21
334.2300438104594
 31
0.0
  0
CIRCLE
  5
673
330
1F
100
AcDbEntity
  8
LAYER0032
  6
CONTINUOUS
 62
     3
100
AcDbCircle
 10
377.105840468344
 20
-344.7699561895396
 30
0.0
 40
7.000000000000001
  0
LINE
  5
674
330
1F
100
AcDbEntity
  8
LAYER0032
  6
CONTINUOUS
 62
     3
100
AcDbLine
 10
357.105840468344
 20
-314.7699561895396
 30
0.0
 11
397.105840468344
 21
-314.7699561895396
 31
0.0
  0
LINE
  5
675
330
1F
100
AcDbEntity
  8
LAYER0032
  6
CONTINUOUS
 62
     3
100
AcDbLine
 10
397.105840468344
 20
-374.7699561895396
 30
0.0
 11
357.105840468344
 21
-374.7699561895396
 31
0.0
  0
LINE
  5
676
330
1F
100
AcDbEntity
  8
LAYER0032
  6
CONTINUOUS
 62
     3
100
AcDbLine
 10
397.105840468344
 20
-314.7699561895396
 30
0.0
 11
397.105840468344
 21
-374.7699561895396
 31
0.0
  0
LINE
  5
677
330
1F
100
AcDbEntity
  8
LAYER0032
  6
CONTINUOUS
 62
     3
100
AcDbLine
 10
357.105840468344
 20
-374.7699561895396
 30
0.0
 11
357.105840468344
 21
-314.7699561895396
 31
0.0
  0
LINE
  5
678
330
1F
100
AcDbEntity
  8
LAYER0032
  6
CONTINUOUS
 62
     3
100
AcDbLine
 10
2070.811376959476
 20
1251.099782378661
 30
0.0
 11
2155.964195312318
 21
1377.967812118437
 31
0.0
  0
VIEWPORT
  5
B3
330
1B
100
AcDbEntity
 67
     1
  8
0
100
AcDbViewport
 68
     1
 10
0.0
 20
1.999999999999545
 30
0.0
 40
15420.0
 41
11904.0
 68
     1
 69
     1
1001
ACAD
1000
MVIEW
1002
{
1070
    16
1010
0.0
1020
0.0
1030
0.0
1010
0.0
1020
0.0
1030
1.0
1040
0.0
1040
11904.0
1040
0.0
1040
1.999999999999545
1040
50.0
1040
0.0
1040
0.0
1070
     0
1070
   100
1070
     0
1070
     3
1070
     0
1070
     0
1070
     0
1070
     0
1040
0.0
1040
0.0
1040
0.0
1040
0.5
1040
0.5
1040
0.0
1040
0.0
1070
     0
1002
{
1002
}
1002
}
  0
ENDSEC
  0
SECTION
  2
OBJECTS
  0
DICTIONARY
  5
C
330
0
100
AcDbDictionary
  3
ACAD_GROUP
350
D
  3
ACAD_LAYOUT
350
1A
  3
ACAD_MATERIAL
350
43
  3
ACAD_MLEADERSTYLE
350
6B
  3
ACAD_MLINESTYLE
350
17
  3
ACAD_PLOTSETTINGS
350
19
  3
ACAD_SCALELIST
350
47
  3
ACAD_VISUALSTYLE
350
2A
  3
ACDBVARIABLEDICTIONARY
350
679
1001
ACAD
1000
TREAT_AS_HARD
1070
     0
  0
DICTIONARY
  5
D
102
{ACAD_REACTORS
330
C
102
}
330
C
100
AcDbDictionary
1001
ACAD
1000
TREAT_AS_HARD
1070
     0
  0
DICTIONARY
  5
1A
102
{ACAD_REACTORS
330
C
102
}
330
C
100
AcDbDictionary
1001
ACAD
1000
TREAT_AS_HARD
1070
     0
  0
DICTIONARY
  5
43
102
{ACAD_REACTORS
330
C
102
}
330
C
100
AcDbDictionary
  3
BYBLOCK
350
45
  3
BYLAYER
350
44
  3
GLOBAL
350
46
1001
ACAD
1000
TREAT_AS_HARD
1070
     0
  0
DICTIONARY
  5
6B
102
{ACAD_REACTORS
330
C
102
}
330
C
100
AcDbDictionary
  3
STANDARD
350
6C
1001
ACAD
1000
TREAT_AS_HARD
1070
     0
  0
DICTIONARY
  5
17
102
{ACAD_REACTORS
330
C
102
}
330
C
100
AcDbDictionary
  3
STANDARD
350
18
1001
ACAD
1000
TREAT_AS_HARD
1070
     0
  0
DICTIONARY
  5
19
102
{ACAD_REACTORS
330
C
102
}
330
C
100
AcDbDictionary
1001
ACAD
1000
TREAT_AS_HARD
1070
     0
  0
DICTIONARY
  5
47
102
{ACAD_REACTORS
330
C
102
}
330
C
100
AcDbDictionary
  3
A0
350
48
  3
A1
350
49
  3
A2
350
4A
  3
A3
350
4B
  3
A4
350
4C
  3
A5
350
4D
  3
A6
350
4E
  3
A7
350
4F
  3
A8
350
50
  3
A9
350
51
  3
B0
350
52
  3
B1
350
53
  3
B2
350
54
  3
B3
350
55
  3
B4
350
56
  3
B5
350
57
  3
B6
350
58
  3
B7
350
59
  3
B8
350
5A
  3
B9
350
5B
  3
C0
350
5C
  3
C1
350
5D
  3
C2
350
5E
  3
C3
350
5F
  3
C4
350
60
  3
C5
350
61
  3
C6
350
62
  3
C7
350
63
  3
C8
350
64
  3
C9
350
65
  3
D0
350
66
  3
D1
350
67
  3
D2
350
68
1001
ACAD
1000
TREAT_AS_HARD
1070
     0
  0
DICTIONARY
  5
2A
102
{ACAD_REACTORS
330
C
102
}
330
C
100
AcDbDictionary
  3
2DWIREFRAME
350
2F
  3
BASIC
350
32
  3
BRIGHTEN
350
36
  3
COLORCHANGE
350
3A
  3
CONCEPTUAL
350
34
  3
DIM
350
35
  3
EDGECOLOROFF
350
3D
  3
FACEPATTERN
350
39
  3
FLAT
350
2B
  3
FLATWITHEDGES
350
2C
  3
GOURAUD
350
2D
  3
GOURAUDWITHEDGES
350
2E
  3
HIDDEN
350
31
  3
JITTEROFF
350
3B
  3
LINEPATTERN
350
38
  3
OVERHANGOFF
350
3C
  3
REALISTIC
350
33
  3
SHADED
350
42
  3
SHADED_WITH_EDGES
350
41
  3
SHADES_OF_GRAY
350
3E
  3
SKETCHY
350
3F
  3
THICKEN
350
37
  3
WIREFRAME
350
30
  3
X-RAY
350
40
1001
ACAD
1000
TREAT_AS_HARD
1070
     0
  0
DICTIONARY
  5
679
102
{ACAD_REACTORS
330
C
102
}
330
C
100
AcDbDictionary
  3
CANNOSCALE
350
680
  3
CMLEADERSTYLE
350
67B
  3
CTABLESTYLE
350
67A
  3
DIMASSOC
350
67E
  3
HIDETEXT
350
67F
  3
MSLTSCALE
350
681
1001
ACAD
1000
TREAT_AS_HARD
1070
     0
  0
MATERIAL
  5
45
102
{ACAD_REACTORS
330
43
102
}
102
{ACAD_XDICTIONARY
360
684
102
}
330
43
100
AcDbMaterial
  1
BYBLOCK
  0
MATERIAL
  5
44
102
{ACAD_REACTORS
330
43
102
}
102
{ACAD_XDICTIONARY
360
682
102
}
330
43
100
AcDbMaterial
  1
BYLAYER
  0
MATERIAL
  5
46
102
{ACAD_REACTORS
330
43
102
}
102
{ACAD_XDICTIONARY
360
686
102
}
330
43
100
AcDbMaterial
  1
GLOBAL
  0
ACAD_PROXY_OBJECT
  5
6C
102
{ACAD_REACTORS
330
6B
102
}
330
6B
100
AcDbZombieObject
 90
      499
 91
      505
 93
      610
310
40901902A4063FBFFFFFE056BD1B81E855B9FC0AD7A3703D0AD73F4214DD185B99185C9900AD7A3703D0AC73F90141901A02B5E8DC0F42B1CFC02B5E8DC0F42B1CFE5764000000000000300FC0
340
14
340
0
340
11
340
0
 94
        0
1001
ACAD_MLEADERVER
1070
     2
  0
MLINESTYLE
  5
18
102
{ACAD_REACTORS
330
17
102
}
330
17
100
AcDbMlineStyle
  2
Standard
 70
     0
  3

 62
   256
 51
90.0
 52
90.0
 71
     2
 49
0.5
 62
   256
  6
BYLAYER
 49
-0.5
 62
   256
  6
BYLAYER
  0
ACAD_PROXY_OBJECT
  5
48
102
{ACAD_REACTORS
330
47
102
}
330
47
100
AcDbZombieObject
 90
      499
 91
      503
 93
       41
310
903313A31580
  0
ACAD_PROXY_OBJECT
  5
49
102
{ACAD_REACTORS
330
47
102
}
330
47
100
AcDbZombieObject
 90
      499
 91
      503
 93
      105
310
903313A324000000000000004000
  0
ACAD_PROXY_OBJECT
  5
4A
102
{ACAD_REACTORS
330
47
102
}
330
47
100
AcDbZombieObject
 90
      499
 91
      503
 93
      105
310
903313A344000000000000104000
  0
ACAD_PROXY_OBJECT
  5
4B
102
{ACAD_REACTORS
330
47
102
}
330
47
100
AcDbZombieObject
 90
      499
 91
      503
 93
      105
310
903313A354000000000000144000
  0
ACAD_PROXY_OBJECT
  5
4C
102
{ACAD_REACTORS
330
47
102
}
330
47
100
AcDbZombieObject
 90
      499
 91
      503
 93
      105
310
903313A384000000000000204000
  0
ACAD_PROXY_OBJECT
  5
4D
102
{ACAD_REACTORS
330
47
102
}
330
47
100
AcDbZombieObject
 90
      499
 91
      503
 93
      113
310
904313A31304000000000000244000
  0
ACAD_PROXY_OBJECT
  5
4E
102
{ACAD_REACTORS
330
47
102
}
330
47
100
AcDbZombieObject
 90
      499
 91
      503
 93
      113
310
904313A31364000000000000304000
  0
ACAD_PROXY_OBJECT
  5
4F
102
{ACAD_REACTORS
330
47
102
}
330
47
100
AcDbZombieObject
 90
      499
 91
      503
 93
      113
310
904313A32304000000000000344000
  0
ACAD_PROXY_OBJECT
  5
50
102
{ACAD_REACTORS
330
47
102
}
330
47
100
AcDbZombieObject
 90
      499
 91
      503
 93
      113
310
904313A333040000000000003E4000
  0
ACAD_PROXY_OBJECT
  5
51
102
{ACAD_REACTORS
330
47
102
}
330
47
100
AcDbZombieObject
 90
      499
 91
      503
 93
      113
310
904313A34304000000000000444000
  0
ACAD_PROXY_OBJECT
  5
52
102
{ACAD_REACTORS
330
47
102
}
330
47
100
AcDbZombieObject
 90
      499
 91
      503
 93
      113
310
904313A35304000000000000494000
  0
ACAD_PROXY_OBJECT
  5
53
102
{ACAD_REACTORS
330
47
102
}
330
47
100
AcDbZombieObject
 90
      499
 91
      503
 93
      121
310
905313A3130304000000000000594000
  0
ACAD_PROXY_OBJECT
  5
54
102
{ACAD_REACTORS
330
47
102
}
330
47
100
AcDbZombieObject
 90
      499
 91
      503
 93
      105
310
903323A310000000000000010100
  0
ACAD_PROXY_OBJECT
  5
55
102
{ACAD_REACTORS
330
47
102
}
330
47
100
AcDbZombieObject
 90
      499
 91
      503
 93
      105
310
903343A310000000000000410100
  0
ACAD_PROXY_OBJECT
  5
56
102
{ACAD_REACTORS
330
47
102
}
330
47
100
AcDbZombieObject
 90
      499
 91
      503
 93
      105
310
903383A310000000000000810100
  0
ACAD_PROXY_OBJECT
  5
57
102
{ACAD_REACTORS
330
47
102
}
330
47
100
AcDbZombieObject
 90
      499
 91
      503
 93
      113
310
90431303A310000000000000910100
  0
ACAD_PROXY_OBJECT
  5
58
102
{ACAD_REACTORS
330
47
102
}
330
47
100
AcDbZombieObject
 90
      499
 91
      503
 93
      121
310
9053130303A310000000000001650100
  0
ACAD_PROXY_OBJECT
  5
59
102
{ACAD_REACTORS
330
47
102
}
330
47
100
AcDbZombieObject
 90
      499
 91
      503
 93
      257
310
90E312F31323822203D2031272D3022000000000000200FC000000000000284000
  0
ACAD_PROXY_OBJECT
  5
5A
102
{ACAD_REACTORS
330
47
102
}
330
47
100
AcDbZombieObject
 90
      499
 91
      503
 93
      249
310
90D312F363422203D2031272D3022000000000000240FC000000000000284000
  0
ACAD_PROXY_OBJECT
  5
5B
102
{ACAD_REACTORS
330
47
102
}
330
47
100
AcDbZombieObject
 90
      499
 91
      503
 93
      249
310
90D312F333222203D2031272D3022000000000000280FC000000000000284000
  0
ACAD_PROXY_OBJECT
  5
5C
102
{ACAD_REACTORS
330
47
102
}
330
47
100
AcDbZombieObject
 90
      499
 91
      503
 93
      249
310
90D312F313622203D2031272D30220000000000002C0FC000000000000284000
  0
ACAD_PROXY_OBJECT
  5
5D
102
{ACAD_REACTORS
330
47
102
}
330
47
100
AcDbZombieObject
 90
      499
 91
      503
 93
      249
310
90D332F333222203D2031272D30220000000000002E0FC000000000000284000
  0
ACAD_PROXY_OBJECT
  5
5E
102
{ACAD_REACTORS
330
47
102
}
330
47
100
AcDbZombieObject
 90
      499
 91
      503
 93
      241
310
90C312F3822203D2031272D3022000000000000300FC000000000000284000
  0
ACAD_PROXY_OBJECT
  5
5F
102
{ACAD_REACTORS
330
47
102
}
330
47
100
AcDbZombieObject
 90
      499
 91
      503
 93
      249
310
90D332F313622203D2031272D3022000000000000320FC000000000000284000
  0
ACAD_PROXY_OBJECT
  5
60
102
{ACAD_REACTORS
330
47
102
}
330
47
100
AcDbZombieObject
 90
      499
 91
      503
 93
      241
310
90C312F3422203D2031272D3022000000000000340FC000000000000284000
  0
ACAD_PROXY_OBJECT
  5
61
102
{ACAD_REACTORS
330
47
102
}
330
47
100
AcDbZombieObject
 90
      499
 91
      503
 93
      241
310
90C332F3822203D2031272D3022000000000000360FC000000000000284000
  0
ACAD_PROXY_OBJECT
  5
62
102
{ACAD_REACTORS
330
47
102
}
330
47
100
AcDbZombieObject
 90
      499
 91
      503
 93
      241
310
90C312F3222203D2031272D3022000000000000380FC000000000000284000
  0
ACAD_PROXY_OBJECT
  5
63
102
{ACAD_REACTORS
330
47
102
}
330
47
100
AcDbZombieObject
 90
      499
 91
      503
 93
      241
310
90C332F3422203D2031272D30220000000000003A0FC000000000000284000
  0
ACAD_PROXY_OBJECT
  5
64
102
{ACAD_REACTORS
330
47
102
}
330
47
100
AcDbZombieObject
 90
      499
 91
      503
 93
      161
310
90A3122203D2031272D30224000000000000284000
  0
ACAD_PROXY_OBJECT
  5
65
102
{ACAD_REACTORS
330
47
102
}
330
47
100
AcDbZombieObject
 90
      499
 91
      503
 93
      257
310
90E312D312F3222203D2031272D30220000000000003E0FC000000000000284000
  0
ACAD_PROXY_OBJECT
  5
66
102
{ACAD_REACTORS
330
47
102
}
330
47
100
AcDbZombieObject
 90
      499
 91
      503
 93
      225
310
90A3322203D2031272D302200000000000002100000000000000284000
  0
ACAD_PROXY_OBJECT
  5
67
102
{ACAD_REACTORS
330
47
102
}
330
47
100
AcDbZombieObject
 90
      499
 91
      503
 93
      225
310
90A3622203D2031272D302200000000000006100000000000000284000
  0
ACAD_PROXY_OBJECT
  5
68
102
{ACAD_REACTORS
330
47
102
}
330
47
100
AcDbZombieObject
 90
      499
 91
      503
 93
      249
310
90D31272D3022203D2031272D30220000000000000A100000000000000284000
  0
ACAD_PROXY_OBJECT
  5
2F
102
{ACAD_REACTORS
330
2A
102
}
330
2A
100
AcDbZombieObject
 90
      499
 91
      501
 93
      436
310
42CC9915DA5C99599C985B595049028333333333333E33F0000000000000F90107901411070040501600405405064090741402480A0340
1001
ACAD
1000
AcDbSavedByObjectVersion
1070
     0
  0
ACAD_PROXY_OBJECT
  5
32
102
{ACAD_REACTORS
330
2A
102
}
330
2A
100
AcDbZombieObject
 90
      499
 91
      501
 93
      388
310
4150985CDA58D07406404333333333333E33F0000000000000F90107A41107004050150841D405064090741402480A0350
1001
ACAD
1000
AcDbSavedByObjectVersion
1070
     0
  0
ACAD_PROXY_OBJECT
  5
36
102
{ACAD_REACTORS
330
2A
102
}
330
2A
100
AcDbZombieObject
 90
      499
 91
      501
 93
      428
310
42109C9A59DA1D195B90C409028333333333333E33F0000000000000F9010790141107004050150841D405064090741402480A029950
1001
ACAD
1000
AcDbSavedByObjectVersion
1070
     0
  0
ACAD_PROXY_OBJECT
  5
3A
102
{ACAD_REACTORS
330
2A
102
}
330
2A
100
AcDbZombieObject
 90
      499
 91
      501
 93
      452
310
42D0DBDB1BDC90DA185B99D95104090240C333333333333E33F0000000000000F90108901411070040501508421405064090741402480A0350
1001
ACAD
1000
AcDbSavedByObjectVersion
1070
     0
  0
ACAD_PROXY_OBJECT
  5
34
102
{ACAD_REACTORS
330
2A
102
}
330
2A
100
AcDbZombieObject
 90
      499
 91
      501
 93
      500
310
4290DBDB98D95C1D1D585B10940D028333333333333E33F0000000000000F90107902409070040501000000000018199010841D405064090740C02480A0340
1001
ACAD
1000
AcDbSavedByObjectVersion
1070
     0
  0
ACAD_PROXY_OBJECT
  5
35
102
{ACAD_REACTORS
330
2A
102
}
330
2A
100
AcDbZombieObject
 90
      499
 91
      501
 93
      412
310
40D11A5B50B409028333333333333E33F0000000000000F9010790141107004050150841D405064090741402480A02677FFFFFD0
1001
ACAD
1000
AcDbSavedByObjectVersion
1070
     0
  0
ACAD_PROXY_OBJECT
  5
3D
102
{ACAD_REACTORS
330
2A
102
}
330
2A
100
AcDbZombieObject
 90
      499
 91
      501
 93
      452
310
43115919D950DBDB1BDC93D999916409028333333333333E33F0000000000000F9010790141107004050150841D405064090741402480A0350
1001
ACAD
1000
AcDbSavedByObjectVersion
1070
     0
  0
ACAD_PROXY_OBJECT
  5
39
102
{ACAD_REACTORS
330
2A
102
}
330
2A
100
AcDbZombieObject
 90
      499
 91
      501
 93
      444
310
42D19858D95C185D1D195C9B90F409028333333333333E33F0000000000000F9010790141107004050150841D405064090741402480A0350
1001
ACAD
1000
AcDbSavedByObjectVersion
1070
     0
  0
ACAD_PROXY_OBJECT
  5
2B
102
{ACAD_REACTORS
330
2A
102
}
330
2A
100
AcDbZombieObject
 90
      499
 91
      501
 93
      380
310
41119B185D240901404333333333333E33F0000000000000F9010740A907004050150841D405064090741402480A1B50
1001
ACAD
1000
AcDbSavedByObjectVersion
1070
     0
  0
ACAD_PROXY_OBJECT
  5
2C
102
{ACAD_REACTORS
330
2A
102
}
330
2A
100
AcDbZombieObject
 90
      499
 91
      501
 93
      468
310
43519B185D15DA5D1A115919D95CD0140901404333333333333E33F0000000000000F90107409019070040501600405405064090741402480A1B50
1001
ACAD
1000
AcDbSavedByObjectVersion
1070
     0
  0
ACAD_PROXY_OBJECT
  5
2D
102
{ACAD_REACTORS
330
2A
102
}
330
2A
100
AcDbZombieObject
 90
      499
 91
      501
 93
      404
310
41D1DBDD5C985D5910240902404333333333333E33F0000000000000F9010740A9070040501641D405064090741402480A1B50
1001
ACAD
1000
AcDbSavedByObjectVersion
1070
     0
  0
ACAD_PROXY_OBJECT
  5
2E
102
{ACAD_REACTORS
330
2A
102
}
330
2A
100
AcDbZombieObject
 90
      499
 91
      501
 93
      492
310
4411DBDD5C985D5915DA5D1A115919D95CD0340902404333333333333E33F0000000000000F90107409019070040501600405405064090741402480A1B50
1001
ACAD
1000
AcDbSavedByObjectVersion
1070
     0
  0
ACAD_PROXY_OBJECT
  5
31
102
{ACAD_REACTORS
330
2A
102
}
330
2A
100
AcDbZombieObject
 90
      499
 91
      501
 93
      476
310
41921A5919195B90640502408333333333333E33F0000000000000F901079024090700405020000000000001110200405405064090740C02480A0340
1001
ACAD
1000
AcDbSavedByObjectVersion
1070
     0
  0
ACAD_PROXY_OBJECT
  5
3B
102
{ACAD_REACTORS
330
2A
102
}
330
2A
100
AcDbZombieObject
 90
      499
 91
      501
 93
      428
310
42529A5D1D195C93D999914409028333333333333E33F0000000000000F9010790141107004050150A41D405064090741402480A0350
1001
ACAD
1000
AcDbSavedByObjectVersion
1070
     0
  0
ACAD_PROXY_OBJECT
  5
38
102
{ACAD_REACTORS
330
2A
102
}
330
2A
100
AcDbZombieObject
 90
      499
 91
      501
 93
      444
310
42D31A5B995C185D1D195C9B90E409028333333333333E33F0000000000000F9010790141107004050750841D405064090741402483A0350
1001
ACAD
1000
AcDbSavedByObjectVersion
1070
     0
  0
ACAD_PROXY_OBJECT
  5
3C
102
{ACAD_REACTORS
330
2A
102
}
330
2A
100
AcDbZombieObject
 90
      499
 91
      501
 93
      444
310
42D3DD995C9A185B99D3D999915409028333333333333E33F0000000000000F9010790141107004050150941D405064090741402480A0350
1001
ACAD
1000
AcDbSavedByObjectVersion
1070
     0
  0
ACAD_PROXY_OBJECT
  5
33
102
{ACAD_REACTORS
330
2A
102
}
330
2A
100
AcDbZombieObject
 90
      499
 91
      501
 93
      428
310
425499585B1A5CDD1A58D08409038333333333333E33F0000000000000F9010740A907004050150800405405064090740C02480A1B40
1001
ACAD
1000
AcDbSavedByObjectVersion
1070
     0
  0
ACAD_PROXY_OBJECT
  5
42
102
{ACAD_REACTORS
330
2A
102
}
330
2A
100
AcDbZombieObject
 90
      499
 91
      501
 93
      420
310
4194DA1859195911B40902404333333333333E33F0000000000000F9010740A41107004050150800405405064090840C02480A0B40
1001
ACAD
1000
AcDbSavedByObjectVersion
1070
     0
  0
ACAD_PROXY_OBJECT
  5
41
102
{ACAD_REACTORS
330
2A
102
}
330
2A
100
AcDbZombieObject
 90
      499
 91
      501
 93
      516
310
4454DA18591959081DDA5D1A08195919D95CD1A40902404333333333333E33F0000000000000F901074090142907004050250800405405064090740C02480A0B40
1001
ACAD
1000
AcDbSavedByObjectVersion
1070
     0
  0
ACAD_PROXY_OBJECT
  5
3E
102
{ACAD_REACTORS
330
2A
102
}
330
2A
100
AcDbZombieObject
 90
      499
 91
      501
 93
      532
310
4394DA1859195CC81BD98811DC985E5174090240C333333333333E33F0000000000000F901079024090741D01000000000000111010841D405064090740C02480A0340
1001
ACAD
1000
AcDbSavedByObjectVersion
1070
     0
  0
ACAD_PROXY_OBJECT
  5
3F
102
{ACAD_REACTORS
330
2A
102
}
330
2A
100
AcDbZombieObject
 90
      499
 91
      501
 93
      476
310
41D4DAD95D18DA1E51840502408333333333333E33F0000000000000F901079024090741D01000000000000111010B41D405064090741802480A0340
1001
ACAD
1000
AcDbSavedByObjectVersion
1070
     0
  0
ACAD_PROXY_OBJECT
  5
37
102
{ACAD_REACTORS
330
2A
102
}
330
2A
100
AcDbZombieObject
 90
      499
 91
      501
 93
      412
310
41D51A1A58DAD95B90D409028333333333333E33F0000000000000F9010790141107004050150C41D405064090741402480A0350
1001
ACAD
1000
AcDbSavedByObjectVersion
1070
     0
  0
ACAD_PROXY_OBJECT
  5
30
102
{ACAD_REACTORS
330
2A
102
}
330
2A
100
AcDbZombieObject
 90
      499
 91
      501
 93
      420
310
4255DA5C99599C985B595059028333333333333E33F0000000000000F90107901411070040501600405405064090740C02480A0340
1001
ACAD
1000
AcDbSavedByObjectVersion
1070
     0
  0
ACAD_PROXY_OBJECT
  5
40
102
{ACAD_REACTORS
330
2A
102
}
330
2A
100
AcDbZombieObject
 90
      499
 91
      501
 93
      404
310
41560B54985E51940902404000000000000E03F0000000000000F9010740501907004050150841D405064090740C02480A1B40
1001
ACAD
1000
AcDbSavedByObjectVersion
1070
     0
  0
DICTIONARYVAR
  5
680
102
{ACAD_REACTORS
330
679
102
}
330
679
100
DictionaryVariables
280
     0
  1
1:1
  0
DICTIONARYVAR
  5
67B
102
{ACAD_REACTORS
330
679
102
}
330
679
100
DictionaryVariables
280
     0
  1
Standard
  0
DICTIONARYVAR
  5
67A
102
{ACAD_REACTORS
330
679
102
}
330
679
100
DictionaryVariables
280
     0
  1
Standard
  0
DICTIONARYVAR
  5
67E
102
{ACAD_REACTORS
330
679
102
}
330
679
100
DictionaryVariables
280
     0
  1
2
  0
DICTIONARYVAR
  5
67F
102
{ACAD_REACTORS
330
679
102
}
330
679
100
DictionaryVariables
280
     0
  1
1
  0
DICTIONARYVAR
  5
681
102
{ACAD_REACTORS
330
679
102
}
330
679
100
DictionaryVariables
280
     0
  1
1
  0
DICTIONARY
  5
684
330
45
100
AcDbDictionary
  3
ACAD_XREC_ROUNDTRIP
360
685
1001
ACAD
1000
TREAT_AS_HARD
1070
     1
  0
DICTIONARY
  5
682
330
44
100
AcDbDictionary
  3
ACAD_XREC_ROUNDTRIP
360
683
1001
ACAD
1000
TREAT_AS_HARD
1070
     1
  0
DICTIONARY
  5
686
330
46
100
AcDbDictionary
  3
ACAD_XREC_ROUNDTRIP
360
687
1001
ACAD
1000
TREAT_AS_HARD
1070
     1
  0
XRECORD
  5
685
102
{ACAD_REACTORS
330
684
102
}
330
684
100
AcDbXrecord
102
MATERIAL
148
0.0
149
0.0
149
0.0
 93
        0
 94
      127
282
     0
 72
     1
 77
     1
171
     1
175
     1
179
     1
273
     0
  0
XRECORD
  5
683
102
{ACAD_REACTORS
330
682
102
}
330
682
100
AcDbXrecord
102
MATERIAL
148
0.0
149
0.0
149
0.0
 93
        0
 94
      127
282
     0
 72
     1
 77
     1
171
     1
175
     1
179
     1
273
     0
  0
XRECORD
  5
687
102
{ACAD_REACTORS
330
686
102
}
330
686
100
AcDbXrecord
102
MATERIAL
148
0.0
149
0.0
149
0.0
 93
        0
 94
      127
282
     0
 72
     1
 77
     1
171
     1
175
     1
179
     1
273
     0
  0
ENDSEC
  0
EOF
