  0
SECTION
  2
HEADER
  9
$ACADVER
  1
AC1012
  9
$DWGCODEPAGE
  3
ansi_932
  9
$INSBASE
 10
0.0
 20
0.0
 30
0.0
  9
$EXTMIN
 10
-11565.0
 20
-8826.000000000004
 30
0.0
  9
$EXTMAX
 10
11565.0
 20
8832.000000000002
 30
0.0
  9
$LIMMIN
 10
-4455.0
 20
-3150.0
  9
$LIMMAX
 10
4455.0
 20
3150.0
  9
$ORTHOMODE
 70
     0
  9
$REGENMODE
 70
     1
  9
$FILLMODE
 70
     1
  9
$QTEXTMODE
 70
     0
  9
$MIRRTEXT
 70
     1
  9
$DRAGMODE
 70
     2
  9
$LTSCALE
 40
7.5
  9
$OSMODE
 70
    37
  9
$ATTMODE
 70
     1
  9
$TEXTSIZE
 40
0.2
  9
$TRACEWID
 40
0.05
  9
$TEXTSTYLE
  7
STANDARD
  9
$CLAYER
  8
0
  9
$CELTYPE
  6
BYLAYER
  9
$CECOLOR
 62
   256
  9
$CELTSCALE
 40
1.0
  9
$DELOBJ
 70
     1
  9
$DISPSILH
 70
     0
  9
$DIMSCALE
 40
1.0
  9
$DIMASZ
 40
90.00005722045898
  9
$DIMEXO
 40
1.0
  9
$DIMDLI
 40
10.0
  9
$DIMRND
 40
0.0
  9
$DIMDLE
 40
0.0
  9
$DIMEXE
 40
1.0
  9
$DIMTP
 40
0.0
  9
$DIMTM
 40
0.0
  9
$DIMTXT
 40
105.0
  9
$DIMCEN
 40
0.0
  9
$DIMTSZ
 40
0.0
  9
$DIMTOL
 70
     0
  9
$DIMLIM
 70
     0
  9
$DIMTIH
 70
     0
  9
$DIMTOH
 70
     0
  9
$DIMSE1
 70
     0
  9
$DIMSE2
 70
     0
  9
$DIMTAD
 70
     1
  9
$DIMZIN
 70
     8
  9
$DIMBLK
  1

  9
$DIMASO
 70
     1
  9
$DIMSHO
 70
     1
  9
$DIMPOST
  1

  9
$DIMAPOST
  1

  9
$DIMALT
 70
     0
  9
$DIMALTD
 70
     2
  9
$DIMALTF
 40
0.0393700787401575
  9
$DIMLFAC
 40
1.0
  9
$DIMTOFL
 70
     0
  9
$DIMTVP
 40
0.0
  9
$DIMTIX
 70
     0
  9
$DIMSOXD
 70
     0
  9
$DIMSAH
 70
     0
  9
$DIMBLK1
  1

  9
$DIMBLK2
  1

  9
$DIMSTYLE
  2
STANDARD
  9
$DIMCLRD
 70
     0
  9
$DIMCLRE
 70
     0
  9
$DIMCLRT
 70
     0
  9
$DIMTFAC
 40
0.65
  9
$DIMGAP
 40
0.09
  9
$DIMJUST
 70
     0
  9
$DIMSD1
 70
     0
  9
$DIMSD2
 70
     0
  9
$DIMTOLJ
 70
     0
  9
$DIMTZIN
 70
     0
  9
$DIMALTZ
 70
     0
  9
$DIMALTTZ
 70
     0
  9
$DIMFIT
 70
     3
  9
$DIMUPT
 70
     0
  9
$DIMUNIT
 70
     2
  9
$DIMDEC
 70
     2
  9
$DIMTDEC
 70
     2
  9
$DIMALTU
 70
     2
  9
$DIMALTTD
 70
     2
  9
$DIMTXSTY
  7
STANDARD
  9
$DIMAUNIT
 70
     0
  9
$LUNITS
 70
     2
  9
$LUPREC
 70
     4
  9
$SKETCHINC
 40
0.1
  9
$FILLETRAD
 40
0.5
  9
$AUNITS
 70
     0
  9
$AUPREC
 70
     0
  9
$MENU
  1
.
  9
$ELEVATION
 40
0.0
  9
$PELEVATION
 40
0.0
  9
$THICKNESS
 40
0.0
  9
$LIMCHECK
 70
     0
  9
$CHAMFERA
 40
0.0
  9
$CHAMFERB
 40
0.0
  9
$CHAMFERC
 40
0.0
  9
$CHAMFERD
 40
0.0
  9
$SKPOLY
 70
     0
  9
$TDCREATE
 40
2459688.452147651
  9
$TDUPDATE
 40
2459688.452148194
  9
$TDINDWG
 40
0.0000000116
  9
$TDUSRTIMER
 40
0.0000000116
  9
$USRTIMER
 70
     1
  9
$ANGBASE
 50
0.0
  9
$ANGDIR
 70
     0
  9
$PDMODE
 70
     0
  9
$PDSIZE
 40
1.0
  9
$PLINEWID
 40
0.0
  9
$COORDS
 70
     1
  9
$SPLFRAME
 70
     0
  9
$SPLINETYPE
 70
     6
  9
$SPLINESEGS
 70
     8
  9
$ATTDIA
 70
     0
  9
$ATTREQ
 70
     1
  9
$HANDLING
 70
     1
  9
$HANDSEED
  5
66C
  9
$SURFTAB1
 70
     6
  9
$SURFTAB2
 70
     6
  9
$SURFTYPE
 70
     6
  9
$SURFU
 70
     6
  9
$SURFV
 70
     6
  9
$UCSNAME
  2

  9
$UCSORG
 10
0.0
 20
0.0
 30
0.0
  9
$UCSXDIR
 10
1.0
 20
0.0
 30
0.0
  9
$UCSYDIR
 10
0.0
 20
1.0
 30
0.0
  9
$PUCSNAME
  2

  9
$PUCSORG
 10
0.0
 20
0.0
 30
0.0
  9
$PUCSXDIR
 10
1.0
 20
0.0
 30
0.0
  9
$PUCSYDIR
 10
0.0
 20
1.0
 30
0.0
  9
$USERI1
 70
     0
  9
$USERI2
 70
     0
  9
$USERI3
 70
     0
  9
$USERI4
 70
     0
  9
$USERI5
 70
     0
  9
$USERR1
 40
0.0
  9
$USERR2
 40
0.0
  9
$USERR3
 40
0.0
  9
$USERR4
 40
0.0
  9
$USERR5
 40
0.0
  9
$WORLDVIEW
 70
     1
  9
$SHADEDGE
 70
     3
  9
$SHADEDIF
 70
    70
  9
$TILEMODE
 70
     1
  9
$MAXACTVP
 70
    64
  9
$PINSBASE
 10
0.0
 20
0.0
 30
0.0
  9
$PLIMCHECK
 70
     0
  9
$PEXTMIN
 10
1.000000000000000E+20
 20
1.000000000000000E+20
 30
1.000000000000000E+20
  9
$PEXTMAX
 10
-1.000000000000000E+20
 20
-1.000000000000000E+20
 30
-1.000000000000000E+20
  9
$PLIMMIN
 10
0.0
 20
0.0
  9
$PLIMMAX
 10
12.0
 20
9.0
  9
$UNITMODE
 70
     0
  9
$VISRETAIN
 70
     0
  9
$PLINEGEN
 70
     1
  9
$PSLTSCALE
 70
     0
  9
$TREEDEPTH
 70
  3020
  9
$PICKSTYLE
 70
     1
  9
$CMLSTYLE
  2
STANDARD
  9
$CMLJUST
 70
     0
  9
$CMLSCALE
 40
1.0
  9
$SAVEIMAGES
 70
     0
  0
ENDSEC
  0
SECTION
  2
CLASSES
  0
CLASS
  1
ACDBDICTIONARYWDFLT
  2
AcDbDictionaryWithDefault
  3
ObjectDBX Classes
 90
    32768
280
     0
281
     0
  0
CLASS
  1
VISUALSTYLE
  2
AcDbVisualStyle
  3
ObjectDBX Classes
 90
     4095
280
     0
281
     0
  0
CLASS
  1
MATERIAL
  2
AcDbMaterial
  3
ObjectDBX Classes
 90
     1153
280
     0
281
     0
  0
CLASS
  1
SCALE
  2
AcDbScale
  3
ObjectDBX Classes
 90
     1153
280
     0
281
     0
  0
CLASS
  1
TABLESTYLE
  2
AcDbTableStyle
  3
ObjectDBX Classes
 90
     4095
280
     0
281
     0
  0
CLASS
  1
MLEADERSTYLE
  2
AcDbMLeaderStyle
  3
ACDB_MLEADERSTYLE_CLASS
 90
     4095
280
     0
281
     0
  0
CLASS
  1
SUN
  2
AcDbSun
  3
SCENEOE
 90
     1153
280
     0
281
     0
  0
CLASS
  1
DICTIONARYVAR
  2
AcDbDictionaryVar
  3
ObjectDBX Classes
 90
        0
280
     0
281
     0
  0
CLASS
  1
XRECORD
  2
AcDbXrecord
  3
ObjectDBX Classes
 90
    32768
280
     0
281
     0
  0
CLASS
  1
LWPOLYLINE
  2
AcDbPolyline
  3
ObjectDBX Classes
 90
    32768
280
     0
281
     1
  0
CLASS
  1
HATCH
  2
AcDbHatch
  3
ObjectDBX Classes
 90
    32768
280
     0
281
     1
  0
CLASS
  1
ACDBPLACEHOLDER
  2
AcDbPlaceHolder
  3
ObjectDBX Classes
 90
        0
280
     0
281
     0
  0
CLASS
  1
LAYOUT
  2
AcDbLayout
  3
ObjectDBX Classes
 90
        0
280
     0
281
     0
  0
ENDSEC
  0
SECTION
  2
TABLES
  0
TABLE
  2
VPORT
  5
8
330
0
100
AcDbSymbolTable
 70
     1
  0
VPORT
  5
29
330
8
100
AcDbSymbolTableRecord
100
AcDbViewportTableRecord
  2
*ACTIVE
 70
     0
 10
0.0
 20
0.0
 11
1.0
 21
1.0
 12
-0.0000000000039826
 22
-7.964424159061309
 13
0.0
 23
0.0
 14
0.5
 24
0.5
 15
0.5
 25
0.5
 16
0.0
 26
0.0
 36
1.0
 17
0.0
 27
0.0
 37
0.0
 40
6026.087425284483
 41
1.305025872509432
 42
50.0
 43
0.0
 44
0.0
 50
0.0
 51
0.0
 71
     0
 72
  1000
 73
     1
 74
     1
 75
     0
 76
     0
 77
     0
 78
     0
  0
ENDTAB
  0
TABLE
  2
LTYPE
  5
5
330
0
100
AcDbSymbolTable
 70
    67
  0
LTYPE
  5
14
330
5
100
AcDbSymbolTableRecord
100
AcDbLinetypeTableRecord
  2
BYBLOCK
 70
     0
  3

 72
    65
 73
     0
 40
0.0
  0
LTYPE
  5
15
330
5
100
AcDbSymbolTableRecord
100
AcDbLinetypeTableRecord
  2
BYLAYER
 70
     0
  3

 72
    65
 73
     0
 40
0.0
  0
LTYPE
  5
16
330
5
100
AcDbSymbolTableRecord
100
AcDbLinetypeTableRecord
  2
CONTINUOUS
 70
     0
  3
Solid line
 72
    65
 73
     0
 40
0.0
  0
LTYPE
  5
6F
330
5
100
AcDbSymbolTableRecord
100
AcDbLinetypeTableRecord
  2
HIDDENX2
 70
     0
  3
Hidden (2x) ____ ____ ____ ____ ____ ____ ____ 
 72
    65
 73
     2
 40
19.05
 49
12.7
 74
     0
 49
-6.35
 74
     0
  0
LTYPE
  5
70
330
5
100
AcDbSymbolTableRecord
100
AcDbLinetypeTableRecord
  2
HIDDEN
 70
     0
  3
Hidden __ __ __ __ __ __ __ __ __ __ __ __ __ __
 72
    65
 73
     2
 40
9.524999999999999
 49
6.35
 74
     0
 49
-3.175
 74
     0
  0
LTYPE
  5
71
330
5
100
AcDbSymbolTableRecord
100
AcDbLinetypeTableRecord
  2
HIDDEN2
 70
     0
  3
Hidden (.5x) _ _ _ _ _ _ _ _ _ _ _ _ _ _ _ _ _ 
 72
    65
 73
     2
 40
4.762499999999999
 49
3.175
 74
     0
 49
-1.5875
 74
     0
  0
LTYPE
  5
72
330
5
100
AcDbSymbolTableRecord
100
AcDbLinetypeTableRecord
  2
DASHED
 70
     0
  3
Dashed __ __ __ __ __ __ __ __ __ __ __ __ __ _
 72
    65
 73
     2
 40
19.05
 49
12.7
 74
     0
 49
-6.35
 74
     0
  0
LTYPE
  5
73
330
5
100
AcDbSymbolTableRecord
100
AcDbLinetypeTableRecord
  2
DASHED2
 70
     0
  3
Dashed (.5x) _ _ _ _ _ _ _ _ _ _ _ _ _ _ _ _ _ 
 72
    65
 73
     2
 40
9.524999999999999
 49
6.35
 74
     0
 49
-3.175
 74
     0
  0
LTYPE
  5
74
330
5
100
AcDbSymbolTableRecord
100
AcDbLinetypeTableRecord
  2
DASHEDX2
 70
     0
  3
Dashed (2x) ____  ____  ____  ____  ____  ___
 72
    65
 73
     2
 40
38.09999999999999
 49
25.4
 74
     0
 49
-12.7
 74
     0
  0
LTYPE
  5
75
330
5
100
AcDbSymbolTableRecord
100
AcDbLinetypeTableRecord
  2
DOTX2
 70
     0
  3
Dot (2x) .  .  .  .  .  .  .  .  .  .  .  .  .  .
 72
    65
 73
     2
 40
12.7
 49
0.0
 74
     0
 49
-12.7
 74
     0
  0
LTYPE
  5
76
330
5
100
AcDbSymbolTableRecord
100
AcDbLinetypeTableRecord
  2
DOT
 70
     0
  3
Dot . . . . . . . . . . . . . . . . . . . . . . . .
 72
    65
 73
     2
 40
6.35
 49
0.0
 74
     0
 49
-6.35
 74
     0
  0
LTYPE
  5
77
330
5
100
AcDbSymbolTableRecord
100
AcDbLinetypeTableRecord
  2
DOT2
 70
     0
  3
Dot (.5x) ........................................
 72
    65
 73
     2
 40
3.175
 49
0.0
 74
     0
 49
-3.175
 74
     0
  0
LTYPE
  5
78
330
5
100
AcDbSymbolTableRecord
100
AcDbLinetypeTableRecord
  2
CENTERX2
 70
     0
  3
Center (2x) ________  __  ________  __  _____
 72
    65
 73
     4
 40
101.6
 49
63.5
 74
     0
 49
-12.7
 74
     0
 49
12.7
 74
     0
 49
-12.7
 74
     0
  0
LTYPE
  5
79
330
5
100
AcDbSymbolTableRecord
100
AcDbLinetypeTableRecord
  2
CENTER
 70
     0
  3
Center ____ _ ____ _ ____ _ ____ _ ____ _ ____
 72
    65
 73
     4
 40
50.8
 49
31.75
 74
     0
 49
-6.35
 74
     0
 49
6.35
 74
     0
 49
-6.35
 74
     0
  0
LTYPE
  5
7A
330
5
100
AcDbSymbolTableRecord
100
AcDbLinetypeTableRecord
  2
CENTER2
 70
     0
  3
Center (.5x) ___ _ ___ _ ___ _ ___ _ ___ _ ___
 72
    65
 73
     4
 40
28.575
 49
19.05
 74
     0
 49
-3.175
 74
     0
 49
3.175
 74
     0
 49
-3.175
 74
     0
  0
LTYPE
  5
7B
330
5
100
AcDbSymbolTableRecord
100
AcDbLinetypeTableRecord
  2
DASHDOTX2
 70
     0
  3
Dash dot (2x) ____  .  ____  .  ____  .  ___
 72
    65
 73
     4
 40
50.8
 49
25.4
 74
     0
 49
-12.7
 74
     0
 49
0.0
 74
     0
 49
-12.7
 74
     0
  0
LTYPE
  5
7C
330
5
100
AcDbSymbolTableRecord
100
AcDbLinetypeTableRecord
  2
DASHDOT
 70
     0
  3
Dash dot __ . __ . __ . __ . __ . __ . __ . __
 72
    65
 73
     4
 40
25.4
 49
12.7
 74
     0
 49
-6.35
 74
     0
 49
0.0
 74
     0
 49
-6.35
 74
     0
  0
LTYPE
  5
7D
330
5
100
AcDbSymbolTableRecord
100
AcDbLinetypeTableRecord
  2
DASHDOT2
 70
     0
  3
Dash dot (.5x) _._._._._._._._._._._._._._._.
 72
    65
 73
     4
 40
12.7
 49
6.35
 74
     0
 49
-3.175
 74
     0
 49
0.0
 74
     0
 49
-3.175
 74
     0
  0
LTYPE
  5
7E
330
5
100
AcDbSymbolTableRecord
100
AcDbLinetypeTableRecord
  2
DIVIDEX2
 70
     0
  3
Divide (2x) ________  .  .  ________  .  .  _
 72
    65
 73
     6
 40
63.5
 49
25.4
 74
     0
 49
-12.7
 74
     0
 49
0.0
 74
     0
 49
-12.7
 74
     0
 49
0.0
 74
     0
 49
-12.7
 74
     0
  0
LTYPE
  5
7F
330
5
100
AcDbSymbolTableRecord
100
AcDbLinetypeTableRecord
  2
DIVIDE
 70
     0
  3
Divide ____ . . ____ . . ____ . . ____ . . ____
 72
    65
 73
     6
 40
31.75
 49
12.7
 74
     0
 49
-6.35
 74
     0
 49
0.0
 74
     0
 49
-6.35
 74
     0
 49
0.0
 74
     0
 49
-6.35
 74
     0
  0
LTYPE
  5
80
330
5
100
AcDbSymbolTableRecord
100
AcDbLinetypeTableRecord
  2
DIVIDE2
 70
     0
  3
Divide (.5x) __..__..__..__..__..__..__..__.._
 72
    65
 73
     6
 40
15.875
 49
6.35
 74
     0
 49
-3.175
 74
     0
 49
0.0
 74
     0
 49
-3.175
 74
     0
 49
0.0
 74
     0
 49
-3.175
 74
     0
  0
LTYPE
  5
81
330
5
100
AcDbSymbolTableRecord
100
AcDbLinetypeTableRecord
  2
BORDERX2
 70
     0
  3
Border (2x) ____  ____  .  ____  ____  .  ___
 72
    65
 73
     6
 40
88.89999999999999
 49
25.4
 74
     0
 49
-12.7
 74
     0
 49
25.4
 74
     0
 49
-12.7
 74
     0
 49
0.0
 74
     0
 49
-12.7
 74
     0
  0
LTYPE
  5
82
330
5
100
AcDbSymbolTableRecord
100
AcDbLinetypeTableRecord
  2
BORDER
 70
     0
  3
Border __ __ . __ __ . __ __ . __ __ . __ __ .
 72
    65
 73
     6
 40
44.45
 49
12.7
 74
     0
 49
-6.35
 74
     0
 49
12.7
 74
     0
 49
-6.35
 74
     0
 49
0.0
 74
     0
 49
-6.35
 74
     0
  0
LTYPE
  5
83
330
5
100
AcDbSymbolTableRecord
100
AcDbLinetypeTableRecord
  2
BORDER2
 70
     0
  3
Border (.5x) __.__.__.__.__.__.__.__.__.__.__.
 72
    65
 73
     6
 40
22.225
 49
6.35
 74
     0
 49
-3.175
 74
     0
 49
6.35
 74
     0
 49
-3.175
 74
     0
 49
0.0
 74
     0
 49
-3.175
 74
     0
  0
LTYPE
  5
84
330
5
100
AcDbSymbolTableRecord
100
AcDbLinetypeTableRecord
  2
PHANTOMX2
 70
     0
  3
Phantom (2x) ____________    ____    ____   _
 72
    65
 73
     6
 40
127.0
 49
63.5
 74
     0
 49
-12.7
 74
     0
 49
12.7
 74
     0
 49
-12.7
 74
     0
 49
12.7
 74
     0
 49
-12.7
 74
     0
  0
LTYPE
  5
85
330
5
100
AcDbSymbolTableRecord
100
AcDbLinetypeTableRecord
  2
PHANTOM
 70
     0
  3
Phantom ______  __  __  ______  __  __  ______ 
 72
    65
 73
     6
 40
63.5
 49
31.75
 74
     0
 49
-6.35
 74
     0
 49
6.35
 74
     0
 49
-6.35
 74
     0
 49
6.35
 74
     0
 49
-6.35
 74
     0
  0
LTYPE
  5
86
330
5
100
AcDbSymbolTableRecord
100
AcDbLinetypeTableRecord
  2
PHANTOM2
 70
     0
  3
Phantom (.5x) ___ _ _ ___ _ _ ___ _ _ ___ _ _
 72
    65
 73
     6
 40
31.75
 49
15.875
 74
     0
 49
-3.175
 74
     0
 49
3.175
 74
     0
 49
-3.175
 74
     0
 49
3.175
 74
     0
 49
-3.175
 74
     0
  0
LTYPE
  5
87
330
5
100
AcDbSymbolTableRecord
100
AcDbLinetypeTableRecord
  2
ACAD_ISO06W100
 70
     0
  3
ISO long-dash triple-dot ____ ... ____ ... ____
 72
    65
 73
     8
 40
36.0
 49
24.0
 74
     0
 49
-3.0
 74
     0
 49
0.0
 74
     0
 49
-3.0
 74
     0
 49
0.0
 74
     0
 49
-3.0
 74
     0
 49
0.0
 74
     0
 49
-3.0
 74
     0
  0
LTYPE
  5
88
330
5
100
AcDbSymbolTableRecord
100
AcDbLinetypeTableRecord
  2
ACAD_ISO13W100
 70
     0
  3
ISO double-dash double-dot __ __ . . __ __ . . _
 72
    65
 73
     8
 40
36.0
 49
12.0
 74
     0
 49
-3.0
 74
     0
 49
12.0
 74
     0
 49
-3.0
 74
     0
 49
0.0
 74
     0
 49
-3.0
 74
     0
 49
0.0
 74
     0
 49
-3.0
 74
     0
  0
LTYPE
  5
89
330
5
100
AcDbSymbolTableRecord
100
AcDbLinetypeTableRecord
  2
ACAD_ISO14W100
 70
     0
  3
ISO dash triple-dot __ . . . __ . . . __ . . . _
 72
    65
 73
     8
 40
24.0
 49
12.0
 74
     0
 49
-3.0
 74
     0
 49
0.0
 74
     0
 49
-3.0
 74
     0
 49
0.0
 74
     0
 49
-3.0
 74
     0
 49
0.0
 74
     0
 49
-3.0
 74
     0
  0
LTYPE
  5
8A
330
5
100
AcDbSymbolTableRecord
100
AcDbLinetypeTableRecord
  2
ACAD_ISO02W100
 70
     0
  3
ISO dash __ __ __ __ __ __ __ __ __ __ __ __ __
 72
    65
 73
     2
 40
15.0
 49
12.0
 74
     0
 49
-3.0
 74
     0
  0
LTYPE
  5
8B
330
5
100
AcDbSymbolTableRecord
100
AcDbLinetypeTableRecord
  2
ACAD_ISO03W100
 70
     0
  3
ISO dash space __    __    __    __    __    __
 72
    65
 73
     2
 40
30.0
 49
12.0
 74
     0
 49
-18.0
 74
     0
  0
LTYPE
  5
8C
330
5
100
AcDbSymbolTableRecord
100
AcDbLinetypeTableRecord
  2
ACAD_ISO04W100
 70
     0
  3
ISO long-dash dot ____ . ____ . ____ . ____ . _
 72
    65
 73
     4
 40
30.0
 49
24.0
 74
     0
 49
-3.0
 74
     0
 49
0.0
 74
     0
 49
-3.0
 74
     0
  0
LTYPE
  5
8D
330
5
100
AcDbSymbolTableRecord
100
AcDbLinetypeTableRecord
  2
ACAD_ISO05W100
 70
     0
  3
ISO long-dash double-dot ____ .. ____ .. ____ . 
 72
    65
 73
     6
 40
33.0
 49
24.0
 74
     0
 49
-3.0
 74
     0
 49
0.0
 74
     0
 49
-3.0
 74
     0
 49
0.0
 74
     0
 49
-3.0
 74
     0
  0
LTYPE
  5
8E
330
5
100
AcDbSymbolTableRecord
100
AcDbLinetypeTableRecord
  2
ACAD_ISO07W100
 70
     0
  3
ISO dot . . . . . . . . . . . . . . . . . . . . 
 72
    65
 73
     2
 40
3.0
 49
0.0
 74
     0
 49
-3.0
 74
     0
  0
LTYPE
  5
8F
330
5
100
AcDbSymbolTableRecord
100
AcDbLinetypeTableRecord
  2
ACAD_ISO08W100
 70
     0
  3
ISO long-dash short-dash ____ __ ____ __ ____ _
 72
    65
 73
     4
 40
36.0
 49
24.0
 74
     0
 49
-3.0
 74
     0
 49
6.0
 74
     0
 49
-3.0
 74
     0
  0
LTYPE
  5
90
330
5
100
AcDbSymbolTableRecord
100
AcDbLinetypeTableRecord
  2
ACAD_ISO09W100
 70
     0
  3
ISO long-dash double-short-dash ____ __ __ ____
 72
    65
 73
     6
 40
45.0
 49
24.0
 74
     0
 49
-3.0
 74
     0
 49
6.0
 74
     0
 49
-3.0
 74
     0
 49
6.0
 74
     0
 49
-3.0
 74
     0
  0
LTYPE
  5
91
330
5
100
AcDbSymbolTableRecord
100
AcDbLinetypeTableRecord
  2
ACAD_ISO10W100
 70
     0
  3
ISO dash dot __ . __ . __ . __ . __ . __ . __ . 
 72
    65
 73
     4
 40
18.0
 49
12.0
 74
     0
 49
-3.0
 74
     0
 49
0.0
 74
     0
 49
-3.0
 74
     0
  0
LTYPE
  5
92
330
5
100
AcDbSymbolTableRecord
100
AcDbLinetypeTableRecord
  2
ACAD_ISO11W100
 70
     0
  3
ISO double-dash dot __ __ . __ __ . __ __ . __ _
 72
    65
 73
     6
 40
33.0
 49
12.0
 74
     0
 49
-3.0
 74
     0
 49
12.0
 74
     0
 49
-3.0
 74
     0
 49
0.0
 74
     0
 49
-3.0
 74
     0
  0
LTYPE
  5
93
330
5
100
AcDbSymbolTableRecord
100
AcDbLinetypeTableRecord
  2
ACAD_ISO12W100
 70
     0
  3
ISO dash double-dot __ . . __ . . __ . . __ . . 
 72
    65
 73
     6
 40
21.0
 49
12.0
 74
     0
 49
-3.0
 74
     0
 49
0.0
 74
     0
 49
-3.0
 74
     0
 49
0.0
 74
     0
 49
-3.0
 74
     0
  0
LTYPE
  5
94
330
5
100
AcDbSymbolTableRecord
100
AcDbLinetypeTableRecord
  2
ACAD_ISO15W100
 70
     0
  3
ISO double-dash triple-dot __ __ . . . __ __ . .
 72
    65
 73
    10
 40
39.0
 49
12.0
 74
     0
 49
-3.0
 74
     0
 49
12.0
 74
     0
 49
-3.0
 74
     0
 49
0.0
 74
     0
 49
-3.0
 74
     0
 49
0.0
 74
     0
 49
-3.0
 74
     0
 49
0.0
 74
     0
 49
-3.0
 74
     0
  0
LTYPE
  5
95
330
5
100
AcDbSymbolTableRecord
100
AcDbLinetypeTableRecord
  2
JIS_02_0_7
 70
     0
  3
HIDDEN0.75 _ _ _ _ _ _ _ _ _ _ _ _ _ _ _ _ _ 
 72
    65
 73
     2
 40
1.35
 49
0.75
 74
     0
 49
-0.6
 74
     0
  0
LTYPE
  5
96
330
5
100
AcDbSymbolTableRecord
100
AcDbLinetypeTableRecord
  2
JIS_02_1_0
 70
     0
  3
HIDDEN01 _ _ _ _ _ _ _ _ _ _ _ _ _ _ _ _ _ 
 72
    65
 73
     2
 40
2.0
 49
1.0
 74
     0
 49
-1.0
 74
     0
  0
LTYPE
  5
97
330
5
100
AcDbSymbolTableRecord
100
AcDbLinetypeTableRecord
  2
JIS_02_1_2
 70
     0
  3
HIDDEN01.25  _ _ _ _ _ _ _ _ _ _ _ _ _ _ _ _ _ 
 72
    65
 73
     2
 40
2.5
 49
1.25
 74
     0
 49
-1.25
 74
     0
  0
LTYPE
  5
98
330
5
100
AcDbSymbolTableRecord
100
AcDbLinetypeTableRecord
  2
JIS_02_2_0
 70
     0
  3
HIDDEN02 __ __ __ __ __ __ __ __ __ __ __ 
 72
    65
 73
     2
 40
3.0
 49
2.0
 74
     0
 49
-1.0
 74
     0
  0
LTYPE
  5
99
330
5
100
AcDbSymbolTableRecord
100
AcDbLinetypeTableRecord
  2
JIS_02_4_0
 70
     0
  3
HIDDEN04 ____ ____ ____ ____ ____ ____ ____ 
 72
    65
 73
     2
 40
5.5
 49
4.0
 74
     0
 49
-1.5
 74
     0
  0
LTYPE
  5
9A
330
5
100
AcDbSymbolTableRecord
100
AcDbLinetypeTableRecord
  2
JIS_08_11
 70
     0
  3
1SASEN11 ___ _ ___ _ ___ _ ___ _ ___ _ ___
 72
    65
 73
     4
 40
12.8
 49
11.0
 74
     0
 49
-0.6
 74
     0
 49
0.6
 74
     0
 49
-0.6
 74
     0
  0
LTYPE
  5
9B
330
5
100
AcDbSymbolTableRecord
100
AcDbLinetypeTableRecord
  2
JIS_08_15
 70
     0
  3
1SASEN15 ____ _ ____ _ ____ _ ____ _ ____ 
 72
    65
 73
     4
 40
17.25
 49
15.0
 74
     0
 49
-0.75
 74
     0
 49
0.75
 74
     0
 49
-0.75
 74
     0
  0
LTYPE
  5
9C
330
5
100
AcDbSymbolTableRecord
100
AcDbLinetypeTableRecord
  2
JIS_08_25
 70
     0
  3
1SASEN25 ________  __  ________  __  _____
 72
    65
 73
     4
 40
28.0
 49
25.0
 74
     0
 49
-1.125
 74
     0
 49
0.75
 74
     0
 49
-1.125
 74
     0
  0
LTYPE
  5
9D
330
5
100
AcDbSymbolTableRecord
100
AcDbLinetypeTableRecord
  2
JIS_08_37
 70
     0
  3
1SASEN37 ________  __  ________  __  _____
 72
    65
 73
     4
 40
40.5
 49
37.5
 74
     0
 49
-1.125
 74
     0
 49
0.75
 74
     0
 49
-1.125
 74
     0
  0
LTYPE
  5
9E
330
5
100
AcDbSymbolTableRecord
100
AcDbLinetypeTableRecord
  2
JIS_08_50
 70
     0
  3
1SASEN50 _______________  __  ____________
 72
    65
 73
     4
 40
53.0
 49
50.0
 74
     0
 49
-1.125
 74
     0
 49
0.75
 74
     0
 49
-1.125
 74
     0
  0
LTYPE
  5
9F
330
5
100
AcDbSymbolTableRecord
100
AcDbLinetypeTableRecord
  2
JIS_09_08
 70
     0
  3
2SASEN8 __ _ _ __ _ _ __ _ _ __ _ _ __ _ _ 
 72
    65
 73
     6
 40
10.75
 49
8.0
 74
     0
 49
-0.55
 74
     0
 49
0.55
 74
     0
 49
-0.55
 74
     0
 49
0.55
 74
     0
 49
-0.55
 74
     0
  0
LTYPE
  5
A0
330
5
100
AcDbSymbolTableRecord
100
AcDbLinetypeTableRecord
  2
JIS_09_15
 70
     0
  3
2SASEN15 ___ _ _ ___ _ _ ___ _ _ ___ _ _ ___ 
 72
    65
 73
     6
 40
18.9
 49
15.0
 74
     0
 49
-0.9
 74
     0
 49
0.6
 74
     0
 49
-0.9
 74
     0
 49
0.6
 74
     0
 49
-0.9
 74
     0
  0
LTYPE
  5
A1
330
5
100
AcDbSymbolTableRecord
100
AcDbLinetypeTableRecord
  2
JIS_09_29
 70
     0
  3
2SASEN29 ______　__  __  ______　__  __  ___
 72
    65
 73
     6
 40
34.0
 49
29.0
 74
     0
 49
-1.2
 74
     0
 49
0.7
 74
     0
 49
-1.2
 74
     0
 49
0.7
 74
     0
 49
-1.2
 74
     0
  0
LTYPE
  5
A2
330
5
100
AcDbSymbolTableRecord
100
AcDbLinetypeTableRecord
  2
JIS_09_50
 70
     0
  3
2SASEN50 ____________　__  __  _____________
 72
    65
 73
     6
 40
55.0
 49
50.0
 74
     0
 49
-1.2
 74
     0
 49
0.7
 74
     0
 49
-1.2
 74
     0
 49
0.7
 74
     0
 49
-1.2
 74
     0
  0
LTYPE
  5
A3
330
5
100
AcDbSymbolTableRecord
100
AcDbLinetypeTableRecord
  2
SXF_破線
 70
     0
  3
02 dashed -- -- -- -- -- --
 72
    65
 73
     2
 40
7.5
 49
6.0
 74
     0
 49
-1.5
 74
     0
  0
LTYPE
  5
A4
330
5
100
AcDbSymbolTableRecord
100
AcDbLinetypeTableRecord
  2
SXF_跳び破線
 70
     0
  3
03 dashed_spaced --  --  --  --
 72
    65
 73
     2
 40
12.0
 49
6.0
 74
     0
 49
-6.0
 74
     0
  0
LTYPE
  5
A5
330
5
100
AcDbSymbolTableRecord
100
AcDbLinetypeTableRecord
  2
SXF_一点長鎖線
 70
     0
  3
04 long_dashed_dotted ---- . ---- . ----
 72
    65
 73
     4
 40
15.25
 49
12.0
 74
     0
 49
-1.5
 74
     0
 49
0.25
 74
     0
 49
-1.5
 74
     0
  0
LTYPE
  5
A6
330
5
100
AcDbSymbolTableRecord
100
AcDbLinetypeTableRecord
  2
SXF_二点長鎖線
 70
     0
  3
05 long_dashed_double-dotted ---- . . ---- 
 72
    65
 73
     6
 40
17.0
 49
12.0
 74
     0
 49
-1.5
 74
     0
 49
0.25
 74
     0
 49
-1.5
 74
     0
 49
0.25
 74
     0
 49
-1.5
 74
     0
  0
LTYPE
  5
A7
330
5
100
AcDbSymbolTableRecord
100
AcDbLinetypeTableRecord
  2
SXF_三点長鎖線
 70
     0
  3
06 long_dashed_triplicate-dotted ---- ... ---- 
 72
    65
 73
     8
 40
18.75
 49
12.0
 74
     0
 49
-1.5
 74
     0
 49
0.25
 74
     0
 49
-1.5
 74
     0
 49
0.25
 74
     0
 49
-1.5
 74
     0
 49
0.25
 74
     0
 49
-1.5
 74
     0
  0
LTYPE
  5
A8
330
5
100
AcDbSymbolTableRecord
100
AcDbLinetypeTableRecord
  2
SXF_点線
 70
     0
  3
07 dotted . . . . . . . . . . . . 
 72
    65
 73
     2
 40
1.75
 49
0.25
 74
     0
 49
-1.5
 74
     0
  0
LTYPE
  5
A9
330
5
100
AcDbSymbolTableRecord
100
AcDbLinetypeTableRecord
  2
SXF_一点鎖線
 70
     0
  3
08 chain ---- - --- - --- - ---
 72
    65
 73
     4
 40
18.5
 49
12.0
 74
     0
 49
-1.5
 74
     0
 49
3.5
 74
     0
 49
-1.5
 74
     0
  0
LTYPE
  5
AA
330
5
100
AcDbSymbolTableRecord
100
AcDbLinetypeTableRecord
  2
SXF_二点鎖線
 70
     0
  3
09 chain_double_dash ---- - - ---- - - ----
 72
    65
 73
     6
 40
23.5
 49
12.0
 74
     0
 49
-1.5
 74
     0
 49
3.5
 74
     0
 49
-1.5
 74
     0
 49
3.5
 74
     0
 49
-1.5
 74
     0
  0
LTYPE
  5
AB
330
5
100
AcDbSymbolTableRecord
100
AcDbLinetypeTableRecord
  2
SXF_一点短鎖線
 70
     0
  3
10 dashed_dotted -- . -- . -- . --
 72
    65
 73
     4
 40
9.25
 49
6.0
 74
     0
 49
-1.5
 74
     0
 49
0.25
 74
     0
 49
-1.5
 74
     0
  0
LTYPE
  5
AC
330
5
100
AcDbSymbolTableRecord
100
AcDbLinetypeTableRecord
  2
SXF_一点二短鎖線
 70
     0
  3
11 double-dashed_dotted -- -- . -- --
 72
    65
 73
     6
 40
16.75
 49
6.0
 74
     0
 49
-1.5
 74
     0
 49
6.0
 74
     0
 49
-1.5
 74
     0
 49
0.25
 74
     0
 49
-1.5
 74
     0
  0
LTYPE
  5
AD
330
5
100
AcDbSymbolTableRecord
100
AcDbLinetypeTableRecord
  2
SXF_二点短鎖線
 70
     0
  3
12 dashed_double_dotted -- . . -- . . --
 72
    65
 73
     6
 40
11.0
 49
6.0
 74
     0
 49
-1.5
 74
     0
 49
0.25
 74
     0
 49
-1.5
 74
     0
 49
0.25
 74
     0
 49
-1.5
 74
     0
  0
LTYPE
  5
AE
330
5
100
AcDbSymbolTableRecord
100
AcDbLinetypeTableRecord
  2
SXF_二点二短鎖線
 70
     0
  3
13 double-dashed_double-dotted -- -- . . -- --
 72
    65
 73
     8
 40
18.5
 49
6.0
 74
     0
 49
-1.5
 74
     0
 49
6.0
 74
     0
 49
-1.5
 74
     0
 49
0.25
 74
     0
 49
-1.5
 74
     0
 49
0.25
 74
     0
 49
-1.5
 74
     0
  0
LTYPE
  5
AF
330
5
100
AcDbSymbolTableRecord
100
AcDbLinetypeTableRecord
  2
SXF_三点短鎖線
 70
     0
  3
14 dashed triplicate-dotted -- . . . -- . . . --
 72
    65
 73
     8
 40
12.75
 49
6.0
 74
     0
 49
-1.5
 74
     0
 49
0.25
 74
     0
 49
-1.5
 74
     0
 49
0.25
 74
     0
 49
-1.5
 74
     0
 49
0.25
 74
     0
 49
-1.5
 74
     0
  0
LTYPE
  5
B0
330
5
100
AcDbSymbolTableRecord
100
AcDbLinetypeTableRecord
  2
SXF_三点二短鎖線
 70
     0
  3
15 double-dashed triplicate-dotted -- -- . . . -- -- 
 72
    65
 73
    10
 40
20.25
 49
6.0
 74
     0
 49
-1.5
 74
     0
 49
6.0
 74
     0
 49
-1.5
 74
     0
 49
0.25
 74
     0
 49
-1.5
 74
     0
 49
0.25
 74
     0
 49
-1.5
 74
     0
 49
0.25
 74
     0
 49
-1.5
 74
     0
  0
ENDTAB
  0
TABLE
  2
LAYER
  5
2
330
0
100
AcDbSymbolTable
 70
     4
  0
LAYER
  5
10
330
2
100
AcDbSymbolTableRecord
100
AcDbLayerTableRecord
  2
0
 70
     0
 62
     7
  6
CONTINUOUS
  0
LAYER
  5
B1
330
2
100
AcDbSymbolTableRecord
100
AcDbLayerTableRecord
  2
LAYER0032
 70
     0
 62
     7
  6
CONTINUOUS
  0
LAYER
  5
B2
330
2
100
AcDbSymbolTableRecord
100
AcDbLayerTableRecord
  2
LAYER0034
 70
     0
 62
     7
  6
CONTINUOUS
  0
LAYER
  5
B3
330
2
100
AcDbSymbolTableRecord
100
AcDbLayerTableRecord
  2
LAYER0048
 70
     0
 62
     7
  6
CONTINUOUS
  0
ENDTAB
  0
TABLE
  2
STYLE
  5
3
330
0
100
AcDbSymbolTable
 70
     4
  0
STYLE
  5
11
330
3
100
AcDbSymbolTableRecord
100
AcDbTextStyleTableRecord
  2
STANDARD
 70
     0
 40
0.0
 41
1.0
 50
0.0
 71
     0
 42
0.2
  3
txt.shx
  4
bigfont.shx
  0
STYLE
  5
115
330
3
100
AcDbSymbolTableRecord
100
AcDbTextStyleTableRecord
  2
DCSTYLE0
 70
     0
 40
0.0
 41
0.8
 50
0.0
 71
     0
 42
0.2
  3
ＭＳ Ｐゴシック
  4

1001
ACAD
1000
ＭＳ Ｐゴシック
1071
    32802
  0
STYLE
  5
219
330
3
100
AcDbSymbolTableRecord
100
AcDbTextStyleTableRecord
  2
DCSTYLE1
 70
     0
 40
0.0
 41
0.8
 50
0.0
 71
     0
 42
0.2
  3
ＭＳ ゴシック
  4

1001
ACAD
1000
ＭＳ ゴシック
1071
    32802
  0
STYLE
  5
21B
330
3
100
AcDbSymbolTableRecord
100
AcDbTextStyleTableRecord
  2
DCSTYLE2
 70
     0
 40
0.0
 41
0.8
 50
0.0
 71
     0
 42
0.2
  3
HGRSGU.TTC
  4

1001
ACAD
1000
HGP創英角ｺﾞｼｯｸUB
1071
    32802
  0
ENDTAB
  0
TABLE
  2
VIEW
  5
6
330
0
100
AcDbSymbolTable
 70
     0
  0
ENDTAB
  0
TABLE
  2
UCS
  5
7
330
0
100
AcDbSymbolTable
 70
     0
  0
ENDTAB
  0
TABLE
  2
APPID
  5
9
330
0
100
AcDbSymbolTable
 70
     3
  0
APPID
  5
12
330
9
100
AcDbSymbolTableRecord
100
AcDbRegAppTableRecord
  2
ACAD
 70
     0
  0
APPID
  5
6E
330
9
100
AcDbSymbolTableRecord
100
AcDbRegAppTableRecord
  2
DAFUSIONOUT
 70
     0
  0
APPID
  5
66B
330
9
100
AcDbSymbolTableRecord
100
AcDbRegAppTableRecord
  2
ACAD_MLEADERVER
 70
     0
  0
ENDTAB
  0
TABLE
  2
DIMSTYLE
  5
A
330
0
100
AcDbSymbolTable
 70
     2
  0
DIMSTYLE
105
27
330
A
100
AcDbSymbolTableRecord
100
AcDbDimStyleTableRecord
  2
STANDARD
 70
     0
  3

  4

  5

  6

  7

 40
1.0
 41
0.18
 42
0.0625
 43
0.38
 44
0.18
 45
0.0
 46
0.0
 47
0.0
 48
0.0
140
0.18
141
0.09
142
0.0
143
25.4
144
1.0
145
0.0
146
1.0
147
0.09
 71
     0
 72
     0
 73
     1
 74
     1
 75
     0
 76
     0
 77
     0
 78
     0
170
     0
171
     2
172
     0
173
     0
174
     0
175
     0
176
     0
177
     0
178
     0
270
     2
271
     4
272
     4
273
     2
274
     2
340
11
275
     0
280
     0
281
     0
282
     0
283
     1
284
     0
285
     0
286
     0
287
     3
288
     0
  0
DIMSTYLE
105
404
102
{ACAD_REACTORS
330
403
330
405
330
406
330
407
330
408
330
409
330
40A
330
40D
330
40E
102
}
330
A
100
AcDbSymbolTableRecord
100
AcDbDimStyleTableRecord
  2
DC_ROTATED
 70
     0
  3

  4

  5

  6
OPEN30
  7
OPEN30
 40
1.0
 41
90.00005722045898
 42
30.0
 43
0.38
 44
25.0
 45
0.0
 46
0.0
 47
0.0
 48
0.0
140
90.0
141
0.09
142
0.0
143
25.4
144
1.0
145
0.0
146
1.0
147
25.0
 71
     0
 72
     0
 73
     0
 74
     0
 75
     0
 76
     0
 77
     3
 78
     8
170
     0
171
     2
172
     1
173
     1
174
     0
175
     0
176
     4
177
     4
178
     4
270
     2
271
     1
272
     4
273
     2
274
     4
340
115
275
     0
280
     0
281
     0
282
     0
283
     0
284
     8
285
     0
286
     0
287
     3
288
     1
  0
ENDTAB
  0
TABLE
  2
BLOCK_RECORD
  5
1
330
0
100
AcDbSymbolTable
 70
    33
  0
BLOCK_RECORD
  5
1F
330
1
100
AcDbSymbolTableRecord
100
AcDbBlockTableRecord
  2
*MODEL_SPACE
  0
BLOCK_RECORD
  5
1B
330
1
100
AcDbSymbolTableRecord
100
AcDbBlockTableRecord
  2
*PAPER_SPACE
  0
BLOCK_RECORD
  5
B5
330
1
100
AcDbSymbolTableRecord
100
AcDbBlockTableRecord
  2
DC_GROUP_1
  0
BLOCK_RECORD
  5
B8
330
1
100
AcDbSymbolTableRecord
100
AcDbBlockTableRecord
  2
DC_GROUP_2
  0
BLOCK_RECORD
  5
BB
330
1
100
AcDbSymbolTableRecord
100
AcDbBlockTableRecord
  2
DC_GROUP_3
  0
BLOCK_RECORD
  5
BE
330
1
100
AcDbSymbolTableRecord
100
AcDbBlockTableRecord
  2
*D4
  0
BLOCK_RECORD
  5
C1
330
1
100
AcDbSymbolTableRecord
100
AcDbBlockTableRecord
  2
*D5
  0
BLOCK_RECORD
  5
C4
330
1
100
AcDbSymbolTableRecord
100
AcDbBlockTableRecord
  2
*D6
  0
BLOCK_RECORD
  5
C7
330
1
100
AcDbSymbolTableRecord
100
AcDbBlockTableRecord
  2
*D7
  0
BLOCK_RECORD
  5
CA
330
1
100
AcDbSymbolTableRecord
100
AcDbBlockTableRecord
  2
*D8
  0
BLOCK_RECORD
  5
CD
330
1
100
AcDbSymbolTableRecord
100
AcDbBlockTableRecord
  2
*D9
  0
BLOCK_RECORD
  5
D0
330
1
100
AcDbSymbolTableRecord
100
AcDbBlockTableRecord
  2
*D10
  0
BLOCK_RECORD
  5
D3
330
1
100
AcDbSymbolTableRecord
100
AcDbBlockTableRecord
  2
DC_GROUP_4
  0
BLOCK_RECORD
  5
D6
330
1
100
AcDbSymbolTableRecord
100
AcDbBlockTableRecord
  2
DC_GROUP_5
  0
BLOCK_RECORD
  5
D9
330
1
100
AcDbSymbolTableRecord
100
AcDbBlockTableRecord
  2
*D13
  0
BLOCK_RECORD
  5
DC
330
1
100
AcDbSymbolTableRecord
100
AcDbBlockTableRecord
  2
*D14
  0
BLOCK_RECORD
  5
DF
330
1
100
AcDbSymbolTableRecord
100
AcDbBlockTableRecord
  2
DC_GROUP_6
  0
BLOCK_RECORD
  5
E2
330
1
100
AcDbSymbolTableRecord
100
AcDbBlockTableRecord
  2
DC_GROUP_7
  0
BLOCK_RECORD
  5
E5
330
1
100
AcDbSymbolTableRecord
100
AcDbBlockTableRecord
  2
DC_GROUP_8
  0
BLOCK_RECORD
  5
E8
330
1
100
AcDbSymbolTableRecord
100
AcDbBlockTableRecord
  2
DC_GROUP_9
  0
BLOCK_RECORD
  5
EB
330
1
100
AcDbSymbolTableRecord
100
AcDbBlockTableRecord
  2
DC_GROUP_10
  0
BLOCK_RECORD
  5
EE
330
1
100
AcDbSymbolTableRecord
100
AcDbBlockTableRecord
  2
DC_GROUP_11
  0
BLOCK_RECORD
  5
F1
330
1
100
AcDbSymbolTableRecord
100
AcDbBlockTableRecord
  2
DC_GROUP_12
  0
BLOCK_RECORD
  5
F4
330
1
100
AcDbSymbolTableRecord
100
AcDbBlockTableRecord
  2
DC_GROUP_13
  0
BLOCK_RECORD
  5
F7
330
1
100
AcDbSymbolTableRecord
100
AcDbBlockTableRecord
  2
DC_GROUP_14
  0
BLOCK_RECORD
  5
FA
330
1
100
AcDbSymbolTableRecord
100
AcDbBlockTableRecord
  2
DC_GROUP_15
  0
BLOCK_RECORD
  5
FD
330
1
100
AcDbSymbolTableRecord
100
AcDbBlockTableRecord
  2
DC_GROUP_16
  0
BLOCK_RECORD
  5
100
330
1
100
AcDbSymbolTableRecord
100
AcDbBlockTableRecord
  2
DC_GROUP_17
  0
BLOCK_RECORD
  5
103
330
1
100
AcDbSymbolTableRecord
100
AcDbBlockTableRecord
  2
DC_GROUP_18
  0
BLOCK_RECORD
  5
106
330
1
100
AcDbSymbolTableRecord
100
AcDbBlockTableRecord
  2
DC_GROUP_19
  0
BLOCK_RECORD
  5
109
330
1
100
AcDbSymbolTableRecord
100
AcDbBlockTableRecord
  2
DC_GROUP_20
  0
BLOCK_RECORD
  5
10C
330
1
100
AcDbSymbolTableRecord
100
AcDbBlockTableRecord
  2
DC_GROUP_21
  0
BLOCK_RECORD
  5
10F
330
1
100
AcDbSymbolTableRecord
100
AcDbBlockTableRecord
  2
DC_GROUP_22
  0
BLOCK_RECORD
  5
112
330
1
100
AcDbSymbolTableRecord
100
AcDbBlockTableRecord
  2
DC_GROUP_23
  0
BLOCK_RECORD
  5
11D
330
1
100
AcDbSymbolTableRecord
100
AcDbBlockTableRecord
  2
_OPEN30
  0
ENDTAB
  0
ENDSEC
  0
SECTION
  2
BLOCKS
  0
BLOCK
  5
20
330
1F
100
AcDbEntity
  8
0
100
AcDbBlockBegin
  2
*MODEL_SPACE
 70
     0
 10
0.0
 20
0.0
 30
0.0
  3
*MODEL_SPACE
  1

  0
ENDBLK
  5
21
330
1F
100
AcDbEntity
  8
0
100
AcDbBlockEnd
  0
BLOCK
  5
1C
330
1B
100
AcDbEntity
 67
     1
  8
0
100
AcDbBlockBegin
  2
*PAPER_SPACE
 70
     0
 10
0.0
 20
0.0
 30
0.0
  3
*PAPER_SPACE
  1

  0
ENDBLK
  5
1D
330
1B
100
AcDbEntity
 67
     1
  8
0
100
AcDbBlockEnd
  0
BLOCK
  5
B6
330
B5
100
AcDbEntity
  8
0
100
AcDbBlockBegin
  2
DC_GROUP_1
 70
     0
 10
0.0
 20
0.0
 30
0.0
  3
DC_GROUP_1
  1

  0
TEXT
  5
116
330
B5
100
AcDbEntity
  8
LAYER0048
 62
     2
100
AcDbText
 10
-3559.390159708806
 20
-789.7058258689622
 30
0.0
 40
150.0
  1
注   意
 41
1.038081189520888
  7
DCSTYLE0
 72
     5
 11
-2899.390159708806
 21
-789.7058258689622
 31
0.0
100
AcDbText
  0
LINE
  5
117
330
B5
100
AcDbEntity
  8
LAYER0048
  6
CONTINUOUS
 62
     7
100
AcDbLine
 10
-3574.390159708806
 20
-786.7058258689622
 30
0.0
 11
-2884.390159708806
 21
-786.7058258689622
 31
0.0
  0
ENDBLK
  5
B7
330
B5
100
AcDbEntity
  8
0
100
AcDbBlockEnd
  0
BLOCK
  5
B9
330
B8
100
AcDbEntity
  8
0
100
AcDbBlockBegin
  2
DC_GROUP_2
 70
     0
 10
0.0
 20
0.0
 30
0.0
  3
DC_GROUP_2
  1

  0
CIRCLE
  5
118
330
B8
100
AcDbEntity
  8
LAYER0032
  6
CONTINUOUS
 62
     3
100
AcDbCircle
 10
2036.441031496593
 20
1151.207633120635
 30
0.0
 40
5.053
  0
CIRCLE
  5
119
330
B8
100
AcDbEntity
  8
LAYER0032
  6
CONTINUOUS
 62
     3
100
AcDbCircle
 10
2036.441031496593
 20
1151.207633120635
 30
0.0
 40
6.0
  0
ENDBLK
  5
BA
330
B8
100
AcDbEntity
  8
0
100
AcDbBlockEnd
  0
BLOCK
  5
BC
330
BB
100
AcDbEntity
  8
0
100
AcDbBlockBegin
  2
DC_GROUP_3
 70
     0
 10
0.0
 20
0.0
 30
0.0
  3
DC_GROUP_3
  1

  0
CIRCLE
  5
11A
330
BB
100
AcDbEntity
  8
LAYER0032
  6
CONTINUOUS
 62
     3
100
AcDbCircle
 10
2036.441031496593
 20
303.2076331206354
 30
0.0
 40
5.053
  0
CIRCLE
  5
11B
330
BB
100
AcDbEntity
  8
LAYER0032
  6
CONTINUOUS
 62
     3
100
AcDbCircle
 10
2036.441031496593
 20
303.2076331206354
 30
0.0
 40
6.0
  0
ENDBLK
  5
BD
330
BB
100
AcDbEntity
  8
0
100
AcDbBlockEnd
  0
BLOCK
  5
BF
330
BE
100
AcDbEntity
  8
0
100
AcDbBlockBegin
  2
*D4
 70
     1
 10
0.0
 20
0.0
 30
0.0
  3
*D4
  1

  0
LINE
  5
11C
330
BE
100
AcDbEntity
  8
LAYER0032
  6
CONTINUOUS
 62
     4
100
AcDbLine
 10
106.4410314965925
 20
1348.781508993051
 30
0.0
 11
2036.441031496593
 21
1348.781508993051
 31
0.0
  0
INSERT
  5
123
330
BE
100
AcDbEntity
  8
LAYER0032
 62
     4
100
AcDbBlockReference
  2
_OPEN30
 10
106.4410314965925
 20
1348.781508993051
 30
0.0
 41
90.00008422845858
 42
89.99968104670928
 50
180.0
  0
INSERT
  5
124
330
BE
100
AcDbEntity
  8
LAYER0032
 62
     4
100
AcDbBlockReference
  2
_OPEN30
 10
2036.441031496593
 20
1348.781508993051
 30
0.0
 41
90.00008422845858
 42
89.99968104670928
 50
360.0
  0
LINE
  5
125
330
BE
100
AcDbEntity
  8
LAYER0032
  6
CONTINUOUS
 62
     4
100
AcDbLine
 10
106.4410314965925
 20
1208.707633120635
 30
0.0
 11
106.4410314965925
 21
1373.781508993051
 31
0.0
  0
LINE
  5
126
330
BE
100
AcDbEntity
  8
LAYER0032
  6
CONTINUOUS
 62
     4
100
AcDbLine
 10
2036.441031496593
 20
1206.207633120635
 30
0.0
 11
2036.441031496593
 21
1373.781508993051
 31
0.0
  0
TEXT
  5
127
330
BE
100
AcDbEntity
  8
LAYER0032
 62
     4
100
AcDbText
 10
927.4410314965921
 20
1373.781508993051
 30
0.0
 40
90.0
  1
1930
 41
1.1
  7
DCSTYLE0
 72
     5
 11
1215.441031496592
 21
1373.781508993051
 31
0.0
100
AcDbText
  0
ENDBLK
  5
C0
330
BE
100
AcDbEntity
  8
0
100
AcDbBlockEnd
  0
BLOCK
  5
C2
330
C1
100
AcDbEntity
  8
0
100
AcDbBlockBegin
  2
*D5
 70
     1
 10
0.0
 20
0.0
 30
0.0
  3
*D5
  1

  0
LINE
  5
128
330
C1
100
AcDbEntity
  8
LAYER0032
  6
CONTINUOUS
 62
     4
100
AcDbLine
 10
-28.55896850340753
 20
1521.911712567236
 30
0.0
 11
2171.441031496593
 21
1521.911712567236
 31
0.0
  0
INSERT
  5
129
330
C1
100
AcDbEntity
  8
LAYER0032
 62
     4
100
AcDbBlockReference
  2
_OPEN30
 10
-28.55896850340753
 20
1521.911712567236
 30
0.0
 41
90.00008422845858
 42
89.99968104670928
 50
180.0
  0
INSERT
  5
12A
330
C1
100
AcDbEntity
  8
LAYER0032
 62
     4
100
AcDbBlockReference
  2
_OPEN30
 10
2171.441031496593
 20
1521.911712567236
 30
0.0
 41
90.00008422845858
 42
89.99968104670928
 50
360.0
  0
LINE
  5
12B
330
C1
100
AcDbEntity
  8
LAYER0032
  6
CONTINUOUS
 62
     4
100
AcDbLine
 10
-28.55896850340753
 20
1245.207633120635
 30
0.0
 11
-28.55896850340753
 21
1549.911712567236
 31
0.0
  0
LINE
  5
12C
330
C1
100
AcDbEntity
  8
LAYER0032
  6
CONTINUOUS
 62
     4
100
AcDbLine
 10
2171.441031496593
 20
1245.207633120635
 30
0.0
 11
2171.441031496593
 21
1549.911712567236
 31
0.0
  0
TEXT
  5
12D
330
C1
100
AcDbEntity
  8
LAYER0032
 62
     4
100
AcDbText
 10
927.4410314965921
 20
1546.911712567236
 30
0.0
 40
90.0
  1
2200
 41
1.1
  7
DCSTYLE0
 72
     5
 11
1215.441031496592
 21
1546.911712567236
 31
0.0
100
AcDbText
  0
ENDBLK
  5
C3
330
C1
100
AcDbEntity
  8
0
100
AcDbBlockEnd
  0
BLOCK
  5
C5
330
C4
100
AcDbEntity
  8
0
100
AcDbBlockBegin
  2
*D6
 70
     1
 10
0.0
 20
0.0
 30
0.0
  3
*D6
  1

  0
LINE
  5
12E
330
C4
100
AcDbEntity
  8
LAYER0032
  6
CONTINUOUS
 62
     4
100
AcDbLine
 10
81.44103149659247
 20
-1118.055818443132
 30
0.0
 11
2061.441031496593
 21
-1118.055818443132
 31
0.0
  0
INSERT
  5
12F
330
C4
100
AcDbEntity
  8
LAYER0032
 62
     4
100
AcDbBlockReference
  2
_OPEN30
 10
81.44103149659247
 20
-1118.055818443132
 30
0.0
 41
90.00008422845858
 42
89.99968104670928
 50
180.0
  0
INSERT
  5
130
330
C4
100
AcDbEntity
  8
LAYER0032
 62
     4
100
AcDbBlockReference
  2
_OPEN30
 10
2061.441031496593
 20
-1118.055818443132
 30
0.0
 41
90.00008422845858
 42
89.99968104670928
 50
360.0
  0
LINE
  5
131
330
C4
100
AcDbEntity
  8
LAYER0032
  6
CONTINUOUS
 62
     4
100
AcDbLine
 10
81.44103149659247
 20
-986.9656343536617
 30
0.0
 11
81.44103149659247
 21
-1143.055818443132
 31
0.0
  0
LINE
  5
132
330
C4
100
AcDbEntity
  8
LAYER0032
  6
CONTINUOUS
 62
     4
100
AcDbLine
 10
2061.441031496593
 20
-986.9656343536617
 30
0.0
 11
2061.441031496593
 21
-1143.055818443132
 31
0.0
  0
TEXT
  5
133
330
C4
100
AcDbEntity
  8
LAYER0032
 62
     4
100
AcDbText
 10
927.4410314965926
 20
-1093.055818443133
 30
0.0
 40
90.0
  1
1980
 41
1.1
  7
DCSTYLE0
 72
     5
 11
1215.441031496593
 21
-1093.055818443133
 31
0.0
100
AcDbText
  0
ENDBLK
  5
C6
330
C4
100
AcDbEntity
  8
0
100
AcDbBlockEnd
  0
BLOCK
  5
C8
330
C7
100
AcDbEntity
  8
0
100
AcDbBlockBegin
  2
*D7
 70
     1
 10
0.0
 20
0.0
 30
0.0
  3
*D7
  1

  0
LINE
  5
134
330
C7
100
AcDbEntity
  8
LAYER0032
  6
CONTINUOUS
 62
     4
100
AcDbLine
 10
2729.241031496607
 20
-1118.055818443132
 30
0.0
 11
3669.241031496606
 21
-1118.055818443132
 31
0.0
  0
INSERT
  5
135
330
C7
100
AcDbEntity
  8
LAYER0032
 62
     4
100
AcDbBlockReference
  2
_OPEN30
 10
2729.241031496607
 20
-1118.055818443132
 30
0.0
 41
90.00008422845858
 42
89.99968104670928
 50
180.0
  0
INSERT
  5
136
330
C7
100
AcDbEntity
  8
LAYER0032
 62
     4
100
AcDbBlockReference
  2
_OPEN30
 10
3669.241031496606
 20
-1118.055818443132
 30
0.0
 41
90.00008422845858
 42
89.99968104670928
 50
360.0
  0
LINE
  5
137
330
C7
100
AcDbEntity
  8
LAYER0032
  6
CONTINUOUS
 62
     4
100
AcDbLine
 10
2729.241031496607
 20
-982.2202469517279
 30
0.0
 11
2729.241031496607
 21
-1143.055818443132
 31
0.0
  0
LINE
  5
138
330
C7
100
AcDbEntity
  8
LAYER0032
  6
CONTINUOUS
 62
     4
100
AcDbLine
 10
3669.241031496606
 20
-982.2202469517279
 30
0.0
 11
3669.241031496606
 21
-1143.055818443132
 31
0.0
  0
TEXT
  5
139
330
C7
100
AcDbEntity
  8
LAYER0032
 62
     4
100
AcDbText
 10
3091.241031496607
 20
-1093.055818443133
 30
0.0
 40
90.0
  1
940
 41
1.1
  7
DCSTYLE0
 72
     5
 11
3307.241031496607
 21
-1093.055818443133
 31
0.0
100
AcDbText
  0
ENDBLK
  5
C9
330
C7
100
AcDbEntity
  8
0
100
AcDbBlockEnd
  0
BLOCK
  5
CB
330
CA
100
AcDbEntity
  8
0
100
AcDbBlockBegin
  2
*D8
 70
     1
 10
0.0
 20
0.0
 30
0.0
  3
*D8
  1

  0
LINE
  5
13A
330
CA
100
AcDbEntity
  8
LAYER0032
  6
CONTINUOUS
 62
     4
100
AcDbLine
 10
-174.3695438761367
 20
-943.2138456146731
 30
0.0
 11
-174.3695438761367
 21
-883.2138456146722
 31
0.0
  0
LINE
  5
13B
330
CA
100
AcDbEntity
  8
LAYER0032
  6
CONTINUOUS
 62
     4
100
AcDbLine
 10
12.94103149659247
 20
-943.2138456146731
 30
0.0
 11
-202.3695438761367
 21
-943.2138456146731
 31
0.0
  0
LINE
  5
13C
330
CA
100
AcDbEntity
  8
LAYER0032
  6
CONTINUOUS
 62
     4
100
AcDbLine
 10
-56.55896850340753
 20
-883.2138456146722
 30
0.0
 11
-202.3695438761367
 21
-883.2138456146722
 31
0.0
  0
LINE
  5
13D
330
CA
100
AcDbEntity
  8
LAYER0032
  6
CONTINUOUS
 62
     4
100
AcDbLine
 10
-174.3695438761367
 20
-1214.751685614674
 30
0.0
 11
-174.3695438761367
 21
-943.213845614674
 31
0.0
  0
INSERT
  5
13E
330
CA
100
AcDbEntity
  8
LAYER0032
 62
     4
100
AcDbBlockReference
  2
_OPEN30
 10
-174.3695438761367
 20
-943.213845614674
 30
0.0
 41
90.00008422845858
 42
89.99968104670928
 50
90.0
  0
TEXT
  5
13F
330
CA
100
AcDbEntity
  8
LAYER0032
 62
     4
100
AcDbText
 10
-202.3695438761368
 20
-1196.351685614673
 30
0.0
 40
90.0
  1
60
 50
90.0
 41
1.1
  7
DCSTYLE0
 72
     5
 11
-202.3695438761368
 21
-1052.351685614673
 31
0.0
100
AcDbText
  0
ENDBLK
  5
CC
330
CA
100
AcDbEntity
  8
0
100
AcDbBlockEnd
  0
BLOCK
  5
CE
330
CD
100
AcDbEntity
  8
0
100
AcDbBlockBegin
  2
*D9
 70
     1
 10
0.0
 20
0.0
 30
0.0
  3
*D9
  1

  0
LINE
  5
140
330
CD
100
AcDbEntity
  8
LAYER0032
  6
CONTINUOUS
 62
     4
100
AcDbLine
 10
-174.3695438761367
 20
-883.2138456146722
 30
0.0
 11
-174.3695438761367
 21
-383.2138456146722
 31
0.0
  0
INSERT
  5
141
330
CD
100
AcDbEntity
  8
LAYER0032
 62
     4
100
AcDbBlockReference
  2
_OPEN30
 10
-174.3695438761367
 20
-883.2138456146722
 30
0.0
 41
90.00008422845858
 42
89.99968104670928
 50
270.0
  0
INSERT
  5
142
330
CD
100
AcDbEntity
  8
LAYER0032
 62
     4
100
AcDbBlockReference
  2
_OPEN30
 10
-174.3695438761367
 20
-383.2138456146722
 30
0.0
 41
90.00008422845858
 42
89.99968104670928
 50
90.0
  0
LINE
  5
143
330
CD
100
AcDbEntity
  8
LAYER0032
  6
CONTINUOUS
 62
     4
100
AcDbLine
 10
-56.55896850340753
 20
-883.2138456146722
 30
0.0
 11
-202.3695438761367
 21
-883.2138456146722
 31
0.0
  0
LINE
  5
144
330
CD
100
AcDbEntity
  8
LAYER0032
  6
CONTINUOUS
 62
     4
100
AcDbLine
 10
-56.55896850340753
 20
-383.2138456146722
 30
0.0
 11
-202.3695438761367
 21
-383.2138456146722
 31
0.0
  0
TEXT
  5
145
330
CD
100
AcDbEntity
  8
LAYER0032
 62
     4
100
AcDbText
 10
-202.3695438761368
 20
-741.2138456146722
 30
0.0
 40
90.0
  1
500
 50
90.0
 41
1.1
  7
DCSTYLE0
 72
     5
 11
-202.3695438761368
 21
-525.2138456146722
 31
0.0
100
AcDbText
  0
ENDBLK
  5
CF
330
CD
100
AcDbEntity
  8
0
100
AcDbBlockEnd
  0
BLOCK
  5
D1
330
D0
100
AcDbEntity
  8
0
100
AcDbBlockBegin
  2
*D10
 70
     1
 10
0.0
 20
0.0
 30
0.0
  3
*D10
  1

  0
LINE
  5
146
330
D0
100
AcDbEntity
  8
LAYER0032
  6
CONTINUOUS
 62
     4
100
AcDbLine
 10
-351.1922074513592
 20
-943.2138456146731
 30
0.0
 11
-351.1922074513592
 21
-383.2138456146722
 31
0.0
  0
INSERT
  5
147
330
D0
100
AcDbEntity
  8
LAYER0032
 62
     4
100
AcDbBlockReference
  2
_OPEN30
 10
-351.1922074513592
 20
-943.2138456146731
 30
0.0
 41
90.00008422845858
 42
89.99968104670928
 50
270.0
  0
INSERT
  5
148
330
D0
100
AcDbEntity
  8
LAYER0032
 62
     4
100
AcDbBlockReference
  2
_OPEN30
 10
-351.1922074513592
 20
-383.2138456146722
 30
0.0
 41
90.00008422845858
 42
89.99968104670928
 50
90.0
  0
LINE
  5
149
330
D0
100
AcDbEntity
  8
LAYER0032
  6
CONTINUOUS
 62
     4
100
AcDbLine
 10
12.94103149659247
 20
-943.2138456146731
 30
0.0
 11
-379.1922074513592
 21
-943.2138456146731
 31
0.0
  0
LINE
  5
14A
330
D0
100
AcDbEntity
  8
LAYER0032
  6
CONTINUOUS
 62
     4
100
AcDbLine
 10
-56.55896850340753
 20
-383.2138456146722
 30
0.0
 11
-379.1922074513592
 21
-383.2138456146722
 31
0.0
  0
TEXT
  5
14B
330
D0
100
AcDbEntity
  8
LAYER0032
 62
     4
100
AcDbText
 10
-379.1922074513593
 20
-771.213845614674
 30
0.0
 40
90.0
  1
560
 50
90.0
 41
1.1
  7
DCSTYLE0
 72
     5
 11
-379.1922074513593
 21
-555.213845614674
 31
0.0
100
AcDbText
  0
ENDBLK
  5
D2
330
D0
100
AcDbEntity
  8
0
100
AcDbBlockEnd
  0
BLOCK
  5
D4
330
D3
100
AcDbEntity
  8
0
100
AcDbBlockBegin
  2
DC_GROUP_4
 70
     0
 10
0.0
 20
0.0
 30
0.0
  3
DC_GROUP_4
  1

  0
CIRCLE
  5
14C
330
D3
100
AcDbEntity
  8
LAYER0032
  6
CONTINUOUS
 62
     3
100
AcDbCircle
 10
106.4410314965916
 20
303.2076331206354
 30
0.0
 40
5.053
  0
CIRCLE
  5
14D
330
D3
100
AcDbEntity
  8
LAYER0032
  6
CONTINUOUS
 62
     3
100
AcDbCircle
 10
106.4410314965916
 20
303.2076331206354
 30
0.0
 40
6.0
  0
ENDBLK
  5
D5
330
D3
100
AcDbEntity
  8
0
100
AcDbBlockEnd
  0
BLOCK
  5
D7
330
D6
100
AcDbEntity
  8
0
100
AcDbBlockBegin
  2
DC_GROUP_5
 70
     0
 10
0.0
 20
0.0
 30
0.0
  3
DC_GROUP_5
  1

  0
CIRCLE
  5
14E
330
D6
100
AcDbEntity
  8
LAYER0032
  6
CONTINUOUS
 62
     3
100
AcDbCircle
 10
106.4410314965916
 20
1151.207633120635
 30
0.0
 40
5.053
  0
CIRCLE
  5
14F
330
D6
100
AcDbEntity
  8
LAYER0032
  6
CONTINUOUS
 62
     3
100
AcDbCircle
 10
106.4410314965916
 20
1151.207633120635
 30
0.0
 40
6.0
  0
ENDBLK
  5
D8
330
D6
100
AcDbEntity
  8
0
100
AcDbBlockEnd
  0
BLOCK
  5
DA
330
D9
100
AcDbEntity
  8
0
100
AcDbBlockBegin
  2
*D13
 70
     1
 10
0.0
 20
0.0
 30
0.0
  3
*D13
  1

  0
LINE
  5
150
330
D9
100
AcDbEntity
  8
LAYER0032
  6
CONTINUOUS
 62
     4
100
AcDbLine
 10
-174.3695438761367
 20
303.2076331206354
 30
0.0
 11
-174.3695438761367
 21
1151.207633120635
 31
0.0
  0
INSERT
  5
151
330
D9
100
AcDbEntity
  8
LAYER0032
 62
     4
100
AcDbBlockReference
  2
_OPEN30
 10
-174.3695438761367
 20
303.2076331206354
 30
0.0
 41
90.00008422845858
 42
89.99968104670928
 50
270.0
  0
INSERT
  5
152
330
D9
100
AcDbEntity
  8
LAYER0032
 62
     4
100
AcDbBlockReference
  2
_OPEN30
 10
-174.3695438761367
 20
1151.207633120635
 30
0.0
 41
90.00008422845858
 42
89.99968104670928
 50
90.0
  0
LINE
  5
153
330
D9
100
AcDbEntity
  8
LAYER0032
  6
CONTINUOUS
 62
     4
100
AcDbLine
 10
48.56202882848254
 20
303.2076331206354
 30
0.0
 11
-202.3695438761367
 21
303.2076331206354
 31
0.0
  0
LINE
  5
154
330
D9
100
AcDbEntity
  8
LAYER0032
  6
CONTINUOUS
 62
     4
100
AcDbLine
 10
48.56202882848254
 20
1151.207633120635
 30
0.0
 11
-202.3695438761367
 21
1151.207633120635
 31
0.0
  0
TEXT
  5
155
330
D9
100
AcDbEntity
  8
LAYER0032
 62
     4
100
AcDbText
 10
-202.3695438761367
 20
619.2076331206354
 30
0.0
 40
90.0
  1
848
 50
90.0
 41
1.1
  7
DCSTYLE0
 72
     5
 11
-202.3695438761367
 21
835.2076331206354
 31
0.0
100
AcDbText
  0
ENDBLK
  5
DB
330
D9
100
AcDbEntity
  8
0
100
AcDbBlockEnd
  0
BLOCK
  5
DD
330
DC
100
AcDbEntity
  8
0
100
AcDbBlockBegin
  2
*D14
 70
     1
 10
0.0
 20
0.0
 30
0.0
  3
*D14
  1

  0
LINE
  5
156
330
DC
100
AcDbEntity
  8
LAYER0032
  6
CONTINUOUS
 62
     4
100
AcDbLine
 10
-351.1922074513592
 20
237.2076331206345
 30
0.0
 11
-351.1922074513592
 21
1217.207633120635
 31
0.0
  0
INSERT
  5
157
330
DC
100
AcDbEntity
  8
LAYER0032
 62
     4
100
AcDbBlockReference
  2
_OPEN30
 10
-351.1922074513592
 20
237.2076331206345
 30
0.0
 41
90.00008422845858
 42
89.99968104670928
 50
270.0
  0
INSERT
  5
158
330
DC
100
AcDbEntity
  8
LAYER0032
 62
     4
100
AcDbBlockReference
  2
_OPEN30
 10
-351.1922074513592
 20
1217.207633120635
 30
0.0
 41
90.00008422845858
 42
89.99968104670928
 50
90.0
  0
LINE
  5
159
330
DC
100
AcDbEntity
  8
LAYER0032
  6
CONTINUOUS
 62
     4
100
AcDbLine
 10
-56.55896850340753
 20
237.2076331206345
 30
0.0
 11
-379.1922074513592
 21
237.2076331206345
 31
0.0
  0
LINE
  5
15A
330
DC
100
AcDbEntity
  8
LAYER0032
  6
CONTINUOUS
 62
     4
100
AcDbLine
 10
-56.55896850340753
 20
1217.207633120635
 30
0.0
 11
-379.1922074513592
 21
1217.207633120635
 31
0.0
  0
TEXT
  5
15B
330
DC
100
AcDbEntity
  8
LAYER0032
 62
     4
100
AcDbText
 10
-379.1922074513593
 20
619.2076331206345
 30
0.0
 40
90.0
  1
980
 50
90.0
 41
1.1
  7
DCSTYLE0
 72
     5
 11
-379.1922074513593
 21
835.2076331206345
 31
0.0
100
AcDbText
  0
ENDBLK
  5
DE
330
DC
100
AcDbEntity
  8
0
100
AcDbBlockEnd
  0
BLOCK
  5
E0
330
DF
100
AcDbEntity
  8
0
100
AcDbBlockBegin
  2
DC_GROUP_6
 70
     0
 10
0.0
 20
0.0
 30
0.0
  3
DC_GROUP_6
  1

  0
LINE
  5
15C
330
DF
100
AcDbEntity
  8
LAYER0034
  6
CONTINUOUS
 62
     3
100
AcDbLine
 10
3209.336037496606
 20
-875.3460214222387
 30
0.0
 11
3210.216031496606
 21
-892.9458964222385
 31
0.0
  0
LINE
  5
15D
330
DF
100
AcDbEntity
  8
LAYER0034
  6
CONTINUOUS
 62
     3
100
AcDbLine
 10
3208.991031496606
 20
-903.744935422239
 30
0.0
 11
3210.241031496606
 21
-903.0232474222385
 31
0.0
  0
LINE
  5
15E
330
DF
100
AcDbEntity
  8
LAYER0034
  6
CONTINUOUS
 62
     3
100
AcDbLine
 10
3211.241031496606
 20
-901.2911964222385
 30
0.0
 11
3211.241031496606
 21
-893.9458964222385
 31
0.0
  0
ARC
  5
15F
330
DF
100
AcDbEntity
  8
LAYER0034
  6
CONTINUOUS
 62
     3
100
AcDbCircle
 10
3209.241031496606
 20
-901.2911964222385
 30
0.0
 40
2.0
100
AcDbArc
 50
300.0
 51
0.0
  0
ARC
  5
160
330
DF
100
AcDbEntity
  8
LAYER0034
  6
CONTINUOUS
 62
     3
100
AcDbCircle
 10
3210.241031496606
 20
-893.9458964222385
 30
0.0
 40
1.0
100
AcDbArc
 50
0.000000000000007
 51
90.00000000000001
  0
ARC
  5
161
330
DF
100
AcDbEntity
  8
LAYER0034
  6
CONTINUOUS
 62
     3
100
AcDbCircle
 10
3209.991031496606
 20
-905.4769854222386
 30
0.0
 40
2.0
100
AcDbArc
 50
119.9999999999999
 51
180.0
  0
ARC
  5
162
330
DF
100
AcDbEntity
  8
LAYER0034
  6
CONTINUOUS
 62
     3
100
AcDbCircle
 10
3208.241031496606
 20
-904.3846474222382
 30
0.0
 40
1.0
100
AcDbArc
 50
180.0
 51
231.3178129999997
  0
ARC
  5
163
330
DF
100
AcDbEntity
  8
LAYER0034
  6
CONTINUOUS
 62
     3
100
AcDbCircle
 10
3199.241031496606
 20
-921.7458964222387
 30
0.0
 40
13.9
100
AcDbArc
 50
43.23113699999995
 51
46.768863
  0
ARC
  5
164
330
DF
100
AcDbEntity
  8
LAYER0034
  6
CONTINUOUS
 62
     3
100
AcDbCircle
 10
3206.991031496606
 20
-905.9458964222385
 30
0.0
 40
1.0
100
AcDbArc
 50
0.000000000000007
 51
51.31781299999977
  0
LINE
  5
165
330
DF
100
AcDbEntity
  8
LAYER0034
  6
CONTINUOUS
 62
     3
100
AcDbLine
 10
3207.241031496606
 20
-896.9458964222385
 30
0.0
 11
3207.241031496606
 21
-896.4458964222385
 31
0.0
  0
LINE
  5
166
330
DF
100
AcDbEntity
  8
LAYER0034
  6
CONTINUOUS
 62
     3
100
AcDbLine
 10
3207.241031496606
 20
-904.2458964222387
 30
0.0
 11
3207.241031496606
 21
-904.3846474222382
 31
0.0
  0
LINE
  5
167
330
DF
100
AcDbEntity
  8
LAYER0034
  6
CONTINUOUS
 62
     3
100
AcDbLine
 10
3207.241031496606
 20
-904.2458964222387
 30
0.0
 11
3207.241031496606
 21
-896.9458964222385
 31
0.0
  0
LINE
  5
168
330
DF
100
AcDbEntity
  8
LAYER0034
  6
CONTINUOUS
 62
     3
100
AcDbLine
 10
3207.941031496606
 20
-892.9458964222385
 30
0.0
 11
3210.241031496606
 21
-892.9458964222385
 31
0.0
  0
LINE
  5
169
330
DF
100
AcDbEntity
  8
LAYER0034
  6
CONTINUOUS
 62
     3
100
AcDbLine
 10
3207.941031496606
 20
-896.9458964222385
 30
0.0
 11
3207.941031496606
 21
-892.9458964222385
 31
0.0
  0
LINE
  5
16A
330
DF
100
AcDbEntity
  8
LAYER0034
  6
CONTINUOUS
 62
     3
100
AcDbLine
 10
3207.991031496606
 20
-907.757062422239
 30
0.0
 11
3207.991031496606
 21
-905.4769854222386
 31
0.0
  0
ARC
  5
16B
330
DF
100
AcDbEntity
  8
LAYER0034
  6
CONTINUOUS
 62
     3
100
AcDbCircle
 10
3199.241031496606
 20
-921.7458964222387
 30
0.0
 40
13.9
100
AcDbArc
 50
178.231137
 51
181.768863
  0
LINE
  5
16C
330
DF
100
AcDbEntity
  8
LAYER0034
  6
CONTINUOUS
 62
     3
100
AcDbLine
 10
3192.241031496606
 20
-893.4458964222385
 30
0.0
 11
3192.241031496606
 21
-896.4458964222385
 31
0.0
  0
ARC
  5
16D
330
DF
100
AcDbEntity
  8
LAYER0034
  6
CONTINUOUS
 62
     3
100
AcDbCircle
 10
3190.241031496606
 20
-904.3846474222382
 30
0.0
 40
1.0
100
AcDbArc
 50
308.6821870000002
 51
0.0
  0
ARC
  5
16E
330
DF
100
AcDbEntity
  8
LAYER0034
  6
CONTINUOUS
 62
     3
100
AcDbCircle
 10
3199.241031496606
 20
-921.7458964222387
 30
0.0
 40
13.9
100
AcDbArc
 50
133.231137
 51
136.768863
  0
ARC
  5
16F
330
DF
100
AcDbEntity
  8
LAYER0034
  6
CONTINUOUS
 62
     3
100
AcDbCircle
 10
3191.491031496606
 20
-905.9458964222385
 30
0.0
 40
1.0
100
AcDbArc
 50
128.6821870000003
 51
180.0
  0
LINE
  5
170
330
DF
100
AcDbEntity
  8
LAYER0034
  6
CONTINUOUS
 62
     3
100
AcDbLine
 10
3191.241031496606
 20
-896.9458964222385
 30
0.0
 11
3191.241031496606
 21
-896.4458964222385
 31
0.0
  0
LINE
  5
171
330
DF
100
AcDbEntity
  8
LAYER0034
  6
CONTINUOUS
 62
     3
100
AcDbLine
 10
3191.241031496606
 20
-904.2458964222387
 30
0.0
 11
3191.241031496606
 21
-904.3846474222382
 31
0.0
  0
LINE
  5
172
330
DF
100
AcDbEntity
  8
LAYER0034
  6
CONTINUOUS
 62
     3
100
AcDbLine
 10
3191.241031496606
 20
-904.2458964222387
 30
0.0
 11
3191.241031496606
 21
-896.9458964222385
 31
0.0
  0
LINE
  5
173
330
DF
100
AcDbEntity
  8
LAYER0034
  6
CONTINUOUS
 62
     3
100
AcDbLine
 10
3193.057348496606
 20
-875.3557384222386
 30
0.0
 11
3192.241031496606
 21
-893.4458964222385
 31
0.0
  0
ARC
  5
174
330
DF
100
AcDbEntity
  8
LAYER0034
  6
CONTINUOUS
 62
     3
100
AcDbCircle
 10
3195.055315496606
 20
-875.4458964222385
 30
0.0
 40
2.0
100
AcDbArc
 50
90.00000000000001
 51
177.4162849999998
  0
LINE
  5
175
330
DF
100
AcDbEntity
  8
LAYER0034
  6
CONTINUOUS
 62
     3
100
AcDbLine
 10
3190.491031496606
 20
-907.757062422239
 30
0.0
 11
3190.491031496606
 21
-905.9458964222385
 31
0.0
  0
ARC
  5
176
330
DF
100
AcDbEntity
  8
LAYER0034
  6
CONTINUOUS
 62
     3
100
AcDbCircle
 10
3199.241031496606
 20
-921.7458964222387
 30
0.0
 40
13.9
100
AcDbArc
 50
313.231137
 51
316.768863
  0
ARC
  5
177
330
DF
100
AcDbEntity
  8
LAYER0034
  6
CONTINUOUS
 62
     3
100
AcDbCircle
 10
3199.241031496606
 20
-921.7458964222387
 30
0.0
 40
13.9
100
AcDbArc
 50
358.231137
 51
1.768863
  0
CIRCLE
  5
178
330
DF
100
AcDbEntity
  8
LAYER0034
  6
CONTINUOUS
 62
     3
100
AcDbCircle
 10
3199.241031496606
 20
-921.7458964222387
 30
0.0
 40
12.5
  0
ARC
  5
179
330
DF
100
AcDbEntity
  8
LAYER0034
  6
CONTINUOUS
 62
     3
100
AcDbCircle
 10
3199.241031496606
 20
-921.7458964222387
 30
0.0
 40
10.8
100
AcDbArc
 50
270.0
 51
90.0
  0
ARC
  5
17A
330
DF
100
AcDbEntity
  8
LAYER0034
  6
CONTINUOUS
 62
     3
100
AcDbCircle
 10
3199.241031496606
 20
-921.7458964222387
 30
0.0
 40
9.251331
100
AcDbArc
 50
270.0
 51
90.0
  0
ARC
  5
17B
330
DF
100
AcDbEntity
  8
LAYER0034
  6
CONTINUOUS
 62
     3
100
AcDbCircle
 10
3199.241031496606
 20
-921.7458964222387
 30
0.0
 40
8.0
100
AcDbArc
 50
270.0
 51
90.0
  0
CIRCLE
  5
17C
330
DF
100
AcDbEntity
  8
LAYER0034
  6
CONTINUOUS
 62
     3
100
AcDbCircle
 10
3199.241031496606
 20
-921.7458964222387
 30
0.0
 40
16.5
  0
LINE
  5
17D
330
DF
100
AcDbEntity
  8
LAYER0034
  6
CONTINUOUS
 62
     3
100
AcDbLine
 10
3191.241031496606
 20
-896.4458964222385
 30
0.0
 11
3207.941031496606
 21
-896.4458964222385
 31
0.0
  0
LINE
  5
17E
330
DF
100
AcDbEntity
  8
LAYER0034
  6
CONTINUOUS
 62
     3
100
AcDbLine
 10
3206.734417496607
 20
-904.9458964222385
 30
0.0
 11
3199.241031496606
 21
-904.9458964222385
 31
0.0
  0
ARC
  5
17F
330
DF
100
AcDbEntity
  8
LAYER0034
  6
CONTINUOUS
 62
     3
100
AcDbCircle
 10
3207.338533496606
 20
-875.4458964222385
 30
0.0
 40
2.0
100
AcDbArc
 50
2.862405000000331
 51
90.00000000000001
  0
LINE
  5
180
330
DF
100
AcDbEntity
  8
LAYER0034
  6
CONTINUOUS
 62
     3
100
AcDbLine
 10
3199.241031496606
 20
-896.9458964222385
 30
0.0
 11
3207.941031496606
 21
-896.9458964222385
 31
0.0
  0
ARC
  5
181
330
DF
100
AcDbEntity
  8
LAYER0034
  6
CONTINUOUS
 62
     3
100
AcDbCircle
 10
3199.241031496606
 20
-921.7458964222387
 30
0.0
 40
9.251331
100
AcDbArc
 50
90.00000000000001
 51
270.0
  0
ARC
  5
182
330
DF
100
AcDbEntity
  8
LAYER0034
  6
CONTINUOUS
 62
     3
100
AcDbCircle
 10
3199.241031496606
 20
-921.7458964222387
 30
0.0
 40
10.8
100
AcDbArc
 50
90.00000000000001
 51
270.0
  0
ARC
  5
183
330
DF
100
AcDbEntity
  8
LAYER0034
  6
CONTINUOUS
 62
     3
100
AcDbCircle
 10
3199.241031496606
 20
-921.7458964222387
 30
0.0
 40
8.0
100
AcDbArc
 50
90.00000000000001
 51
270.0
  0
LINE
  5
184
330
DF
100
AcDbEntity
  8
LAYER0034
  6
CONTINUOUS
 62
     3
100
AcDbLine
 10
3191.747645496606
 20
-904.9458964222385
 30
0.0
 11
3199.241031496606
 21
-904.9458964222385
 31
0.0
  0
LINE
  5
185
330
DF
100
AcDbEntity
  8
LAYER0034
  6
CONTINUOUS
 62
     3
100
AcDbLine
 10
3207.338533496606
 20
-873.4458964222385
 30
0.0
 11
3195.055315496606
 21
-873.4458964222385
 31
0.0
  0
LINE
  5
186
330
DF
100
AcDbEntity
  8
LAYER0034
  6
CONTINUOUS
 62
     3
100
AcDbLine
 10
3199.241031496606
 20
-896.9458964222385
 30
0.0
 11
3191.241031496606
 21
-896.9458964222385
 31
0.0
  0
ARC
  5
187
330
DF
100
AcDbEntity
  8
LAYER0034
  6
CONTINUOUS
 62
     3
100
AcDbCircle
 10
3199.241031496606
 20
-921.7458964222387
 30
0.0
 40
13.9
100
AcDbArc
 50
268.231137
 51
271.768863
  0
ARC
  5
188
330
DF
100
AcDbEntity
  8
LAYER0034
  6
CONTINUOUS
 62
     3
100
AcDbCircle
 10
3199.241031496606
 20
-921.7458964222387
 30
0.0
 40
13.9
100
AcDbArc
 50
88.23113700000002
 51
91.768863
  0
ARC
  5
189
330
DF
100
AcDbEntity
  8
LAYER0034
  6
CONTINUOUS
 62
     3
100
AcDbCircle
 10
3199.241031496606
 20
-921.7458964222387
 30
0.0
 40
13.9
100
AcDbArc
 50
223.231137
 51
226.768863
  0
INSERT
  5
18A
330
DF
100
AcDbEntity
  8
LAYER0034
  6
CONTINUOUS
100
AcDbBlockReference
  2
DC_GROUP_7
 10
0.0
 20
0.0
 30
0.0
  0
INSERT
  5
18B
330
DF
100
AcDbEntity
  8
LAYER0034
  6
CONTINUOUS
100
AcDbBlockReference
  2
DC_GROUP_8
 10
0.0
 20
0.0
 30
0.0
  0
INSERT
  5
18C
330
DF
100
AcDbEntity
  8
LAYER0034
  6
CONTINUOUS
100
AcDbBlockReference
  2
DC_GROUP_9
 10
0.0
 20
0.0
 30
0.0
  0
INSERT
  5
18D
330
DF
100
AcDbEntity
  8
LAYER0034
  6
CONTINUOUS
100
AcDbBlockReference
  2
DC_GROUP_10
 10
0.0
 20
0.0
 30
0.0
  0
INSERT
  5
18E
330
DF
100
AcDbEntity
  8
LAYER0034
  6
CONTINUOUS
100
AcDbBlockReference
  2
DC_GROUP_11
 10
0.0
 20
0.0
 30
0.0
  0
INSERT
  5
18F
330
DF
100
AcDbEntity
  8
LAYER0034
  6
CONTINUOUS
100
AcDbBlockReference
  2
DC_GROUP_12
 10
0.0
 20
0.0
 30
0.0
  0
INSERT
  5
190
330
DF
100
AcDbEntity
  8
LAYER0034
  6
CONTINUOUS
100
AcDbBlockReference
  2
DC_GROUP_13
 10
0.0
 20
0.0
 30
0.0
  0
INSERT
  5
191
330
DF
100
AcDbEntity
  8
LAYER0034
  6
CONTINUOUS
100
AcDbBlockReference
  2
DC_GROUP_14
 10
0.0
 20
0.0
 30
0.0
  0
LINE
  5
192
330
DF
100
AcDbEntity
  8
LAYER0032
  6
CONTINUOUS
 62
     3
100
AcDbLine
 10
3193.008155200004
 20
-876.4458964222404
 30
0.0
 11
3209.391031262229
 21
-876.4458964222404
 31
0.0
  0
ENDBLK
  5
E1
330
DF
100
AcDbEntity
  8
0
100
AcDbBlockEnd
  0
BLOCK
  5
E3
330
E2
100
AcDbEntity
  8
0
100
AcDbBlockBegin
  2
DC_GROUP_7
 70
     0
 10
0.0
 20
0.0
 30
0.0
  3
DC_GROUP_7
  1

  0
LINE
  5
193
330
E2
100
AcDbEntity
  8
LAYER0034
  6
CONTINUOUS
 62
     3
100
AcDbLine
 10
3185.347655496606
 20
-921.3168374222387
 30
0.0
 11
3189.113540496606
 21
-912.2251874222384
 31
0.0
  0
ENDBLK
  5
E4
330
E2
100
AcDbEntity
  8
0
100
AcDbBlockEnd
  0
BLOCK
  5
E6
330
E5
100
AcDbEntity
  8
0
100
AcDbBlockBegin
  2
DC_GROUP_8
 70
     0
 10
0.0
 20
0.0
 30
0.0
  3
DC_GROUP_8
  1

  0
LINE
  5
194
330
E5
100
AcDbEntity
  8
LAYER0034
  6
CONTINUOUS
 62
     3
100
AcDbLine
 10
3209.368523496606
 20
-912.2251874222384
 30
0.0
 11
3213.134408496607
 21
-921.3168374222387
 31
0.0
  0
ENDBLK
  5
E7
330
E5
100
AcDbEntity
  8
0
100
AcDbBlockEnd
  0
BLOCK
  5
E9
330
E8
100
AcDbEntity
  8
0
100
AcDbBlockBegin
  2
DC_GROUP_9
 70
     0
 10
0.0
 20
0.0
 30
0.0
  3
DC_GROUP_9
  1

  0
LINE
  5
195
330
E8
100
AcDbEntity
  8
LAYER0034
  6
CONTINUOUS
 62
     3
100
AcDbLine
 10
3199.670090496606
 20
-907.8525204222387
 30
0.0
 11
3208.761741496606
 21
-911.6184054222385
 31
0.0
  0
ENDBLK
  5
EA
330
E8
100
AcDbEntity
  8
0
100
AcDbBlockEnd
  0
BLOCK
  5
EC
330
EB
100
AcDbEntity
  8
0
100
AcDbBlockBegin
  2
DC_GROUP_10
 70
     0
 10
0.0
 20
0.0
 30
0.0
  3
DC_GROUP_10
  1

  0
LINE
  5
196
330
EB
100
AcDbEntity
  8
LAYER0034
  6
CONTINUOUS
 62
     3
100
AcDbLine
 10
3189.113540496606
 20
-931.2666064222385
 30
0.0
 11
3185.347655496606
 21
-922.1749564222382
 31
0.0
  0
ENDBLK
  5
ED
330
EB
100
AcDbEntity
  8
0
100
AcDbBlockEnd
  0
BLOCK
  5
EF
330
EE
100
AcDbEntity
  8
0
100
AcDbBlockBegin
  2
DC_GROUP_11
 70
     0
 10
0.0
 20
0.0
 30
0.0
  3
DC_GROUP_11
  1

  0
LINE
  5
197
330
EE
100
AcDbEntity
  8
LAYER0034
  6
CONTINUOUS
 62
     3
100
AcDbLine
 10
3189.720321496607
 20
-911.6184054222385
 30
0.0
 11
3198.811972496606
 21
-907.8525204222387
 31
0.0
  0
ENDBLK
  5
F0
330
EE
100
AcDbEntity
  8
0
100
AcDbBlockEnd
  0
BLOCK
  5
F2
330
F1
100
AcDbEntity
  8
0
100
AcDbBlockBegin
  2
DC_GROUP_12
 70
     0
 10
0.0
 20
0.0
 30
0.0
  3
DC_GROUP_12
  1

  0
LINE
  5
198
330
F1
100
AcDbEntity
  8
LAYER0034
  6
CONTINUOUS
 62
     3
100
AcDbLine
 10
3198.811972496606
 20
-935.6392734222381
 30
0.0
 11
3189.720321496607
 21
-931.8733884222383
 31
0.0
  0
ENDBLK
  5
F3
330
F1
100
AcDbEntity
  8
0
100
AcDbBlockEnd
  0
BLOCK
  5
F5
330
F4
100
AcDbEntity
  8
0
100
AcDbBlockBegin
  2
DC_GROUP_13
 70
     0
 10
0.0
 20
0.0
 30
0.0
  3
DC_GROUP_13
  1

  0
LINE
  5
199
330
F4
100
AcDbEntity
  8
LAYER0034
  6
CONTINUOUS
 62
     3
100
AcDbLine
 10
3208.761741496606
 20
-931.8733884222383
 30
0.0
 11
3199.670090496606
 21
-935.6392734222381
 31
0.0
  0
ENDBLK
  5
F6
330
F4
100
AcDbEntity
  8
0
100
AcDbBlockEnd
  0
BLOCK
  5
F8
330
F7
100
AcDbEntity
  8
0
100
AcDbBlockBegin
  2
DC_GROUP_14
 70
     0
 10
0.0
 20
0.0
 30
0.0
  3
DC_GROUP_14
  1

  0
LINE
  5
19A
330
F7
100
AcDbEntity
  8
LAYER0034
  6
CONTINUOUS
 62
     3
100
AcDbLine
 10
3213.134408496607
 20
-922.1749564222382
 30
0.0
 11
3209.368523496606
 21
-931.2666064222385
 31
0.0
  0
ENDBLK
  5
F9
330
F7
100
AcDbEntity
  8
0
100
AcDbBlockEnd
  0
BLOCK
  5
FB
330
FA
100
AcDbEntity
  8
0
100
AcDbBlockBegin
  2
DC_GROUP_15
 70
     0
 10
0.0
 20
0.0
 30
0.0
  3
DC_GROUP_15
  1

  0
LINE
  5
19B
330
FA
100
AcDbEntity
  8
LAYER0032
  6
CONTINUOUS
 62
     3
100
AcDbLine
 10
2214.967528496591
 20
727.2076331206363
 30
0.0
 11
2217.854279496591
 21
722.2076331206363
 31
0.0
  0
LINE
  5
19C
330
FA
100
AcDbEntity
  8
LAYER0032
  6
CONTINUOUS
 62
     3
100
AcDbLine
 10
2217.854279496591
 20
722.2076331206363
 30
0.0
 11
2223.627782496591
 21
722.2076331206363
 31
0.0
  0
LINE
  5
19D
330
FA
100
AcDbEntity
  8
LAYER0032
  6
CONTINUOUS
 62
     3
100
AcDbLine
 10
2223.627782496591
 20
722.2076331206363
 30
0.0
 11
2226.514533496591
 21
727.2076331206363
 31
0.0
  0
LINE
  5
19E
330
FA
100
AcDbEntity
  8
LAYER0032
  6
CONTINUOUS
 62
     3
100
AcDbLine
 10
2226.514533496591
 20
727.2076331206363
 30
0.0
 11
2223.627782496591
 21
732.2076331206363
 31
0.0
  0
LINE
  5
19F
330
FA
100
AcDbEntity
  8
LAYER0032
  6
CONTINUOUS
 62
     3
100
AcDbLine
 10
2223.627782496591
 20
732.2076331206363
 30
0.0
 11
2217.854279496591
 21
732.2076331206363
 31
0.0
  0
LINE
  5
1A0
330
FA
100
AcDbEntity
  8
LAYER0032
  6
CONTINUOUS
 62
     3
100
AcDbLine
 10
2217.854279496591
 20
732.2076331206363
 30
0.0
 11
2214.967528496591
 21
727.2076331206363
 31
0.0
  0
ENDBLK
  5
FC
330
FA
100
AcDbEntity
  8
0
100
AcDbBlockEnd
  0
BLOCK
  5
FE
330
FD
100
AcDbEntity
  8
0
100
AcDbBlockBegin
  2
DC_GROUP_16
 70
     0
 10
0.0
 20
0.0
 30
0.0
  3
DC_GROUP_16
  1

  0
LINE
  5
1A1
330
FD
100
AcDbEntity
  8
LAYER0032
  6
CONTINUOUS
 62
     4
100
AcDbLine
 10
570.3410314965921
 20
-383.2138456146731
 30
0.0
 11
419.8551463294651
 21
-253.8667875275933
 31
0.0
  0
INSERT
  5
1A2
330
FD
100
AcDbEntity
  8
LAYER0032
 62
     4
100
AcDbBlockReference
  2
_OPEN30
 10
570.3410314965921
 20
-383.2138456146731
 30
0.0
 41
90.00008422845858
 42
89.99968104670928
 50
319.3199689392981
  0
LINE
  5
1A3
330
FD
100
AcDbEntity
  8
LAYER0032
  6
CONTINUOUS
 62
     4
100
AcDbLine
 10
419.8551463294651
 20
-253.8667875275933
 30
0.0
 11
275.8551463294647
 21
-253.8667875275933
 31
0.0
  0
TEXT
  5
1A4
330
FD
100
AcDbEntity
  8
LAYER0032
 62
     4
100
AcDbText
 10
275.855146329465
 20
-253.8667875275933
 30
0.0
 40
90.0
  1
本体
 41
0.55
  7
DCSTYLE0
 72
     5
 11
419.855146329465
 21
-253.8667875275933
 31
0.0
100
AcDbText
  0
ENDBLK
  5
FF
330
FD
100
AcDbEntity
  8
0
100
AcDbBlockEnd
  0
BLOCK
  5
101
330
100
100
AcDbEntity
  8
0
100
AcDbBlockBegin
  2
DC_GROUP_17
 70
     0
 10
0.0
 20
0.0
 30
0.0
  3
DC_GROUP_17
  1

  0
LINE
  5
1A5
330
100
100
AcDbEntity
  8
LAYER0032
  6
CONTINUOUS
 62
     4
100
AcDbLine
 10
2145.635533678289
 20
-933.1124421570948
 30
0.0
 11
2000.149144343871
 21
-1343.543119272171
 31
0.0
  0
INSERT
  5
1A6
330
100
100
AcDbEntity
  8
LAYER0032
 62
     4
100
AcDbBlockReference
  2
_OPEN30
 10
2145.635533678289
 20
-933.1124421570948
 30
0.0
 41
90.00008422845858
 42
89.99968104670928
 50
70.48198289378041
  0
LINE
  5
1A7
330
100
100
AcDbEntity
  8
LAYER0032
  6
CONTINUOUS
 62
     4
100
AcDbLine
 10
2000.149144343871
 20
-1343.543119272171
 30
0.0
 11
1784.149144343871
 21
-1343.543119272171
 31
0.0
  0
TEXT
  5
1A8
330
100
100
AcDbEntity
  8
LAYER0032
 62
     4
100
AcDbText
 10
1784.149144343871
 20
-1343.543119272171
 30
0.0
 40
90.0
  1
エルボ
 41
0.5793528133301136
  7
DCSTYLE0
 72
     5
 11
2000.149144343871
 21
-1343.543119272171
 31
0.0
100
AcDbText
  0
ENDBLK
  5
102
330
100
100
AcDbEntity
  8
0
100
AcDbBlockEnd
  0
BLOCK
  5
104
330
103
100
AcDbEntity
  8
0
100
AcDbBlockBegin
  2
DC_GROUP_18
 70
     0
 10
0.0
 20
0.0
 30
0.0
  3
DC_GROUP_18
  1

  0
LINE
  5
1A9
330
103
100
AcDbEntity
  8
LAYER0032
  6
CONTINUOUS
 62
     4
100
AcDbLine
 10
2179.74103149659
 20
-935.2458964222396
 30
0.0
 11
2240.149144343868
 21
-1343.543119272171
 31
0.0
  0
INSERT
  5
1AA
330
103
100
AcDbEntity
  8
LAYER0032
 62
     4
100
AcDbBlockReference
  2
_OPEN30
 10
2179.74103149659
 20
-935.2458964222396
 30
0.0
 41
90.00008422845858
 42
89.99968104670928
 50
98.41593345323336
  0
LINE
  5
1AB
330
103
100
AcDbEntity
  8
LAYER0032
  6
CONTINUOUS
 62
     4
100
AcDbLine
 10
2240.149144343868
 20
-1343.543119272171
 30
0.0
 11
2528.149144343869
 21
-1343.543119272171
 31
0.0
  0
TEXT
  5
1AC
330
103
100
AcDbEntity
  8
LAYER0032
 62
     4
100
AcDbText
 10
2240.149144343868
 20
-1343.543119272171
 30
0.0
 40
90.0
  1
ニップル
 41
0.6236693312536556
  7
DCSTYLE0
 72
     5
 11
2528.149144343868
 21
-1343.543119272171
 31
0.0
100
AcDbText
  0
ENDBLK
  5
105
330
103
100
AcDbEntity
  8
0
100
AcDbBlockEnd
  0
BLOCK
  5
107
330
106
100
AcDbEntity
  8
0
100
AcDbBlockBegin
  2
DC_GROUP_19
 70
     0
 10
0.0
 20
0.0
 30
0.0
  3
DC_GROUP_19
  1

  0
LINE
  5
1AD
330
106
100
AcDbEntity
  8
LAYER0032
  6
CONTINUOUS
 62
     4
100
AcDbLine
 10
2229.425634461928
 20
-935.7051684931748
 30
0.0
 11
2275.941152671159
 21
-1211.866787527593
 31
0.0
  0
INSERT
  5
1AE
330
106
100
AcDbEntity
  8
LAYER0032
 62
     4
100
AcDbBlockReference
  2
_OPEN30
 10
2229.425634461928
 20
-935.7051684931748
 30
0.0
 41
90.00008422845858
 42
89.99968104670928
 50
99.56092115584592
  0
LINE
  5
1AF
330
106
100
AcDbEntity
  8
LAYER0032
  6
CONTINUOUS
 62
     4
100
AcDbLine
 10
2275.941152671159
 20
-1211.866787527593
 30
0.0
 11
2707.94115267116
 21
-1211.866787527593
 31
0.0
  0
TEXT
  5
1B0
330
106
100
AcDbEntity
  8
LAYER0032
 62
     4
100
AcDbText
 10
2275.941152671159
 20
-1211.866787527593
 30
0.0
 40
90.0
  1
ボールバルブ
 41
0.5692490212362085
  7
DCSTYLE0
 72
     5
 11
2707.941152671159
 21
-1211.866787527593
 31
0.0
100
AcDbText
  0
ENDBLK
  5
108
330
106
100
AcDbEntity
  8
0
100
AcDbBlockEnd
  0
BLOCK
  5
10A
330
109
100
AcDbEntity
  8
0
100
AcDbBlockBegin
  2
DC_GROUP_20
 70
     0
 10
0.0
 20
0.0
 30
0.0
  3
DC_GROUP_20
  1

  0
LINE
  5
1B1
330
109
100
AcDbEntity
  8
LAYER0032
  6
CONTINUOUS
 62
     4
100
AcDbLine
 10
129.6940997715664
 20
-943.2138456146749
 30
0.0
 11
323.1491443438725
 21
-1343.543119272171
 31
0.0
  0
INSERT
  5
1B2
330
109
100
AcDbEntity
  8
LAYER0032
 62
     4
100
AcDbBlockReference
  2
_OPEN30
 10
129.6940997715664
 20
-943.2138456146749
 30
0.0
 41
90.00008422845858
 42
89.99968104670928
 50
115.7916828724308
  0
LINE
  5
1B3
330
109
100
AcDbEntity
  8
LAYER0032
  6
CONTINUOUS
 62
     4
100
AcDbLine
 10
323.1491443438725
 20
-1343.543119272171
 30
0.0
 11
467.1491443438732
 21
-1343.543119272171
 31
0.0
  0
TEXT
  5
1B4
330
109
100
AcDbEntity
  8
LAYER0032
 62
     4
100
AcDbText
 10
323.1491443438727
 20
-1343.543119272171
 30
0.0
 40
90.0
  1
架台
 41
0.55
  7
DCSTYLE0
 72
     5
 11
467.1491443438727
 21
-1343.543119272171
 31
0.0
100
AcDbText
  0
ENDBLK
  5
10B
330
109
100
AcDbEntity
  8
0
100
AcDbBlockEnd
  0
BLOCK
  5
10D
330
10C
100
AcDbEntity
  8
0
100
AcDbBlockBegin
  2
DC_GROUP_21
 70
     0
 10
0.0
 20
0.0
 30
0.0
  3
DC_GROUP_21
  1

  0
LINE
  5
1B5
330
10C
100
AcDbEntity
  8
LAYER0032
  6
CONTINUOUS
 62
     4
100
AcDbLine
 10
109.0866411223172
 20
297.8223987052853
 30
0.0
 11
233.7527608526876
 21
-0.0867149267637615
 31
0.0
  0
INSERT
  5
1B6
330
10C
100
AcDbEntity
  8
LAYER0032
 62
     4
100
AcDbBlockReference
  2
_OPEN30
 10
109.0866411223172
 20
297.8223987052853
 30
0.0
 41
90.00008422845858
 42
89.99968104670928
 50
112.7078626258101
  0
LINE
  5
1B7
330
10C
100
AcDbEntity
  8
LAYER0032
  6
CONTINUOUS
 62
     4
100
AcDbLine
 10
233.7527608526876
 20
-0.0867149267637615
 30
0.0
 11
953.7527608526881
 21
-0.0867149267637615
 31
0.0
  0
TEXT
  5
1B8
330
10C
100
AcDbEntity
  8
LAYER0032
 62
     4
100
AcDbText
 10
233.7527608526876
 20
-0.0867149267637615
 30
0.0
 40
90.0
  1
４－Ｍ１２×１．７５
 41
0.7143367574810184
  7
DCSTYLE0
 72
     5
 11
953.7527608526876
 21
-0.0867149267637615
 31
0.0
100
AcDbText
  0
ENDBLK
  5
10E
330
10C
100
AcDbEntity
  8
0
100
AcDbBlockEnd
  0
BLOCK
  5
110
330
10F
100
AcDbEntity
  8
0
100
AcDbBlockBegin
  2
DC_GROUP_22
 70
     0
 10
0.0
 20
0.0
 30
0.0
  3
DC_GROUP_22
  1

  0
LINE
  5
1B9
330
10F
100
AcDbEntity
  8
LAYER0032
  6
CONTINUOUS
 62
     4
100
AcDbLine
 10
2730.101113805374
 20
-943.2138456146731
 30
0.0
 11
2650.682805249538
 21
-998.9650863553775
 31
0.0
  0
INSERT
  5
1BA
330
10F
100
AcDbEntity
  8
LAYER0032
 62
     4
100
AcDbBlockReference
  2
_OPEN30
 10
2730.101113805374
 20
-943.2138456146731
 30
0.0
 41
90.00008422845858
 42
89.99968104670928
 50
35.0686559982185
  0
LINE
  5
1BB
330
10F
100
AcDbEntity
  8
LAYER0032
  6
CONTINUOUS
 62
     4
100
AcDbLine
 10
2650.682805249538
 20
-998.9650863553775
 30
0.0
 11
2534.496761251187
 21
-738.6495194223612
 31
0.0
  0
LINE
  5
1BC
330
10F
100
AcDbEntity
  8
LAYER0032
  6
CONTINUOUS
 62
     4
100
AcDbLine
 10
2534.496761251187
 20
-738.6495194223612
 30
0.0
 11
2318.496761251186
 21
-738.6495194223612
 31
0.0
  0
TEXT
  5
1BD
330
10F
100
AcDbEntity
  8
LAYER0032
 62
     4
100
AcDbText
 10
2318.496761251187
 20
-723.6495194223612
 30
0.0
 40
90.0
  1
φ18
 41
0.8250000000000001
  7
DCSTYLE0
 72
     5
 11
2534.496761251187
 21
-723.6495194223612
 31
0.0
100
AcDbText
  0
ENDBLK
  5
111
330
10F
100
AcDbEntity
  8
0
100
AcDbBlockEnd
  0
BLOCK
  5
113
330
112
100
AcDbEntity
  8
0
100
AcDbBlockBegin
  2
DC_GROUP_23
 70
     0
 10
0.0
 20
0.0
 30
0.0
  3
DC_GROUP_23
  1

  0
LINE
  5
1BE
330
112
100
AcDbEntity
  8
LAYER0032
  6
CONTINUOUS
 62
     4
100
AcDbLine
 10
3669.241031496607
 20
-943.2138456146677
 30
0.0
 11
3502.944543089286
 21
-1342.079659136715
 31
0.0
  0
INSERT
  5
1BF
330
112
100
AcDbEntity
  8
LAYER0032
 62
     4
100
AcDbBlockReference
  2
_OPEN30
 10
3669.241031496607
 20
-943.2138456146677
 30
0.0
 41
90.00008422845858
 42
89.99968104670928
 50
67.36760278618021
  0
LINE
  5
1C0
330
112
100
AcDbEntity
  8
LAYER0032
  6
CONTINUOUS
 62
     4
100
AcDbLine
 10
3502.944543089286
 20
-1342.079659136715
 30
0.0
 11
2710.944543089284
 21
-1342.079659136715
 31
0.0
  0
TEXT
  5
1C1
330
112
100
AcDbEntity
  8
LAYER0032
 62
     4
100
AcDbText
 10
2710.944543089286
 20
-1342.079659136715
 30
0.0
 40
90.0
  1
４－１8×２9（長穴）
 41
0.7514693319665129
  7
DCSTYLE0
 72
     5
 11
3502.944543089286
 21
-1342.079659136715
 31
0.0
100
AcDbText
  0
ENDBLK
  5
114
330
112
100
AcDbEntity
  8
0
100
AcDbBlockEnd
  0
BLOCK
  5
11E
330
11D
100
AcDbEntity
  8
0
100
AcDbBlockBegin
  2
_OPEN30
 70
     0
 10
0.0
 20
0.0
 30
0.0
  3
_OPEN30
  1

  0
LINE
  5
120
330
11D
100
AcDbEntity
  8
0
  6
BYBLOCK
 62
     0
100
AcDbLine
 10
-1.0
 20
0.267949
 30
0.0
 11
0.0
 21
0.0
 31
0.0
  0
LINE
  5
121
330
11D
100
AcDbEntity
  8
0
  6
BYBLOCK
 62
     0
100
AcDbLine
 10
0.0
 20
0.0
 30
0.0
 11
-1.0
 21
-0.267949
 31
0.0
  0
LINE
  5
122
330
11D
100
AcDbEntity
  8
0
  6
BYBLOCK
 62
     0
100
AcDbLine
 10
0.0
 20
0.0
 30
0.0
 11
-1.0
 21
0.0
 31
0.0
  0
ENDBLK
  5
11F
330
11D
100
AcDbEntity
  8
0
100
AcDbBlockEnd
  0
ENDSEC
  0
SECTION
  2
ENTITIES
  0
LINE
  5
1C2
330
1F
100
AcDbEntity
  8
LAYER0048
  6
CONTINUOUS
 62
     7
100
AcDbLine
 10
-3855.000000000004
 20
2945.999999999999
 30
0.0
 11
3854.999999999996
 21
2946.0
 31
0.0
  0
LINE
  5
1C3
330
1F
100
AcDbEntity
  8
LAYER0048
  6
CONTINUOUS
 62
     7
100
AcDbLine
 10
3854.999999999996
 20
2946.0
 30
0.0
 11
3854.999999999996
 21
-2784.000000000002
 31
0.0
  0
LINE
  5
1C4
330
1F
100
AcDbEntity
  8
LAYER0048
  6
CONTINUOUS
 62
     7
100
AcDbLine
 10
-3855.000000000004
 20
-2784.000000000002
 30
0.0
 11
-3855.000000000004
 21
2946.0
 31
0.0
  0
LINE
  5
1C5
330
1F
100
AcDbEntity
  8
LAYER0048
  6
CONTINUOUS
 62
     7
100
AcDbLine
 10
-3572.655153523481
 20
1755.494630796537
 30
0.0
 11
-572.6551535234811
 21
1755.494630796538
 31
0.0
  0
LINE
  5
1C6
330
1F
100
AcDbEntity
  8
LAYER0048
  6
CONTINUOUS
 62
     7
100
AcDbLine
 10
-572.655153523481
 20
2187.494630796539
 30
0.0
 11
-572.655153523481
 21
-524.5053692034636
 31
0.0
  0
LINE
  5
1C7
330
1F
100
AcDbEntity
  8
LAYER0048
  6
CONTINUOUS
 62
     7
100
AcDbLine
 10
-572.6551535234811
 20
-212.5053692034637
 30
0.0
 11
-3572.655153523481
 21
-212.5053692034637
 31
0.0
  0
LINE
  5
1C8
330
1F
100
AcDbEntity
  8
LAYER0048
  6
CONTINUOUS
 62
     7
100
AcDbLine
 10
-3572.655153523481
 20
-524.5053692034636
 30
0.0
 11
-3572.655153523481
 21
2187.494630796537
 31
0.0
  0
LINE
  5
1C9
330
1F
100
AcDbEntity
  8
LAYER0048
  6
CONTINUOUS
 62
     7
100
AcDbLine
 10
-3572.655153523481
 20
1563.494630796536
 30
0.0
 11
-572.6551535234811
 21
1563.494630796538
 31
0.0
  0
LINE
  5
1CA
330
1F
100
AcDbEntity
  8
LAYER0048
  6
CONTINUOUS
 62
     7
100
AcDbLine
 10
-3572.655153523481
 20
675.4946307965363
 30
0.0
 11
-572.6551535234805
 21
675.4946307965375
 31
0.0
  0
LINE
  5
1CB
330
1F
100
AcDbEntity
  8
LAYER0048
  6
CONTINUOUS
 62
     7
100
AcDbLine
 10
-2912.655153523481
 20
-524.5053692034636
 30
0.0
 11
-2912.655153523481
 21
1563.494630796536
 31
0.0
  0
LINE
  5
1CC
330
1F
100
AcDbEntity
  8
LAYER0048
  6
CONTINUOUS
 62
     7
100
AcDbLine
 10
-3572.655153523481
 20
1995.494630796537
 30
0.0
 11
-572.6551535234811
 21
1995.494630796538
 31
0.0
  0
LINE
  5
1CD
330
1F
100
AcDbEntity
  8
LAYER0048
  6
CONTINUOUS
 62
     7
100
AcDbLine
 10
-3572.655153523481
 20
2187.494630796537
 30
0.0
 11
-572.6551535234811
 21
2187.494630796539
 31
0.0
  0
LINE
  5
1CE
330
1F
100
AcDbEntity
  8
LAYER0048
  6
CONTINUOUS
 62
     7
100
AcDbLine
 10
3854.999999999996
 20
-2784.000000000002
 30
0.0
 11
-3855.000000000004
 21
-2784.000000000002
 31
0.0
  0
LINE
  5
1CF
330
1F
100
AcDbEntity
  8
LAYER0048
  6
CONTINUOUS
 62
     7
100
AcDbLine
 10
-572.6551535234811
 20
-524.5053692034637
 30
0.0
 11
-3572.655153523481
 21
-524.5053692034637
 31
0.0
  0
LINE
  5
1D0
330
1F
100
AcDbEntity
  8
LAYER0048
  6
CONTINUOUS
 62
     7
100
AcDbLine
 10
-3492.651805780449
 20
-2527.963732971172
 30
0.0
 11
-3485.922069394549
 21
-2521.233996585273
 31
0.0
  0
LINE
  5
1D1
330
1F
100
AcDbEntity
  8
LAYER0048
  6
CONTINUOUS
 62
     7
100
AcDbLine
 10
-3495.544374760015
 20
-2532.553358225586
 30
0.0
 11
-3481.332444140137
 21
-2518.341427605707
 31
0.0
  0
LINE
  5
1D2
330
1F
100
AcDbEntity
  8
LAYER0048
  6
CONTINUOUS
 62
     7
100
AcDbLine
 10
-3496.98420982743
 20
-2535.690249567848
 30
0.0
 11
-3478.195552797877
 21
-2516.901592538295
 31
0.0
  0
LINE
  5
1D3
330
1F
100
AcDbEntity
  8
LAYER0048
  6
CONTINUOUS
 62
     7
100
AcDbLine
 10
-3497.903699089027
 20
-2538.306795104292
 30
0.0
 11
-3475.579007261431
 21
-2515.982103276697
 31
0.0
  0
LINE
  5
1D4
330
1F
100
AcDbEntity
  8
LAYER0048
  6
CONTINUOUS
 62
     7
100
AcDbLine
 10
-3498.520499840525
 20
-2540.620652130639
 30
0.0
 11
-3473.265150235085
 21
-2515.365302525198
 31
0.0
  0
LINE
  5
1D5
330
1F
100
AcDbEntity
  8
LAYER0048
  6
CONTINUOUS
 62
     7
100
AcDbLine
 10
-3498.932318597525
 20
-2542.729527162487
 30
0.0
 11
-3471.156275203237
 21
-2514.953483768198
 31
0.0
  0
LINE
  5
1D6
330
1F
100
AcDbEntity
  8
LAYER0048
  6
CONTINUOUS
 62
     7
100
AcDbLine
 10
-3499.191762378624
 20
-2544.686027218433
 30
0.0
 11
-3469.199775147289
 21
-2514.694039987099
 31
0.0
  0
LINE
  5
1D7
330
1F
100
AcDbEntity
  8
LAYER0048
  6
CONTINUOUS
 62
     7
100
AcDbLine
 10
-3499.329067730363
 20
-2546.520388845021
 30
0.0
 11
-3467.365413520704
 21
-2514.556734635361
 31
0.0
  0
LINE
  5
1D8
330
1F
100
AcDbEntity
  8
LAYER0048
  6
CONTINUOUS
 62
     7
100
AcDbLine
 10
-3499.366878999323
 20
-2548.255256388827
 30
0.0
 11
-3465.630545976896
 21
-2514.5189233664
 31
0.0
  0
LINE
  5
1D9
330
1F
100
AcDbEntity
  8
LAYER0048
  6
CONTINUOUS
 62
     7
100
AcDbLine
 10
-3499.320230203085
 20
-2549.905663867437
 30
0.0
 11
-3463.980138498287
 21
-2514.56557216264
 31
0.0
  0
LINE
  5
1DA
330
1F
100
AcDbEntity
  8
LAYER0048
  6
CONTINUOUS
 62
     7
100
AcDbLine
 10
-3499.198364408129
 20
-2551.480854347327
 30
0.0
 11
-3462.404948018394
 21
-2514.687437957594
 31
0.0
  0
LINE
  5
1DB
330
1F
100
AcDbEntity
  8
LAYER0048
  6
CONTINUOUS
 62
     7
100
AcDbLine
 10
-3499.011611811219
 20
-2552.991158025266
 30
0.0
 11
-3460.894644340459
 21
-2514.874190554506
 31
0.0
  0
LINE
  5
1DC
330
1F
100
AcDbEntity
  8
LAYER0048
  6
CONTINUOUS
 62
     7
100
AcDbLine
 10
-3498.76663095237
 20
-2554.443233441265
 30
0.0
 11
-3459.44256892446
 21
-2515.119171413355
 31
0.0
  0
LINE
  5
1DD
330
1F
100
AcDbEntity
  8
LAYER0048
  6
CONTINUOUS
 62
     7
100
AcDbLine
 10
-3498.467323527069
 20
-2555.840982290812
 30
0.0
 11
-3458.044820074912
 21
-2515.418478838655
 31
0.0
  0
LINE
  5
1DE
330
1F
100
AcDbEntity
  8
LAYER0048
  6
CONTINUOUS
 62
     7
100
AcDbLine
 10
-3498.11900307947
 20
-2557.189718118062
 30
0.0
 11
-3456.696084247662
 21
-2515.766799286252
 31
0.0
  0
LINE
  5
1DF
330
1F
100
AcDbEntity
  8
LAYER0048
  6
CONTINUOUS
 62
     7
100
AcDbLine
 10
-3497.725818247472
 20
-2558.493589560909
 30
0.0
 11
-3455.392212804813
 21
-2516.159984118252
 31
0.0
  0
LINE
  5
1E0
330
1F
100
AcDbEntity
  8
LAYER0048
  6
CONTINUOUS
 62
     7
100
AcDbLine
 10
-3497.288146061565
 20
-2559.752973649851
 30
0.0
 11
-3454.132828715872
 21
-2516.597656304159
 31
0.0
  0
LINE
  5
1E1
330
1F
100
AcDbEntity
  8
LAYER0048
  6
CONTINUOUS
 62
     7
100
AcDbLine
 10
-3496.810498269499
 20
-2560.972382132633
 30
0.0
 11
-3452.91342023309
 21
-2517.075304096224
 31
0.0
  0
LINE
  5
1E2
330
1F
100
AcDbEntity
  8
LAYER0048
  6
CONTINUOUS
 62
     7
100
AcDbLine
 10
-3496.294758921113
 20
-2562.153699059096
 30
0.0
 11
-3451.732103306629
 21
-2517.59104344461
 31
0.0
  0
LINE
  5
1E3
330
1F
100
AcDbEntity
  8
LAYER0048
  6
CONTINUOUS
 62
     7
100
AcDbLine
 10
-3495.742465449299
 20
-2563.298461862129
 30
0.0
 11
-3450.587340503595
 21
-2518.143336916426
 31
0.0
  0
LINE
  5
1E4
330
1F
100
AcDbEntity
  8
LAYER0048
  6
CONTINUOUS
 62
     7
100
AcDbLine
 10
-3495.154930043611
 20
-2564.407982731288
 30
0.0
 11
-3449.477819634435
 21
-2518.730872322113
 31
0.0
  0
LINE
  5
1E5
330
1F
100
AcDbEntity
  8
LAYER0048
  6
CONTINUOUS
 62
     7
100
AcDbLine
 10
-3494.532421638738
 20
-2565.482530601262
 30
0.0
 11
-3448.403271764463
 21
-2519.353380726987
 31
0.0
  0
LINE
  5
1E6
330
1F
100
AcDbEntity
  8
LAYER0048
  6
CONTINUOUS
 62
     7
100
AcDbLine
 10
-3493.876923473932
 20
-2566.524088711305
 30
0.0
 11
-3447.361713654418
 21
-2520.00887889179
 31
0.0
  0
LINE
  5
1E7
330
1F
100
AcDbEntity
  8
LAYER0048
  6
CONTINUOUS
 62
     7
100
AcDbLine
 10
-3493.189205184803
 20
-2567.533426697023
 30
0.0
 11
-3446.352375668702
 21
-2520.696597180923
 31
0.0
  0
LINE
  5
1E8
330
1F
100
AcDbEntity
  8
LAYER0048
  6
CONTINUOUS
 62
     7
100
AcDbLine
 10
-3492.469895235738
 20
-2568.511173022806
 30
0.0
 11
-3445.374629342919
 21
-2521.415907129986
 31
0.0
  0
LINE
  5
1E9
330
1F
100
AcDbEntity
  8
LAYER0048
  6
CONTINUOUS
 62
     7
100
AcDbLine
 10
-3491.719490478848
 20
-2569.457824540765
 30
0.0
 11
-3444.427977824961
 21
-2522.166311886876
 31
0.0
  0
LINE
  5
1EA
330
1F
100
AcDbEntity
  8
LAYER0048
  6
CONTINUOUS
 62
     7
100
AcDbLine
 10
-3490.938363557508
 20
-2570.373753894271
 30
0.0
 11
-3443.512048471454
 21
-2522.947438808217
 31
0.0
  0
LINE
  5
1EB
330
1F
100
AcDbEntity
  8
LAYER0048
  6
CONTINUOUS
 62
     7
100
AcDbLine
 10
-3490.126768370702
 20
-2571.259214982313
 30
0.0
 11
-3442.626587383412
 21
-2523.759033995022
 31
0.0
  0
LINE
  5
1EC
330
1F
100
AcDbEntity
  8
LAYER0048
  6
CONTINUOUS
 62
     7
100
AcDbLine
 10
-3489.284843754524
 20
-2572.114346640984
 30
0.0
 11
-3441.77145572474
 21
-2524.6009586112
 31
0.0
  0
LINE
  5
1ED
330
1F
100
AcDbEntity
  8
LAYER0048
  6
CONTINUOUS
 62
     7
100
AcDbLine
 10
-3488.412615484546
 20
-2572.939174645853
 30
0.0
 11
-3440.946627719872
 21
-2525.473186881179
 31
0.0
  0
LINE
  5
1EE
330
1F
100
AcDbEntity
  8
LAYER0048
  6
CONTINUOUS
 62
     7
100
AcDbLine
 10
-3487.509996655034
 20
-2573.733612091186
 30
0.0
 11
-3440.152190274536
 21
-2526.375805710691
 31
0.0
  0
LINE
  5
1EF
330
1F
100
AcDbEntity
  8
LAYER0048
  6
CONTINUOUS
 62
     7
100
AcDbLine
 10
-3486.576786445724
 20
-2574.497458156727
 30
0.0
 11
-3439.388344208998
 21
-2527.309015920001
 31
0.0
  0
LINE
  5
1F0
330
1F
100
AcDbEntity
  8
LAYER0048
  6
CONTINUOUS
 62
     7
100
AcDbLine
 10
-3485.612667241998
 20
-2575.230395227846
 30
0.0
 11
-3438.655407137876
 21
-2528.273135123726
 31
0.0
  0
LINE
  5
1F1
330
1F
100
AcDbEntity
  8
LAYER0048
  6
CONTINUOUS
 62
     7
100
AcDbLine
 10
-3484.617200028059
 20
-2575.931984288757
 30
0.0
 11
-3437.953818076967
 21
-2529.268602337664
 31
0.0
  0
LINE
  5
1F2
330
1F
100
AcDbEntity
  8
LAYER0048
  6
CONTINUOUS
 62
     7
100
AcDbLine
 10
-3483.589817922715
 20
-2576.601658458259
 30
0.0
 11
-3437.284143907464
 21
-2530.295984443009
 31
0.0
  0
LINE
  5
1F3
330
1F
100
AcDbEntity
  8
LAYER0048
  6
CONTINUOUS
 62
     7
100
AcDbLine
 10
-3482.529248985893
 20
-2577.238145796285
 30
0.0
 11
-3436.64765656944
 21
-2531.356553379832
 31
0.0
  0
LINE
  5
1F4
330
1F
100
AcDbEntity
  8
LAYER0048
  6
CONTINUOUS
 62
     7
100
AcDbLine
 10
-3481.434788481059
 20
-2577.840741566299
 30
0.0
 11
-3436.045060799424
 21
-2532.451013884665
 31
0.0
  0
LINE
  5
1F5
330
1F
100
AcDbEntity
  8
LAYER0048
  6
CONTINUOUS
 62
     7
100
AcDbLine
 10
-3480.305636340609
 20
-2578.408645700696
 30
0.0
 11
-3435.477156665027
 21
-2533.580166025115
 31
0.0
  0
LINE
  5
1F6
330
1F
100
AcDbEntity
  8
LAYER0048
  6
CONTINUOUS
 62
     7
100
AcDbLine
 10
-3479.140562354442
 20
-2578.94062798938
 30
0.0
 11
-3434.945174376346
 21
-2534.745240011282
 31
0.0
  0
LINE
  5
1F7
330
1F
100
AcDbEntity
  8
LAYER0048
  6
CONTINUOUS
 62
     7
100
AcDbLine
 10
-3477.93813240501
 20
-2579.435254314792
 30
0.0
 11
-3434.450548050931
 21
-2535.947669960714
 31
0.0
  0
LINE
  5
1F8
330
1F
100
AcDbEntity
  8
LAYER0048
  6
CONTINUOUS
 62
     7
100
AcDbLine
 10
-3476.696529192104
 20
-2579.890707376736
 30
0.0
 11
-3433.995094988989
 21
-2537.189273173621
 31
0.0
  0
LINE
  5
1F9
330
1F
100
AcDbEntity
  8
LAYER0048
  6
CONTINUOUS
 62
     7
100
AcDbLine
 10
-3475.41167469257
 20
-2580.302909152048
 30
0.0
 11
-3433.582893213676
 21
-2538.474127673156
 31
0.0
  0
LINE
  5
1FA
330
1F
100
AcDbEntity
  8
LAYER0048
  6
CONTINUOUS
 62
     7
100
AcDbLine
 10
-3474.083140382203
 20
-2580.671431116531
 30
0.0
 11
-3433.214371249195
 21
-2539.802661983522
 31
0.0
  0
LINE
  5
1FB
330
1F
100
AcDbEntity
  8
LAYER0048
  6
CONTINUOUS
 62
     7
100
AcDbLine
 10
-3472.707564933758
 20
-2580.992911942931
 30
0.0
 11
-3432.892890422792
 21
-2541.178237431967
 31
0.0
  0
LINE
  5
1FC
330
1F
100
AcDbEntity
  8
LAYER0048
  6
CONTINUOUS
 62
     7
100
AcDbLine
 10
-3471.279018952269
 20
-2581.26142223629
 30
0.0
 11
-3432.624380129431
 21
-2542.606783413455
 31
0.0
  0
LINE
  5
1FD
330
1F
100
AcDbEntity
  8
LAYER0048
  6
CONTINUOUS
 62
     7
100
AcDbLine
 10
-3469.795493082603
 20
-2581.474952641473
 30
0.0
 11
-3432.410849724249
 21
-2544.09030928312
 31
0.0
  0
LINE
  5
1FE
330
1F
100
AcDbEntity
  8
LAYER0048
  6
CONTINUOUS
 62
     7
100
AcDbLine
 10
-3468.24860056354
 20
-2581.625116397257
 30
0.0
 11
-3432.260685968466
 21
-2545.637201802184
 31
0.0
  0
LINE
  5
1FF
330
1F
100
AcDbEntity
  8
LAYER0048
  6
CONTINUOUS
 62
     7
100
AcDbLine
 10
-3466.631772425203
 20
-2581.705344533767
 30
0.0
 11
-3432.180457831955
 21
-2547.254029940521
 31
0.0
  0
LINE
  5
200
330
1F
100
AcDbEntity
  8
LAYER0048
  6
CONTINUOUS
 62
     7
100
AcDbLine
 10
-3464.935531728853
 20
-2581.706160112267
 30
0.0
 11
-3432.179642253458
 21
-2548.950270636871
 31
0.0
  0
LINE
  5
201
330
1F
100
AcDbEntity
  8
LAYER0048
  6
CONTINUOUS
 62
     7
100
AcDbLine
 10
-3463.146315739564
 20
-2581.614000397824
 30
0.0
 11
-3432.271801967901
 21
-2550.739486626162
 31
0.0
  0
LINE
  5
202
330
1F
100
AcDbEntity
  8
LAYER0048
  6
CONTINUOUS
 62
     7
100
AcDbLine
 10
-3461.246324552094
 20
-2581.411065485203
 30
0.0
 11
-3432.47473688052
 21
-2552.639477813629
 31
0.0
  0
LINE
  5
203
330
1F
100
AcDbEntity
  8
LAYER0048
  6
CONTINUOUS
 62
     7
100
AcDbLine
 10
-3459.208383973114
 20
-2581.070181181071
 30
0.0
 11
-3432.815621184653
 21
-2554.67741839261
 31
0.0
  0
LINE
  5
204
330
1F
100
AcDbEntity
  8
LAYER0048
  6
CONTINUOUS
 62
     7
100
AcDbLine
 10
-3456.99180377878
 20
-2580.550657261585
 30
0.0
 11
-3433.335145104139
 21
-2556.893998586943
 31
0.0
  0
LINE
  5
205
330
1F
100
AcDbEntity
  8
LAYER0048
  6
CONTINUOUS
 62
     7
100
AcDbLine
 10
-3454.522815817588
 20
-2579.778725575239
 30
0.0
 11
-3434.107076790485
 21
-2559.362986548136
 31
0.0
  0
LINE
  5
206
330
1F
100
AcDbEntity
  8
LAYER0048
  6
CONTINUOUS
 62
     7
100
AcDbLine
 10
-3451.657386272323
 20
-2578.610352304821
 30
0.0
 11
-3435.275450060903
 21
-2562.228416093402
 31
0.0
  0
LINE
  5
207
330
1F
100
AcDbEntity
  8
LAYER0048
  6
CONTINUOUS
 62
     7
100
AcDbLine
 10
-3447.960931815216
 20
-2576.610954122561
 30
0.0
 11
-3437.274848243163
 21
-2565.924870550511
 31
0.0
  0
LINE
  5
208
330
1F
100
AcDbEntity
  8
LAYER0048
  6
CONTINUOUS
 62
     7
100
AcDbLine
 10
-3492.695092893417
 20
-2522.800188982989
 30
0.0
 11
-3516.168079233874
 21
-2455.117723131851
 31
0.0
  0
LINE
  5
209
330
1F
100
AcDbEntity
  8
LAYER0048
  6
CONTINUOUS
 62
     7
100
AcDbLine
 10
-3492.695092893417
 20
-2573.43525728071
 30
0.0
 11
-3516.168079233873
 21
-2632.11772313185
 31
0.0
  0
LINE
  5
20A
330
1F
100
AcDbEntity
  8
LAYER0048
  6
CONTINUOUS
 62
     7
100
AcDbLine
 10
-3415.368079233873
 20
-2632.11772313185
 30
0.0
 11
-3438.841065574327
 21
-2573.43525728071
 31
0.0
  0
LINE
  5
20B
330
1F
100
AcDbEntity
  8
LAYER0048
  6
CONTINUOUS
 62
     7
100
AcDbLine
 10
-3415.368079233875
 20
-2455.117723131851
 30
0.0
 11
-3438.841065574327
 21
-2522.800188982989
 31
0.0
  0
LINE
  5
20C
330
1F
100
AcDbEntity
  8
LAYER0048
  6
CONTINUOUS
 62
     7
100
AcDbLine
 10
-3516.168079233873
 20
-2632.11772313185
 30
0.0
 11
-3549.768079233874
 21
-2548.117723131851
 31
0.0
  0
LINE
  5
20D
330
1F
100
AcDbEntity
  8
LAYER0048
  6
CONTINUOUS
 62
     7
100
AcDbLine
 10
-3516.168079233874
 20
-2455.117723131851
 30
0.0
 11
-3549.768079233874
 21
-2548.117723131851
 31
0.0
  0
LINE
  5
20E
330
1F
100
AcDbEntity
  8
LAYER0048
  6
CONTINUOUS
 62
     7
100
AcDbLine
 10
-3381.768079233873
 20
-2548.117723131851
 30
0.0
 11
-3415.368079233873
 21
-2632.11772313185
 31
0.0
  0
LINE
  5
20F
330
1F
100
AcDbEntity
  8
LAYER0048
  6
CONTINUOUS
 62
     7
100
AcDbLine
 10
-3381.768079233873
 20
-2548.117723131851
 30
0.0
 11
-3415.368079233875
 21
-2455.117723131851
 31
0.0
  0
ARC
  5
210
330
1F
100
AcDbEntity
  8
LAYER0048
  6
CONTINUOUS
 62
     7
100
AcDbCircle
 10
-3465.768079233873
 20
-2548.117723131851
 30
0.0
 40
36.95999999999864
100
AcDbArc
 50
223.2354670295922
 51
316.7645329704119
  0
ARC
  5
211
330
1F
100
AcDbEntity
  8
LAYER0048
  6
CONTINUOUS
 62
     7
100
AcDbCircle
 10
-3465.768079233873
 20
-2548.117723131851
 30
0.0
 40
36.96000000000213
100
AcDbArc
 50
43.23546702959138
 51
136.7645329704061
  0
CIRCLE
  5
212
330
1F
100
AcDbEntity
  8
LAYER0048
  6
CONTINUOUS
 62
     7
100
AcDbCircle
 10
-3465.768079233873
 20
-2548.117723131851
 30
0.0
 40
33.6
  0
TEXT
  5
213
330
1F
100
AcDbEntity
  8
LAYER0048
 62
     2
100
AcDbText
 10
-3576.82547785657
 20
-1007.438799132118
 30
0.0
 40
150.0
  1
防油堤は、地震等の振動により容易に破損、移動
 41
0.6504793717381253
  7
DCSTYLE0
 72
     5
 11
-621.8254778565697
 21
-1007.438799132118
 31
0.0
100
AcDbText
  0
TEXT
  5
214
330
1F
100
AcDbEntity
  8
LAYER0048
 62
     2
100
AcDbText
 10
-3576.82547785657
 20
-1193.438799132118
 30
0.0
 40
150.0
  1
しないように、水平で丈夫なコンクリート床面な
 41
0.7011540447197894
  7
DCSTYLE0
 72
     5
 11
-621.8254778565697
 21
-1193.438799132118
 31
0.0
100
AcDbText
  0
TEXT
  5
215
330
1F
100
AcDbEntity
  8
LAYER0048
 62
     2
100
AcDbText
 10
-3576.82547785657
 20
-1379.438799132118
 30
0.0
 40
150.0
  1
どにアンカーボルトで、正しく固定して下さい。
 41
0.715184764844743
  7
DCSTYLE0
 72
     5
 11
-621.8254778565697
 21
-1379.438799132118
 31
0.0
100
AcDbText
  0
TEXT
  5
216
330
1F
100
AcDbEntity
  8
LAYER0048
 62
     2
100
AcDbText
 10
-2744.655153523482
 20
1599.494630796538
 30
0.0
 40
120.0
  1
仕　様　明　細　書
 41
1.005550565834381
  7
DCSTYLE0
 72
     5
 11
-1400.655153523482
 21
1599.494630796538
 31
0.0
100
AcDbText
  0
TEXT
  5
217
330
1F
100
AcDbEntity
  8
LAYER0048
 62
     2
100
AcDbText
 10
-2335.104288656621
 20
2031.494630796537
 30
0.0
 40
120.0
  1
型　　式
 41
0.9707102272727273
  7
DCSTYLE0
 72
     5
 11
-1771.104288656621
 21
2031.494630796537
 31
0.0
100
AcDbText
  0
TEXT
  5
218
330
1F
100
AcDbEntity
  8
LAYER0048
 62
     2
100
AcDbText
 10
-2807.655153523481
 20
1800.494630796537
 30
0.0
 40
150.0
  1
HA09-2210G
 41
1.235661579212916
  7
DCSTYLE0
 72
     5
 11
-1337.655153523481
 21
1800.494630796537
 31
0.0
100
AcDbText
  0
TEXT
  5
21A
330
1F
100
AcDbEntity
  8
LAYER0048
 62
     2
100
AcDbText
 10
2462.999999999995
 20
-2940.000000000002
 30
0.0
 40
120.0
  1
96498-58010-01
 41
1.230307692307693
  7
DCSTYLE1
 72
     5
 11
3806.999999999995
 21
-2940.000000000002
 31
0.0
100
AcDbText
  0
TEXT
  5
21C
330
1F
100
AcDbEntity
  8
LAYER0048
 62
     2
100
AcDbText
 10
-2375.559306979348
 20
2374.201346155739
 30
0.0
 40
390.0
  1
サンダイヤ　防油堤　仕様書
 41
0.8142042925481567
  7
DCSTYLE2
 72
     5
 11
2400.440693020652
 21
2374.201346155739
 31
0.0
100
AcDbText
  0
INSERT
  5
21D
330
1F
100
AcDbEntity
  8
LAYER0048
  6
CONTINUOUS
100
AcDbBlockReference
  2
DC_GROUP_1
 10
0.0
 20
0.0
 30
0.0
  0
TEXT
  5
21E
330
1F
100
AcDbEntity
  8
LAYER0048
 62
     4
100
AcDbText
 10
-3500.655153523481
 20
1426.994630796538
 30
0.0
 40
105.0
  1
容　　　量
 41
0.8460976329905024
  7
DCSTYLE0
 72
     5
 11
-2984.655153523481
 21
1426.994630796538
 31
0.0
100
AcDbText
  0
TEXT
  5
21F
330
1F
100
AcDbEntity
  8
LAYER0048
 62
     4
100
AcDbText
 10
-3500.655153523481
 20
1282.994630796538
 30
0.0
 40
105.0
  1
適用タンク
 41
0.762091662603608
  7
DCSTYLE0
 72
     5
 11
-2984.655153523481
 21
1282.994630796538
 31
0.0
100
AcDbText
  0
TEXT
  5
220
330
1F
100
AcDbEntity
  8
LAYER0048
 62
     4
100
AcDbText
 10
-3500.655153523481
 20
1138.994630796537
 30
0.0
 40
105.0
  1
本体材質
 41
0.8446428571428571
  7
DCSTYLE0
 72
     5
 11
-2984.655153523481
 21
1138.994630796537
 31
0.0
100
AcDbText
  0
TEXT
  5
221
330
1F
100
AcDbEntity
  8
LAYER0048
 62
     4
100
AcDbText
 10
-3500.655153523481
 20
994.9946307965358
 30
0.0
 40
105.0
  1
本体板厚
 41
0.8446428571428571
  7
DCSTYLE0
 72
     5
 11
-2984.655153523481
 21
994.9946307965358
 31
0.0
100
AcDbText
  0
TEXT
  5
222
330
1F
100
AcDbEntity
  8
LAYER0048
 62
     4
100
AcDbText
 10
-3500.655153523481
 20
394.9946307965371
 30
0.0
 40
105.0
  1
水　抜　口
 41
0.7804961641472605
  7
DCSTYLE0
 72
     5
 11
-2984.655153523481
 21
394.9946307965371
 31
0.0
100
AcDbText
  0
TEXT
  5
223
330
1F
100
AcDbEntity
  8
LAYER0048
 62
     4
100
AcDbText
 10
-2793.802271344558
 20
1426.994630796537
 30
0.0
 40
105.0
  1
1060　リットル
 41
1.044242640075973
  7
DCSTYLE0
 72
     5
 11
-1869.802271344558
 21
1426.994630796537
 31
0.0
100
AcDbText
  0
TEXT
  5
224
330
1F
100
AcDbEntity
  8
LAYER0048
 62
     4
100
AcDbText
 10
-2790.988888732558
 20
1282.994630796537
 30
0.0
 40
105.0
  1
ＫＳ１－９９０Ｓ
 41
0.8288000921234454
  7
DCSTYLE0
 72
     5
 11
-2034.988888732558
 21
1282.994630796537
 31
0.0
100
AcDbText
  0
TEXT
  5
225
330
1F
100
AcDbEntity
  8
LAYER0048
 62
     4
100
AcDbText
 10
-2793.346371388558
 20
1138.994630796537
 30
0.0
 40
105.0
  1
溶融亜鉛メッキ鋼板
 41
0.7190371096942947
  7
DCSTYLE0
 72
     5
 11
-1869.346371388558
 21
1138.994630796537
 31
0.0
100
AcDbText
  0
TEXT
  5
226
330
1F
100
AcDbEntity
  8
LAYER0048
 62
     4
100
AcDbText
 10
-2790.988888732558
 20
994.9946307965358
 30
0.0
 40
105.0
  1
2.3ｍｍ
 41
1.072223463687151
  7
DCSTYLE0
 72
     5
 11
-2286.988888732558
 21
994.9946307965358
 31
0.0
100
AcDbText
  0
TEXT
  5
227
330
1F
100
AcDbEntity
  8
LAYER0048
 62
     4
100
AcDbText
 10
-2788.181504788557
 20
394.9946307965371
 30
0.0
 40
105.0
  1
Ｒ1/2　おねじ
 41
0.9520238095238095
  7
DCSTYLE0
 72
     5
 11
-1969.181504788557
 21
394.9946307965371
 31
0.0
100
AcDbText
  0
TEXT
  5
228
330
1F
100
AcDbEntity
  8
LAYER0048
 62
     4
100
AcDbText
 10
-2790.988888732558
 20
-37.00536920346352
 30
0.0
 40
105.0
  1
ライトベージュ２１
 41
0.8327842468995552
  7
DCSTYLE0
 72
     5
 11
-1866.988888732558
 21
-37.00536920346352
 31
0.0
100
AcDbText
  0
TEXT
  5
229
330
1F
100
AcDbEntity
  8
LAYER0048
 62
     4
100
AcDbText
 10
-2790.988888732558
 20
-181.0053692034633
 30
0.0
 40
105.0
  1
約127ｋｇ
 41
1.085938377973403
  7
DCSTYLE0
 72
     5
 11
-2181.988888732558
 21
-181.0053692034633
 31
0.0
100
AcDbText
  0
TEXT
  5
22A
330
1F
100
AcDbEntity
  8
LAYER0048
 62
     4
100
AcDbText
 10
-3500.655153523481
 20
-181.0053692034633
 30
0.0
 40
105.0
  1
完成重量
 41
0.8446428571428571
  7
DCSTYLE0
 72
     5
 11
-2984.655153523481
 21
-181.0053692034633
 31
0.0
100
AcDbText
  0
TEXT
  5
22B
330
1F
100
AcDbEntity
  8
LAYER0048
 62
     4
100
AcDbText
 10
-3500.655153523481
 20
250.9946307965372
 30
0.0
 40
105.0
  1
付　属　品
 41
0.7804961641472605
  7
DCSTYLE0
 72
     5
 11
-2984.655153523481
 21
250.9946307965372
 31
0.0
100
AcDbText
  0
TEXT
  5
22C
330
1F
100
AcDbEntity
  8
LAYER0048
 62
     4
100
AcDbText
 10
-2790.988888732557
 20
250.9946307965376
 30
0.0
 40
105.0
  1
Ｒｃ１／２ボールバルブ、ニップル、エルボ
 41
0.7919247389268997
  7
DCSTYLE0
 72
     5
 11
-711.9888887325574
 21
250.9946307965376
 31
0.0
100
AcDbText
  0
TEXT
  5
22D
330
1F
100
AcDbEntity
  8
LAYER0048
 62
     4
100
AcDbText
 10
-353.0543944707592
 20
-2371.266720965935
 30
0.0
 40
120.0
  1
（2200-4.6）×（980-4.6）×（500-4.6）/10　=1060リットル
 41
1.032645645645645
  7
DCSTYLE0
 72
     5
 11
3774.945605529241
 21
-2371.266720965935
 31
0.0
100
AcDbText
  0
TEXT
  5
22E
330
1F
100
AcDbEntity
  8
LAYER0048
 62
     4
100
AcDbText
 10
-442.248525462201
 20
-2198.300827032589
 30
0.0
 40
150.0
  1
容量計算
 41
0.6531250000000001
  7
DCSTYLE0
 72
     5
 11
127.751474537799
 21
-2198.300827032589
 31
0.0
100
AcDbText
  0
TEXT
  5
22F
330
1F
100
AcDbEntity
  8
LAYER0048
 62
     4
100
AcDbText
 10
-3500.655153523481
 20
850.9946307965367
 30
0.0
 40
105.0
  1
架台材質
 41
0.8446428571428571
  7
DCSTYLE0
 72
     5
 11
-2984.655153523481
 21
850.9946307965367
 31
0.0
100
AcDbText
  0
TEXT
  5
230
330
1F
100
AcDbEntity
  8
LAYER0048
 62
     4
100
AcDbText
 10
-3500.655153523481
 20
706.9946307965357
 30
0.0
 40
105.0
  1
架台板厚
 41
0.8446428571428571
  7
DCSTYLE0
 72
     5
 11
-2984.655153523481
 21
706.9946307965357
 31
0.0
100
AcDbText
  0
TEXT
  5
231
330
1F
100
AcDbEntity
  8
LAYER0048
 62
     4
100
AcDbText
 10
-3500.655153523481
 20
-37.00536920346352
 30
0.0
 40
105.0
  1
塗　装　色
 41
0.7804961641472605
  7
DCSTYLE0
 72
     5
 11
-2984.655153523481
 21
-37.00536920346352
 31
0.0
100
AcDbText
  0
TEXT
  5
232
330
1F
100
AcDbEntity
  8
LAYER0048
 62
     4
100
AcDbText
 10
2827.09077161319
 20
-2295.689919692646
 30
0.0
 40
75.0
  1
６
 41
0.8045271629778673
  7
DCSTYLE0
 72
     5
 11
2887.09077161319
 21
-2295.689919692646
 31
0.0
100
AcDbText
  0
TEXT
  5
233
330
1F
100
AcDbEntity
  8
LAYER0048
 62
     4
100
AcDbText
 10
-2790.988888732557
 20
106.9946307965371
 30
0.0
 40
105.0
  1
平ワッシャ－、六角ナット、補修塗料
 41
0.705622258969013
  7
DCSTYLE0
 72
     5
 11
-1170.988888732557
 21
106.9946307965371
 31
0.0
100
AcDbText
  0
TEXT
  5
234
330
1F
100
AcDbEntity
  8
LAYER0048
 62
     4
100
AcDbText
 10
-3500.655153523481
 20
-349.0053692034634
 30
0.0
 40
105.0
  1
耐震条件
 41
0.8446428571428571
  7
DCSTYLE0
 72
     5
 11
-2984.655153523481
 21
-349.0053692034634
 31
0.0
100
AcDbText
  0
TEXT
  5
235
330
1F
100
AcDbEntity
  8
LAYER0048
 62
     4
100
AcDbText
 10
-3500.655153523481
 20
-505.0053692034639
 30
0.0
 40
105.0
  1
防油堤固定
 41
0.6757142857142857
  7
DCSTYLE0
 72
     5
 11
-2984.655153523481
 21
-505.0053692034639
 31
0.0
100
AcDbText
  0
TEXT
  5
236
330
1F
100
AcDbEntity
  8
LAYER0048
 62
     4
100
AcDbText
 10
-2793.346371388558
 20
850.994630796537
 30
0.0
 40
105.0
  1
溶融亜鉛メッキ鋼板
 41
0.7190371096942947
  7
DCSTYLE0
 72
     5
 11
-1869.346371388558
 21
850.994630796537
 31
0.0
100
AcDbText
  0
TEXT
  5
237
330
1F
100
AcDbEntity
  8
LAYER0048
 62
     4
100
AcDbText
 10
-2790.988888732558
 20
706.9946307965357
 30
0.0
 40
105.0
  1
4.5ｍｍ/3.2ｍｍ
 41
1.115629843959905
  7
DCSTYLE0
 72
     5
 11
-1656.988888732558
 21
706.9946307965357
 31
0.0
100
AcDbText
  0
TEXT
  5
238
330
1F
100
AcDbEntity
  8
LAYER0048
 62
     4
100
AcDbText
 10
-2788.181504788557
 20
-349.0053692034633
 30
0.0
 40
105.0
  1
耐震設計震度　1.0以下
 41
0.822163170000697
  7
DCSTYLE0
 72
     5
 11
-1549.181504788557
 21
-349.0053692034633
 31
0.0
100
AcDbText
  0
TEXT
  5
239
330
1F
100
AcDbEntity
  8
LAYER0048
 62
     4
100
AcDbText
 10
-2783.113888732557
 20
-505.0053692034638
 30
0.0
 40
105.0
  1
アンカーボルト（あと施工接着式　M16　深さ110mm以上）
 41
0.5666149497122259
  7
DCSTYLE0
 72
     5
 11
-735.6138887325574
 21
-505.0053692034638
 31
0.0
100
AcDbText
  0
TEXT
  5
23A
330
1F
100
AcDbEntity
  8
LAYER0048
 62
     4
100
AcDbText
 10
-3500.655153523481
 20
544.9946307965361
 30
0.0
 40
105.0
  1
塗　　　装
 41
0.8460976329905024
  7
DCSTYLE0
 72
     5
 11
-2984.655153523481
 21
544.9946307965361
 31
0.0
100
AcDbText
  0
TEXT
  5
23B
330
1F
100
AcDbEntity
  8
LAYER0048
 62
     4
100
AcDbText
 10
-2793.448349008558
 20
544.9946307965361
 30
0.0
 40
105.0
  1
ポリエステル樹脂静電粉体塗装
 41
0.7089174674957602
  7
DCSTYLE0
 72
     5
 11
-1344.448349008558
 21
544.9946307965361
 31
0.0
100
AcDbText
  0
LINE
  5
23C
330
1F
100
AcDbEntity
  8
LAYER0048
  6
CONTINUOUS
 62
     2
100
AcDbLine
 10
-2493.134863625226
 20
2800.200914155738
 30
0.0
 11
-2493.134863625226
 21
2368.201778155739
 31
0.0
  0
LINE
  5
23D
330
1F
100
AcDbEntity
  8
LAYER0048
  6
CONTINUOUS
 62
     2
100
AcDbLine
 10
2488.551507654777
 20
2800.200914155738
 30
0.0
 11
-2493.134863625226
 21
2800.200914155738
 31
0.0
  0
LINE
  5
23E
330
1F
100
AcDbEntity
  8
LAYER0048
  6
CONTINUOUS
 62
     2
100
AcDbLine
 10
2488.551507654777
 20
2368.201778155739
 30
0.0
 11
2488.551507654777
 21
2800.200914155738
 31
0.0
  0
LINE
  5
23F
330
1F
100
AcDbEntity
  8
LAYER0048
  6
CONTINUOUS
 62
     2
100
AcDbLine
 10
-2493.134863625226
 20
2368.201778155739
 30
0.0
 11
2488.551507654777
 21
2368.201778155739
 31
0.0
  0
LINE
  5
240
330
1F
100
AcDbEntity
  8
LAYER0032
  6
CENTER
 62
     6
100
AcDbLine
 10
2004.879352162126
 20
1151.207633120635
 30
0.0
 11
2066.320034164702
 21
1151.207633120635
 31
0.0
  0
LINE
  5
241
330
1F
100
AcDbEntity
  8
LAYER0032
  6
CENTER
 62
     6
100
AcDbLine
 10
2036.441031496593
 20
1119.417723497279
 30
0.0
 11
2036.441031496593
 21
1181.207633120635
 31
0.0
  0
LINE
  5
242
330
1F
100
AcDbEntity
  8
LAYER0032
  6
CENTER
 62
     6
100
AcDbLine
 10
2004.879352162126
 20
303.2076331206354
 30
0.0
 11
2066.320034164702
 21
303.2076331206354
 31
0.0
  0
LINE
  5
243
330
1F
100
AcDbEntity
  8
LAYER0032
  6
CENTER
 62
     6
100
AcDbLine
 10
2036.441031496593
 20
334.9975427439922
 30
0.0
 11
2036.441031496593
 21
273.2076331206354
 31
0.0
  0
LINE
  5
244
330
1F
100
AcDbEntity
  8
LAYER0032
  6
CENTER
 62
     6
100
AcDbLine
 10
2146.441031496593
 20
747.2076331206345
 30
0.0
 11
2146.441031496593
 21
707.2076331206354
 31
0.0
  0
LINE
  5
245
330
1F
100
AcDbEntity
  8
LAYER0032
  6
CENTER
 62
     6
100
AcDbLine
 10
1071.441031496593
 20
-365.2019573097014
 30
0.0
 11
1071.441031496593
 21
-954.3985245186068
 31
0.0
  0
LINE
  5
246
330
1F
100
AcDbEntity
  8
LAYER0032
  6
CENTER
 62
     6
100
AcDbLine
 10
3199.241031496606
 20
-348.7038152944297
 30
0.0
 11
3199.241031496606
 21
-957.2202469517288
 31
0.0
  0
LINE
  5
247
330
1F
100
AcDbEntity
  8
LAYER0032
  6
CENTER
 62
     6
100
AcDbLine
 10
138.0027108310577
 20
303.2076331206354
 30
0.0
 11
76.56202882848254
 21
303.2076331206354
 31
0.0
  0
LINE
  5
248
330
1F
100
AcDbEntity
  8
LAYER0032
  6
CENTER
 62
     6
100
AcDbLine
 10
138.0027108310577
 20
1151.207633120635
 30
0.0
 11
76.56202882848254
 21
1151.207633120635
 31
0.0
  0
LINE
  5
249
330
1F
100
AcDbEntity
  8
LAYER0032
  6
CENTER
 62
     6
100
AcDbLine
 10
106.4410314965916
 20
1119.417723497279
 30
0.0
 11
106.4410314965916
 21
1181.207633120635
 31
0.0
  0
LINE
  5
24A
330
1F
100
AcDbEntity
  8
LAYER0032
  6
CENTER
 62
     6
100
AcDbLine
 10
106.4410314965916
 20
334.9975427439922
 30
0.0
 11
106.4410314965916
 21
273.2076331206354
 31
0.0
  0
LINE
  5
24B
330
1F
100
AcDbEntity
  8
LAYER0032
  6
CONTINUOUS
 62
     3
100
AcDbLine
 10
-26.25896850340735
 20
1187.207633120634
 30
0.0
 11
2169.141031496592
 21
1187.207633120634
 31
0.0
  0
LINE
  5
24C
330
1F
100
AcDbEntity
  8
LAYER0032
  6
CONTINUOUS
 62
     3
100
AcDbLine
 10
1.441031496592473
 20
1187.207633120634
 30
0.0
 11
1.441031496592473
 21
267.2076331206345
 31
0.0
  0
LINE
  5
24D
330
1F
100
AcDbEntity
  8
LAYER0032
  6
CONTINUOUS
 62
     3
100
AcDbLine
 10
-26.25896850340735
 20
267.2076331206345
 30
0.0
 11
2169.141031496592
 21
267.2076331206345
 31
0.0
  0
LINE
  5
24E
330
1F
100
AcDbEntity
  8
LAYER0032
  6
CONTINUOUS
 62
     3
100
AcDbLine
 10
2141.441031496593
 20
1187.207633120634
 30
0.0
 11
2141.441031496593
 21
267.2076331206345
 31
0.0
  0
LINE
  5
24F
330
1F
100
AcDbEntity
  8
LAYER0032
  6
CONTINUOUS
 62
     3
100
AcDbLine
 10
-28.55896850340753
 20
1217.207633120635
 30
0.0
 11
2171.441031496593
 21
1217.207633120635
 31
0.0
  0
LINE
  5
250
330
1F
100
AcDbEntity
  8
LAYER0032
  6
CONTINUOUS
 62
     3
100
AcDbLine
 10
2171.441031496593
 20
1217.207633120635
 30
0.0
 11
2171.441031496593
 21
237.2076331206345
 31
0.0
  0
LINE
  5
251
330
1F
100
AcDbEntity
  8
LAYER0032
  6
CONTINUOUS
 62
     3
100
AcDbLine
 10
2171.441031496593
 20
237.2076331206345
 30
0.0
 11
-28.55896850340753
 21
237.2076331206345
 31
0.0
  0
LINE
  5
252
330
1F
100
AcDbEntity
  8
LAYER0032
  6
CONTINUOUS
 62
     3
100
AcDbLine
 10
-28.55896850340753
 20
237.2076331206345
 30
0.0
 11
-28.55896850340753
 21
1217.207633120635
 31
0.0
  0
ARC
  5
253
330
1F
100
AcDbEntity
  8
LAYER0032
  6
CONTINUOUS
 62
     3
100
AcDbCircle
 10
2146.441031496593
 20
727.2076331206345
 30
0.0
 40
7.499999999999998
100
AcDbArc
 50
131.8103148957765
 51
228.1896851042235
  0
LINE
  5
254
330
1F
100
AcDbEntity
  8
LAYER0032
  6
CONTINUOUS
 62
     3
100
AcDbLine
 10
-28.55896850340753
 20
-883.2138456146722
 30
0.0
 11
2169.241031496592
 21
-883.2138456146722
 31
0.0
  0
LINE
  5
255
330
1F
100
AcDbEntity
  8
LAYER0032
  6
CONTINUOUS
 62
     3
100
AcDbLine
 10
2164.441031496592
 20
-383.2138456146722
 30
0.0
 11
2144.041031496592
 21
-383.2138456146722
 31
0.0
  0
LINE
  5
256
330
1F
100
AcDbEntity
  8
LAYER0032
  6
CONTINUOUS
 62
     3
100
AcDbLine
 10
2169.241031496592
 20
-383.2138456146722
 30
0.0
 11
2169.241031496592
 21
-883.2138456146722
 31
0.0
  0
LINE
  5
257
330
1F
100
AcDbEntity
  8
LAYER0032
  6
CONTINUOUS
 62
     3
100
AcDbLine
 10
2169.241031496592
 20
-383.2138456146722
 30
0.0
 11
-28.55896850340753
 21
-383.2138456146722
 31
0.0
  0
LINE
  5
258
330
1F
100
AcDbEntity
  8
LAYER0032
  6
CONTINUOUS
 62
     3
100
AcDbLine
 10
2155.091031496592
 20
-883.2138456146722
 30
0.0
 11
2155.091031496592
 21
-889.0538456146724
 31
0.0
  0
LINE
  5
259
330
1F
100
AcDbEntity
  8
LAYER0032
  6
CONTINUOUS
 62
     3
100
AcDbLine
 10
2133.391031496592
 20
-883.2138456146722
 30
0.0
 11
2133.391031496592
 21
-889.0538456146724
 31
0.0
  0
LINE
  5
25A
330
1F
100
AcDbEntity
  8
LAYER0032
  6
CONTINUOUS
 62
     3
100
AcDbLine
 10
2134.745347764627
 20
-890.0538456146724
 30
0.0
 11
2144.241031496592
 21
-890.0538456146724
 31
0.0
  0
LINE
  5
25B
330
1F
100
AcDbEntity
  8
LAYER0032
  6
CONTINUOUS
 62
     3
100
AcDbLine
 10
2133.731408084328
 20
-894.7458964222396
 30
0.0
 11
2133.553531496592
 21
-889.0538456146733
 31
0.0
  0
LINE
  5
25C
330
1F
100
AcDbEntity
  8
LAYER0032
  6
CONTINUOUS
 62
     3
100
AcDbLine
 10
2134.745347764627
 20
-890.0538456146733
 30
0.0
 11
2134.891974352364
 21
-894.7458964222396
 31
0.0
  0
LINE
  5
25D
330
1F
100
AcDbEntity
  8
LAYER0032
  6
CONTINUOUS
 62
     3
100
AcDbLine
 10
2144.241031496592
 20
-889.0538456146724
 30
0.0
 11
2133.391031496592
 21
-889.0538456146724
 31
0.0
  0
LINE
  5
25E
330
1F
100
AcDbEntity
  8
LAYER0032
  6
CONTINUOUS
 62
     3
100
AcDbLine
 10
2134.745347764627
 20
-890.0538456146724
 30
0.0
 11
2133.553531496592
 21
-889.0538456146724
 31
0.0
  0
LINE
  5
25F
330
1F
100
AcDbEntity
  8
LAYER0032
  6
CONTINUOUS
 62
     3
100
AcDbLine
 10
2154.750654908856
 20
-894.7458964222396
 30
0.0
 11
2154.928531496592
 21
-889.0538456146733
 31
0.0
  0
LINE
  5
260
330
1F
100
AcDbEntity
  8
LAYER0032
  6
CONTINUOUS
 62
     3
100
AcDbLine
 10
2154.928531496592
 20
-889.0538456146724
 30
0.0
 11
2155.091031496592
 21
-889.0538456146724
 31
0.0
  0
LINE
  5
261
330
1F
100
AcDbEntity
  8
LAYER0032
  6
CONTINUOUS
 62
     3
100
AcDbLine
 10
2133.391031496592
 20
-883.2138456146722
 30
0.0
 11
2155.091031496592
 21
-883.2138456146722
 31
0.0
  0
LINE
  5
262
330
1F
100
AcDbEntity
  8
LAYER0032
  6
CONTINUOUS
 62
     3
100
AcDbLine
 10
2153.736715228557
 20
-890.0538456146724
 30
0.0
 11
2144.241031496592
 21
-890.0538456146724
 31
0.0
  0
LINE
  5
263
330
1F
100
AcDbEntity
  8
LAYER0032
  6
CONTINUOUS
 62
     3
100
AcDbLine
 10
2144.241031496592
 20
-889.0538456146724
 30
0.0
 11
2155.091031496592
 21
-889.0538456146724
 31
0.0
  0
LINE
  5
264
330
1F
100
AcDbEntity
  8
LAYER0032
  6
CONTINUOUS
 62
     3
100
AcDbLine
 10
2153.736715228557
 20
-890.0538456146733
 30
0.0
 11
2153.590088640821
 21
-894.7458964222396
 31
0.0
  0
LINE
  5
265
330
1F
100
AcDbEntity
  8
LAYER0032
  6
CONTINUOUS
 62
     3
100
AcDbLine
 10
2153.736715228557
 20
-890.0538456146724
 30
0.0
 11
2154.928531496592
 21
-889.0538456146724
 31
0.0
  0
LINE
  5
266
330
1F
100
AcDbEntity
  8
LAYER0032
  6
CONTINUOUS
 62
     3
100
AcDbLine
 10
3189.391031496607
 20
-886.213845614674
 30
0.0
 11
3188.391031496607
 21
-884.4817948071059
 31
0.0
  0
LINE
  5
267
330
1F
100
AcDbEntity
  8
LAYER0032
  6
CONTINUOUS
 62
     3
100
AcDbLine
 10
3210.091031496606
 20
-886.213845614674
 30
0.0
 11
3210.091031496606
 21
-883.2138456146704
 31
0.0
  0
LINE
  5
268
330
1F
100
AcDbEntity
  8
LAYER0032
  6
CONTINUOUS
 62
     3
100
AcDbLine
 10
3188.391031496605
 20
-883.2138456146731
 30
0.0
 11
3188.391031496605
 21
-888.2138456146731
 31
0.0
  0
LINE
  5
269
330
1F
100
AcDbEntity
  8
LAYER0032
  6
CONTINUOUS
 62
     3
100
AcDbLine
 10
3188.391031496606
 20
-883.2138456146768
 30
0.0
 11
3188.391031496607
 21
-886.213845614674
 31
0.0
  0
LINE
  5
26A
330
1F
100
AcDbEntity
  8
LAYER0032
  6
CONTINUOUS
 62
     3
100
AcDbLine
 10
2714.041031496607
 20
-383.2138456146731
 30
0.0
 11
3684.441031496607
 21
-383.2138456146731
 31
0.0
  0
LINE
  5
26B
330
1F
100
AcDbEntity
  8
LAYER0032
  6
CONTINUOUS
 62
     3
100
AcDbLine
 10
2709.241031496606
 20
-388.0138456146733
 30
0.0
 11
2709.241031496606
 21
-878.4138456146729
 31
0.0
  0
LINE
  5
26C
330
1F
100
AcDbEntity
  8
LAYER0032
  6
CONTINUOUS
 62
     3
100
AcDbLine
 10
3689.241031496606
 20
-883.2138456146731
 30
0.0
 11
3689.241031496606
 21
-388.0138456146733
 31
0.0
  0
ARC
  5
26D
330
1F
100
AcDbEntity
  8
LAYER0032
  6
CONTINUOUS
 62
     3
100
AcDbCircle
 10
3684.441031496607
 20
-388.0138456146733
 30
0.0
 40
4.8
100
AcDbArc
 50
0.0
 51
90.0
  0
ARC
  5
26E
330
1F
100
AcDbEntity
  8
LAYER0032
  6
CONTINUOUS
 62
     3
100
AcDbCircle
 10
2714.041031496607
 20
-388.0138456146733
 30
0.0
 40
4.8
100
AcDbArc
 50
90.0
 51
180.0
  0
ARC
  5
26F
330
1F
100
AcDbEntity
  8
LAYER0032
  6
CONTINUOUS
 62
     3
100
AcDbCircle
 10
2714.041031496607
 20
-878.4138456146729
 30
0.0
 40
4.8
100
AcDbArc
 50
180.0
 51
270.0
  0
LINE
  5
270
330
1F
100
AcDbEntity
  8
LAYER0032
  6
CONTINUOUS
 62
     3
100
AcDbLine
 10
2162.74103149659
 20
-908.2458964222387
 30
0.0
 11
2171.241031496591
 21
-908.2458964222387
 31
0.0
  0
ARC
  5
271
330
1F
100
AcDbEntity
  8
LAYER0032
  6
CONTINUOUS
 62
     3
100
AcDbCircle
 10
2162.74103149659
 20
-903.2458964222387
 30
0.0
 40
5.0
100
AcDbArc
 50
180.0
 51
270.0
  0
LINE
  5
272
330
1F
100
AcDbEntity
  8
LAYER0032
  6
CONTINUOUS
 62
     3
100
AcDbLine
 10
2157.74103149659
 20
-894.7458964222387
 30
0.0
 11
2157.74103149659
 21
-903.2458964222387
 31
0.0
  0
LINE
  5
273
330
1F
100
AcDbEntity
  8
LAYER0032
  6
CONTINUOUS
 62
     3
100
AcDbLine
 10
2188.241031496591
 20
-934.2458964222387
 30
0.0
 11
2189.046333496591
 21
-935.64072142224
 31
0.0
  0
LINE
  5
274
330
1F
100
AcDbEntity
  8
LAYER0032
  6
CONTINUOUS
 62
     3
100
AcDbLine
 10
2189.046333496591
 20
-931.8733884222383
 30
0.0
 11
2189.046333496591
 21
-931.2666064222394
 31
0.0
  0
ARC
  5
275
330
1F
100
AcDbEntity
  8
LAYER0032
  6
CONTINUOUS
 62
     3
100
AcDbCircle
 10
2192.222022496591
 20
-933.7570544222399
 30
0.0
 40
3.692316
100
AcDbArc
 50
149.3256090000002
 51
210.7678040000001
  0
LINE
  5
276
330
1F
100
AcDbEntity
  8
LAYER0032
  6
CONTINUOUS
 62
     3
100
AcDbLine
 10
2253.241031496591
 20
-909.2458964222387
 30
0.0
 11
2253.241031496591
 21
-921.7458964222387
 31
0.0
  0
LINE
  5
277
330
1F
100
AcDbEntity
  8
LAYER0032
  6
CONTINUOUS
 62
     3
100
AcDbLine
 10
2188.241031496591
 20
-909.2458964222387
 30
0.0
 11
2188.241031496591
 21
-921.7458964222387
 31
0.0
  0
LINE
  5
278
330
1F
100
AcDbEntity
  8
LAYER0032
  6
CONTINUOUS
 62
     3
100
AcDbLine
 10
2226.841031496591
 20
-891.9458964222395
 30
0.0
 11
2214.641031496591
 21
-891.9458964222395
 31
0.0
  0
LINE
  5
279
330
1F
100
AcDbEntity
  8
LAYER0032
  6
CONTINUOUS
 62
     3
100
AcDbLine
 10
2209.741031496591
 20
-893.4458964222395
 30
0.0
 11
2233.586330496591
 21
-893.4458964222395
 31
0.0
  0
LINE
  5
27A
330
1F
100
AcDbEntity
  8
LAYER0032
  6
CONTINUOUS
 62
     3
100
AcDbLine
 10
2226.191031496591
 20
-896.9458964222395
 30
0.0
 11
2228.741031496591
 21
-896.9458964222395
 31
0.0
  0
LINE
  5
27B
330
1F
100
AcDbEntity
  8
LAYER0032
  6
CONTINUOUS
 62
     3
100
AcDbLine
 10
2209.741031496591
 20
-896.4458964222395
 30
0.0
 11
2233.586330496591
 21
-896.4458964222395
 31
0.0
  0
LINE
  5
27C
330
1F
100
AcDbEntity
  8
LAYER0032
  6
CONTINUOUS
 62
     3
100
AcDbLine
 10
2189.049408496591
 20
-907.8458964222391
 30
0.0
 11
2202.741031496591
 21
-907.8458964222391
 31
0.0
  0
LINE
  5
27D
330
1F
100
AcDbEntity
  8
LAYER0032
  6
CONTINUOUS
 62
     3
100
AcDbLine
 10
2188.241031496591
 20
-909.2458964222387
 30
0.0
 11
2189.046333496591
 21
-907.8510714222393
 31
0.0
  0
LINE
  5
27E
330
1F
100
AcDbEntity
  8
LAYER0032
  6
CONTINUOUS
 62
     3
100
AcDbLine
 10
2209.741031496591
 20
-896.4458964222395
 30
0.0
 11
2209.741031496591
 21
-893.4458964222395
 31
0.0
  0
ARC
  5
27F
330
1F
100
AcDbEntity
  8
LAYER0032
  6
CONTINUOUS
 62
     3
100
AcDbCircle
 10
2210.272785496591
 20
-907.2458964222387
 30
0.0
 40
2.0
100
AcDbArc
 50
83.27745900000012
 51
90.0
  0
ARC
  5
280
330
1F
100
AcDbEntity
  8
LAYER0032
  6
CONTINUOUS
 62
     3
100
AcDbCircle
 10
2205.241031496591
 20
-906.2458964222387
 30
0.0
 40
1.0
100
AcDbArc
 50
90.0
 51
180.0
  0
LINE
  5
281
330
1F
100
AcDbEntity
  8
LAYER0032
  6
CONTINUOUS
 62
     3
100
AcDbLine
 10
2207.241031496591
 20
-905.5458964222398
 30
0.0
 11
2206.941031496591
 21
-905.2458964222387
 31
0.0
  0
LINE
  5
282
330
1F
100
AcDbEntity
  8
LAYER0032
  6
CONTINUOUS
 62
     3
100
AcDbLine
 10
2204.241031496591
 20
-906.2458964222387
 30
0.0
 11
2204.241031496591
 21
-906.3458964222391
 31
0.0
  0
ARC
  5
283
330
1F
100
AcDbEntity
  8
LAYER0032
  6
CONTINUOUS
 62
     3
100
AcDbCircle
 10
2202.741031496591
 20
-906.3458964222391
 30
0.0
 40
1.5
100
AcDbArc
 50
270.0
 51
0.0
  0
LINE
  5
284
330
1F
100
AcDbEntity
  8
LAYER0032
  6
CONTINUOUS
 62
     3
100
AcDbLine
 10
2207.241031496591
 20
-905.2458964222387
 30
0.0
 11
2207.241031496591
 21
-907.0458964222398
 31
0.0
  0
ARC
  5
285
330
1F
100
AcDbEntity
  8
LAYER0032
  6
CONTINUOUS
 62
     3
100
AcDbCircle
 10
2210.741031496591
 20
-903.2733984222396
 30
0.0
 40
2.0
100
AcDbArc
 50
263.2774590000001
 51
0.0
  0
LINE
  5
286
330
1F
100
AcDbEntity
  8
LAYER0032
  6
CONTINUOUS
 62
     3
100
AcDbLine
 10
2215.291031496591
 20
-896.6958964222395
 30
0.0
 11
2220.741031496591
 21
-896.6958964222395
 31
0.0
  0
LINE
  5
287
330
1F
100
AcDbEntity
  8
LAYER0032
  6
CONTINUOUS
 62
     3
100
AcDbLine
 10
2215.291031496591
 20
-896.6958964222395
 30
0.0
 11
2215.541031496591
 21
-896.4458964222395
 31
0.0
  0
LINE
  5
288
330
1F
100
AcDbEntity
  8
LAYER0032
  6
CONTINUOUS
 62
     3
100
AcDbLine
 10
2215.241031496591
 20
-896.9458964222395
 30
0.0
 11
2215.241031496591
 21
-896.4458964222395
 31
0.0
  0
LINE
  5
289
330
1F
100
AcDbEntity
  8
LAYER0032
  6
CONTINUOUS
 62
     3
100
AcDbLine
 10
2212.741031496591
 20
-896.9458964222395
 30
0.0
 11
2212.741031496591
 21
-896.4458964222395
 31
0.0
  0
LINE
  5
28A
330
1F
100
AcDbEntity
  8
LAYER0032
  6
CONTINUOUS
 62
     3
100
AcDbLine
 10
2212.741031496591
 20
-903.2733984222396
 30
0.0
 11
2212.741031496591
 21
-896.9458964222395
 31
0.0
  0
LINE
  5
28B
330
1F
100
AcDbEntity
  8
LAYER0032
  6
CONTINUOUS
 62
     3
100
AcDbLine
 10
2226.191031496591
 20
-896.6958964222395
 30
0.0
 11
2225.941031496591
 21
-896.4458964222395
 31
0.0
  0
LINE
  5
28C
330
1F
100
AcDbEntity
  8
LAYER0032
  6
CONTINUOUS
 62
     3
100
AcDbLine
 10
2226.241031496591
 20
-896.9458964222395
 30
0.0
 11
2226.241031496591
 21
-896.4458964222395
 31
0.0
  0
LINE
  5
28D
330
1F
100
AcDbEntity
  8
LAYER0032
  6
CONTINUOUS
 62
     3
100
AcDbLine
 10
2226.191031496591
 20
-896.6958964222395
 30
0.0
 11
2220.741031496591
 21
-896.6958964222395
 31
0.0
  0
LINE
  5
28E
330
1F
100
AcDbEntity
  8
LAYER0032
  6
CONTINUOUS
 62
     3
100
AcDbLine
 10
2217.741031496591
 20
-887.1458964222384
 30
0.0
 11
2220.741031496591
 21
-887.1458964222384
 31
0.0
  0
LINE
  5
28F
330
1F
100
AcDbEntity
  8
LAYER0032
  6
CONTINUOUS
 62
     3
100
AcDbLine
 10
2218.341511496591
 20
-891.9458964222395
 30
0.0
 11
2220.939588496591
 21
-893.4458964222395
 31
0.0
  0
ARC
  5
290
330
1F
100
AcDbEntity
  8
LAYER0032
  6
CONTINUOUS
 62
     3
100
AcDbCircle
 10
2220.741031496591
 20
-897.8993144222386
 30
0.0
 40
9.553418
100
AcDbArc
 50
72.41204599999999
 51
107.587954
  0
ARC
  5
291
330
1F
100
AcDbEntity
  8
LAYER0032
  6
CONTINUOUS
 62
     3
100
AcDbCircle
 10
2220.741031496591
 20
-882.39247842224
 30
0.0
 40
9.553418
100
AcDbArc
 50
252.412046
 51
287.587954
  0
LINE
  5
292
330
1F
100
AcDbEntity
  8
LAYER0032
  6
CONTINUOUS
 62
     3
100
AcDbLine
 10
2215.741031496591
 20
-888.3458964222391
 30
0.0
 11
2225.741031496591
 21
-888.3458964222391
 31
0.0
  0
LINE
  5
293
330
1F
100
AcDbEntity
  8
LAYER0032
  6
CONTINUOUS
 62
     3
100
AcDbLine
 10
2217.854279496591
 20
-891.499314422239
 30
0.0
 11
2217.854279496591
 21
-888.7924784222396
 31
0.0
  0
LINE
  5
294
330
1F
100
AcDbEntity
  8
LAYER0032
  6
CONTINUOUS
 62
     3
100
AcDbLine
 10
2217.741031496591
 20
-888.3458964222391
 30
0.0
 11
2217.741031496591
 21
-887.1458964222384
 31
0.0
  0
LINE
  5
295
330
1F
100
AcDbEntity
  8
LAYER0032
  6
CONTINUOUS
 62
     3
100
AcDbLine
 10
2214.967528496591
 20
-888.7924784222396
 30
0.0
 11
2215.741031496591
 21
-888.3458964222391
 31
0.0
  0
LINE
  5
296
330
1F
100
AcDbEntity
  8
LAYER0032
  6
CONTINUOUS
 62
     3
100
AcDbLine
 10
2214.967528496591
 20
-891.499314422239
 30
0.0
 11
2215.741031496591
 21
-891.9458964222395
 31
0.0
  0
LINE
  5
297
330
1F
100
AcDbEntity
  8
LAYER0032
  6
CONTINUOUS
 62
     3
100
AcDbLine
 10
2214.641031496591
 20
-891.9458964222395
 30
0.0
 11
2214.641031496591
 21
-893.4458964222395
 31
0.0
  0
LINE
  5
298
330
1F
100
AcDbEntity
  8
LAYER0032
  6
CONTINUOUS
 62
     3
100
AcDbLine
 10
2214.967528496591
 20
-891.499314422239
 30
0.0
 11
2214.967528496591
 21
-888.7924784222396
 31
0.0
  0
ARC
  5
299
330
1F
100
AcDbEntity
  8
LAYER0032
  6
CONTINUOUS
 62
     3
100
AcDbCircle
 10
2216.410904496591
 20
-890.9017194222397
 30
0.0
 40
2.555823
100
AcDbArc
 50
55.61575300000003
 51
115.615753
  0
ARC
  5
29A
330
1F
100
AcDbEntity
  8
LAYER0032
  6
CONTINUOUS
 62
     3
100
AcDbCircle
 10
2216.410904496591
 20
-889.3900744222392
 30
0.0
 40
2.555823
100
AcDbArc
 50
244.384247
 51
304.384247
  0
LINE
  5
29B
330
1F
100
AcDbEntity
  8
LAYER0032
  6
CONTINUOUS
 62
     3
100
AcDbLine
 10
2226.514533496591
 20
-888.7924784222396
 30
0.0
 11
2225.741031496591
 21
-888.3458964222391
 31
0.0
  0
LINE
  5
29C
330
1F
100
AcDbEntity
  8
LAYER0032
  6
CONTINUOUS
 62
     3
100
AcDbLine
 10
2226.514533496591
 20
-891.499314422239
 30
0.0
 11
2225.741031496591
 21
-891.9458964222395
 31
0.0
  0
LINE
  5
29D
330
1F
100
AcDbEntity
  8
LAYER0032
  6
CONTINUOUS
 62
     3
100
AcDbLine
 10
2226.514533496591
 20
-891.499314422239
 30
0.0
 11
2226.514533496591
 21
-888.7924784222396
 31
0.0
  0
LINE
  5
29E
330
1F
100
AcDbEntity
  8
LAYER0032
  6
CONTINUOUS
 62
     3
100
AcDbLine
 10
2223.741031496591
 20
-887.1458964222384
 30
0.0
 11
2220.741031496591
 21
-887.1458964222384
 31
0.0
  0
LINE
  5
29F
330
1F
100
AcDbEntity
  8
LAYER0032
  6
CONTINUOUS
 62
     3
100
AcDbLine
 10
2223.627782496591
 20
-891.499314422239
 30
0.0
 11
2223.627782496591
 21
-888.7924784222396
 31
0.0
  0
LINE
  5
2A0
330
1F
100
AcDbEntity
  8
LAYER0032
  6
CONTINUOUS
 62
     3
100
AcDbLine
 10
2220.341511496591
 20
-891.9458964222395
 30
0.0
 11
2222.939588496591
 21
-893.4458964222395
 31
0.0
  0
LINE
  5
2A1
330
1F
100
AcDbEntity
  8
LAYER0032
  6
CONTINUOUS
 62
     3
100
AcDbLine
 10
2223.741031496591
 20
-888.3458964222391
 30
0.0
 11
2223.741031496591
 21
-887.1458964222384
 31
0.0
  0
ARC
  5
2A2
330
1F
100
AcDbEntity
  8
LAYER0032
  6
CONTINUOUS
 62
     3
100
AcDbCircle
 10
2225.071158496591
 20
-890.9017194222397
 30
0.0
 40
2.555823
100
AcDbArc
 50
64.38424699999996
 51
124.384247
  0
ARC
  5
2A3
330
1F
100
AcDbEntity
  8
LAYER0032
  6
CONTINUOUS
 62
     3
100
AcDbCircle
 10
2225.071158496591
 20
-889.3900744222392
 30
0.0
 40
2.555823
100
AcDbArc
 50
235.615753
 51
295.615753
  0
ARC
  5
2A4
330
1F
100
AcDbEntity
  8
LAYER0032
  6
CONTINUOUS
 62
     3
100
AcDbCircle
 10
2233.586330496591
 20
-891.4458964222395
 30
0.0
 40
5.0
100
AcDbArc
 50
270.0
 51
329.9999999999999
  0
LINE
  5
2A5
330
1F
100
AcDbEntity
  8
LAYER0032
  6
CONTINUOUS
 62
     3
100
AcDbLine
 10
2241.391031496591
 20
-907.8458964222391
 30
0.0
 11
2252.432740496591
 21
-907.8458964222391
 31
0.0
  0
ARC
  5
2A6
330
1F
100
AcDbEntity
  8
LAYER0032
  6
CONTINUOUS
 62
     3
100
AcDbCircle
 10
2228.491031496591
 20
-905.5071464222383
 30
0.0
 40
1.0
100
AcDbArc
 50
0.0
 51
51.31781300000039
  0
ARC
  5
2A7
330
1F
100
AcDbEntity
  8
LAYER0032
  6
CONTINUOUS
 62
     3
100
AcDbCircle
 10
2235.569458496591
 20
-906.9958964222387
 30
0.0
 40
2.0
100
AcDbArc
 50
224.9999999999997
 51
270.0
  0
LINE
  5
2A8
330
1F
100
AcDbEntity
  8
LAYER0032
  6
CONTINUOUS
 62
     3
100
AcDbLine
 10
2234.155244496591
 20
-908.4101104222391
 30
0.0
 11
2234.076817496592
 21
-908.3316834222387
 31
0.0
  0
ARC
  5
2A9
330
1F
100
AcDbEntity
  8
LAYER0032
  6
CONTINUOUS
 62
     3
100
AcDbCircle
 10
2231.491031496591
 20
-905.7458964222387
 30
0.0
 40
2.0
100
AcDbArc
 50
180.0
 51
270.0
  0
ARC
  5
2AA
330
1F
100
AcDbEntity
  8
LAYER0032
  6
CONTINUOUS
 62
     3
100
AcDbCircle
 10
2232.662603496591
 20
-909.7458964222387
 30
0.0
 40
2.0
100
AcDbArc
 50
44.99999999999972
 51
90.0
  0
LINE
  5
2AB
330
1F
100
AcDbEntity
  8
LAYER0032
  6
CONTINUOUS
 62
     3
100
AcDbLine
 10
2229.491031496591
 20
-905.5071464222383
 30
0.0
 11
2229.491031496591
 21
-905.7458964222387
 31
0.0
  0
ARC
  5
2AC
330
1F
100
AcDbEntity
  8
LAYER0032
  6
CONTINUOUS
 62
     3
100
AcDbCircle
 10
2239.412603496591
 20
-906.9958964222387
 30
0.0
 40
2.0
100
AcDbArc
 50
270.0
 51
315.0000000000003
  0
LINE
  5
2AD
330
1F
100
AcDbEntity
  8
LAYER0032
  6
CONTINUOUS
 62
     3
100
AcDbLine
 10
2241.391031496591
 20
-907.8458964222391
 30
0.0
 11
2240.826817496592
 21
-908.4101104222391
 31
0.0
  0
LINE
  5
2AE
330
1F
100
AcDbEntity
  8
LAYER0032
  6
CONTINUOUS
 62
     3
100
AcDbLine
 10
2228.741031496591
 20
-896.9458964222395
 30
0.0
 11
2228.741031496591
 21
-896.4458964222395
 31
0.0
  0
ARC
  5
2AF
330
1F
100
AcDbEntity
  8
LAYER0032
  6
CONTINUOUS
 62
     3
100
AcDbCircle
 10
2229.741031496591
 20
-903.9458964222395
 30
0.0
 40
1.0
100
AcDbArc
 50
180.0
 51
231.3178130000004
  0
LINE
  5
2B0
330
1F
100
AcDbEntity
  8
LAYER0032
  6
CONTINUOUS
 62
     3
100
AcDbLine
 10
2228.741031496591
 20
-896.9458964222395
 30
0.0
 11
2228.741031496591
 21
-903.9458964222395
 31
0.0
  0
LINE
  5
2B1
330
1F
100
AcDbEntity
  8
LAYER0032
  6
CONTINUOUS
 62
     3
100
AcDbLine
 10
2252.432740496591
 20
-907.8458964222391
 30
0.0
 11
2253.241031496591
 21
-909.2458964222387
 31
0.0
  0
ARC
  5
2B2
330
1F
100
AcDbEntity
  8
LAYER0032
  6
CONTINUOUS
 62
     3
100
AcDbCircle
 10
2233.586330496591
 20
-891.4458964222395
 30
0.0
 40
2.0
100
AcDbArc
 50
270.0
 51
329.9999999999999
  0
LINE
  5
2B3
330
1F
100
AcDbEntity
  8
LAYER0032
  6
CONTINUOUS
 62
     3
100
AcDbLine
 10
2226.841031496591
 20
-891.9458964222395
 30
0.0
 11
2226.841031496591
 21
-893.4458964222395
 31
0.0
  0
LINE
  5
2B4
330
1F
100
AcDbEntity
  8
LAYER0032
  6
CONTINUOUS
 62
     3
100
AcDbLine
 10
2206.941031496591
 20
-905.2458964222387
 30
0.0
 11
2205.241031496591
 21
-905.2458964222387
 31
0.0
  0
LINE
  5
2B5
330
1F
100
AcDbEntity
  8
LAYER0032
  6
CONTINUOUS
 62
     3
100
AcDbLine
 10
2207.241031496591
 20
-905.2458964222387
 30
0.0
 11
2210.272785496591
 21
-905.2458964222387
 31
0.0
  0
LINE
  5
2B6
330
1F
100
AcDbEntity
  8
LAYER0032
  6
CONTINUOUS
 62
     3
100
AcDbLine
 10
2215.291031496591
 20
-896.9458964222395
 30
0.0
 11
2212.741031496591
 21
-896.9458964222395
 31
0.0
  0
LINE
  5
2B7
330
1F
100
AcDbEntity
  8
LAYER0032
  6
CONTINUOUS
 62
     3
100
AcDbLine
 10
2231.491031496591
 20
-907.7458964222387
 30
0.0
 11
2232.662603496591
 21
-907.7458964222387
 31
0.0
  0
LINE
  5
2B8
330
1F
100
AcDbEntity
  8
LAYER0032
  6
CONTINUOUS
 62
     3
100
AcDbLine
 10
2235.569458496591
 20
-908.9958964222387
 30
0.0
 11
2239.412603496591
 21
-908.9958964222387
 31
0.0
  0
LINE
  5
2B9
330
1F
100
AcDbEntity
  8
LAYER0032
  6
CONTINUOUS
 62
     3
100
AcDbLine
 10
2189.046333496591
 20
-911.6184054222394
 30
0.0
 11
2189.046333496591
 21
-912.2251864222399
 31
0.0
  0
LINE
  5
2BA
330
1F
100
AcDbEntity
  8
LAYER0032
  6
CONTINUOUS
 62
     3
100
AcDbLine
 10
2189.046333496591
 20
-922.1749554222388
 30
0.0
 11
2202.741031496591
 21
-922.1749554222388
 31
0.0
  0
LINE
  5
2BB
330
1F
100
AcDbEntity
  8
LAYER0032
  6
CONTINUOUS
 62
     3
100
AcDbLine
 10
2189.046333496591
 20
-921.3168374222387
 30
0.0
 11
2202.741031496591
 21
-921.3168374222387
 31
0.0
  0
ARC
  5
2BC
330
1F
100
AcDbEntity
  8
LAYER0032
  6
CONTINUOUS
 62
     3
100
AcDbCircle
 10
2208.787468496591
 20
-916.7710114222391
 30
0.0
 40
20.257762
100
AcDbArc
 50
167.032449
 51
192.9675509999999
  0
LINE
  5
2BD
330
1F
100
AcDbEntity
  8
LAYER0032
  6
CONTINUOUS
 62
     3
100
AcDbLine
 10
2189.046333496591
 20
-911.6184054222394
 30
0.0
 11
2202.741031496591
 21
-911.6184054222394
 31
0.0
  0
LINE
  5
2BE
330
1F
100
AcDbEntity
  8
LAYER0032
  6
CONTINUOUS
 62
     3
100
AcDbLine
 10
2189.046333496591
 20
-912.2251864222399
 30
0.0
 11
2202.741031496591
 21
-912.2251864222399
 31
0.0
  0
ARC
  5
2BF
330
1F
100
AcDbEntity
  8
LAYER0032
  6
CONTINUOUS
 62
     3
100
AcDbCircle
 10
2192.222022496591
 20
-909.7347384222394
 30
0.0
 40
3.692316
100
AcDbArc
 50
149.232196
 51
210.6743909999998
  0
LINE
  5
2C0
330
1F
100
AcDbEntity
  8
LAYER0032
  6
CONTINUOUS
 62
     3
100
AcDbLine
 10
2189.046333496591
 20
-921.3168374222387
 30
0.0
 11
2189.046333496591
 21
-921.7458964222387
 31
0.0
  0
LINE
  5
2C1
330
1F
100
AcDbEntity
  8
LAYER0032
  6
CONTINUOUS
 62
     3
100
AcDbLine
 10
2189.046333496591
 20
-922.1749554222388
 30
0.0
 11
2189.046333496591
 21
-921.7458964222387
 31
0.0
  0
ARC
  5
2C2
330
1F
100
AcDbEntity
  8
LAYER0032
  6
CONTINUOUS
 62
     3
100
AcDbCircle
 10
2249.268914496591
 20
-909.73215042224
 30
0.0
 40
3.683443
100
AcDbArc
 50
329.1968529999999
 51
30.80314700000012
  0
ARC
  5
2C3
330
1F
100
AcDbEntity
  8
LAYER0032
  6
CONTINUOUS
 62
     3
100
AcDbCircle
 10
2232.808097496591
 20
-916.7710114222391
 30
0.0
 40
20.144259
100
AcDbArc
 50
345.7021341436586
 51
13.04190099999996
  0
LINE
  5
2C4
330
1F
100
AcDbEntity
  8
LAYER0032
  6
CONTINUOUS
 62
     3
100
AcDbLine
 10
2252.432740496591
 20
-911.6184044222391
 30
0.0
 11
2241.391031496591
 21
-911.6184044222391
 31
0.0
  0
LINE
  5
2C5
330
1F
100
AcDbEntity
  8
LAYER0032
  6
CONTINUOUS
 62
     3
100
AcDbLine
 10
2252.432740496591
 20
-912.2251864222399
 30
0.0
 11
2241.391031496591
 21
-912.2251864222399
 31
0.0
  0
LINE
  5
2C6
330
1F
100
AcDbEntity
  8
LAYER0032
  6
CONTINUOUS
 62
     3
100
AcDbLine
 10
2252.432740496591
 20
-911.6184044222391
 30
0.0
 11
2252.432740496591
 21
-912.2251864222399
 31
0.0
  0
ARC
  5
2C7
330
1F
100
AcDbEntity
  8
LAYER0032
  6
CONTINUOUS
 62
     3
100
AcDbCircle
 10
2252.421324496591
 20
-916.7710114222391
 30
0.0
 40
11.930293
100
AcDbArc
 50
157.602369
 51
204.6450800022612
  0
LINE
  5
2C8
330
1F
100
AcDbEntity
  8
LAYER0032
  6
CONTINUOUS
 62
     3
100
AcDbLine
 10
2241.391031496591
 20
-911.6184044222391
 30
0.0
 11
2241.391031496591
 21
-912.2251864222399
 31
0.0
  0
ARC
  5
2C9
330
1F
100
AcDbEntity
  8
LAYER0032
  6
CONTINUOUS
 62
     3
100
AcDbCircle
 10
2242.917672496591
 20
-909.73215042224
 30
0.0
 40
2.426642
100
AcDbArc
 50
141.0149879999999
 51
231.0149879999999
  0
LINE
  5
2CA
330
1F
100
AcDbEntity
  8
LAYER0032
  6
CONTINUOUS
 62
     3
100
AcDbLine
 10
2241.577782164742
 20
-921.7458964222387
 30
0.0
 11
2252.328386682354
 21
-921.7458964222387
 31
0.0
  0
LINE
  5
2CB
330
1F
100
AcDbEntity
  8
LAYER0032
  6
CONTINUOUS
 62
     3
100
AcDbLine
 10
2211.241031496591
 20
-905.2458964222387
 30
0.0
 11
2229.491031496591
 21
-905.2458964222387
 31
0.0
  0
LINE
  5
2CC
330
1F
100
AcDbEntity
  8
LAYER0032
  6
CONTINUOUS
 62
     3
100
AcDbLine
 10
2249.174787496591
 20
-873.4458964222395
 30
0.0
 11
2305.741031496591
 21
-873.4458964222395
 31
0.0
  0
LINE
  5
2CD
330
1F
100
AcDbEntity
  8
LAYER0032
  6
CONTINUOUS
 62
     3
100
AcDbLine
 10
2249.174787496591
 20
-876.4458964222395
 30
0.0
 11
2305.741031496591
 21
-876.4458964222395
 31
0.0
  0
LINE
  5
2CE
330
1F
100
AcDbEntity
  8
LAYER0032
  6
CONTINUOUS
 62
     3
100
AcDbLine
 10
2218.741031496591
 20
-886.1458964222384
 30
0.0
 11
2220.741031496591
 21
-886.1458964222384
 31
0.0
  0
LINE
  5
2CF
330
1F
100
AcDbEntity
  8
LAYER0032
  6
CONTINUOUS
 62
     3
100
AcDbLine
 10
2222.741031496591
 20
-886.1458964222384
 30
0.0
 11
2220.741031496591
 21
-886.1458964222384
 31
0.0
  0
ARC
  5
2D0
330
1F
100
AcDbEntity
  8
LAYER0032
  6
CONTINUOUS
 62
     3
100
AcDbCircle
 10
2249.174787496591
 20
-878.4458964222395
 30
0.0
 40
5.0
100
AcDbArc
 50
90.0
 51
150.0
  0
ARC
  5
2D1
330
1F
100
AcDbEntity
  8
LAYER0032
  6
CONTINUOUS
 62
     3
100
AcDbCircle
 10
2249.174787496591
 20
-878.4458964222395
 30
0.0
 40
2.0
100
AcDbArc
 50
90.0
 51
149.9999999999999
  0
LINE
  5
2D2
330
1F
100
AcDbEntity
  8
LAYER0032
  6
CONTINUOUS
 62
     3
100
AcDbLine
 10
2275.741031496591
 20
-876.4458964222395
 30
0.0
 11
2275.741031496591
 21
-873.4458964222395
 31
0.0
  0
LINE
  5
2D3
330
1F
100
AcDbEntity
  8
LAYER0032
  6
CONTINUOUS
 62
     3
100
AcDbLine
 10
2305.741031496591
 20
-876.4458964222395
 30
0.0
 11
2305.741031496591
 21
-873.4458964222395
 31
0.0
  0
LINE
  5
2D4
330
1F
100
AcDbEntity
  8
LAYER0032
  6
CONTINUOUS
 62
     3
100
AcDbLine
 10
2217.741031496591
 20
-887.1458964222384
 30
0.0
 11
2218.741031496591
 21
-886.1458964222384
 31
0.0
  0
LINE
  5
2D5
330
1F
100
AcDbEntity
  8
LAYER0032
  6
CONTINUOUS
 62
     3
100
AcDbLine
 10
2223.741031496591
 20
-887.1458964222384
 30
0.0
 11
2222.741031496591
 21
-886.1458964222384
 31
0.0
  0
LINE
  5
2D6
330
1F
100
AcDbEntity
  8
LAYER0032
  6
CONTINUOUS
 62
     3
100
AcDbLine
 10
2237.916457496591
 20
-893.9458964222395
 30
0.0
 11
2247.442736496591
 21
-877.4458964222395
 31
0.0
  0
LINE
  5
2D7
330
1F
100
AcDbEntity
  8
LAYER0032
  6
CONTINUOUS
 62
     3
100
AcDbLine
 10
2235.318381496591
 20
-892.4458964222395
 30
0.0
 11
2244.844660496591
 21
-875.9458964222395
 31
0.0
  0
LINE
  5
2D8
330
1F
100
AcDbEntity
  8
LAYER0032
  6
CONTINUOUS
 62
     3
100
AcDbLine
 10
2218.281031496591
 20
-888.3458964222391
 30
0.0
 11
2218.281031496591
 21
-886.6058964222393
 31
0.0
  0
LINE
  5
2D9
330
1F
100
AcDbEntity
  8
LAYER0032
  6
CONTINUOUS
 62
     3
100
AcDbLine
 10
2223.201031496591
 20
-888.3458964222391
 30
0.0
 11
2223.201031496591
 21
-886.6058964222393
 31
0.0
  0
ARC
  5
2DA
330
1F
100
AcDbEntity
  8
LAYER0032
  6
CONTINUOUS
 62
     3
100
AcDbCircle
 10
2210.272785496591
 20
-936.2458964222387
 30
0.0
 40
2.0
100
AcDbArc
 50
270.0
 51
298.9550240000002
  0
LINE
  5
2DB
330
1F
100
AcDbEntity
  8
LAYER0032
  6
CONTINUOUS
 62
     3
100
AcDbLine
 10
2207.241031496591
 20
-937.9458964222395
 30
0.0
 11
2206.941031496591
 21
-938.2458964222387
 31
0.0
  0
ARC
  5
2DC
330
1F
100
AcDbEntity
  8
LAYER0032
  6
CONTINUOUS
 62
     3
100
AcDbCircle
 10
2205.241031496591
 20
-937.2458964222387
 30
0.0
 40
1.0
100
AcDbArc
 50
180.0
 51
270.0
  0
ARC
  5
2DD
330
1F
100
AcDbEntity
  8
LAYER0032
  6
CONTINUOUS
 62
     3
100
AcDbCircle
 10
2202.741031496591
 20
-937.1458964222384
 30
0.0
 40
1.5
100
AcDbArc
 50
0.0
 51
90.0
  0
ARC
  5
2DE
330
1F
100
AcDbEntity
  8
LAYER0032
  6
CONTINUOUS
 62
     3
100
AcDbCircle
 10
2215.075108496591
 20
-935.7458964222387
 30
0.0
 40
2.0
100
AcDbArc
 50
270.0
 51
305.6590880000001
  0
ARC
  5
2DF
330
1F
100
AcDbEntity
  8
LAYER0032
  6
CONTINUOUS
 62
     3
100
AcDbCircle
 10
2217.406953496591
 20
-938.9958964222387
 30
0.0
 40
2.0
100
AcDbArc
 50
90.0
 51
125.6590880000001
  0
ARC
  5
2E0
330
1F
100
AcDbEntity
  8
LAYER0032
  6
CONTINUOUS
 62
     3
100
AcDbCircle
 10
2212.209276496591
 20
-939.7458964222387
 30
0.0
 40
2.0
100
AcDbArc
 50
90.0
 51
118.9550240000002
  0
LINE
  5
2E1
330
1F
100
AcDbEntity
  8
LAYER0032
  6
CONTINUOUS
 62
     3
100
AcDbLine
 10
2241.391031496591
 20
-935.6458964222384
 30
0.0
 11
2252.432740496591
 21
-935.6458964222384
 31
0.0
  0
ARC
  5
2E2
330
1F
100
AcDbEntity
  8
LAYER0032
  6
CONTINUOUS
 62
     3
100
AcDbCircle
 10
2235.569458496591
 20
-936.4958964222387
 30
0.0
 40
2.0
100
AcDbArc
 50
90.0
 51
135.0000000000003
  0
LINE
  5
2E3
330
1F
100
AcDbEntity
  8
LAYER0032
  6
CONTINUOUS
 62
     3
100
AcDbLine
 10
2234.155244496591
 20
-935.0816834222387
 30
0.0
 11
2234.076817496592
 21
-935.1601104222391
 31
0.0
  0
ARC
  5
2E4
330
1F
100
AcDbEntity
  8
LAYER0032
  6
CONTINUOUS
 62
     3
100
AcDbCircle
 10
2227.162603496591
 20
-934.9958964222387
 30
0.0
 40
2.0
100
AcDbArc
 50
270.0
 51
315.0000000000003
  0
LINE
  5
2E5
330
1F
100
AcDbEntity
  8
LAYER0032
  6
CONTINUOUS
 62
     3
100
AcDbLine
 10
2228.948137496591
 20
-936.0387904222389
 30
0.0
 11
2228.576817496591
 21
-936.4101104222391
 31
0.0
  0
ARC
  5
2E6
330
1F
100
AcDbEntity
  8
LAYER0032
  6
CONTINUOUS
 62
     3
100
AcDbCircle
 10
2229.655244496591
 20
-936.7458964222387
 30
0.0
 40
1.0
100
AcDbArc
 50
90.0
 51
135.0
  0
ARC
  5
2E7
330
1F
100
AcDbEntity
  8
LAYER0032
  6
CONTINUOUS
 62
     3
100
AcDbCircle
 10
2232.662603496591
 20
-933.7458964222387
 30
0.0
 40
2.0
100
AcDbArc
 50
270.0
 51
315.0000000000003
  0
LINE
  5
2E8
330
1F
100
AcDbEntity
  8
LAYER0032
  6
CONTINUOUS
 62
     3
100
AcDbLine
 10
2241.391031496591
 20
-935.6458964222384
 30
0.0
 11
2240.826817496592
 21
-935.0816834222387
 31
0.0
  0
ARC
  5
2E9
330
1F
100
AcDbEntity
  8
LAYER0032
  6
CONTINUOUS
 62
     3
100
AcDbCircle
 10
2239.412603496591
 20
-936.4958964222387
 30
0.0
 40
2.0
100
AcDbArc
 50
44.99999999999972
 51
90.0
  0
LINE
  5
2EA
330
1F
100
AcDbEntity
  8
LAYER0032
  6
CONTINUOUS
 62
     3
100
AcDbLine
 10
2252.432740496591
 20
-935.6458964222384
 30
0.0
 11
2253.241031496591
 21
-934.2458964222387
 31
0.0
  0
LINE
  5
2EB
330
1F
100
AcDbEntity
  8
LAYER0032
  6
CONTINUOUS
 62
     3
100
AcDbLine
 10
2217.406953496591
 20
-936.9958964222387
 30
0.0
 11
2227.162603496591
 21
-936.9958964222387
 31
0.0
  0
LINE
  5
2EC
330
1F
100
AcDbEntity
  8
LAYER0032
  6
CONTINUOUS
 62
     3
100
AcDbLine
 10
2206.941031496591
 20
-938.2458964222387
 30
0.0
 11
2205.241031496591
 21
-938.2458964222387
 31
0.0
  0
LINE
  5
2ED
330
1F
100
AcDbEntity
  8
LAYER0032
  6
CONTINUOUS
 62
     3
100
AcDbLine
 10
2207.241031496591
 20
-938.2458964222387
 30
0.0
 11
2210.272785496591
 21
-938.2458964222387
 31
0.0
  0
LINE
  5
2EE
330
1F
100
AcDbEntity
  8
LAYER0032
  6
CONTINUOUS
 62
     3
100
AcDbLine
 10
2212.209276496591
 20
-937.7458964222387
 30
0.0
 11
2215.075108496591
 21
-937.7458964222387
 31
0.0
  0
LINE
  5
2EF
330
1F
100
AcDbEntity
  8
LAYER0032
  6
CONTINUOUS
 62
     3
100
AcDbLine
 10
2229.655244496591
 20
-935.7458964222387
 30
0.0
 11
2232.662603496591
 21
-935.7458964222387
 31
0.0
  0
LINE
  5
2F0
330
1F
100
AcDbEntity
  8
LAYER0032
  6
CONTINUOUS
 62
     3
100
AcDbLine
 10
2235.569458496591
 20
-934.4958964222387
 30
0.0
 11
2239.412603496591
 21
-934.4958964222387
 31
0.0
  0
ARC
  5
2F1
330
1F
100
AcDbEntity
  8
LAYER0032
  6
CONTINUOUS
 62
     3
100
AcDbCircle
 10
2249.268914496591
 20
-933.7596424222393
 30
0.0
 40
3.683443
100
AcDbArc
 50
329.1968529999999
 51
30.80314700000012
  0
ARC
  5
2F2
330
1F
100
AcDbEntity
  8
LAYER0032
  6
CONTINUOUS
 62
     3
100
AcDbCircle
 10
2242.917672496591
 20
-933.7596424222393
 30
0.0
 40
2.426642
100
AcDbArc
 50
128.9850120000001
 51
218.9850120000001
  0
LINE
  5
2F3
330
1F
100
AcDbEntity
  8
LAYER0032
  6
CONTINUOUS
 62
     3
100
AcDbLine
 10
2252.432740496591
 20
-931.8733884222383
 30
0.0
 11
2241.391031496591
 21
-931.8733884222383
 31
0.0
  0
LINE
  5
2F4
330
1F
100
AcDbEntity
  8
LAYER0032
  6
CONTINUOUS
 62
     3
100
AcDbLine
 10
2252.432740496591
 20
-931.2666064222394
 30
0.0
 11
2241.391031496591
 21
-931.2666064222394
 31
0.0
  0
LINE
  5
2F5
330
1F
100
AcDbEntity
  8
LAYER0032
  6
CONTINUOUS
 62
     3
100
AcDbLine
 10
2252.432740496591
 20
-931.8733884222383
 30
0.0
 11
2252.432740496591
 21
-931.2666064222394
 31
0.0
  0
LINE
  5
2F6
330
1F
100
AcDbEntity
  8
LAYER0032
  6
CONTINUOUS
 62
     3
100
AcDbLine
 10
2241.391031496591
 20
-931.8733884222383
 30
0.0
 11
2241.391031496591
 21
-931.2666064222394
 31
0.0
  0
ARC
  5
2F7
330
1F
100
AcDbEntity
  8
LAYER0032
  6
CONTINUOUS
 62
     3
100
AcDbCircle
 10
2155.741031496592
 20
-910.2458964222387
 30
0.0
 40
25.0
100
AcDbArc
 50
180.0
 51
270.0
  0
LINE
  5
2F8
330
1F
100
AcDbEntity
  8
LAYER0032
  6
CONTINUOUS
 62
     3
100
AcDbLine
 10
2130.741031496592
 20
-894.7458964222387
 30
0.0
 11
2130.741031496592
 21
-910.2458964222387
 31
0.0
  0
LINE
  5
2F9
330
1F
100
AcDbEntity
  8
LAYER0032
  6
CONTINUOUS
 62
     3
100
AcDbLine
 10
2179.741031496592
 20
-908.2458964222387
 30
0.0
 11
2188.241031496592
 21
-909.7458964222387
 31
0.0
  0
LINE
  5
2FA
330
1F
100
AcDbEntity
  8
LAYER0032
  6
CONTINUOUS
 62
     3
100
AcDbLine
 10
2179.741031496591
 20
-908.2458964222387
 30
0.0
 11
2171.241031496591
 21
-909.7458964222387
 31
0.0
  0
LINE
  5
2FB
330
1F
100
AcDbEntity
  8
LAYER0032
  6
CONTINUOUS
 62
     3
100
AcDbLine
 10
2171.241031496591
 20
-935.2458964222387
 30
0.0
 11
2171.241031496591
 21
-908.2458964222387
 31
0.0
  0
LINE
  5
2FC
330
1F
100
AcDbEntity
  8
LAYER0032
  6
CONTINUOUS
 62
     3
100
AcDbLine
 10
2179.741031496591
 20
-908.2458964222387
 30
0.0
 11
2179.741031496591
 21
-935.2458964222387
 31
0.0
  0
LINE
  5
2FD
330
1F
100
AcDbEntity
  8
LAYER0032
  6
CONTINUOUS
 62
     3
100
AcDbLine
 10
2130.741031496592
 20
-894.7458964222387
 30
0.0
 11
2157.74103149659
 21
-894.7458964222387
 31
0.0
  0
LINE
  5
2FE
330
1F
100
AcDbEntity
  8
LAYER0032
  6
CONTINUOUS
 62
     3
100
AcDbLine
 10
2155.741031496592
 20
-935.2458964222387
 30
0.0
 11
2171.241031496591
 21
-935.2458964222387
 31
0.0
  0
LINE
  5
2FF
330
1F
100
AcDbEntity
  8
LAYER0032
  6
CONTINUOUS
 62
     3
100
AcDbLine
 10
2179.741031496591
 20
-935.2458964222405
 30
0.0
 11
2171.241031496591
 21
-933.7458964222405
 31
0.0
  0
LINE
  5
300
330
1F
100
AcDbEntity
  8
LAYER0032
  6
CONTINUOUS
 62
     3
100
AcDbLine
 10
2179.741031496592
 20
-935.2458964222405
 30
0.0
 11
2188.241031496592
 21
-933.7458964222405
 31
0.0
  0
LINE
  5
301
330
1F
100
AcDbEntity
  8
LAYER0032
  6
CONTINUOUS
 62
     3
100
AcDbLine
 10
2189.049408496591
 20
-935.6458964222384
 30
0.0
 11
2202.741031496591
 21
-935.6458964222384
 31
0.0
  0
LINE
  5
302
330
1F
100
AcDbEntity
  8
LAYER0032
  6
CONTINUOUS
 62
     3
100
AcDbLine
 10
2188.241031496591
 20
-934.2458964222387
 30
0.0
 11
2188.241031496591
 21
-921.7458964222387
 31
0.0
  0
LINE
  5
303
330
1F
100
AcDbEntity
  8
LAYER0032
  6
CONTINUOUS
 62
     3
100
AcDbLine
 10
2189.046333496591
 20
-931.2666064222394
 30
0.0
 11
2202.741031496591
 21
-931.2666064222394
 31
0.0
  0
LINE
  5
304
330
1F
100
AcDbEntity
  8
LAYER0032
  6
CONTINUOUS
 62
     3
100
AcDbLine
 10
2189.046333496591
 20
-931.8733884222383
 30
0.0
 11
2202.741031496591
 21
-931.8733884222383
 31
0.0
  0
ARC
  5
305
330
1F
100
AcDbEntity
  8
LAYER0032
  6
CONTINUOUS
 62
     3
100
AcDbCircle
 10
2208.787468496591
 20
-926.7207814222384
 30
0.0
 40
20.257762
100
AcDbArc
 50
167.032449
 51
192.9675509999999
  0
LINE
  5
306
330
1F
100
AcDbEntity
  8
LAYER0032
  6
CONTINUOUS
 62
     3
100
AcDbLine
 10
2253.241031496591
 20
-934.2458964222387
 30
0.0
 11
2253.241031496591
 21
-921.7458964222387
 31
0.0
  0
LINE
  5
307
330
1F
100
AcDbEntity
  8
LAYER0032
  6
CONTINUOUS
 62
     3
100
AcDbLine
 10
2207.241031496591
 20
-938.2458964222387
 30
0.0
 11
2207.241031496591
 21
-907.0458964222398
 31
0.0
  0
LINE
  5
308
330
1F
100
AcDbEntity
  8
LAYER0032
  6
CONTINUOUS
 62
     3
100
AcDbLine
 10
2204.241031496591
 20
-937.2458964222387
 30
0.0
 11
2204.241031496591
 21
-906.3458964222391
 31
0.0
  0
LINE
  5
309
330
1F
100
AcDbEntity
  8
LAYER0032
  6
CONTINUOUS
 62
     3
100
AcDbLine
 10
2216.241031496591
 20
-937.370896416056
 30
0.0
 11
2216.241031496591
 21
-905.2458964222387
 31
0.0
  0
LINE
  5
30A
330
1F
100
AcDbEntity
  8
LAYER0032
  6
CONTINUOUS
 62
     3
100
AcDbLine
 10
2211.241031496591
 20
-937.9958964285233
 30
0.0
 11
2211.241031496591
 21
-905.2458964222387
 31
0.0
  0
ARC
  5
30B
330
1F
100
AcDbEntity
  8
LAYER0032
  6
CONTINUOUS
 62
     3
100
AcDbCircle
 10
2232.808097496591
 20
-926.7207814222384
 30
0.0
 40
20.144259
100
AcDbArc
 50
346.9580990000001
 51
14.2978658563414
  0
ARC
  5
30C
330
1F
100
AcDbEntity
  8
LAYER0032
  6
CONTINUOUS
 62
     3
100
AcDbCircle
 10
2252.421324496591
 20
-926.7207814222384
 30
0.0
 40
11.930293
100
AcDbArc
 50
155.3549199977387
 51
202.397631
  0
LINE
  5
30D
330
1F
100
AcDbEntity
  8
LAYER0032
  6
CONTINUOUS
 62
     3
100
AcDbLine
 10
2234.741031496591
 20
-908.8162559212578
 30
0.0
 11
2234.741031496591
 21
-934.6755369232178
 31
0.0
  0
LINE
  5
30E
330
1F
100
AcDbEntity
  8
LAYER0032
  6
CONTINUOUS
 62
     3
100
AcDbLine
 10
2233.491031496591
 20
-907.925537378309
 30
0.0
 11
2233.491031496591
 21
-935.5662554661667
 31
0.0
  0
LINE
  5
30F
330
1F
100
AcDbEntity
  8
LAYER0032
  6
CONTINUOUS
 62
     3
100
AcDbLine
 10
2229.241031496591
 20
-905.2458964222387
 30
0.0
 11
2229.241031496591
 21
-935.7458964222387
 31
0.0
  0
LINE
  5
310
330
1F
100
AcDbEntity
  8
LAYER0032
  6
CONTINUOUS
 62
     3
100
AcDbLine
 10
2228.141031496591
 20
-905.2458964222387
 30
0.0
 11
2228.141031496591
 21
-936.7402239857456
 31
0.0
  0
LINE
  5
311
330
1F
100
AcDbEntity
  8
LAYER0032
  6
CONTINUOUS
 62
     3
100
AcDbLine
 10
3212.741031496605
 20
-894.7458964222405
 30
0.0
 11
3212.741031496605
 21
-912.2590634417311
 31
0.0
  0
LINE
  5
312
330
1F
100
AcDbEntity
  8
LAYER0032
  6
CONTINUOUS
 62
     3
100
AcDbLine
 10
3185.741031496606
 20
-894.7458964222405
 30
0.0
 11
3185.741031496606
 21
-912.2590634417338
 31
0.0
  0
LINE
  5
313
330
1F
100
AcDbEntity
  8
LAYER0032
  6
CONTINUOUS
 62
     3
100
AcDbLine
 10
3188.641974167418
 20
-894.7458964222415
 30
0.0
 11
3188.391031496607
 21
-886.213845614674
 31
0.0
  0
LINE
  5
314
330
1F
100
AcDbEntity
  8
LAYER0032
  6
CONTINUOUS
 62
     3
100
AcDbLine
 10
3189.641974167417
 20
-894.7458964222415
 30
0.0
 11
3189.391031496607
 21
-886.213845614674
 31
0.0
  0
LINE
  5
315
330
1F
100
AcDbEntity
  8
LAYER0032
  6
CONTINUOUS
 62
     3
100
AcDbLine
 10
3185.741031496606
 20
-894.7458964222415
 30
0.0
 11
3192.241031496606
 21
-894.7458964222415
 31
0.0
  0
LINE
  5
316
330
1F
100
AcDbEntity
  8
LAYER0032
  6
CONTINUOUS
 62
     3
100
AcDbLine
 10
3211.241031496607
 20
-894.7458964222415
 30
0.0
 11
3212.741031496605
 21
-894.7458964222415
 31
0.0
  0
LINE
  5
317
330
1F
100
AcDbEntity
  8
LAYER0032
  6
CONTINUOUS
 62
     3
100
AcDbLine
 10
3209.816593343598
 20
-884.9571356316519
 30
0.0
 11
3210.091031496607
 21
-884.4817948071068
 31
0.0
  0
LINE
  5
318
330
1F
100
AcDbEntity
  8
LAYER0032
  6
CONTINUOUS
 62
     3
100
AcDbLine
 10
3210.012660163956
 20
-888.8784709247675
 30
0.0
 11
3210.091031496607
 21
-886.213845614674
 31
0.0
  0
LINE
  5
319
330
1F
100
AcDbEntity
  8
LAYER0032
  6
CONTINUOUS
 62
     3
100
AcDbLine
 10
3210.091031496607
 20
-884.4817948071068
 30
0.0
 11
3209.792826295619
 21
-884.4817948071068
 31
0.0
  0
LINE
  5
31A
330
1F
100
AcDbEntity
  8
LAYER0032
  6
CONTINUOUS
 62
     3
100
AcDbLine
 10
3192.645535898291
 20
-884.4817948071077
 30
0.0
 11
3188.391031496607
 21
-884.4817948071077
 31
0.0
  0
LINE
  5
31B
330
1F
100
AcDbEntity
  8
LAYER0032
  6
CONTINUOUS
 62
     3
100
AcDbLine
 10
2714.041031496608
 20
-883.2138456146731
 30
0.0
 11
3192.702752008892
 21
-883.2138456146731
 31
0.0
  0
LINE
  5
31C
330
1F
100
AcDbEntity
  8
LAYER0032
  6
CONTINUOUS
 62
     3
100
AcDbLine
 10
3209.729428817987
 20
-883.2138456146731
 30
0.0
 11
3684.441031496607
 21
-883.2138456146731
 31
0.0
  0
LINE
  5
31D
330
1F
100
AcDbEntity
  8
LAYER0032
  6
CONTINUOUS
 62
     3
100
AcDbLine
 10
2189.049408496591
 20
741.1076331206377
 30
0.0
 11
2202.741031496591
 21
741.1076331206377
 31
0.0
  0
LINE
  5
31E
330
1F
100
AcDbEntity
  8
LAYER0032
  6
CONTINUOUS
 62
     3
100
AcDbLine
 10
2189.046333496591
 20
737.3351241206374
 30
0.0
 11
2202.741031496591
 21
737.3351241206374
 31
0.0
  0
LINE
  5
31F
330
1F
100
AcDbEntity
  8
LAYER0032
  6
CONTINUOUS
 62
     3
100
AcDbLine
 10
2189.046333496591
 20
736.728343120637
 30
0.0
 11
2202.741031496591
 21
736.728343120637
 31
0.0
  0
LINE
  5
320
330
1F
100
AcDbEntity
  8
LAYER0032
  6
CONTINUOUS
 62
     3
100
AcDbLine
 10
2188.241031496591
 20
739.7076331206363
 30
0.0
 11
2189.046333496591
 21
741.1024581206375
 31
0.0
  0
LINE
  5
321
330
1F
100
AcDbEntity
  8
LAYER0032
  6
CONTINUOUS
 62
     3
100
AcDbLine
 10
2189.046333496591
 20
737.3351241206374
 30
0.0
 11
2189.046333496591
 21
736.728343120637
 31
0.0
  0
ARC
  5
322
330
1F
100
AcDbEntity
  8
LAYER0032
  6
CONTINUOUS
 62
     3
100
AcDbCircle
 10
2192.222022496591
 20
739.2187911206374
 30
0.0
 40
3.692316
100
AcDbArc
 50
149.232196
 51
210.6743909999998
  0
LINE
  5
323
330
1F
100
AcDbEntity
  8
LAYER0032
  6
CONTINUOUS
 62
     3
100
AcDbLine
 10
2179.741031496592
 20
740.7076331206363
 30
0.0
 11
2188.241031496592
 21
739.2076331206363
 31
0.0
  0
LINE
  5
324
330
1F
100
AcDbEntity
  8
LAYER0032
  6
CONTINUOUS
 62
     3
100
AcDbLine
 10
2275.741031496591
 20
737.2076331206363
 30
0.0
 11
2303.880543496591
 21
735.2399261206365
 31
0.0
  0
LINE
  5
325
330
1F
100
AcDbEntity
  8
LAYER0032
  6
CONTINUOUS
 62
     3
100
AcDbLine
 10
2224.241031496591
 20
738.2076331206363
 30
0.0
 11
2234.741031496591
 21
738.2076331206363
 31
0.0
  0
ARC
  5
326
330
1F
100
AcDbEntity
  8
LAYER0032
  6
CONTINUOUS
 62
     3
100
AcDbCircle
 10
2210.272785496591
 20
741.7076331206363
 30
0.0
 40
2.0
100
AcDbArc
 50
61.044976
 51
90.0
  0
ARC
  5
327
330
1F
100
AcDbEntity
  8
LAYER0032
  6
CONTINUOUS
 62
     3
100
AcDbCircle
 10
2205.241031496591
 20
742.7076331206363
 30
0.0
 40
1.0
100
AcDbArc
 50
90.0
 51
180.0
  0
LINE
  5
328
330
1F
100
AcDbEntity
  8
LAYER0032
  6
CONTINUOUS
 62
     3
100
AcDbLine
 10
2207.241031496591
 20
743.407633120637
 30
0.0
 11
2206.941031496591
 21
743.7076331206363
 31
0.0
  0
ARC
  5
329
330
1F
100
AcDbEntity
  8
LAYER0032
  6
CONTINUOUS
 62
     3
100
AcDbCircle
 10
2202.741031496591
 20
742.6076331206377
 30
0.0
 40
1.5
100
AcDbArc
 50
270.0
 51
0.0
  0
ARC
  5
32A
330
1F
100
AcDbEntity
  8
LAYER0032
  6
CONTINUOUS
 62
     3
100
AcDbCircle
 10
2220.741031496591
 20
727.2076331206363
 30
0.0
 40
8.7
100
AcDbArc
 50
70.87766699999996
 51
109.1223330000001
  0
ARC
  5
32B
330
1F
100
AcDbEntity
  8
LAYER0032
  6
CONTINUOUS
 62
     3
100
AcDbCircle
 10
2218.891031496591
 20
738.2076331206363
 30
0.0
 40
1.0
100
AcDbArc
 50
90.0
 51
180.0
  0
ARC
  5
32C
330
1F
100
AcDbEntity
  8
LAYER0032
  6
CONTINUOUS
 62
     3
100
AcDbCircle
 10
2215.075108496591
 20
741.2076331206363
 30
0.0
 40
2.0
100
AcDbArc
 50
54.3409119999997
 51
90.0
  0
ARC
  5
32D
330
1F
100
AcDbEntity
  8
LAYER0032
  6
CONTINUOUS
 62
     3
100
AcDbCircle
 10
2217.406953496591
 20
744.4576331206363
 30
0.0
 40
2.0
100
AcDbArc
 50
234.3409119999997
 51
270.0
  0
ARC
  5
32E
330
1F
100
AcDbEntity
  8
LAYER0032
  6
CONTINUOUS
 62
     3
100
AcDbCircle
 10
2212.209276496591
 20
745.2076331206363
 30
0.0
 40
2.0
100
AcDbArc
 50
241.044976
 51
270.0
  0
LINE
  5
32F
330
1F
100
AcDbEntity
  8
LAYER0032
  6
CONTINUOUS
 62
     3
100
AcDbLine
 10
2217.891031496591
 20
735.0196431206377
 30
0.0
 11
2217.891031496591
 21
738.2076331206363
 31
0.0
  0
ARC
  5
330
330
1F
100
AcDbEntity
  8
LAYER0032
  6
CONTINUOUS
 62
     3
100
AcDbCircle
 10
2215.891031496591
 20
735.9471961206373
 30
0.0
 40
2.0
100
AcDbArc
 50
302.6080329999999
 51
0.0
  0
LINE
  5
331
330
1F
100
AcDbEntity
  8
LAYER0032
  6
CONTINUOUS
 62
     3
100
AcDbLine
 10
2216.241031496591
 20
741.9334301206372
 30
0.0
 11
2216.241031496591
 21
735.199653120636
 31
0.0
  0
LINE
  5
332
330
1F
100
AcDbEntity
  8
LAYER0032
  6
CONTINUOUS
 62
     3
100
AcDbLine
 10
2218.891031496591
 20
739.2076331206363
 30
0.0
 11
2222.591031496591
 21
739.2076331206363
 31
0.0
  0
ARC
  5
333
330
1F
100
AcDbEntity
  8
LAYER0032
  6
CONTINUOUS
 62
     3
100
AcDbCircle
 10
2220.741031496591
 20
727.2076331206363
 30
0.0
 40
8.75
100
AcDbArc
 50
70.08431100000004
 51
70.57235800000005
  0
ARC
  5
334
330
1F
100
AcDbEntity
  8
LAYER0032
  6
CONTINUOUS
 62
     3
100
AcDbCircle
 10
2225.591031496591
 20
735.9471961206373
 30
0.0
 40
2.0
100
AcDbArc
 50
180.0
 51
197.934231
  0
LINE
  5
335
330
1F
100
AcDbEntity
  8
LAYER0032
  6
CONTINUOUS
 62
     3
100
AcDbLine
 10
2223.741031496591
 20
737.7076331206363
 30
0.0
 11
2223.741031496591
 21
735.5981041206369
 31
0.0
  0
ARC
  5
336
330
1F
100
AcDbEntity
  8
LAYER0032
  6
CONTINUOUS
 62
     3
100
AcDbCircle
 10
2223.041031496591
 20
735.5981041206369
 30
0.0
 40
0.7
100
AcDbArc
 50
254.670608
 51
0.0
  0
ARC
  5
337
330
1F
100
AcDbEntity
  8
LAYER0032
  6
CONTINUOUS
 62
     3
100
AcDbCircle
 10
2224.241031496591
 20
737.7076331206363
 30
0.0
 40
0.5
100
AcDbArc
 50
90.0
 51
180.0
  0
LINE
  5
338
330
1F
100
AcDbEntity
  8
LAYER0032
  6
CONTINUOUS
 62
     3
100
AcDbLine
 10
2223.591031496591
 20
735.427578120637
 30
0.0
 11
2223.591031496591
 21
738.2076331206363
 31
0.0
  0
ARC
  5
339
330
1F
100
AcDbEntity
  8
LAYER0032
  6
CONTINUOUS
 62
     3
100
AcDbCircle
 10
2222.591031496591
 20
738.2076331206363
 30
0.0
 40
1.0
100
AcDbArc
 50
0.0
 51
90.0
  0
LINE
  5
33A
330
1F
100
AcDbEntity
  8
LAYER0032
  6
CONTINUOUS
 62
     3
100
AcDbLine
 10
2246.288036496591
 20
737.2076331206363
 30
0.0
 11
2275.741031496591
 21
737.2076331206363
 31
0.0
  0
LINE
  5
33B
330
1F
100
AcDbEntity
  8
LAYER0032
  6
CONTINUOUS
 62
     3
100
AcDbLine
 10
2252.432740496591
 20
741.1076331206377
 30
0.0
 11
2241.391031496591
 21
741.1076331206377
 31
0.0
  0
LINE
  5
33C
330
1F
100
AcDbEntity
  8
LAYER0032
  6
CONTINUOUS
 62
     3
100
AcDbLine
 10
2234.741031496591
 20
738.2076331206363
 30
0.0
 11
2246.288036496591
 21
737.2076331206363
 31
0.0
  0
ARC
  5
33D
330
1F
100
AcDbEntity
  8
LAYER0032
  6
CONTINUOUS
 62
     3
100
AcDbCircle
 10
2235.569458496591
 20
741.9576331206363
 30
0.0
 40
2.0
100
AcDbArc
 50
225.0
 51
270.0
  0
LINE
  5
33E
330
1F
100
AcDbEntity
  8
LAYER0032
  6
CONTINUOUS
 62
     3
100
AcDbLine
 10
2234.155244496591
 20
740.5434191206377
 30
0.0
 11
2234.076817496591
 21
740.6218461206363
 31
0.0
  0
ARC
  5
33F
330
1F
100
AcDbEntity
  8
LAYER0032
  6
CONTINUOUS
 62
     3
100
AcDbCircle
 10
2229.655244496591
 20
742.2076331206363
 30
0.0
 40
1.0
100
AcDbArc
 50
225.0
 51
270.0
  0
LINE
  5
340
330
1F
100
AcDbEntity
  8
LAYER0032
  6
CONTINUOUS
 62
     3
100
AcDbLine
 10
2228.948137496591
 20
741.5005261206361
 30
0.0
 11
2228.576817496591
 21
741.8718461206363
 31
0.0
  0
ARC
  5
341
330
1F
100
AcDbEntity
  8
LAYER0032
  6
CONTINUOUS
 62
     3
100
AcDbCircle
 10
2227.162603496591
 20
740.4576331206363
 30
0.0
 40
2.0
100
AcDbArc
 50
45.0
 51
90.0
  0
ARC
  5
342
330
1F
100
AcDbEntity
  8
LAYER0032
  6
CONTINUOUS
 62
     3
100
AcDbCircle
 10
2232.662603496591
 20
739.2076331206363
 30
0.0
 40
2.0
100
AcDbArc
 50
45.0
 51
90.0
  0
LINE
  5
343
330
1F
100
AcDbEntity
  8
LAYER0032
  6
CONTINUOUS
 62
     3
100
AcDbLine
 10
2233.491031496591
 20
740.0509031206375
 30
0.0
 11
2233.491031496591
 21
738.2076331206363
 31
0.0
  0
LINE
  5
344
330
1F
100
AcDbEntity
  8
LAYER0032
  6
CONTINUOUS
 62
     3
100
AcDbLine
 10
2229.241031496591
 20
740.6902111206373
 30
0.0
 11
2229.241031496591
 21
738.2076331206363
 31
0.0
  0
LINE
  5
345
330
1F
100
AcDbEntity
  8
LAYER0032
  6
CONTINUOUS
 62
     3
100
AcDbLine
 10
2228.141031496591
 20
741.430646120637
 30
0.0
 11
2228.141031496591
 21
738.2076331206363
 31
0.0
  0
ARC
  5
346
330
1F
100
AcDbEntity
  8
LAYER0032
  6
CONTINUOUS
 62
     3
100
AcDbCircle
 10
2239.412603496591
 20
741.9576331206363
 30
0.0
 40
2.0
100
AcDbArc
 50
270.0
 51
315.0
  0
LINE
  5
347
330
1F
100
AcDbEntity
  8
LAYER0032
  6
CONTINUOUS
 62
     3
100
AcDbLine
 10
2241.391031496591
 20
741.1076331206377
 30
0.0
 11
2240.826817496591
 21
740.5434191206377
 31
0.0
  0
ARC
  5
348
330
1F
100
AcDbEntity
  8
LAYER0032
  6
CONTINUOUS
 62
     3
100
AcDbCircle
 10
2242.917672496591
 20
739.2213791206368
 30
0.0
 40
2.426642
100
AcDbArc
 50
141.0149879999999
 51
220.0352950000002
  0
LINE
  5
349
330
1F
100
AcDbEntity
  8
LAYER0032
  6
CONTINUOUS
 62
     3
100
AcDbLine
 10
2240.241031496591
 20
739.513029120636
 30
0.0
 11
2240.241031496591
 21
737.7313191206367
 31
0.0
  0
LINE
  5
34A
330
1F
100
AcDbEntity
  8
LAYER0032
  6
CONTINUOUS
 62
     3
100
AcDbLine
 10
2252.432740496591
 20
737.3351241206374
 30
0.0
 11
2244.815892496591
 21
737.3351241206374
 31
0.0
  0
LINE
  5
34B
330
1F
100
AcDbEntity
  8
LAYER0032
  6
CONTINUOUS
 62
     3
100
AcDbLine
 10
2252.432740496591
 20
741.1076331206377
 30
0.0
 11
2253.241031496591
 21
739.7076331206363
 31
0.0
  0
ARC
  5
34C
330
1F
100
AcDbEntity
  8
LAYER0032
  6
CONTINUOUS
 62
     3
100
AcDbCircle
 10
2249.268914496591
 20
739.2213791206368
 30
0.0
 40
3.683443
100
AcDbArc
 50
329.1968529999999
 51
30.80314700000012
  0
ARC
  5
34D
330
1F
100
AcDbEntity
  8
LAYER0032
  6
CONTINUOUS
 62
     3
100
AcDbCircle
 10
2303.741031496591
 20
733.244798120636
 30
0.0
 40
2.0
100
AcDbArc
 50
0.0
 51
86.00000000000023
  0
ARC
  5
34E
330
1F
100
AcDbEntity
  8
LAYER0032
  6
CONTINUOUS
 62
     3
100
AcDbCircle
 10
2217.391031496591
 20
735.0196431206377
 30
0.0
 40
0.5
100
AcDbArc
 50
293.210955
 51
0.0
  0
LINE
  5
34F
330
1F
100
AcDbEntity
  8
LAYER0032
  6
CONTINUOUS
 62
     3
100
AcDbLine
 10
2217.406953496591
 20
742.4576331206363
 30
0.0
 11
2227.162603496591
 21
742.4576331206363
 31
0.0
  0
LINE
  5
350
330
1F
100
AcDbEntity
  8
LAYER0032
  6
CONTINUOUS
 62
     3
100
AcDbLine
 10
2206.941031496591
 20
743.7076331206363
 30
0.0
 11
2205.241031496591
 21
743.7076331206363
 31
0.0
  0
LINE
  5
351
330
1F
100
AcDbEntity
  8
LAYER0032
  6
CONTINUOUS
 62
     3
100
AcDbLine
 10
2207.241031496591
 20
743.7076331206363
 30
0.0
 11
2210.272785496591
 21
743.7076331206363
 31
0.0
  0
LINE
  5
352
330
1F
100
AcDbEntity
  8
LAYER0032
  6
CONTINUOUS
 62
     3
100
AcDbLine
 10
2212.209276496591
 20
743.2076331206363
 30
0.0
 11
2215.075108496591
 21
743.2076331206363
 31
0.0
  0
LINE
  5
353
330
1F
100
AcDbEntity
  8
LAYER0032
  6
CONTINUOUS
 62
     3
100
AcDbLine
 10
2229.655244496591
 20
741.2076331206363
 30
0.0
 11
2232.662603496591
 21
741.2076331206363
 31
0.0
  0
LINE
  5
354
330
1F
100
AcDbEntity
  8
LAYER0032
  6
CONTINUOUS
 62
     3
100
AcDbLine
 10
2235.569458496591
 20
739.9576331206363
 30
0.0
 11
2239.412603496591
 21
739.9576331206363
 31
0.0
  0
CIRCLE
  5
355
330
1F
100
AcDbEntity
  8
LAYER0032
  6
CONTINUOUS
 62
     3
100
AcDbCircle
 10
2220.741031496591
 20
727.2076331206363
 30
0.0
 40
3.0
  0
CIRCLE
  5
356
330
1F
100
AcDbEntity
  8
LAYER0032
  6
CONTINUOUS
 62
     3
100
AcDbCircle
 10
2220.741031496591
 20
727.2076331206363
 30
0.0
 40
5.0
  0
CIRCLE
  5
357
330
1F
100
AcDbEntity
  8
LAYER0032
  6
CONTINUOUS
 62
     3
100
AcDbCircle
 10
2220.741031496591
 20
727.2076331206363
 30
0.0
 40
2.0
  0
LINE
  5
358
330
1F
100
AcDbEntity
  8
LAYER0032
  6
CONTINUOUS
 62
     3
100
AcDbLine
 10
2275.741031496591
 20
721.2076331206363
 30
0.0
 11
2303.880543496591
 21
723.1753391206375
 31
0.0
  0
LINE
  5
359
330
1F
100
AcDbEntity
  8
LAYER0032
  6
CONTINUOUS
 62
     3
100
AcDbLine
 10
2211.741031496591
 20
720.2076331206363
 30
0.0
 11
2234.741031496591
 21
720.2076331206363
 31
0.0
  0
LINE
  5
35A
330
1F
100
AcDbEntity
  8
LAYER0032
  6
CONTINUOUS
 62
     3
100
AcDbLine
 10
2189.046333496591
 20
717.6869231206374
 30
0.0
 11
2202.741031496591
 21
717.6869231206374
 31
0.0
  0
LINE
  5
35B
330
1F
100
AcDbEntity
  8
LAYER0032
  6
CONTINUOUS
 62
     3
100
AcDbLine
 10
2189.046333496591
 20
717.0801411206367
 30
0.0
 11
2202.741031496591
 21
717.0801411206367
 31
0.0
  0
LINE
  5
35C
330
1F
100
AcDbEntity
  8
LAYER0032
  6
CONTINUOUS
 62
     3
100
AcDbLine
 10
2189.049408496591
 20
713.3076331206366
 30
0.0
 11
2202.741031496591
 21
713.3076331206366
 31
0.0
  0
ARC
  5
35D
330
1F
100
AcDbEntity
  8
LAYER0032
  6
CONTINUOUS
 62
     3
100
AcDbCircle
 10
2208.787468496591
 20
722.2327481206366
 30
0.0
 40
20.257762
100
AcDbArc
 50
167.032449
 51
192.9675509999999
  0
LINE
  5
35E
330
1F
100
AcDbEntity
  8
LAYER0032
  6
CONTINUOUS
 62
     3
100
AcDbLine
 10
2188.241031496591
 20
714.7076331206363
 30
0.0
 11
2188.241031496591
 21
727.2076331206363
 31
0.0
  0
LINE
  5
35F
330
1F
100
AcDbEntity
  8
LAYER0032
  6
CONTINUOUS
 62
     3
100
AcDbLine
 10
2189.046333496591
 20
717.0801411206367
 30
0.0
 11
2189.046333496591
 21
717.6869231206374
 31
0.0
  0
LINE
  5
360
330
1F
100
AcDbEntity
  8
LAYER0032
  6
CONTINUOUS
 62
     3
100
AcDbLine
 10
2188.241031496591
 20
714.7076331206363
 30
0.0
 11
2189.046333496591
 21
713.3128081206369
 31
0.0
  0
ARC
  5
361
330
1F
100
AcDbEntity
  8
LAYER0032
  6
CONTINUOUS
 62
     3
100
AcDbCircle
 10
2192.222022496591
 20
715.1964751206369
 30
0.0
 40
3.692316
100
AcDbArc
 50
149.3256090000002
 51
210.7678040000001
  0
ARC
  5
362
330
1F
100
AcDbEntity
  8
LAYER0032
  6
CONTINUOUS
 62
     3
100
AcDbCircle
 10
2210.272785496591
 20
712.7076331206363
 30
0.0
 40
2.0
100
AcDbArc
 50
270.0
 51
298.955024
  0
LINE
  5
363
330
1F
100
AcDbEntity
  8
LAYER0032
  6
CONTINUOUS
 62
     3
100
AcDbLine
 10
2207.241031496591
 20
711.0076331206374
 30
0.0
 11
2206.941031496591
 21
710.7076331206363
 31
0.0
  0
ARC
  5
364
330
1F
100
AcDbEntity
  8
LAYER0032
  6
CONTINUOUS
 62
     3
100
AcDbCircle
 10
2205.241031496591
 20
711.7076331206363
 30
0.0
 40
1.0
100
AcDbArc
 50
180.0
 51
270.0
  0
LINE
  5
365
330
1F
100
AcDbEntity
  8
LAYER0032
  6
CONTINUOUS
 62
     3
100
AcDbLine
 10
2207.241031496591
 20
710.7076331206363
 30
0.0
 11
2207.241031496591
 21
727.2076331206363
 31
0.0
  0
LINE
  5
366
330
1F
100
AcDbEntity
  8
LAYER0032
  6
CONTINUOUS
 62
     3
100
AcDbLine
 10
2212.350560496591
 20
724.2076331206363
 30
0.0
 11
2210.241031496591
 21
724.2076331206363
 31
0.0
  0
ARC
  5
367
330
1F
100
AcDbEntity
  8
LAYER0032
  6
CONTINUOUS
 62
     3
100
AcDbCircle
 10
2211.741031496591
 20
722.2076331206363
 30
0.0
 40
2.0
100
AcDbArc
 50
180.0
 51
270.0
  0
LINE
  5
368
330
1F
100
AcDbEntity
  8
LAYER0032
  6
CONTINUOUS
 62
     3
100
AcDbLine
 10
2204.241031496591
 20
711.7076331206363
 30
0.0
 11
2204.241031496591
 21
727.2076331206363
 31
0.0
  0
ARC
  5
369
330
1F
100
AcDbEntity
  8
LAYER0032
  6
CONTINUOUS
 62
     3
100
AcDbCircle
 10
2202.741031496591
 20
711.8076331206366
 30
0.0
 40
1.5
100
AcDbArc
 50
0.0
 51
90.0
  0
LINE
  5
36A
330
1F
100
AcDbEntity
  8
LAYER0032
  6
CONTINUOUS
 62
     3
100
AcDbLine
 10
2209.741031496591
 20
723.7076331206363
 30
0.0
 11
2209.741031496591
 21
722.2076331206363
 31
0.0
  0
ARC
  5
36B
330
1F
100
AcDbEntity
  8
LAYER0032
  6
CONTINUOUS
 62
     3
100
AcDbCircle
 10
2210.241031496591
 20
723.7076331206363
 30
0.0
 40
0.5
100
AcDbArc
 50
90.0
 51
180.0
  0
ARC
  5
36C
330
1F
100
AcDbEntity
  8
LAYER0032
  6
CONTINUOUS
 62
     3
100
AcDbCircle
 10
2220.741031496591
 20
727.2076331206363
 30
0.0
 40
8.0
100
AcDbArc
 50
241.044976
 51
298.955024
  0
ARC
  5
36D
330
1F
100
AcDbEntity
  8
LAYER0032
  6
CONTINUOUS
 62
     3
100
AcDbCircle
 10
2220.741031496591
 20
727.2076331206363
 30
0.0
 40
8.75
100
AcDbArc
 50
233.1301020000001
 51
306.8698979999999
  0
ARC
  5
36E
330
1F
100
AcDbEntity
  8
LAYER0032
  6
CONTINUOUS
 62
     3
100
AcDbCircle
 10
2217.406953496591
 20
709.9576331206363
 30
0.0
 40
2.0
100
AcDbArc
 50
90.0
 51
125.6590880000003
  0
ARC
  5
36F
330
1F
100
AcDbEntity
  8
LAYER0032
  6
CONTINUOUS
 62
     3
100
AcDbCircle
 10
2215.075108496591
 20
713.2076331206363
 30
0.0
 40
2.0
100
AcDbArc
 50
270.0
 51
305.6590880000003
  0
ARC
  5
370
330
1F
100
AcDbEntity
  8
LAYER0032
  6
CONTINUOUS
 62
     3
100
AcDbCircle
 10
2212.209276496591
 20
709.2076331206363
 30
0.0
 40
2.0
100
AcDbArc
 50
90.0
 51
118.955024
  0
LINE
  5
371
330
1F
100
AcDbEntity
  8
LAYER0032
  6
CONTINUOUS
 62
     3
100
AcDbLine
 10
2211.241031496591
 20
711.5282561206377
 30
0.0
 11
2211.241031496591
 21
720.2711411206374
 31
0.0
  0
LINE
  5
372
330
1F
100
AcDbEntity
  8
LAYER0032
  6
CONTINUOUS
 62
     3
100
AcDbLine
 10
2216.241031496591
 20
712.4818361206371
 30
0.0
 11
2216.241031496591
 21
719.2156131206366
 31
0.0
  0
ARC
  5
373
330
1F
100
AcDbEntity
  8
LAYER0032
  6
CONTINUOUS
 62
     3
100
AcDbCircle
 10
2212.350560496591
 20
724.907633120637
 30
0.0
 40
0.7
100
AcDbArc
 50
270.0
 51
15.3293919999997
  0
LINE
  5
374
330
1F
100
AcDbEntity
  8
LAYER0032
  6
CONTINUOUS
 62
     3
100
AcDbLine
 10
2211.241031496591
 20
724.2076331206363
 30
0.0
 11
2211.241031496591
 21
727.2076331206363
 31
0.0
  0
LINE
  5
375
330
1F
100
AcDbEntity
  8
LAYER0032
  6
CONTINUOUS
 62
     3
100
AcDbLine
 10
2246.288036496591
 20
721.2076331206363
 30
0.0
 11
2275.741031496591
 21
721.2076331206363
 31
0.0
  0
LINE
  5
376
330
1F
100
AcDbEntity
  8
LAYER0032
  6
CONTINUOUS
 62
     3
100
AcDbLine
 10
2252.432740496591
 20
713.3076331206366
 30
0.0
 11
2241.391031496591
 21
713.3076331206366
 31
0.0
  0
LINE
  5
377
330
1F
100
AcDbEntity
  8
LAYER0032
  6
CONTINUOUS
 62
     3
100
AcDbLine
 10
2252.432740496591
 20
717.0801411206367
 30
0.0
 11
2241.391031496591
 21
717.0801411206367
 31
0.0
  0
LINE
  5
378
330
1F
100
AcDbEntity
  8
LAYER0032
  6
CONTINUOUS
 62
     3
100
AcDbLine
 10
2252.432740496591
 20
717.6869231206374
 30
0.0
 11
2241.391031496591
 21
717.6869231206374
 31
0.0
  0
LINE
  5
379
330
1F
100
AcDbEntity
  8
LAYER0032
  6
CONTINUOUS
 62
     3
100
AcDbLine
 10
2234.741031496591
 20
720.2076331206363
 30
0.0
 11
2246.288036496591
 21
721.2076331206363
 31
0.0
  0
ARC
  5
37A
330
1F
100
AcDbEntity
  8
LAYER0032
  6
CONTINUOUS
 62
     3
100
AcDbCircle
 10
2235.569458496591
 20
712.4576331206363
 30
0.0
 40
2.0
100
AcDbArc
 50
90.0
 51
135.0
  0
LINE
  5
37B
330
1F
100
AcDbEntity
  8
LAYER0032
  6
CONTINUOUS
 62
     3
100
AcDbLine
 10
2234.155244496591
 20
713.8718461206363
 30
0.0
 11
2234.076817496591
 21
713.7934191206377
 31
0.0
  0
LINE
  5
37C
330
1F
100
AcDbEntity
  8
LAYER0032
  6
CONTINUOUS
 62
     3
100
AcDbLine
 10
2228.948137496591
 20
712.9147401206365
 30
0.0
 11
2228.576817496591
 21
712.5434191206377
 31
0.0
  0
ARC
  5
37D
330
1F
100
AcDbEntity
  8
LAYER0032
  6
CONTINUOUS
 62
     3
100
AcDbCircle
 10
2227.162603496591
 20
713.9576331206363
 30
0.0
 40
2.0
100
AcDbArc
 50
270.0
 51
315.0
  0
ARC
  5
37E
330
1F
100
AcDbEntity
  8
LAYER0032
  6
CONTINUOUS
 62
     3
100
AcDbCircle
 10
2229.655244496591
 20
712.2076331206363
 30
0.0
 40
1.0
100
AcDbArc
 50
90.0
 51
135.0
  0
ARC
  5
37F
330
1F
100
AcDbEntity
  8
LAYER0032
  6
CONTINUOUS
 62
     3
100
AcDbCircle
 10
2232.662603496591
 20
715.2076331206363
 30
0.0
 40
2.0
100
AcDbArc
 50
270.0
 51
315.0
  0
LINE
  5
380
330
1F
100
AcDbEntity
  8
LAYER0032
  6
CONTINUOUS
 62
     3
100
AcDbLine
 10
2234.741031496591
 20
714.9596721206372
 30
0.0
 11
2234.741031496591
 21
720.2076331206363
 31
0.0
  0
LINE
  5
381
330
1F
100
AcDbEntity
  8
LAYER0032
  6
CONTINUOUS
 62
     3
100
AcDbLine
 10
2233.491031496591
 20
714.3643631206369
 30
0.0
 11
2233.491031496591
 21
720.2076331206363
 31
0.0
  0
LINE
  5
382
330
1F
100
AcDbEntity
  8
LAYER0032
  6
CONTINUOUS
 62
     3
100
AcDbLine
 10
2228.141031496591
 20
712.9846201206374
 30
0.0
 11
2228.141031496591
 21
720.2076331206363
 31
0.0
  0
LINE
  5
383
330
1F
100
AcDbEntity
  8
LAYER0032
  6
CONTINUOUS
 62
     3
100
AcDbLine
 10
2229.241031496591
 20
713.7250551206371
 30
0.0
 11
2229.241031496591
 21
720.2076331206363
 31
0.0
  0
ARC
  5
384
330
1F
100
AcDbEntity
  8
LAYER0032
  6
CONTINUOUS
 62
     3
100
AcDbCircle
 10
2252.421324496591
 20
722.2327481206366
 30
0.0
 40
11.930293
100
AcDbArc
 50
187.313687
 51
202.397631
  0
LINE
  5
385
330
1F
100
AcDbEntity
  8
LAYER0032
  6
CONTINUOUS
 62
     3
100
AcDbLine
 10
2241.391031496591
 20
717.0801411206367
 30
0.0
 11
2241.391031496591
 21
717.6869231206374
 31
0.0
  0
ARC
  5
386
330
1F
100
AcDbEntity
  8
LAYER0032
  6
CONTINUOUS
 62
     3
100
AcDbCircle
 10
2239.412603496591
 20
712.4576331206363
 30
0.0
 40
2.0
100
AcDbArc
 50
45.0
 51
90.0
  0
LINE
  5
387
330
1F
100
AcDbEntity
  8
LAYER0032
  6
CONTINUOUS
 62
     3
100
AcDbLine
 10
2241.391031496591
 20
713.3076331206366
 30
0.0
 11
2240.826817496591
 21
713.8718461206363
 31
0.0
  0
LINE
  5
388
330
1F
100
AcDbEntity
  8
LAYER0032
  6
CONTINUOUS
 62
     3
100
AcDbLine
 10
2240.241031496591
 20
714.7076331206363
 30
0.0
 11
2240.241031496591
 21
720.6839471206376
 31
0.0
  0
ARC
  5
389
330
1F
100
AcDbEntity
  8
LAYER0032
  6
CONTINUOUS
 62
     3
100
AcDbCircle
 10
2242.917672496591
 20
715.1938871206376
 30
0.0
 40
2.426642
100
AcDbArc
 50
128.9850120000001
 51
218.9850120000001
  0
ARC
  5
38A
330
1F
100
AcDbEntity
  8
LAYER0032
  6
CONTINUOUS
 62
     3
100
AcDbCircle
 10
2232.808097496591
 20
722.2327481206366
 30
0.0
 40
20.144259
100
AcDbArc
 50
346.9580990000001
 51
357.083032
  0
LINE
  5
38B
330
1F
100
AcDbEntity
  8
LAYER0032
  6
CONTINUOUS
 62
     3
100
AcDbLine
 10
2252.432740496591
 20
717.0801411206367
 30
0.0
 11
2252.432740496591
 21
717.6869231206374
 31
0.0
  0
LINE
  5
38C
330
1F
100
AcDbEntity
  8
LAYER0032
  6
CONTINUOUS
 62
     3
100
AcDbLine
 10
2252.432740496591
 20
713.3076331206366
 30
0.0
 11
2253.241031496591
 21
714.7076331206363
 31
0.0
  0
LINE
  5
38D
330
1F
100
AcDbEntity
  8
LAYER0032
  6
CONTINUOUS
 62
     3
100
AcDbLine
 10
2253.241031496591
 20
714.7076331206363
 30
0.0
 11
2253.241031496591
 21
721.2076331206363
 31
0.0
  0
ARC
  5
38E
330
1F
100
AcDbEntity
  8
LAYER0032
  6
CONTINUOUS
 62
     3
100
AcDbCircle
 10
2249.268914496591
 20
715.1938871206376
 30
0.0
 40
3.683443
100
AcDbArc
 50
329.1968529999999
 51
30.80314700000012
  0
ARC
  5
38F
330
1F
100
AcDbEntity
  8
LAYER0032
  6
CONTINUOUS
 62
     3
100
AcDbCircle
 10
2303.741031496591
 20
725.1704671206362
 30
0.0
 40
2.0
100
AcDbArc
 50
273.9999999999998
 51
0.0
  0
LINE
  5
390
330
1F
100
AcDbEntity
  8
LAYER0032
  6
CONTINUOUS
 62
     3
100
AcDbLine
 10
2217.406953496591
 20
711.9576331206363
 30
0.0
 11
2227.162603496591
 21
711.9576331206363
 31
0.0
  0
LINE
  5
391
330
1F
100
AcDbEntity
  8
LAYER0032
  6
CONTINUOUS
 62
     3
100
AcDbLine
 10
2206.941031496591
 20
710.7076331206363
 30
0.0
 11
2205.241031496591
 21
710.7076331206363
 31
0.0
  0
LINE
  5
392
330
1F
100
AcDbEntity
  8
LAYER0032
  6
CONTINUOUS
 62
     3
100
AcDbLine
 10
2207.241031496591
 20
710.7076331206363
 30
0.0
 11
2210.272785496591
 21
710.7076331206363
 31
0.0
  0
LINE
  5
393
330
1F
100
AcDbEntity
  8
LAYER0032
  6
CONTINUOUS
 62
     3
100
AcDbLine
 10
2212.209276496591
 20
711.2076331206363
 30
0.0
 11
2215.075108496591
 21
711.2076331206363
 31
0.0
  0
LINE
  5
394
330
1F
100
AcDbEntity
  8
LAYER0032
  6
CONTINUOUS
 62
     3
100
AcDbLine
 10
2229.655244496591
 20
713.2076331206363
 30
0.0
 11
2232.662603496591
 21
713.2076331206363
 31
0.0
  0
LINE
  5
395
330
1F
100
AcDbEntity
  8
LAYER0032
  6
CONTINUOUS
 62
     3
100
AcDbLine
 10
2235.569458496591
 20
714.4576331206363
 30
0.0
 11
2239.412603496591
 21
714.4576331206363
 31
0.0
  0
LINE
  5
396
330
1F
100
AcDbEntity
  8
LAYER0032
  6
CONTINUOUS
 62
     3
100
AcDbLine
 10
2179.741031496592
 20
713.7076331206363
 30
0.0
 11
2188.241031496592
 21
715.2076331206363
 31
0.0
  0
LINE
  5
397
330
1F
100
AcDbEntity
  8
LAYER0032
  6
CONTINUOUS
 62
     3
100
AcDbLine
 10
2189.046333496591
 20
726.7785741206362
 30
0.0
 11
2202.741031496591
 21
726.7785741206362
 31
0.0
  0
LINE
  5
398
330
1F
100
AcDbEntity
  8
LAYER0032
  6
CONTINUOUS
 62
     3
100
AcDbLine
 10
2189.046333496591
 20
727.6366921206363
 30
0.0
 11
2202.741031496591
 21
727.6366921206363
 31
0.0
  0
ARC
  5
399
330
1F
100
AcDbEntity
  8
LAYER0032
  6
CONTINUOUS
 62
     3
100
AcDbCircle
 10
2208.787468496591
 20
732.1825181206377
 30
0.0
 40
20.257762
100
AcDbArc
 50
167.032449
 51
192.9675509999999
  0
LINE
  5
39A
330
1F
100
AcDbEntity
  8
LAYER0032
  6
CONTINUOUS
 62
     3
100
AcDbLine
 10
2188.241031496591
 20
739.7076331206363
 30
0.0
 11
2188.241031496591
 21
727.2076331206363
 31
0.0
  0
CIRCLE
  5
39B
330
1F
100
AcDbEntity
  8
LAYER0032
  6
CONTINUOUS
 62
     3
100
AcDbCircle
 10
2220.741031496591
 20
727.2076331206363
 30
0.0
 40
6.1
  0
ARC
  5
39C
330
1F
100
AcDbEntity
  8
LAYER0032
  6
CONTINUOUS
 62
     3
100
AcDbCircle
 10
2220.741031496591
 20
727.2076331206363
 30
0.0
 40
8.75
100
AcDbArc
 50
109.4276419999999
 51
199.9156889999999
  0
ARC
  5
39D
330
1F
100
AcDbEntity
  8
LAYER0032
  6
CONTINUOUS
 62
     3
100
AcDbCircle
 10
2220.741031496591
 20
727.2076331206363
 30
0.0
 40
8.0
100
AcDbArc
 50
74.67060800000003
 51
195.329392
  0
LINE
  5
39E
330
1F
100
AcDbEntity
  8
LAYER0032
  6
CONTINUOUS
 62
     3
100
AcDbLine
 10
2211.241031496591
 20
742.8870091206363
 30
0.0
 11
2211.241031496591
 21
727.2076331206363
 31
0.0
  0
LINE
  5
39F
330
1F
100
AcDbEntity
  8
LAYER0032
  6
CONTINUOUS
 62
     3
100
AcDbLine
 10
2207.241031496591
 20
743.7076331206363
 30
0.0
 11
2207.241031496591
 21
727.2076331206363
 31
0.0
  0
LINE
  5
3A0
330
1F
100
AcDbEntity
  8
LAYER0032
  6
CONTINUOUS
 62
     3
100
AcDbLine
 10
2204.241031496591
 20
742.7076331206363
 30
0.0
 11
2204.241031496591
 21
727.2076331206363
 31
0.0
  0
LINE
  5
3A1
330
1F
100
AcDbEntity
  8
LAYER0032
  6
CONTINUOUS
 62
     3
100
AcDbLine
 10
2246.288036496591
 20
721.2076331206363
 30
0.0
 11
2246.288036496591
 21
737.2076331206363
 31
0.0
  0
LINE
  5
3A2
330
1F
100
AcDbEntity
  8
LAYER0032
  6
CONTINUOUS
 62
     3
100
AcDbLine
 10
2234.741031496591
 20
738.2076331206363
 30
0.0
 11
2234.741031496591
 21
720.2076331206363
 31
0.0
  0
LINE
  5
3A3
330
1F
100
AcDbEntity
  8
LAYER0032
  6
CONTINUOUS
 62
     3
100
AcDbLine
 10
2234.741031496591
 20
739.6841351206376
 30
0.0
 11
2234.741031496591
 21
727.2076331206363
 31
0.0
  0
LINE
  5
3A4
330
1F
100
AcDbEntity
  8
LAYER0032
  6
CONTINUOUS
 62
     3
100
AcDbLine
 10
2305.741031496591
 20
733.244798120636
 30
0.0
 11
2305.741031496591
 21
725.1704671206362
 31
0.0
  0
LINE
  5
3A5
330
1F
100
AcDbEntity
  8
LAYER0032
  6
CONTINUOUS
 62
     3
100
AcDbLine
 10
2179.741031496592
 20
740.6796917891616
 30
0.0
 11
2179.741031496592
 21
713.7076331206363
 31
0.0
  0
LINE
  5
3A6
330
1F
100
AcDbEntity
  8
LAYER0032
  6
CONTINUOUS
 62
     3
100
AcDbLine
 10
2179.741031496592
 20
740.7076331206363
 30
0.0
 11
2171.441031496593
 21
739.2429272382842
 31
0.0
  0
LINE
  5
3A7
330
1F
100
AcDbEntity
  8
LAYER0032
  6
CONTINUOUS
 62
     3
100
AcDbLine
 10
2179.741031496592
 20
713.7076331206363
 30
0.0
 11
2171.441031496593
 21
715.1723390029883
 31
0.0
  0
LINE
  5
3A8
330
1F
100
AcDbEntity
  8
LAYER0032
  6
CONTINUOUS
 62
     3
100
AcDbLine
 10
61.44103149659247
 20
-932.7138456146722
 30
0.0
 11
101.4410314965925
 21
-932.7138456146722
 31
0.0
  0
LINE
  5
3A9
330
1F
100
AcDbEntity
  8
LAYER0032
  6
CONTINUOUS
 62
     3
100
AcDbLine
 10
2081.441031496593
 20
-932.7138456146722
 30
0.0
 11
2041.441031496593
 21
-932.7138456146722
 31
0.0
  0
LINE
  5
3AA
330
1F
100
AcDbEntity
  8
LAYER0032
  6
CONTINUOUS
 62
     3
100
AcDbLine
 10
-26.25896850340735
 20
1217.207633120635
 30
0.0
 11
-26.25896850340735
 21
1187.207633120635
 31
0.0
  0
LINE
  5
3AB
330
1F
100
AcDbEntity
  8
LAYER0032
  6
CONTINUOUS
 62
     3
100
AcDbLine
 10
-26.25896850340735
 20
267.2076331206345
 30
0.0
 11
-26.25896850340735
 21
237.2076331206345
 31
0.0
  0
LINE
  5
3AC
330
1F
100
AcDbEntity
  8
LAYER0032
  6
CONTINUOUS
 62
     3
100
AcDbLine
 10
-28.55896850340753
 20
-383.2138456146722
 30
0.0
 11
-28.55896850340753
 21
-883.2138456146722
 31
0.0
  0
LINE
  5
3AD
330
1F
100
AcDbEntity
  8
LAYER0032
  6
CONTINUOUS
 62
     3
100
AcDbLine
 10
1021.441031496592
 20
-883.2138456146722
 30
0.0
 11
1021.441031496592
 21
-935.0138456146724
 31
0.0
  0
LINE
  5
3AE
330
1F
100
AcDbEntity
  8
LAYER0032
  6
CONTINUOUS
 62
     3
100
AcDbLine
 10
1121.441031496593
 20
-883.2138456146722
 30
0.0
 11
1121.441031496593
 21
-935.0138456146724
 31
0.0
  0
LINE
  5
3AF
330
1F
100
AcDbEntity
  8
LAYER0032
  6
CONTINUOUS
 62
     3
100
AcDbLine
 10
1113.241031496593
 20
-943.2138456146722
 30
0.0
 11
1029.641031496592
 21
-943.2138456146722
 31
0.0
  0
LINE
  5
3B0
330
1F
100
AcDbEntity
  8
LAYER0032
  6
CONTINUOUS
 62
     3
100
AcDbLine
 10
1024.641031496592
 20
-883.2138456146722
 30
0.0
 11
1024.641031496592
 21
-935.0138456146724
 31
0.0
  0
LINE
  5
3B1
330
1F
100
AcDbEntity
  8
LAYER0032
  6
CONTINUOUS
 62
     3
100
AcDbLine
 10
1118.241031496593
 20
-935.0138456146724
 30
0.0
 11
1118.241031496593
 21
-883.2138456146722
 31
0.0
  0
LINE
  5
3B2
330
1F
100
AcDbEntity
  8
LAYER0032
  6
CONTINUOUS
 62
     3
100
AcDbLine
 10
1029.641031496592
 20
-940.0138456146724
 30
0.0
 11
1113.241031496593
 21
-940.0138456146724
 31
0.0
  0
ARC
  5
3B3
330
1F
100
AcDbEntity
  8
LAYER0032
  6
CONTINUOUS
 62
     3
100
AcDbCircle
 10
1029.641031496592
 20
-935.0138456146724
 30
0.0
 40
5.0
100
AcDbArc
 50
180.0
 51
270.0
  0
ARC
  5
3B4
330
1F
100
AcDbEntity
  8
LAYER0032
  6
CONTINUOUS
 62
     3
100
AcDbCircle
 10
1113.241031496593
 20
-935.0138456146724
 30
0.0
 40
5.0
100
AcDbArc
 50
270.0
 51
0.0
  0
ARC
  5
3B5
330
1F
100
AcDbEntity
  8
LAYER0032
  6
CONTINUOUS
 62
     3
100
AcDbCircle
 10
1029.641031496592
 20
-935.0138456146724
 30
0.0
 40
8.2
100
AcDbArc
 50
180.0
 51
270.0
  0
ARC
  5
3B6
330
1F
100
AcDbEntity
  8
LAYER0032
  6
CONTINUOUS
 62
     3
100
AcDbCircle
 10
1113.241031496593
 20
-935.0138456146724
 30
0.0
 40
8.2
100
AcDbArc
 50
270.0
 51
0.0
  0
LINE
  5
3B7
330
1F
100
AcDbEntity
  8
LAYER0032
  6
CONTINUOUS
 62
     3
100
AcDbLine
 10
2011.441031496593
 20
-883.2138456146722
 30
0.0
 11
2011.441031496593
 21
-933.7138456146722
 31
0.0
  0
LINE
  5
3B8
330
1F
100
AcDbEntity
  8
LAYER0032
  6
CONTINUOUS
 62
     3
100
AcDbLine
 10
2101.941031496593
 20
-943.2138456146722
 30
0.0
 11
2020.941031496593
 21
-943.2138456146722
 31
0.0
  0
LINE
  5
3B9
330
1F
100
AcDbEntity
  8
LAYER0032
  6
CONTINUOUS
 62
     3
100
AcDbLine
 10
2111.441031496593
 20
-883.2138456146722
 30
0.0
 11
2111.441031496593
 21
-933.7138456146722
 31
0.0
  0
LINE
  5
3BA
330
1F
100
AcDbEntity
  8
LAYER0032
  6
CONTINUOUS
 62
     3
100
AcDbLine
 10
2015.941031496593
 20
-883.2138456146722
 30
0.0
 11
2015.941031496593
 21
-933.7138456146722
 31
0.0
  0
LINE
  5
3BB
330
1F
100
AcDbEntity
  8
LAYER0032
  6
CONTINUOUS
 62
     3
100
AcDbLine
 10
2106.941031496593
 20
-883.2138456146722
 30
0.0
 11
2106.941031496593
 21
-933.7138456146722
 31
0.0
  0
LINE
  5
3BC
330
1F
100
AcDbEntity
  8
LAYER0032
  6
CONTINUOUS
 62
     3
100
AcDbLine
 10
2020.941031496593
 20
-938.7138456146722
 30
0.0
 11
2101.941031496593
 21
-938.7138456146722
 31
0.0
  0
ARC
  5
3BD
330
1F
100
AcDbEntity
  8
LAYER0032
  6
CONTINUOUS
 62
     3
100
AcDbCircle
 10
2020.941031496593
 20
-933.7138456146722
 30
0.0
 40
5.0
100
AcDbArc
 50
180.0
 51
270.0
  0
ARC
  5
3BE
330
1F
100
AcDbEntity
  8
LAYER0032
  6
CONTINUOUS
 62
     3
100
AcDbCircle
 10
2101.941031496593
 20
-933.7138456146722
 30
0.0
 40
5.0
100
AcDbArc
 50
270.0
 51
0.0
  0
ARC
  5
3BF
330
1F
100
AcDbEntity
  8
LAYER0032
  6
CONTINUOUS
 62
     3
100
AcDbCircle
 10
2020.941031496593
 20
-933.7138456146722
 30
0.0
 40
9.5
100
AcDbArc
 50
180.0
 51
270.0
  0
ARC
  5
3C0
330
1F
100
AcDbEntity
  8
LAYER0032
  6
CONTINUOUS
 62
     3
100
AcDbCircle
 10
2101.941031496593
 20
-933.7138456146722
 30
0.0
 40
9.5
100
AcDbArc
 50
270.0
 51
0.0
  0
LINE
  5
3C1
330
1F
100
AcDbEntity
  8
LAYER0032
  6
CONTINUOUS
 62
     3
100
AcDbLine
 10
40.94103149659247
 20
-943.2138456146722
 30
0.0
 11
121.9410314965925
 21
-943.2138456146722
 31
0.0
  0
LINE
  5
3C2
330
1F
100
AcDbEntity
  8
LAYER0032
  6
CONTINUOUS
 62
     3
100
AcDbLine
 10
121.9410314965925
 20
-938.7138456146722
 30
0.0
 11
40.94103149659247
 21
-938.7138456146722
 31
0.0
  0
ARC
  5
3C3
330
1F
100
AcDbEntity
  8
LAYER0032
  6
CONTINUOUS
 62
     3
100
AcDbCircle
 10
121.9410314965925
 20
-933.7138456146722
 30
0.0
 40
5.0
100
AcDbArc
 50
270.0
 51
0.0
  0
ARC
  5
3C4
330
1F
100
AcDbEntity
  8
LAYER0032
  6
CONTINUOUS
 62
     3
100
AcDbCircle
 10
40.94103149659247
 20
-933.7138456146722
 30
0.0
 40
5.0
100
AcDbArc
 50
180.0
 51
270.0
  0
ARC
  5
3C5
330
1F
100
AcDbEntity
  8
LAYER0032
  6
CONTINUOUS
 62
     3
100
AcDbCircle
 10
121.9410314965925
 20
-933.7138456146722
 30
0.0
 40
9.5
100
AcDbArc
 50
270.0
 51
0.0
  0
ARC
  5
3C6
330
1F
100
AcDbEntity
  8
LAYER0032
  6
CONTINUOUS
 62
     3
100
AcDbCircle
 10
40.94103149659247
 20
-933.7138456146722
 30
0.0
 40
9.5
100
AcDbArc
 50
180.0
 51
270.0
  0
LINE
  5
3C7
330
1F
100
AcDbEntity
  8
LAYER0032
  6
CONTINUOUS
 62
     3
100
AcDbLine
 10
131.4410314965925
 20
-883.2138456146722
 30
0.0
 11
131.4410314965925
 21
-933.7138456146722
 31
0.0
  0
LINE
  5
3C8
330
1F
100
AcDbEntity
  8
LAYER0032
  6
CONTINUOUS
 62
     3
100
AcDbLine
 10
31.44103149659247
 20
-883.2138456146722
 30
0.0
 11
31.44103149659247
 21
-933.7138456146722
 31
0.0
  0
LINE
  5
3C9
330
1F
100
AcDbEntity
  8
LAYER0032
  6
CONTINUOUS
 62
     3
100
AcDbLine
 10
126.9410314965925
 20
-883.2138456146722
 30
0.0
 11
126.9410314965925
 21
-933.7138456146722
 31
0.0
  0
LINE
  5
3CA
330
1F
100
AcDbEntity
  8
LAYER0032
  6
CONTINUOUS
 62
     3
100
AcDbLine
 10
35.94103149659247
 20
-883.2138456146722
 30
0.0
 11
35.94103149659247
 21
-933.7138456146722
 31
0.0
  0
LINE
  5
3CB
330
1F
100
AcDbEntity
  8
LAYER0032
  6
CONTINUOUS
 62
     3
100
AcDbLine
 10
2015.941031496593
 20
-928.7138456146722
 30
0.0
 11
2025.941031496593
 21
-938.7138456146722
 31
0.0
  0
LINE
  5
3CC
330
1F
100
AcDbEntity
  8
LAYER0032
  6
CONTINUOUS
 62
     3
100
AcDbLine
 10
2096.941031496593
 20
-938.7138456146722
 30
0.0
 11
2106.941031496593
 21
-928.7138456146722
 31
0.0
  0
LINE
  5
3CD
330
1F
100
AcDbEntity
  8
LAYER0032
  6
CONTINUOUS
 62
     3
100
AcDbLine
 10
35.94103149659247
 20
-928.7138456146722
 30
0.0
 11
45.94103149659247
 21
-938.7138456146722
 31
0.0
  0
LINE
  5
3CE
330
1F
100
AcDbEntity
  8
LAYER0032
  6
CONTINUOUS
 62
     3
100
AcDbLine
 10
116.9410314965925
 20
-938.7138456146722
 30
0.0
 11
126.9410314965925
 21
-928.7138456146722
 31
0.0
  0
LINE
  5
3CF
330
1F
100
AcDbEntity
  8
LAYER0032
  6
CONTINUOUS
 62
     3
100
AcDbLine
 10
2086.441031496593
 20
390.7076331206354
 30
0.0
 11
1986.441031496593
 21
390.7076331206354
 31
0.0
  0
LINE
  5
3D0
330
1F
100
AcDbEntity
  8
LAYER0032
  6
CONTINUOUS
 62
     3
100
AcDbLine
 10
2086.441031496593
 20
267.2076331206354
 30
0.0
 11
2086.441031496593
 21
390.7076331206354
 31
0.0
  0
LINE
  5
3D1
330
1F
100
AcDbEntity
  8
LAYER0032
  6
CONTINUOUS
 62
     3
100
AcDbLine
 10
1986.441031496592
 20
390.7076331206354
 30
0.0
 11
1986.441031496592
 21
267.2076331206354
 31
0.0
  0
LINE
  5
3D2
330
1F
100
AcDbEntity
  8
LAYER0032
  6
CONTINUOUS
 62
     3
100
AcDbLine
 10
2086.441031496593
 20
1063.707633120635
 30
0.0
 11
1986.441031496593
 21
1063.707633120635
 31
0.0
  0
LINE
  5
3D3
330
1F
100
AcDbEntity
  8
LAYER0032
  6
CONTINUOUS
 62
     3
100
AcDbLine
 10
2086.441031496593
 20
1187.207633120634
 30
0.0
 11
2086.441031496593
 21
1063.707633120635
 31
0.0
  0
LINE
  5
3D4
330
1F
100
AcDbEntity
  8
LAYER0032
  6
CONTINUOUS
 62
     3
100
AcDbLine
 10
1986.441031496592
 20
1063.707633120635
 30
0.0
 11
1986.441031496592
 21
1187.207633120634
 31
0.0
  0
LINE
  5
3D5
330
1F
100
AcDbEntity
  8
LAYER0032
  6
CONTINUOUS
 62
     3
100
AcDbLine
 10
2709.241031496606
 20
-943.2138456146731
 30
0.0
 11
3689.241031496606
 21
-943.2138456146731
 31
0.0
  0
LINE
  5
3D6
330
1F
100
AcDbEntity
  8
LAYER0032
  6
CONTINUOUS
 62
     3
100
AcDbLine
 10
2709.241031496606
 20
-943.2138456146731
 30
0.0
 11
2709.241031496606
 21
-883.2138456146731
 31
0.0
  0
LINE
  5
3D7
330
1F
100
AcDbEntity
  8
LAYER0032
  6
CONTINUOUS
 62
     3
100
AcDbLine
 10
3689.241031496606
 20
-943.2138456146731
 30
0.0
 11
3689.241031496606
 21
-883.2138456146731
 31
0.0
  0
LINE
  5
3D8
330
1F
100
AcDbEntity
  8
LAYER0032
  6
CONTINUOUS
 62
     3
100
AcDbLine
 10
2739.241031496606
 20
-943.2138456146731
 30
0.0
 11
2739.241031496606
 21
-913.2138456146731
 31
0.0
  0
LINE
  5
3D9
330
1F
100
AcDbEntity
  8
LAYER0032
  6
CONTINUOUS
 62
     3
100
AcDbLine
 10
2854.241031496606
 20
-943.2138456146731
 30
0.0
 11
2854.241031496606
 21
-913.2138456146731
 31
0.0
  0
LINE
  5
3DA
330
1F
100
AcDbEntity
  8
LAYER0032
  6
CONTINUOUS
 62
     3
100
AcDbLine
 10
2844.241031496606
 20
-903.2138456146731
 30
0.0
 11
2749.241031496606
 21
-903.2138456146731
 31
0.0
  0
ARC
  5
3DB
330
1F
100
AcDbEntity
  8
LAYER0032
  6
CONTINUOUS
 62
     3
100
AcDbCircle
 10
2749.241031496606
 20
-913.2138456146731
 30
0.0
 40
10.0
100
AcDbArc
 50
90.0
 51
180.0
  0
ARC
  5
3DC
330
1F
100
AcDbEntity
  8
LAYER0032
  6
CONTINUOUS
 62
     3
100
AcDbCircle
 10
2844.241031496606
 20
-913.2138456146731
 30
0.0
 40
10.0
100
AcDbArc
 50
0.0
 51
90.0
  0
LINE
  5
3DD
330
1F
100
AcDbEntity
  8
LAYER0032
  6
CONTINUOUS
 62
     3
100
AcDbLine
 10
2739.241031496606
 20
-938.7138456146731
 30
0.0
 11
2854.241031496606
 21
-938.7138456146731
 31
0.0
  0
ARC
  5
3DE
330
1F
100
AcDbEntity
  8
LAYER0032
  6
CONTINUOUS
 62
     3
100
AcDbCircle
 10
3554.241031496606
 20
-913.2138456146731
 30
0.0
 40
10.0
100
AcDbArc
 50
90.0
 51
180.0
  0
ARC
  5
3DF
330
1F
100
AcDbEntity
  8
LAYER0032
  6
CONTINUOUS
 62
     3
100
AcDbCircle
 10
3649.241031496606
 20
-913.2138456146731
 30
0.0
 40
10.0
100
AcDbArc
 50
0.0
 51
90.0
  0
LINE
  5
3E0
330
1F
100
AcDbEntity
  8
LAYER0032
  6
CONTINUOUS
 62
     3
100
AcDbLine
 10
3659.241031496606
 20
-938.7138456146731
 30
0.0
 11
3544.241031496606
 21
-938.7138456146731
 31
0.0
  0
LINE
  5
3E1
330
1F
100
AcDbEntity
  8
LAYER0032
  6
CONTINUOUS
 62
     3
100
AcDbLine
 10
3544.241031496606
 20
-943.2138456146731
 30
0.0
 11
3544.241031496606
 21
-913.2138456146731
 31
0.0
  0
LINE
  5
3E2
330
1F
100
AcDbEntity
  8
LAYER0032
  6
CONTINUOUS
 62
     3
100
AcDbLine
 10
3554.241031496606
 20
-903.2138456146731
 30
0.0
 11
3649.241031496606
 21
-903.2138456146731
 31
0.0
  0
LINE
  5
3E3
330
1F
100
AcDbEntity
  8
LAYER0032
  6
CONTINUOUS
 62
     3
100
AcDbLine
 10
3659.241031496606
 20
-943.2138456146731
 30
0.0
 11
3659.241031496606
 21
-913.2138456146731
 31
0.0
  0
LINE
  5
3E4
330
1F
100
AcDbEntity
  8
LAYER0032
  6
CONTINUOUS
 62
     3
100
AcDbLine
 10
56.44103149659156
 20
390.7076331206354
 30
0.0
 11
156.4410314965916
 21
390.7076331206354
 31
0.0
  0
LINE
  5
3E5
330
1F
100
AcDbEntity
  8
LAYER0032
  6
CONTINUOUS
 62
     3
100
AcDbLine
 10
56.44103149659156
 20
1063.707633120635
 30
0.0
 11
156.4410314965916
 21
1063.707633120635
 31
0.0
  0
LINE
  5
3E6
330
1F
100
AcDbEntity
  8
LAYER0032
  6
CONTINUOUS
 62
     3
100
AcDbLine
 10
156.4410314965925
 20
1063.707633120635
 30
0.0
 11
156.4410314965925
 21
1187.207633120634
 31
0.0
  0
LINE
  5
3E7
330
1F
100
AcDbEntity
  8
LAYER0032
  6
CONTINUOUS
 62
     3
100
AcDbLine
 10
56.44103149659156
 20
1187.207633120634
 30
0.0
 11
56.44103149659156
 21
1063.707633120635
 31
0.0
  0
LINE
  5
3E8
330
1F
100
AcDbEntity
  8
LAYER0032
  6
CONTINUOUS
 62
     3
100
AcDbLine
 10
56.44103149659156
 20
267.2076331206354
 30
0.0
 11
56.44103149659156
 21
390.7076331206354
 31
0.0
  0
LINE
  5
3E9
330
1F
100
AcDbEntity
  8
LAYER0032
  6
CONTINUOUS
 62
     3
100
AcDbLine
 10
156.4410314965925
 20
390.7076331206354
 30
0.0
 11
156.4410314965925
 21
267.2076331206354
 31
0.0
  0
LINE
  5
3EA
330
1F
100
AcDbEntity
  8
LAYER0032
  6
CONTINUOUS
 62
     3
100
AcDbLine
 10
3689.241031496606
 20
-883.2138456146731
 30
0.0
 11
3209.729428817987
 21
-883.2138456146731
 31
0.0
  0
LINE
  5
3EB
330
1F
100
AcDbEntity
  8
LAYER0032
  6
CONTINUOUS
 62
     3
100
AcDbLine
 10
3192.702752008892
 20
-883.2138456146731
 30
0.0
 11
2709.241031496608
 21
-883.2138456146731
 31
0.0
  0
LINE
  5
3EC
330
1F
100
AcDbEntity
  8
LAYER0032
  6
CONTINUOUS
 62
     3
100
AcDbLine
 10
61.44103149659247
 20
-932.7138456146722
 30
0.0
 11
61.44103149659247
 21
-938.7138456146722
 31
0.0
  0
LINE
  5
3ED
330
1F
100
AcDbEntity
  8
LAYER0032
  6
CONTINUOUS
 62
     3
100
AcDbLine
 10
101.4410314965925
 20
-932.7138456146722
 30
0.0
 11
101.4410314965925
 21
-938.7138456146722
 31
0.0
  0
LINE
  5
3EE
330
1F
100
AcDbEntity
  8
LAYER0032
  6
CONTINUOUS
 62
     3
100
AcDbLine
 10
2081.441031496593
 20
-932.7138456146722
 30
0.0
 11
2081.441031496593
 21
-938.7138456146722
 31
0.0
  0
LINE
  5
3EF
330
1F
100
AcDbEntity
  8
LAYER0032
  6
CONTINUOUS
 62
     3
100
AcDbLine
 10
2041.441031496593
 20
-932.7138456146722
 30
0.0
 11
2041.441031496593
 21
-938.7138456146722
 31
0.0
  0
LINE
  5
3F0
330
1F
100
AcDbEntity
  8
LAYER0032
  6
CONTINUOUS
 62
     3
100
AcDbLine
 10
2745.241031496606
 20
-932.7138456146731
 30
0.0
 11
2745.241031496606
 21
-938.7138456146731
 31
0.0
  0
LINE
  5
3F1
330
1F
100
AcDbEntity
  8
LAYER0032
  6
CONTINUOUS
 62
     3
100
AcDbLine
 10
3653.241031496606
 20
-932.7138456146731
 30
0.0
 11
3653.241031496606
 21
-938.7138456146731
 31
0.0
  0
LINE
  5
3F2
330
1F
100
AcDbEntity
  8
LAYER0032
  6
DASHED2
 62
     3
100
AcDbLine
 10
2739.241031496606
 20
-938.7138456146731
 30
0.0
 11
2709.241031496606
 21
-938.7138456146731
 31
0.0
  0
LINE
  5
3F3
330
1F
100
AcDbEntity
  8
LAYER0032
  6
DASHED2
 62
     3
100
AcDbLine
 10
3659.241031496606
 20
-938.7138456146731
 30
0.0
 11
3689.241031496606
 21
-938.7138456146731
 31
0.0
  0
LINE
  5
3F4
330
1F
100
AcDbEntity
  8
LAYER0032
  6
DASHED2
 62
     3
100
AcDbLine
 10
2720.241031496606
 20
-938.7138456146731
 30
0.0
 11
2720.241031496606
 21
-943.2138456146731
 31
0.0
  0
LINE
  5
3F5
330
1F
100
AcDbEntity
  8
LAYER0032
  6
DASHED2
 62
     3
100
AcDbLine
 10
2738.241031496606
 20
-938.7138456146731
 30
0.0
 11
2738.241031496606
 21
-943.2138456146731
 31
0.0
  0
LINE
  5
3F6
330
1F
100
AcDbEntity
  8
LAYER0032
  6
DASHED2
 62
     3
100
AcDbLine
 10
2713.241031496606
 20
-932.7138456146731
 30
0.0
 11
2745.241031496606
 21
-932.7138456146731
 31
0.0
  0
LINE
  5
3F7
330
1F
100
AcDbEntity
  8
LAYER0032
  6
DASHED2
 62
     3
100
AcDbLine
 10
2713.241031496606
 20
-932.7138456146731
 30
0.0
 11
2713.241031496606
 21
-938.7138456146731
 31
0.0
  0
LINE
  5
3F8
330
1F
100
AcDbEntity
  8
LAYER0032
  6
DASHED2
 62
     3
100
AcDbLine
 10
3685.241031496606
 20
-932.7138456146731
 30
0.0
 11
3653.241031496606
 21
-932.7138456146731
 31
0.0
  0
LINE
  5
3F9
330
1F
100
AcDbEntity
  8
LAYER0032
  6
DASHED2
 62
     3
100
AcDbLine
 10
3685.241031496606
 20
-932.7138456146731
 30
0.0
 11
3685.241031496606
 21
-938.7138456146731
 31
0.0
  0
LINE
  5
3FA
330
1F
100
AcDbEntity
  8
LAYER0032
  6
CENTER
 62
     6
100
AcDbLine
 10
1071.441031496592
 20
1257.631243145443
 30
0.0
 11
1071.441031496592
 21
192.8422717774683
 31
0.0
  0
LINE
  5
3FB
330
1F
100
AcDbEntity
  8
LAYER0032
  6
CENTER
 62
     6
100
AcDbLine
 10
2144.241031496592
 20
-874.8013367529893
 30
0.0
 11
2144.241031496592
 21
-909.2249073833582
 31
0.0
  0
LINE
  5
3FC
330
1F
100
AcDbEntity
  8
LAYER0032
  6
CENTER
 62
     6
100
AcDbLine
 10
-74.68705303194122
 20
727.2076331206354
 30
0.0
 11
2221.677740181209
 21
727.2076331206354
 31
0.0
  0
LINE
  5
3FD
330
1F
100
AcDbEntity
  8
LAYER0032
  6
CENTER
 62
     6
100
AcDbLine
 10
2061.441031496593
 20
-920.4449013334861
 30
0.0
 11
2061.441031496593
 21
-961.9656343536626
 31
0.0
  0
LINE
  5
3FE
330
1F
100
AcDbEntity
  8
LAYER0032
  6
CENTER
 62
     6
100
AcDbLine
 10
81.44103149659247
 20
-920.4449013334861
 30
0.0
 11
81.44103149659247
 21
-961.9656343536626
 31
0.0
  0
LINE
  5
3FF
330
1F
100
AcDbEntity
  8
LAYER0032
  6
CENTER
 62
     6
100
AcDbLine
 10
2729.241031496606
 20
-924.5277882775827
 30
0.0
 11
2729.241031496606
 21
-957.2202469517279
 31
0.0
  0
LINE
  5
400
330
1F
100
AcDbEntity
  8
LAYER0032
  6
CENTER
 62
     6
100
AcDbLine
 10
3669.241031496606
 20
-924.5277882775827
 30
0.0
 11
3669.241031496606
 21
-957.2202469517279
 31
0.0
  0
INSERT
  5
401
330
1F
100
AcDbEntity
  8
LAYER0032
  6
CONTINUOUS
100
AcDbBlockReference
  2
DC_GROUP_2
 10
0.0
 20
0.0
 30
0.0
  0
INSERT
  5
402
330
1F
100
AcDbEntity
  8
LAYER0032
  6
CONTINUOUS
100
AcDbBlockReference
  2
DC_GROUP_3
 10
0.0
 20
0.0
 30
0.0
  0
DIMENSION
  5
403
330
1F
100
AcDbEntity
  8
LAYER0032
  6
CONTINUOUS
100
AcDbDimension
  2
*D4
 10
2036.441031496593
 20
1348.781508993051
 30
0.0
 11
1071.441031496592
 21
1348.781508993051
 31
0.0
 70
   160
  3
DC_ROTATED
100
AcDbAlignedDimension
 13
106.4410314965925
 23
1178.707633120635
 33
0.0
 14
2036.441031496593
 24
1176.207633120635
 34
0.0
100
AcDbRotatedDimension
1001
ACAD
1000
DSTYLE
1002
{
1070
     7
1000
OPEN30
1070
     6
1000
OPEN30
1070
   144
1040
1.0
1070
   274
1070
     4
1070
    41
1040
90.00005722045898
1070
    79
1070
     2
1070
   176
1070
     4
1070
   177
1070
     4
1070
   178
1070
     4
1070
   271
1070
     1
1070
    44
1040
25.0
1070
    42
1040
30.0
1070
   147
1040
25.0
1070
   173
1070
     1
1070
    77
1070
     3
1070
    73
1070
     0
1070
   172
1070
     1
1070
    74
1070
     0
1070
   283
1070
     0
1070
   340
1005
115
1070
   140
1040
90.0
1070
   284
1070
     8
1070
   288
1070
     1
1070
    78
1070
     8
1070
    90
1070
     1
1002
}
  0
DIMENSION
  5
405
330
1F
100
AcDbEntity
  8
LAYER0032
  6
CONTINUOUS
100
AcDbDimension
  2
*D5
 10
2171.441031496593
 20
1521.911712567236
 30
0.0
 11
1071.441031496592
 21
1521.911712567236
 31
0.0
 70
   160
  3
DC_ROTATED
100
AcDbAlignedDimension
 13
-28.55896850340753
 23
1215.207633120635
 33
0.0
 14
2171.441031496593
 24
1215.207633120635
 34
0.0
100
AcDbRotatedDimension
1001
ACAD
1000
DSTYLE
1002
{
1070
     7
1000
OPEN30
1070
     6
1000
OPEN30
1070
   144
1040
1.0
1070
   274
1070
     4
1070
    41
1040
90.00005722045898
1070
    79
1070
     2
1070
   176
1070
     4
1070
   177
1070
     4
1070
   178
1070
     4
1070
   271
1070
     1
1070
    44
1040
28.0
1070
    42
1040
30.0
1070
   147
1040
25.0
1070
   173
1070
     1
1070
    77
1070
     3
1070
    73
1070
     0
1070
   172
1070
     1
1070
    74
1070
     0
1070
   283
1070
     0
1070
   340
1005
115
1070
   140
1040
90.0
1070
   284
1070
     8
1070
   288
1070
     1
1070
    78
1070
     8
1070
    90
1070
     1
1002
}
  0
DIMENSION
  5
406
330
1F
100
AcDbEntity
  8
LAYER0032
  6
CONTINUOUS
100
AcDbDimension
  2
*D6
 10
2061.441031496593
 20
-1118.055818443132
 30
0.0
 11
1071.441031496593
 21
-1118.055818443132
 31
0.0
 70
   160
  3
DC_ROTATED
100
AcDbAlignedDimension
 13
81.44103149659247
 23
-956.9656343536617
 33
0.0
 14
2061.441031496593
 24
-956.9656343536617
 34
0.0
100
AcDbRotatedDimension
1001
ACAD
1000
DSTYLE
1002
{
1070
     7
1000
OPEN30
1070
     6
1000
OPEN30
1070
   144
1040
1.0
1070
   274
1070
     4
1070
    41
1040
90.00005722045898
1070
    79
1070
     2
1070
   176
1070
     4
1070
   177
1070
     4
1070
   178
1070
     4
1070
   271
1070
     1
1070
    44
1040
25.0
1070
    42
1040
30.0
1070
   147
1040
24.99999999999909
1070
   173
1070
     1
1070
    77
1070
     3
1070
    73
1070
     0
1070
   172
1070
     1
1070
    74
1070
     0
1070
   283
1070
     0
1070
   340
1005
115
1070
   140
1040
90.0
1070
   284
1070
     8
1070
   288
1070
     1
1070
    78
1070
     8
1070
    90
1070
     1
1002
}
  0
DIMENSION
  5
407
330
1F
100
AcDbEntity
  8
LAYER0032
  6
CONTINUOUS
100
AcDbDimension
  2
*D7
 10
3669.241031496606
 20
-1118.055818443132
 30
0.0
 11
3199.241031496607
 21
-1118.055818443132
 31
0.0
 70
   160
  3
DC_ROTATED
100
AcDbAlignedDimension
 13
2729.241031496607
 23
-952.2202469517279
 33
0.0
 14
3669.241031496606
 24
-952.2202469517279
 34
0.0
100
AcDbRotatedDimension
1001
ACAD
1000
DSTYLE
1002
{
1070
     7
1000
OPEN30
1070
     6
1000
OPEN30
1070
   144
1040
1.0
1070
   274
1070
     4
1070
    41
1040
90.00005722045898
1070
    79
1070
     2
1070
   176
1070
     4
1070
   177
1070
     4
1070
   178
1070
     4
1070
   271
1070
     1
1070
    44
1040
25.0
1070
    42
1040
30.0
1070
   147
1040
24.99999999999909
1070
   173
1070
     1
1070
    77
1070
     3
1070
    73
1070
     0
1070
   172
1070
     1
1070
    74
1070
     0
1070
   283
1070
     0
1070
   340
1005
115
1070
   140
1040
90.0
1070
   284
1070
     8
1070
   288
1070
     1
1070
    78
1070
     8
1070
    90
1070
     1
1002
}
  0
DIMENSION
  5
408
330
1F
100
AcDbEntity
  8
LAYER0032
  6
CONTINUOUS
100
AcDbDimension
  2
*D8
 10
-174.3695438761367
 20
-883.2138456146722
 30
0.0
 11
-174.3695438761367
 21
-1124.351685614673
 31
0.0
 70
   160
  3
DC_ROTATED
100
AcDbAlignedDimension
 13
42.94103149659247
 23
-943.2138456146731
 33
0.0
 14
-26.55896850340753
 24
-883.2138456146722
 34
0.0
 50
90.0
100
AcDbRotatedDimension
1001
ACAD
1000
DSTYLE
1002
{
1070
     7
1000
OPEN30
1070
     6
1000
OPEN30
1070
   144
1040
1.0
1070
   274
1070
     4
1070
    41
1040
90.00005722045898
1070
    79
1070
     2
1070
   176
1070
     4
1070
   177
1070
     4
1070
   178
1070
     4
1070
   271
1070
     1
1070
    44
1040
28.0
1070
    42
1040
30.0
1070
   147
1040
28.00000000000006
1070
   173
1070
     1
1070
    77
1070
     3
1070
    73
1070
     0
1070
   172
1070
     1
1070
    74
1070
     0
1070
   283
1070
     0
1070
   340
1005
115
1070
   140
1040
90.0
1070
   284
1070
     8
1070
   288
1070
     1
1070
    78
1070
     8
1070
    90
1070
     1
1002
}
  0
DIMENSION
  5
409
330
1F
100
AcDbEntity
  8
LAYER0032
  6
CONTINUOUS
100
AcDbDimension
  2
*D9
 10
-174.3695438761367
 20
-383.2138456146722
 30
0.0
 11
-174.3695438761367
 21
-633.2138456146722
 31
0.0
 70
   160
  3
DC_ROTATED
100
AcDbAlignedDimension
 13
-26.55896850340753
 23
-883.2138456146722
 33
0.0
 14
-26.55896850340753
 24
-383.2138456146722
 34
0.0
 50
90.0
100
AcDbRotatedDimension
1001
ACAD
1000
DSTYLE
1002
{
1070
     7
1000
OPEN30
1070
     6
1000
OPEN30
1070
   144
1040
1.0
1070
   274
1070
     4
1070
    41
1040
90.00005722045898
1070
    79
1070
     2
1070
   176
1070
     4
1070
   177
1070
     4
1070
   178
1070
     4
1070
   271
1070
     1
1070
    44
1040
28.0
1070
    42
1040
30.0
1070
   147
1040
28.00000000000006
1070
   173
1070
     1
1070
    77
1070
     3
1070
    73
1070
     0
1070
   172
1070
     1
1070
    74
1070
     0
1070
   283
1070
     0
1070
   340
1005
115
1070
   140
1040
90.0
1070
   284
1070
     8
1070
   288
1070
     1
1070
    78
1070
     8
1070
    90
1070
     1
1002
}
  0
DIMENSION
  5
40A
330
1F
100
AcDbEntity
  8
LAYER0032
  6
CONTINUOUS
100
AcDbDimension
  2
*D10
 10
-351.1922074513592
 20
-383.2138456146722
 30
0.0
 11
-351.1922074513592
 21
-663.213845614674
 31
0.0
 70
   160
  3
DC_ROTATED
100
AcDbAlignedDimension
 13
42.94103149659247
 23
-943.2138456146731
 33
0.0
 14
-26.55896850340753
 24
-383.2138456146722
 34
0.0
 50
90.0
100
AcDbRotatedDimension
1001
ACAD
1000
DSTYLE
1002
{
1070
     7
1000
OPEN30
1070
     6
1000
OPEN30
1070
   144
1040
1.0
1070
   274
1070
     4
1070
    41
1040
90.00005722045898
1070
    79
1070
     2
1070
   176
1070
     4
1070
   177
1070
     4
1070
   178
1070
     4
1070
   271
1070
     1
1070
    44
1040
28.0
1070
    42
1040
30.0
1070
   147
1040
28.00000000000006
1070
   173
1070
     1
1070
    77
1070
     3
1070
    73
1070
     0
1070
   172
1070
     1
1070
    74
1070
     0
1070
   283
1070
     0
1070
   340
1005
115
1070
   140
1040
90.0
1070
   284
1070
     8
1070
   288
1070
     1
1070
    78
1070
     8
1070
    90
1070
     1
1002
}
  0
INSERT
  5
40B
330
1F
100
AcDbEntity
  8
LAYER0032
  6
CONTINUOUS
100
AcDbBlockReference
  2
DC_GROUP_4
 10
0.0
 20
0.0
 30
0.0
  0
INSERT
  5
40C
330
1F
100
AcDbEntity
  8
LAYER0032
  6
CONTINUOUS
100
AcDbBlockReference
  2
DC_GROUP_5
 10
0.0
 20
0.0
 30
0.0
  0
DIMENSION
  5
40D
330
1F
100
AcDbEntity
  8
LAYER0032
  6
CONTINUOUS
100
AcDbDimension
  2
*D13
 10
-174.3695438761367
 20
1151.207633120635
 30
0.0
 11
-174.3695438761367
 21
727.2076331206354
 31
0.0
 70
   160
  3
DC_ROTATED
100
AcDbAlignedDimension
 13
78.56202882848254
 23
303.2076331206354
 33
0.0
 14
78.56202882848254
 24
1151.207633120635
 34
0.0
 50
90.0
100
AcDbRotatedDimension
1001
ACAD
1000
DSTYLE
1002
{
1070
     7
1000
OPEN30
1070
     6
1000
OPEN30
1070
   144
1040
1.0
1070
   274
1070
     4
1070
    41
1040
90.00005722045898
1070
    79
1070
     2
1070
   176
1070
     4
1070
   177
1070
     4
1070
   178
1070
     4
1070
   271
1070
     1
1070
    44
1040
28.0
1070
    42
1040
30.0
1070
   147
1040
28.00000000000006
1070
   173
1070
     1
1070
    77
1070
     3
1070
    73
1070
     0
1070
   172
1070
     1
1070
    74
1070
     0
1070
   283
1070
     0
1070
   340
1005
115
1070
   140
1040
90.0
1070
   284
1070
     8
1070
   288
1070
     1
1070
    78
1070
     8
1070
    90
1070
     1
1002
}
  0
DIMENSION
  5
40E
330
1F
100
AcDbEntity
  8
LAYER0032
  6
CONTINUOUS
100
AcDbDimension
  2
*D14
 10
-351.1922074513592
 20
1217.207633120635
 30
0.0
 11
-351.1922074513592
 21
727.2076331206345
 31
0.0
 70
   160
  3
DC_ROTATED
100
AcDbAlignedDimension
 13
-26.55896850340753
 23
237.2076331206345
 33
0.0
 14
-26.55896850340753
 24
1217.207633120635
 34
0.0
 50
90.0
100
AcDbRotatedDimension
1001
ACAD
1000
DSTYLE
1002
{
1070
     7
1000
OPEN30
1070
     6
1000
OPEN30
1070
   144
1040
1.0
1070
   274
1070
     4
1070
    41
1040
90.00005722045898
1070
    79
1070
     2
1070
   176
1070
     4
1070
   177
1070
     4
1070
   178
1070
     4
1070
   271
1070
     1
1070
    44
1040
28.0
1070
    42
1040
30.0
1070
   147
1040
28.00000000000006
1070
   173
1070
     1
1070
    77
1070
     3
1070
    73
1070
     0
1070
   172
1070
     1
1070
    74
1070
     0
1070
   283
1070
     0
1070
   340
1005
115
1070
   140
1040
90.0
1070
   284
1070
     8
1070
   288
1070
     1
1070
    78
1070
     8
1070
    90
1070
     1
1002
}
  0
INSERT
  5
40F
330
1F
100
AcDbEntity
  8
LAYER0032
  6
CONTINUOUS
100
AcDbBlockReference
  2
DC_GROUP_15
 10
0.0
 20
0.0
 30
0.0
  0
INSERT
  5
410
330
1F
100
AcDbEntity
  8
LAYER0032
  6
CONTINUOUS
100
AcDbBlockReference
  2
DC_GROUP_16
 10
0.0
 20
0.0
 30
0.0
  0
INSERT
  5
411
330
1F
100
AcDbEntity
  8
LAYER0032
  6
CONTINUOUS
100
AcDbBlockReference
  2
DC_GROUP_17
 10
0.0
 20
0.0
 30
0.0
  0
INSERT
  5
412
330
1F
100
AcDbEntity
  8
LAYER0032
  6
CONTINUOUS
100
AcDbBlockReference
  2
DC_GROUP_18
 10
0.0
 20
0.0
 30
0.0
  0
INSERT
  5
413
330
1F
100
AcDbEntity
  8
LAYER0032
  6
CONTINUOUS
100
AcDbBlockReference
  2
DC_GROUP_19
 10
0.0
 20
0.0
 30
0.0
  0
INSERT
  5
414
330
1F
100
AcDbEntity
  8
LAYER0032
  6
CONTINUOUS
100
AcDbBlockReference
  2
DC_GROUP_20
 10
0.0
 20
0.0
 30
0.0
  0
INSERT
  5
415
330
1F
100
AcDbEntity
  8
LAYER0032
  6
CONTINUOUS
100
AcDbBlockReference
  2
DC_GROUP_21
 10
0.0
 20
0.0
 30
0.0
  0
INSERT
  5
416
330
1F
100
AcDbEntity
  8
LAYER0032
  6
CONTINUOUS
100
AcDbBlockReference
  2
DC_GROUP_22
 10
0.0
 20
0.0
 30
0.0
  0
INSERT
  5
417
330
1F
100
AcDbEntity
  8
LAYER0032
  6
CONTINUOUS
100
AcDbBlockReference
  2
DC_GROUP_23
 10
0.0
 20
0.0
 30
0.0
  0
INSERT
  5
418
330
1F
100
AcDbEntity
  8
LAYER0034
  6
CONTINUOUS
100
AcDbBlockReference
  2
DC_GROUP_6
 10
0.0
 20
0.0
 30
0.0
  0
TEXT
  5
419
330
1F
100
AcDbEntity
  8
LAYER0048
 62
     7
100
AcDbText
 10
-3365.412319259538
 20
-2657.332972980864
 30
0.0
 40
143.3537366392866
  1
　株式会社
 41
0.669465389106692
  7
DCSTYLE0
 72
     5
 11
-2714.297135098897
 21
-2657.332972980864
 31
0.0
100
AcDbText
  0
LINE
  5
41A
330
1F
100
AcDbEntity
  8
LAYER0048
  6
CONTINUOUS
 62
     3
100
AcDbLine
 10
-2151.492522732894
 20
-2540.844579904276
 30
0.0
 11
-2149.689212751047
 21
-2539.041269922428
 31
0.0
  0
LINE
  5
41B
330
1F
100
AcDbEntity
  8
LAYER0048
  6
CONTINUOUS
 62
     3
100
AcDbLine
 10
-2152.286953843143
 20
-2545.372534819189
 30
0.0
 11
-2145.435742301356
 21
-2538.521323277401
 31
0.0
  0
LINE
  5
41C
330
1F
100
AcDbEntity
  8
LAYER0048
  6
CONTINUOUS
 62
     3
100
AcDbLine
 10
-2153.081384953391
 20
-2549.900489734102
 30
0.0
 11
-2140.636743430669
 21
-2537.45584821138
 31
0.0
  0
LINE
  5
41D
330
1F
100
AcDbEntity
  8
LAYER0048
  6
CONTINUOUS
 62
     3
100
AcDbLine
 10
-2163.470377023324
 20
-2608.82529126468
 30
0.0
 11
-2163.002856410494
 21
-2608.357770651851
 31
0.0
  0
LINE
  5
41E
330
1F
100
AcDbEntity
  8
LAYER0048
  6
CONTINUOUS
 62
     3
100
AcDbLine
 10
-2164.269628357109
 20
-2613.35806640313
 30
0.0
 11
-2159.269332605828
 21
-2608.357770651851
 31
0.0
  0
LINE
  5
41F
330
1F
100
AcDbEntity
  8
LAYER0048
  6
CONTINUOUS
 62
     3
100
AcDbLine
 10
-2165.068879690895
 20
-2617.890841541581
 30
0.0
 11
-2155.535808801164
 21
-2608.357770651851
 31
0.0
  0
LINE
  5
420
330
1F
100
AcDbEntity
  8
LAYER0048
  6
CONTINUOUS
 62
     3
100
AcDbLine
 10
-2165.868131024681
 20
-2622.423616680031
 30
0.0
 11
-2151.802284996498
 21
-2608.357770651851
 31
0.0
  0
LINE
  5
421
330
1F
100
AcDbEntity
  8
LAYER0048
  6
CONTINUOUS
 62
     3
100
AcDbLine
 10
-2166.667382358466
 20
-2626.956391818481
 30
0.0
 11
-2148.068761191833
 21
-2608.357770651851
 31
0.0
  0
LINE
  5
422
330
1F
100
AcDbEntity
  8
LAYER0048
  6
CONTINUOUS
 62
     3
100
AcDbLine
 10
-2167.466633692251
 20
-2631.489166956932
 30
0.0
 11
-2144.335237387169
 21
-2608.357770651851
 31
0.0
  0
LINE
  5
423
330
1F
100
AcDbEntity
  8
LAYER0048
  6
CONTINUOUS
 62
     3
100
AcDbLine
 10
-2164.361666062503
 20
-2632.117723131851
 30
0.0
 11
-2140.601713582504
 21
-2608.357770651851
 31
0.0
  0
LINE
  5
424
330
1F
100
AcDbEntity
  8
LAYER0048
  6
CONTINUOUS
 62
     3
100
AcDbLine
 10
-2342.757677231212
 20
-2493.164210904034
 30
0.0
 11
-2339.151474579027
 21
-2489.558008251852
 31
0.0
  0
LINE
  5
425
330
1F
100
AcDbEntity
  8
LAYER0048
  6
CONTINUOUS
 62
     3
100
AcDbLine
 10
-2343.556928564997
 20
-2497.696986042484
 30
0.0
 11
-2335.417950774362
 21
-2489.558008251852
 31
0.0
  0
LINE
  5
426
330
1F
100
AcDbEntity
  8
LAYER0048
  6
CONTINUOUS
 62
     3
100
AcDbLine
 10
-2344.356179898782
 20
-2502.229761180934
 30
0.0
 11
-2331.684426969697
 21
-2489.558008251852
 31
0.0
  0
LINE
  5
427
330
1F
100
AcDbEntity
  8
LAYER0048
  6
CONTINUOUS
 62
     3
100
AcDbLine
 10
-2345.155431232567
 20
-2506.762536319384
 30
0.0
 11
-2327.950903165032
 21
-2489.558008251852
 31
0.0
  0
LINE
  5
428
330
1F
100
AcDbEntity
  8
LAYER0048
  6
CONTINUOUS
 62
     3
100
AcDbLine
 10
-2345.954682566351
 20
-2511.295311457834
 30
0.0
 11
-2324.217379360367
 21
-2489.558008251852
 31
0.0
  0
LINE
  5
429
330
1F
100
AcDbEntity
  8
LAYER0048
  6
CONTINUOUS
 62
     3
100
AcDbLine
 10
-2344.243808035702
 20
-2513.317960731852
 30
0.0
 11
-2320.483855555703
 21
-2489.558008251852
 31
0.0
  0
LINE
  5
42A
330
1F
100
AcDbEntity
  8
LAYER0048
  6
CONTINUOUS
 62
     3
100
AcDbLine
 10
-2340.510284231037
 20
-2513.317960731852
 30
0.0
 11
-2316.750331751038
 21
-2489.558008251852
 31
0.0
  0
LINE
  5
42B
330
1F
100
AcDbEntity
  8
LAYER0048
  6
CONTINUOUS
 62
     3
100
AcDbLine
 10
-2336.776760426372
 20
-2513.317960731852
 30
0.0
 11
-2313.016807946373
 21
-2489.558008251852
 31
0.0
  0
LINE
  5
42C
330
1F
100
AcDbEntity
  8
LAYER0048
  6
CONTINUOUS
 62
     3
100
AcDbLine
 10
-2333.043236621707
 20
-2513.317960731852
 30
0.0
 11
-2309.283284141708
 21
-2489.558008251852
 31
0.0
  0
LINE
  5
42D
330
1F
100
AcDbEntity
  8
LAYER0048
  6
CONTINUOUS
 62
     3
100
AcDbLine
 10
-2329.309712817043
 20
-2513.317960731852
 30
0.0
 11
-2305.549760337043
 21
-2489.558008251852
 31
0.0
  0
LINE
  5
42E
330
1F
100
AcDbEntity
  8
LAYER0048
  6
CONTINUOUS
 62
     3
100
AcDbLine
 10
-2325.576189012377
 20
-2513.317960731852
 30
0.0
 11
-2301.816236532378
 21
-2489.558008251852
 31
0.0
  0
LINE
  5
42F
330
1F
100
AcDbEntity
  8
LAYER0048
  6
CONTINUOUS
 62
     3
100
AcDbLine
 10
-2321.842665207713
 20
-2513.317960731852
 30
0.0
 11
-2298.082712727713
 21
-2489.558008251852
 31
0.0
  0
LINE
  5
430
330
1F
100
AcDbEntity
  8
LAYER0048
  6
CONTINUOUS
 62
     3
100
AcDbLine
 10
-2318.109141403048
 20
-2513.317960731852
 30
0.0
 11
-2294.349188923049
 21
-2489.558008251852
 31
0.0
  0
LINE
  5
431
330
1F
100
AcDbEntity
  8
LAYER0048
  6
CONTINUOUS
 62
     3
100
AcDbLine
 10
-2314.375617598383
 20
-2513.317960731852
 30
0.0
 11
-2290.615665118383
 21
-2489.558008251852
 31
0.0
  0
LINE
  5
432
330
1F
100
AcDbEntity
  8
LAYER0048
  6
CONTINUOUS
 62
     3
100
AcDbLine
 10
-2310.642093793718
 20
-2513.317960731852
 30
0.0
 11
-2286.882141313718
 21
-2489.558008251852
 31
0.0
  0
LINE
  5
433
330
1F
100
AcDbEntity
  8
LAYER0048
  6
CONTINUOUS
 62
     3
100
AcDbLine
 10
-2306.908569989053
 20
-2513.317960731852
 30
0.0
 11
-2283.148617509054
 21
-2489.558008251852
 31
0.0
  0
LINE
  5
434
330
1F
100
AcDbEntity
  8
LAYER0048
  6
CONTINUOUS
 62
     3
100
AcDbLine
 10
-2303.175046184388
 20
-2513.317960731852
 30
0.0
 11
-2279.415093704389
 21
-2489.558008251852
 31
0.0
  0
LINE
  5
435
330
1F
100
AcDbEntity
  8
LAYER0048
  6
CONTINUOUS
 62
     3
100
AcDbLine
 10
-2299.441522379724
 20
-2513.317960731852
 30
0.0
 11
-2275.681569899724
 21
-2489.558008251852
 31
0.0
  0
LINE
  5
436
330
1F
100
AcDbEntity
  8
LAYER0048
  6
CONTINUOUS
 62
     3
100
AcDbLine
 10
-2295.707998575059
 20
-2513.317960731852
 30
0.0
 11
-2271.948046095059
 21
-2489.558008251852
 31
0.0
  0
LINE
  5
437
330
1F
100
AcDbEntity
  8
LAYER0048
  6
CONTINUOUS
 62
     3
100
AcDbLine
 10
-2291.974474770394
 20
-2513.317960731852
 30
0.0
 11
-2268.214522290394
 21
-2489.558008251852
 31
0.0
  0
LINE
  5
438
330
1F
100
AcDbEntity
  8
LAYER0048
  6
CONTINUOUS
 62
     3
100
AcDbLine
 10
-2288.240950965729
 20
-2513.317960731852
 30
0.0
 11
-2264.480998485729
 21
-2489.558008251852
 31
0.0
  0
LINE
  5
439
330
1F
100
AcDbEntity
  8
LAYER0048
  6
CONTINUOUS
 62
     3
100
AcDbLine
 10
-2284.507427161064
 20
-2513.317960731852
 30
0.0
 11
-2260.747474681064
 21
-2489.558008251852
 31
0.0
  0
LINE
  5
43A
330
1F
100
AcDbEntity
  8
LAYER0048
  6
CONTINUOUS
 62
     3
100
AcDbLine
 10
-2280.773903356399
 20
-2513.317960731852
 30
0.0
 11
-2257.0139508764
 21
-2489.558008251852
 31
0.0
  0
LINE
  5
43B
330
1F
100
AcDbEntity
  8
LAYER0048
  6
CONTINUOUS
 62
     3
100
AcDbLine
 10
-2277.040379551734
 20
-2513.317960731852
 30
0.0
 11
-2253.280427071735
 21
-2489.558008251852
 31
0.0
  0
LINE
  5
43C
330
1F
100
AcDbEntity
  8
LAYER0048
  6
CONTINUOUS
 62
     3
100
AcDbLine
 10
-2273.30685574707
 20
-2513.317960731852
 30
0.0
 11
-2249.546903267069
 21
-2489.558008251852
 31
0.0
  0
LINE
  5
43D
330
1F
100
AcDbEntity
  8
LAYER0048
  6
CONTINUOUS
 62
     3
100
AcDbLine
 10
-2269.573331942405
 20
-2513.317960731852
 30
0.0
 11
-2245.813379462405
 21
-2489.558008251852
 31
0.0
  0
LINE
  5
43E
330
1F
100
AcDbEntity
  8
LAYER0048
  6
CONTINUOUS
 62
     3
100
AcDbLine
 10
-2265.83980813774
 20
-2513.317960731852
 30
0.0
 11
-2242.07985565774
 21
-2489.558008251852
 31
0.0
  0
LINE
  5
43F
330
1F
100
AcDbEntity
  8
LAYER0048
  6
CONTINUOUS
 62
     3
100
AcDbLine
 10
-2262.106284333075
 20
-2513.317960731852
 30
0.0
 11
-2241.313839548951
 21
-2492.525515947728
 31
0.0
  0
LINE
  5
440
330
1F
100
AcDbEntity
  8
LAYER0048
  6
CONTINUOUS
 62
     3
100
AcDbLine
 10
-2258.37276052841
 20
-2513.317960731852
 30
0.0
 11
-2242.113090882735
 21
-2497.058291086178
 31
0.0
  0
LINE
  5
441
330
1F
100
AcDbEntity
  8
LAYER0048
  6
CONTINUOUS
 62
     3
100
AcDbLine
 10
-2254.639236723745
 20
-2513.317960731852
 30
0.0
 11
-2242.912342216521
 21
-2501.591066224628
 31
0.0
  0
LINE
  5
442
330
1F
100
AcDbEntity
  8
LAYER0048
  6
CONTINUOUS
 62
     3
100
AcDbLine
 10
-2250.905712919081
 20
-2513.317960731852
 30
0.0
 11
-2243.711593550306
 21
-2506.123841363078
 31
0.0
  0
LINE
  5
443
330
1F
100
AcDbEntity
  8
LAYER0048
  6
CONTINUOUS
 62
     3
100
AcDbLine
 10
-2247.172189114415
 20
-2513.317960731852
 30
0.0
 11
-2244.510844884091
 21
-2510.656616501528
 31
0.0
  0
LINE
  5
444
330
1F
100
AcDbEntity
  8
LAYER0048
  6
CONTINUOUS
 62
     3
100
AcDbLine
 10
-2351.081578191873
 20
-2594.82620698132
 30
0.0
 11
-2350.357170374401
 21
-2594.101799163851
 31
0.0
  0
LINE
  5
445
330
1F
100
AcDbEntity
  8
LAYER0048
  6
CONTINUOUS
 62
     3
100
AcDbLine
 10
-2351.880829525658
 20
-2599.35898211977
 30
0.0
 11
-2346.623646569737
 21
-2594.101799163851
 31
0.0
  0
LINE
  5
446
330
1F
100
AcDbEntity
  8
LAYER0048
  6
CONTINUOUS
 62
     3
100
AcDbLine
 10
-2352.680080859443
 20
-2603.89175725822
 30
0.0
 11
-2342.890122765071
 21
-2594.101799163851
 31
0.0
  0
LINE
  5
447
330
1F
100
AcDbEntity
  8
LAYER0048
  6
CONTINUOUS
 62
     3
100
AcDbLine
 10
-2353.479332193227
 20
-2608.42453239667
 30
0.0
 11
-2339.156598960407
 21
-2594.101799163851
 31
0.0
  0
LINE
  5
448
330
1F
100
AcDbEntity
  8
LAYER0048
  6
CONTINUOUS
 62
     3
100
AcDbLine
 10
-2354.278583527012
 20
-2612.95730753512
 30
0.0
 11
-2335.423075155742
 21
-2594.101799163851
 31
0.0
  0
LINE
  5
449
330
1F
100
AcDbEntity
  8
LAYER0048
  6
CONTINUOUS
 62
     3
100
AcDbLine
 10
-2355.077834860798
 20
-2617.490082673569
 30
0.0
 11
-2331.689551351077
 21
-2594.101799163851
 31
0.0
  0
LINE
  5
44A
330
1F
100
AcDbEntity
  8
LAYER0048
  6
CONTINUOUS
 62
     3
100
AcDbLine
 10
-2355.877086194583
 20
-2622.02285781202
 30
0.0
 11
-2327.956027546412
 21
-2594.101799163851
 31
0.0
  0
LINE
  5
44B
330
1F
100
AcDbEntity
  8
LAYER0048
  6
CONTINUOUS
 62
     3
100
AcDbLine
 10
-2356.676337528368
 20
-2626.555632950469
 30
0.0
 11
-2324.222503741747
 21
-2594.101799163851
 31
0.0
  0
LINE
  5
44C
330
1F
100
AcDbEntity
  8
LAYER0048
  6
CONTINUOUS
 62
     3
100
AcDbLine
 10
-2357.475588862152
 20
-2631.088408088919
 30
0.0
 11
-2320.488979937082
 21
-2594.101799163851
 31
0.0
  0
LINE
  5
44D
330
1F
100
AcDbEntity
  8
LAYER0048
  6
CONTINUOUS
 62
     3
100
AcDbLine
 10
-2354.771380100417
 20
-2632.117723131851
 30
0.0
 11
-2316.755456132417
 21
-2594.101799163851
 31
0.0
  0
LINE
  5
44E
330
1F
100
AcDbEntity
  8
LAYER0048
  6
CONTINUOUS
 62
     3
100
AcDbLine
 10
-2351.037856295752
 20
-2632.117723131851
 30
0.0
 11
-2313.021932327752
 21
-2594.101799163851
 31
0.0
  0
LINE
  5
44F
330
1F
100
AcDbEntity
  8
LAYER0048
  6
CONTINUOUS
 62
     3
100
AcDbLine
 10
-2347.304332491088
 20
-2632.117723131851
 30
0.0
 11
-2309.288408523088
 21
-2594.101799163851
 31
0.0
  0
LINE
  5
450
330
1F
100
AcDbEntity
  8
LAYER0048
  6
CONTINUOUS
 62
     3
100
AcDbLine
 10
-2343.570808686422
 20
-2632.117723131851
 30
0.0
 11
-2305.554884718422
 21
-2594.101799163851
 31
0.0
  0
LINE
  5
451
330
1F
100
AcDbEntity
  8
LAYER0048
  6
CONTINUOUS
 62
     3
100
AcDbLine
 10
-2339.837284881758
 20
-2632.117723131851
 30
0.0
 11
-2301.821360913758
 21
-2594.101799163851
 31
0.0
  0
LINE
  5
452
330
1F
100
AcDbEntity
  8
LAYER0048
  6
CONTINUOUS
 62
     3
100
AcDbLine
 10
-2336.103761077093
 20
-2632.117723131851
 30
0.0
 11
-2298.087837109093
 21
-2594.101799163851
 31
0.0
  0
LINE
  5
453
330
1F
100
AcDbEntity
  8
LAYER0048
  6
CONTINUOUS
 62
     3
100
AcDbLine
 10
-2192.10918430872
 20
-2491.856670168142
 30
0.0
 11
-2189.81052239243
 21
-2489.558008251852
 31
0.0
  0
LINE
  5
454
330
1F
100
AcDbEntity
  8
LAYER0048
  6
CONTINUOUS
 62
     3
100
AcDbLine
 10
-2332.370237272427
 20
-2632.117723131851
 30
0.0
 11
-2294.354313304428
 21
-2594.101799163851
 31
0.0
  0
LINE
  5
455
330
1F
100
AcDbEntity
  8
LAYER0048
  6
CONTINUOUS
 62
     3
100
AcDbLine
 10
-2192.90844157127
 20
-2496.389451235356
 30
0.0
 11
-2186.076998587765
 21
-2489.558008251852
 31
0.0
  0
LINE
  5
456
330
1F
100
AcDbEntity
  8
LAYER0048
  6
CONTINUOUS
 62
     3
100
AcDbLine
 10
-2328.636713467763
 20
-2632.117723131851
 30
0.0
 11
-2290.620789499763
 21
-2594.101799163851
 31
0.0
  0
LINE
  5
457
330
1F
100
AcDbEntity
  8
LAYER0048
  6
CONTINUOUS
 62
     3
100
AcDbLine
 10
-2193.70769883382
 20
-2500.922232302572
 30
0.0
 11
-2182.3434747831
 21
-2489.558008251852
 31
0.0
  0
LINE
  5
458
330
1F
100
AcDbEntity
  8
LAYER0048
  6
CONTINUOUS
 62
     3
100
AcDbLine
 10
-2324.903189663099
 20
-2632.117723131851
 30
0.0
 11
-2286.887265695098
 21
-2594.101799163851
 31
0.0
  0
LINE
  5
459
330
1F
100
AcDbEntity
  8
LAYER0048
  6
CONTINUOUS
 62
     3
100
AcDbLine
 10
-2194.506956096369
 20
-2505.455013369786
 30
0.0
 11
-2178.609950978435
 21
-2489.558008251852
 31
0.0
  0
LINE
  5
45A
330
1F
100
AcDbEntity
  8
LAYER0048
  6
CONTINUOUS
 62
     3
100
AcDbLine
 10
-2321.169665858433
 20
-2632.117723131851
 30
0.0
 11
-2283.153741890433
 21
-2594.101799163851
 31
0.0
  0
LINE
  5
45B
330
1F
100
AcDbEntity
  8
LAYER0048
  6
CONTINUOUS
 62
     3
100
AcDbLine
 10
-2195.30621335892
 20
-2509.987794437001
 30
0.0
 11
-2174.876427173771
 21
-2489.558008251852
 31
0.0
  0
LINE
  5
45C
330
1F
100
AcDbEntity
  8
LAYER0048
  6
CONTINUOUS
 62
     3
100
AcDbLine
 10
-2317.436142053768
 20
-2632.117723131851
 30
0.0
 11
-2279.420218085769
 21
-2594.101799163851
 31
0.0
  0
LINE
  5
45D
330
1F
100
AcDbEntity
  8
LAYER0048
  6
CONTINUOUS
 62
     3
100
AcDbLine
 10
-2196.10547062147
 20
-2514.520575504216
 30
0.0
 11
-2171.142903369106
 21
-2489.558008251852
 31
0.0
  0
LINE
  5
45E
330
1F
100
AcDbEntity
  8
LAYER0048
  6
CONTINUOUS
 62
     3
100
AcDbLine
 10
-2313.702618249104
 20
-2632.117723131851
 30
0.0
 11
-2275.686694281104
 21
-2594.101799163851
 31
0.0
  0
LINE
  5
45F
330
1F
100
AcDbEntity
  8
LAYER0048
  6
CONTINUOUS
 62
     3
100
AcDbLine
 10
-2196.90472788402
 20
-2519.05335657143
 30
0.0
 11
-2167.613448024249
 21
-2489.762076711663
 31
0.0
  0
LINE
  5
460
330
1F
100
AcDbEntity
  8
LAYER0048
  6
CONTINUOUS
 62
     3
100
AcDbLine
 10
-2309.969094444438
 20
-2632.117723131851
 30
0.0
 11
-2271.953170476439
 21
-2594.101799163851
 31
0.0
  0
LINE
  5
461
330
1F
100
AcDbEntity
  8
LAYER0048
  6
CONTINUOUS
 62
     3
100
AcDbLine
 10
-2197.703985146569
 20
-2523.586137638645
 30
0.0
 11
-2168.412699383042
 21
-2494.29485187512
 31
0.0
  0
LINE
  5
462
330
1F
100
AcDbEntity
  8
LAYER0048
  6
CONTINUOUS
 62
     3
100
AcDbLine
 10
-2306.235570639774
 20
-2632.117723131851
 30
0.0
 11
-2268.219646671774
 21
-2594.101799163851
 31
0.0
  0
LINE
  5
463
330
1F
100
AcDbEntity
  8
LAYER0048
  6
CONTINUOUS
 62
     3
100
AcDbLine
 10
-2198.503242409119
 20
-2528.118918705859
 30
0.0
 11
-2169.211950741835
 21
-2498.827627038578
 31
0.0
  0
LINE
  5
464
330
1F
100
AcDbEntity
  8
LAYER0048
  6
CONTINUOUS
 62
     3
100
AcDbLine
 10
-2302.502046835109
 20
-2632.117723131851
 30
0.0
 11
-2264.486122867109
 21
-2594.101799163851
 31
0.0
  0
LINE
  5
465
330
1F
100
AcDbEntity
  8
LAYER0048
  6
CONTINUOUS
 62
     3
100
AcDbLine
 10
-2199.302499671668
 20
-2532.651699773075
 30
0.0
 11
-2170.011202100628
 21
-2503.360402202036
 31
0.0
  0
LINE
  5
466
330
1F
100
AcDbEntity
  8
LAYER0048
  6
CONTINUOUS
 62
     3
100
AcDbLine
 10
-2298.768523030444
 20
-2632.117723131851
 30
0.0
 11
-2260.752599062444
 21
-2594.101799163851
 31
0.0
  0
LINE
  5
467
330
1F
100
AcDbEntity
  8
LAYER0048
  6
CONTINUOUS
 62
     3
100
AcDbLine
 10
-2200.101756934218
 20
-2537.18448084029
 30
0.0
 11
-2170.81045345942
 21
-2507.893177365494
 31
0.0
  0
LINE
  5
468
330
1F
100
AcDbEntity
  8
LAYER0048
  6
CONTINUOUS
 62
     3
100
AcDbLine
 10
-2295.034999225779
 20
-2632.117723131851
 30
0.0
 11
-2257.01907525778
 21
-2594.101799163851
 31
0.0
  0
LINE
  5
469
330
1F
100
AcDbEntity
  8
LAYER0048
  6
CONTINUOUS
 62
     3
100
AcDbLine
 10
-2200.901014196768
 20
-2541.717261907504
 30
0.0
 11
-2171.609704818213
 21
-2512.42595252895
 31
0.0
  0
LINE
  5
46A
330
1F
100
AcDbEntity
  8
LAYER0048
  6
CONTINUOUS
 62
     3
100
AcDbLine
 10
-2291.301475421114
 20
-2632.117723131851
 30
0.0
 11
-2253.285551453115
 21
-2594.101799163851
 31
0.0
  0
LINE
  5
46B
330
1F
100
AcDbEntity
  8
LAYER0048
  6
CONTINUOUS
 62
     3
100
AcDbLine
 10
-2201.700271459318
 20
-2546.250042974719
 30
0.0
 11
-2172.408956177006
 21
-2516.958727692409
 31
0.0
  0
LINE
  5
46C
330
1F
100
AcDbEntity
  8
LAYER0048
  6
CONTINUOUS
 62
     3
100
AcDbLine
 10
-2287.567951616449
 20
-2632.117723131851
 30
0.0
 11
-2249.552027648449
 21
-2594.101799163851
 31
0.0
  0
LINE
  5
46D
330
1F
100
AcDbEntity
  8
LAYER0048
  6
CONTINUOUS
 62
     3
100
AcDbLine
 10
-2202.499528721867
 20
-2550.782824041934
 30
0.0
 11
-2173.208207535798
 21
-2521.491502855866
 31
0.0
  0
LINE
  5
46E
330
1F
100
AcDbEntity
  8
LAYER0048
  6
CONTINUOUS
 62
     3
100
AcDbLine
 10
-2283.834427811784
 20
-2632.117723131851
 30
0.0
 11
-2245.818503843785
 21
-2594.101799163851
 31
0.0
  0
LINE
  5
46F
330
1F
100
AcDbEntity
  8
LAYER0048
  6
CONTINUOUS
 62
     3
100
AcDbLine
 10
-2203.298785984417
 20
-2555.315605109148
 30
0.0
 11
-2174.007458894592
 21
-2526.024278019324
 31
0.0
  0
LINE
  5
470
330
1F
100
AcDbEntity
  8
LAYER0048
  6
CONTINUOUS
 62
     3
100
AcDbLine
 10
-2280.100904007119
 20
-2632.117723131851
 30
0.0
 11
-2242.08498003912
 21
-2594.101799163851
 31
0.0
  0
LINE
  5
471
330
1F
100
AcDbEntity
  8
LAYER0048
  6
CONTINUOUS
 62
     3
100
AcDbLine
 10
-2204.098043246966
 20
-2559.848386176363
 30
0.0
 11
-2174.806710253384
 21
-2530.557053182781
 31
0.0
  0
LINE
  5
472
330
1F
100
AcDbEntity
  8
LAYER0048
  6
CONTINUOUS
 62
     3
100
AcDbLine
 10
-2276.367380202455
 20
-2632.117723131851
 30
0.0
 11
-2238.351456234454
 21
-2594.101799163851
 31
0.0
  0
LINE
  5
473
330
1F
100
AcDbEntity
  8
LAYER0048
  6
CONTINUOUS
 62
     3
100
AcDbLine
 10
-2204.897300509516
 20
-2564.381167243577
 30
0.0
 11
-2175.605961612177
 21
-2535.089828346239
 31
0.0
  0
LINE
  5
474
330
1F
100
AcDbEntity
  8
LAYER0048
  6
CONTINUOUS
 62
     3
100
AcDbLine
 10
-2272.633856397789
 20
-2632.117723131851
 30
0.0
 11
-2234.418111344772
 21
-2593.901978078833
 31
0.0
  0
LINE
  5
475
330
1F
100
AcDbEntity
  8
LAYER0048
  6
CONTINUOUS
 62
     3
100
AcDbLine
 10
-2205.810713564066
 20
-2569.028104102792
 30
0.0
 11
-2176.40521297097
 21
-2539.622603509697
 31
0.0
  0
LINE
  5
476
330
1F
100
AcDbEntity
  8
LAYER0048
  6
CONTINUOUS
 62
     3
100
AcDbLine
 10
-2268.900332593125
 20
-2632.117723131851
 30
0.0
 11
-2229.859354488318
 21
-2593.076745027044
 31
0.0
  0
LINE
  5
477
330
1F
100
AcDbEntity
  8
LAYER0048
  6
CONTINUOUS
 62
     3
100
AcDbLine
 10
-2207.866506161173
 20
-2574.817420504564
 30
0.0
 11
-2177.204464329762
 21
-2544.155378673155
 31
0.0
  0
LINE
  5
478
330
1F
100
AcDbEntity
  8
LAYER0048
  6
CONTINUOUS
 62
     3
100
AcDbLine
 10
-2265.16680878846
 20
-2632.117723131851
 30
0.0
 11
-2224.070038086545
 21
-2591.020952429937
 31
0.0
  0
LINE
  5
479
330
1F
100
AcDbEntity
  8
LAYER0048
  6
CONTINUOUS
 62
     3
100
AcDbLine
 10
-2261.433284983795
 20
-2632.117723131851
 30
0.0
 11
-2178.003715688556
 21
-2548.688153836612
 31
0.0
  0
LINE
  5
47A
330
1F
100
AcDbEntity
  8
LAYER0048
  6
CONTINUOUS
 62
     3
100
AcDbLine
 10
-2257.69976117913
 20
-2632.117723131851
 30
0.0
 11
-2178.802967047348
 21
-2553.22092900007
 31
0.0
  0
LINE
  5
47B
330
1F
100
AcDbEntity
  8
LAYER0048
  6
CONTINUOUS
 62
     3
100
AcDbLine
 10
-2253.966237374465
 20
-2632.117723131851
 30
0.0
 11
-2179.602218406141
 21
-2557.753704163527
 31
0.0
  0
LINE
  5
47C
330
1F
100
AcDbEntity
  8
LAYER0048
  6
CONTINUOUS
 62
     3
100
AcDbLine
 10
-2250.193364083671
 20
-2632.078373645722
 30
0.0
 11
-2180.401469764934
 21
-2562.286479326985
 31
0.0
  0
LINE
  5
47D
330
1F
100
AcDbEntity
  8
LAYER0048
  6
CONTINUOUS
 62
     3
100
AcDbLine
 10
-2246.218882821336
 20
-2631.837416188053
 30
0.0
 11
-2181.200721123726
 21
-2566.819254490442
 31
0.0
  0
LINE
  5
47E
330
1F
100
AcDbEntity
  8
LAYER0048
  6
CONTINUOUS
 62
     3
100
AcDbLine
 10
-2241.978274264823
 20
-2631.330331436205
 30
0.0
 11
-2181.999972482519
 21
-2571.3520296539
 31
0.0
  0
LINE
  5
47F
330
1F
100
AcDbEntity
  8
LAYER0048
  6
CONTINUOUS
 62
     3
100
AcDbLine
 10
-2237.408690672674
 20
-2630.49427164872
 30
0.0
 11
-2182.869075287988
 21
-2575.954656264034
 31
0.0
  0
LINE
  5
480
330
1F
100
AcDbEntity
  8
LAYER0048
  6
CONTINUOUS
 62
     3
100
AcDbLine
 10
-2232.39394831325
 20
-2629.213053093961
 30
0.0
 11
-2184.150293842747
 21
-2580.969398623458
 31
0.0
  0
LINE
  5
481
330
1F
100
AcDbEntity
  8
LAYER0048
  6
CONTINUOUS
 62
     3
100
AcDbLine
 10
-2226.733002404079
 20
-2627.285630989456
 30
0.0
 11
-2186.077715947253
 21
-2586.630344532629
 31
0.0
  0
LINE
  5
482
330
1F
100
AcDbEntity
  8
LAYER0048
  6
CONTINUOUS
 62
     3
100
AcDbLine
 10
-2219.951159108217
 20
-2624.237311498257
 30
0.0
 11
-2189.126035438451
 21
-2593.412187828492
 31
0.0
  0
LINE
  5
483
330
1F
100
AcDbEntity
  8
LAYER0048
  6
CONTINUOUS
 62
     3
100
AcDbLine
 10
-2210.076673548504
 20
-2618.09634974321
 30
0.0
 11
-2195.266997193499
 21
-2603.286673388205
 31
0.0
  0
LINE
  5
484
330
1F
100
AcDbEntity
  8
LAYER0048
  6
CONTINUOUS
 62
     3
100
AcDbLine
 10
-2515.238986392015
 20
-2493.903425050248
 30
0.0
 11
-2510.89356959362
 21
-2489.558008251852
 31
0.0
  0
LINE
  5
485
330
1F
100
AcDbEntity
  8
LAYER0048
  6
CONTINUOUS
 62
     3
100
AcDbLine
 10
-2544.433804528722
 20
-2523.098243186956
 30
0.0
 11
-2544.157503065619
 21
-2522.821941723852
 31
0.0
  0
LINE
  5
486
330
1F
100
AcDbEntity
  8
LAYER0048
  6
CONTINUOUS
 62
     3
100
AcDbLine
 10
-2516.0382377258
 20
-2498.436200188699
 30
0.0
 11
-2507.160045788955
 21
-2489.558008251852
 31
0.0
  0
LINE
  5
487
330
1F
100
AcDbEntity
  8
LAYER0048
  6
CONTINUOUS
 62
     3
100
AcDbLine
 10
-2545.233055862507
 20
-2527.631018325406
 30
0.0
 11
-2540.423979260954
 21
-2522.821941723852
 31
0.0
  0
LINE
  5
488
330
1F
100
AcDbEntity
  8
LAYER0048
  6
CONTINUOUS
 62
     3
100
AcDbLine
 10
-2516.837489059585
 20
-2502.96897532715
 30
0.0
 11
-2503.42652198429
 21
-2489.558008251852
 31
0.0
  0
LINE
  5
489
330
1F
100
AcDbEntity
  8
LAYER0048
  6
CONTINUOUS
 62
     3
100
AcDbLine
 10
-2546.032307196292
 20
-2532.163793463856
 30
0.0
 11
-2536.690455456288
 21
-2522.821941723852
 31
0.0
  0
LINE
  5
48A
330
1F
100
AcDbEntity
  8
LAYER0048
  6
CONTINUOUS
 62
     3
100
AcDbLine
 10
-2517.63674039337
 20
-2507.501750465599
 30
0.0
 11
-2499.692998179624
 21
-2489.558008251852
 31
0.0
  0
LINE
  5
48B
330
1F
100
AcDbEntity
  8
LAYER0048
  6
CONTINUOUS
 62
     3
100
AcDbLine
 10
-2546.831558530077
 20
-2536.696568602306
 30
0.0
 11
-2532.956931651623
 21
-2522.821941723852
 31
0.0
  0
LINE
  5
48C
330
1F
100
AcDbEntity
  8
LAYER0048
  6
CONTINUOUS
 62
     3
100
AcDbLine
 10
-2518.435991727156
 20
-2512.03452560405
 30
0.0
 11
-2495.959474374959
 21
-2489.558008251852
 31
0.0
  0
LINE
  5
48D
330
1F
100
AcDbEntity
  8
LAYER0048
  6
CONTINUOUS
 62
     3
100
AcDbLine
 10
-2547.630809863861
 20
-2541.229343740756
 30
0.0
 11
-2529.223407846958
 21
-2522.821941723852
 31
0.0
  0
LINE
  5
48E
330
1F
100
AcDbEntity
  8
LAYER0048
  6
CONTINUOUS
 62
     3
100
AcDbLine
 10
-2519.235243060941
 20
-2516.567300742499
 30
0.0
 11
-2492.225950570295
 21
-2489.558008251852
 31
0.0
  0
LINE
  5
48F
330
1F
100
AcDbEntity
  8
LAYER0048
  6
CONTINUOUS
 62
     3
100
AcDbLine
 10
-2544.497846026294
 20
-2541.829903707852
 30
0.0
 11
-2525.489884042293
 21
-2522.821941723852
 31
0.0
  0
LINE
  5
490
330
1F
100
AcDbEntity
  8
LAYER0048
  6
CONTINUOUS
 62
     3
100
AcDbLine
 10
-2520.034494394727
 20
-2521.10007588095
 30
0.0
 11
-2488.492426765629
 21
-2489.558008251852
 31
0.0
  0
LINE
  5
491
330
1F
100
AcDbEntity
  8
LAYER0048
  6
CONTINUOUS
 62
     3
100
AcDbLine
 10
-2540.764322221629
 20
-2541.829903707852
 30
0.0
 11
-2521.756360237628
 21
-2522.821941723852
 31
0.0
  0
LINE
  5
492
330
1F
100
AcDbEntity
  8
LAYER0048
  6
CONTINUOUS
 62
     3
100
AcDbLine
 10
-2537.030798416964
 20
-2541.829903707852
 30
0.0
 11
-2484.758902960964
 21
-2489.558008251852
 31
0.0
  0
LINE
  5
493
330
1F
100
AcDbEntity
  8
LAYER0048
  6
CONTINUOUS
 62
     3
100
AcDbLine
 10
-2533.297274612299
 20
-2541.829903707852
 30
0.0
 11
-2481.025379156299
 21
-2489.558008251852
 31
0.0
  0
LINE
  5
494
330
1F
100
AcDbEntity
  8
LAYER0048
  6
CONTINUOUS
 62
     3
100
AcDbLine
 10
-2529.563750807633
 20
-2541.829903707852
 30
0.0
 11
-2477.291855351633
 21
-2489.558008251852
 31
0.0
  0
LINE
  5
495
330
1F
100
AcDbEntity
  8
LAYER0048
  6
CONTINUOUS
 62
     3
100
AcDbLine
 10
-2525.830227002969
 20
-2541.829903707852
 30
0.0
 11
-2473.558331546968
 21
-2489.558008251852
 31
0.0
  0
LINE
  5
496
330
1F
100
AcDbEntity
  8
LAYER0048
  6
CONTINUOUS
 62
     3
100
AcDbLine
 10
-2524.030751063651
 20
-2543.7639515732
 30
0.0
 11
-2469.824807742303
 21
-2489.558008251852
 31
0.0
  0
LINE
  5
497
330
1F
100
AcDbEntity
  8
LAYER0048
  6
CONTINUOUS
 62
     3
100
AcDbLine
 10
-2524.830002397437
 20
-2548.296726711651
 30
0.0
 11
-2467.137309099199
 21
-2490.604033413414
 31
0.0
  0
LINE
  5
498
330
1F
100
AcDbEntity
  8
LAYER0048
  6
CONTINUOUS
 62
     3
100
AcDbLine
 10
-2525.629253731222
 20
-2552.829501850101
 30
0.0
 11
-2467.936560432985
 21
-2495.136808551864
 31
0.0
  0
LINE
  5
499
330
1F
100
AcDbEntity
  8
LAYER0048
  6
CONTINUOUS
 62
     3
100
AcDbLine
 10
-2526.428505065008
 20
-2557.362276988551
 30
0.0
 11
-2468.73581176677
 21
-2499.669583690314
 31
0.0
  0
LINE
  5
49A
330
1F
100
AcDbEntity
  8
LAYER0048
  6
CONTINUOUS
 62
     3
100
AcDbLine
 10
-2527.227756398793
 20
-2561.895052127002
 30
0.0
 11
-2469.535063100555
 21
-2504.202358828764
 31
0.0
  0
LINE
  5
49B
330
1F
100
AcDbEntity
  8
LAYER0048
  6
CONTINUOUS
 62
     3
100
AcDbLine
 10
-2528.027007732578
 20
-2566.427827265452
 30
0.0
 11
-2470.334314434341
 21
-2508.735133967215
 31
0.0
  0
LINE
  5
49C
330
1F
100
AcDbEntity
  8
LAYER0048
  6
CONTINUOUS
 62
     3
100
AcDbLine
 10
-2528.826259066364
 20
-2570.960602403902
 30
0.0
 11
-2471.133565768127
 21
-2513.267909105665
 31
0.0
  0
LINE
  5
49D
330
1F
100
AcDbEntity
  8
LAYER0048
  6
CONTINUOUS
 62
     3
100
AcDbLine
 10
-2529.22597003765
 20
-2575.093837179852
 30
0.0
 11
-2471.932817101911
 21
-2517.800684244115
 31
0.0
  0
LINE
  5
49E
330
1F
100
AcDbEntity
  8
LAYER0048
  6
CONTINUOUS
 62
     3
100
AcDbLine
 10
-2525.492446232985
 20
-2575.093837179852
 30
0.0
 11
-2472.732068435697
 21
-2522.333459382566
 31
0.0
  0
LINE
  5
49F
330
1F
100
AcDbEntity
  8
LAYER0048
  6
CONTINUOUS
 62
     3
100
AcDbLine
 10
-2521.75892242832
 20
-2575.093837179852
 30
0.0
 11
-2469.487026972318
 21
-2522.821941723852
 31
0.0
  0
LINE
  5
4A0
330
1F
100
AcDbEntity
  8
LAYER0048
  6
CONTINUOUS
 62
     3
100
AcDbLine
 10
-2518.025398623654
 20
-2575.093837179852
 30
0.0
 11
-2465.753503167653
 21
-2522.821941723852
 31
0.0
  0
LINE
  5
4A1
330
1F
100
AcDbEntity
  8
LAYER0048
  6
CONTINUOUS
 62
     3
100
AcDbLine
 10
-2514.291874818989
 20
-2575.093837179852
 30
0.0
 11
-2462.019979362988
 21
-2522.821941723852
 31
0.0
  0
LINE
  5
4A2
330
1F
100
AcDbEntity
  8
LAYER0048
  6
CONTINUOUS
 62
     3
100
AcDbLine
 10
-2510.558351014324
 20
-2575.093837179852
 30
0.0
 11
-2458.286455558323
 21
-2522.821941723852
 31
0.0
  0
LINE
  5
4A3
330
1F
100
AcDbEntity
  8
LAYER0048
  6
CONTINUOUS
 62
     3
100
AcDbLine
 10
-2424.804901136209
 20
-2493.073911106403
 30
0.0
 11
-2421.288998281658
 21
-2489.558008251852
 31
0.0
  0
LINE
  5
4A4
330
1F
100
AcDbEntity
  8
LAYER0048
  6
CONTINUOUS
 62
     3
100
AcDbLine
 10
-2473.560893737659
 20
-2541.829903707852
 30
0.0
 11
-2454.552931753658
 21
-2522.821941723852
 31
0.0
  0
LINE
  5
4A5
330
1F
100
AcDbEntity
  8
LAYER0048
  6
CONTINUOUS
 62
     3
100
AcDbLine
 10
-2506.82482720966
 20
-2575.093837179852
 30
0.0
 11
-2476.728325104622
 21
-2544.997335074816
 31
0.0
  0
LINE
  5
4A6
330
1F
100
AcDbEntity
  8
LAYER0048
  6
CONTINUOUS
 62
     3
100
AcDbLine
 10
-2425.604152469995
 20
-2497.606686244854
 30
0.0
 11
-2417.555474476993
 21
-2489.558008251852
 31
0.0
  0
LINE
  5
4A7
330
1F
100
AcDbEntity
  8
LAYER0048
  6
CONTINUOUS
 62
     3
100
AcDbLine
 10
-2469.827369932994
 20
-2541.829903707852
 30
0.0
 11
-2450.819407948993
 21
-2522.821941723852
 31
0.0
  0
LINE
  5
4A8
330
1F
100
AcDbEntity
  8
LAYER0048
  6
CONTINUOUS
 62
     3
100
AcDbLine
 10
-2503.091303404995
 20
-2575.093837179852
 30
0.0
 11
-2477.527576438407
 21
-2549.530110213266
 31
0.0
  0
LINE
  5
4A9
330
1F
100
AcDbEntity
  8
LAYER0048
  6
CONTINUOUS
 62
     3
100
AcDbLine
 10
-2545.086790030702
 20
-2617.08932380556
 30
0.0
 11
-2541.107227372996
 21
-2613.109761147851
 31
0.0
  0
LINE
  5
4AA
330
1F
100
AcDbEntity
  8
LAYER0048
  6
CONTINUOUS
 62
     3
100
AcDbLine
 10
-2426.40340380378
 20
-2502.139461383304
 30
0.0
 11
-2413.821950672329
 21
-2489.558008251852
 31
0.0
  0
LINE
  5
4AB
330
1F
100
AcDbEntity
  8
LAYER0048
  6
CONTINUOUS
 62
     3
100
AcDbLine
 10
-2466.093846128329
 20
-2541.829903707852
 30
0.0
 11
-2447.085884144327
 21
-2522.821941723852
 31
0.0
  0
LINE
  5
4AC
330
1F
100
AcDbEntity
  8
LAYER0048
  6
CONTINUOUS
 62
     3
100
AcDbLine
 10
-2499.357779600329
 20
-2575.093837179852
 30
0.0
 11
-2478.326827772193
 21
-2554.062885351716
 31
0.0
  0
LINE
  5
4AD
330
1F
100
AcDbEntity
  8
LAYER0048
  6
CONTINUOUS
 62
     3
100
AcDbLine
 10
-2545.886041364487
 20
-2621.62209894401
 30
0.0
 11
-2537.37370356833
 21
-2613.109761147851
 31
0.0
  0
LINE
  5
4AE
330
1F
100
AcDbEntity
  8
LAYER0048
  6
CONTINUOUS
 62
     3
100
AcDbLine
 10
-2427.202655137566
 20
-2506.672236521754
 30
0.0
 11
-2410.088426867664
 21
-2489.558008251852
 31
0.0
  0
LINE
  5
4AF
330
1F
100
AcDbEntity
  8
LAYER0048
  6
CONTINUOUS
 62
     3
100
AcDbLine
 10
-2462.360322323664
 20
-2541.829903707852
 30
0.0
 11
-2443.352360339663
 21
-2522.821941723852
 31
0.0
  0
LINE
  5
4B0
330
1F
100
AcDbEntity
  8
LAYER0048
  6
CONTINUOUS
 62
     3
100
AcDbLine
 10
-2495.624255795664
 20
-2575.093837179852
 30
0.0
 11
-2479.126079105978
 21
-2558.595660490167
 31
0.0
  0
LINE
  5
4B1
330
1F
100
AcDbEntity
  8
LAYER0048
  6
CONTINUOUS
 62
     3
100
AcDbLine
 10
-2546.685292698272
 20
-2626.15487408246
 30
0.0
 11
-2533.640179763665
 21
-2613.109761147851
 31
0.0
  0
LINE
  5
4B2
330
1F
100
AcDbEntity
  8
LAYER0048
  6
CONTINUOUS
 62
     3
100
AcDbLine
 10
-2428.001906471351
 20
-2511.205011660204
 30
0.0
 11
-2406.354903062999
 21
-2489.558008251852
 31
0.0
  0
LINE
  5
4B3
330
1F
100
AcDbEntity
  8
LAYER0048
  6
CONTINUOUS
 62
     3
100
AcDbLine
 10
-2458.626798518999
 20
-2541.829903707852
 30
0.0
 11
-2439.618836534998
 21
-2522.821941723852
 31
0.0
  0
LINE
  5
4B4
330
1F
100
AcDbEntity
  8
LAYER0048
  6
CONTINUOUS
 62
     3
100
AcDbLine
 10
-2491.890731990998
 20
-2575.093837179852
 30
0.0
 11
-2479.925330439763
 21
-2563.128435628617
 31
0.0
  0
LINE
  5
4B5
330
1F
100
AcDbEntity
  8
LAYER0048
  6
CONTINUOUS
 62
     3
100
AcDbLine
 10
-2547.484544032057
 20
-2630.68764922091
 30
0.0
 11
-2529.906655959
 21
-2613.109761147851
 31
0.0
  0
LINE
  5
4B6
330
1F
100
AcDbEntity
  8
LAYER0048
  6
CONTINUOUS
 62
     3
100
AcDbLine
 10
-2428.801157805136
 20
-2515.737786798655
 30
0.0
 11
-2402.621379258333
 21
-2489.558008251852
 31
0.0
  0
LINE
  5
4B7
330
1F
100
AcDbEntity
  8
LAYER0048
  6
CONTINUOUS
 62
     3
100
AcDbLine
 10
-2454.893274714334
 20
-2541.829903707852
 30
0.0
 11
-2435.885312730333
 21
-2522.821941723852
 31
0.0
  0
LINE
  5
4B8
330
1F
100
AcDbEntity
  8
LAYER0048
  6
CONTINUOUS
 62
     3
100
AcDbLine
 10
-2488.157208186334
 20
-2575.093837179852
 30
0.0
 11
-2480.724581773549
 21
-2567.661210767067
 31
0.0
  0
LINE
  5
4B9
330
1F
100
AcDbEntity
  8
LAYER0048
  6
CONTINUOUS
 62
     3
100
AcDbLine
 10
-2545.181094138337
 20
-2632.117723131851
 30
0.0
 11
-2526.173132154335
 21
-2613.109761147851
 31
0.0
  0
LINE
  5
4BA
330
1F
100
AcDbEntity
  8
LAYER0048
  6
CONTINUOUS
 62
     3
100
AcDbLine
 10
-2429.600409138922
 20
-2520.270561937105
 30
0.0
 11
-2398.887855453669
 21
-2489.558008251852
 31
0.0
  0
LINE
  5
4BB
330
1F
100
AcDbEntity
  8
LAYER0048
  6
CONTINUOUS
 62
     3
100
AcDbLine
 10
-2451.159750909669
 20
-2541.829903707852
 30
0.0
 11
-2432.151788925669
 21
-2522.821941723852
 31
0.0
  0
LINE
  5
4BC
330
1F
100
AcDbEntity
  8
LAYER0048
  6
CONTINUOUS
 62
     3
100
AcDbLine
 10
-2484.423684381669
 20
-2575.093837179852
 30
0.0
 11
-2481.523833107335
 21
-2572.193985905517
 31
0.0
  0
LINE
  5
4BD
330
1F
100
AcDbEntity
  8
LAYER0048
  6
CONTINUOUS
 62
     3
100
AcDbLine
 10
-2541.447570333672
 20
-2632.117723131851
 30
0.0
 11
-2522.439608349669
 21
-2613.109761147851
 31
0.0
  0
LINE
  5
4BE
330
1F
100
AcDbEntity
  8
LAYER0048
  6
CONTINUOUS
 62
     3
100
AcDbLine
 10
-2447.426227105003
 20
-2541.829903707852
 30
0.0
 11
-2395.154331649004
 21
-2489.558008251852
 31
0.0
  0
LINE
  5
4BF
330
1F
100
AcDbEntity
  8
LAYER0048
  6
CONTINUOUS
 62
     3
100
AcDbLine
 10
-2537.714046529006
 20
-2632.117723131851
 30
0.0
 11
-2518.706084545005
 21
-2613.109761147851
 31
0.0
  0
LINE
  5
4C0
330
1F
100
AcDbEntity
  8
LAYER0048
  6
CONTINUOUS
 62
     3
100
AcDbLine
 10
-2443.692703300339
 20
-2541.829903707852
 30
0.0
 11
-2391.420807844338
 21
-2489.558008251852
 31
0.0
  0
LINE
  5
4C1
330
1F
100
AcDbEntity
  8
LAYER0048
  6
CONTINUOUS
 62
     3
100
AcDbLine
 10
-2533.980522724341
 20
-2632.117723131851
 30
0.0
 11
-2514.972560740339
 21
-2613.109761147851
 31
0.0
  0
LINE
  5
4C2
330
1F
100
AcDbEntity
  8
LAYER0048
  6
CONTINUOUS
 62
     3
100
AcDbLine
 10
-2439.959179495674
 20
-2541.829903707852
 30
0.0
 11
-2387.687284039675
 21
-2489.558008251852
 31
0.0
  0
LINE
  5
4C3
330
1F
100
AcDbEntity
  8
LAYER0048
  6
CONTINUOUS
 62
     3
100
AcDbLine
 10
-2530.246998919676
 20
-2632.117723131851
 30
0.0
 11
-2511.239036935674
 21
-2613.109761147851
 31
0.0
  0
LINE
  5
4C4
330
1F
100
AcDbEntity
  8
LAYER0048
  6
CONTINUOUS
 62
     3
100
AcDbLine
 10
-2436.225655691009
 20
-2541.829903707852
 30
0.0
 11
-2383.953760235009
 21
-2489.558008251852
 31
0.0
  0
LINE
  5
4C5
330
1F
100
AcDbEntity
  8
LAYER0048
  6
CONTINUOUS
 62
     3
100
AcDbLine
 10
-2526.513475115011
 20
-2632.117723131851
 30
0.0
 11
-2507.505513131009
 21
-2613.109761147851
 31
0.0
  0
LINE
  5
4C6
330
1F
100
AcDbEntity
  8
LAYER0048
  6
CONTINUOUS
 62
     3
100
AcDbLine
 10
-2433.596663028158
 20
-2542.934434849667
 30
0.0
 11
-2380.220236430344
 21
-2489.558008251852
 31
0.0
  0
LINE
  5
4C7
330
1F
100
AcDbEntity
  8
LAYER0048
  6
CONTINUOUS
 62
     3
100
AcDbLine
 10
-2522.779951310346
 20
-2632.117723131851
 30
0.0
 11
-2503.771989326344
 21
-2613.109761147851
 31
0.0
  0
LINE
  5
4C8
330
1F
100
AcDbEntity
  8
LAYER0048
  6
CONTINUOUS
 62
     3
100
AcDbLine
 10
-2434.395902954685
 20
-2547.467198580859
 30
0.0
 11
-2376.703223843394
 21
-2489.774519469568
 31
0.0
  0
LINE
  5
4C9
330
1F
100
AcDbEntity
  8
LAYER0048
  6
CONTINUOUS
 62
     3
100
AcDbLine
 10
-2519.046427505681
 20
-2632.117723131851
 30
0.0
 11
-2500.038465521679
 21
-2613.109761147851
 31
0.0
  0
LINE
  5
4CA
330
1F
100
AcDbEntity
  8
LAYER0048
  6
CONTINUOUS
 62
     3
100
AcDbLine
 10
-2435.195142881213
 20
-2551.999962312052
 30
0.0
 11
-2377.50247517718
 21
-2494.307294608019
 31
0.0
  0
LINE
  5
4CB
330
1F
100
AcDbEntity
  8
LAYER0048
  6
CONTINUOUS
 62
     3
100
AcDbLine
 10
-2515.312903701015
 20
-2632.117723131851
 30
0.0
 11
-2496.304941717014
 21
-2613.109761147851
 31
0.0
  0
LINE
  5
4CC
330
1F
100
AcDbEntity
  8
LAYER0048
  6
CONTINUOUS
 62
     3
100
AcDbLine
 10
-2435.994382807741
 20
-2556.532726043245
 30
0.0
 11
-2378.301726510966
 21
-2498.840069746469
 31
0.0
  0
LINE
  5
4CD
330
1F
100
AcDbEntity
  8
LAYER0048
  6
CONTINUOUS
 62
     3
100
AcDbLine
 10
-2511.579379896351
 20
-2632.117723131851
 30
0.0
 11
-2492.571417912349
 21
-2613.109761147851
 31
0.0
  0
LINE
  5
4CE
330
1F
100
AcDbEntity
  8
LAYER0048
  6
CONTINUOUS
 62
     3
100
AcDbLine
 10
-2436.793622734269
 20
-2561.065489774438
 30
0.0
 11
-2379.100977844751
 21
-2503.37284488492
 31
0.0
  0
LINE
  5
4CF
330
1F
100
AcDbEntity
  8
LAYER0048
  6
CONTINUOUS
 62
     3
100
AcDbLine
 10
-2507.845856091686
 20
-2632.117723131851
 30
0.0
 11
-2488.837894107683
 21
-2613.109761147851
 31
0.0
  0
LINE
  5
4D0
330
1F
100
AcDbEntity
  8
LAYER0048
  6
CONTINUOUS
 62
     3
100
AcDbLine
 10
-2437.592862660798
 20
-2565.598253505631
 30
0.0
 11
-2379.900229178536
 21
-2507.90562002337
 31
0.0
  0
LINE
  5
4D1
330
1F
100
AcDbEntity
  8
LAYER0048
  6
CONTINUOUS
 62
     3
100
AcDbLine
 10
-2504.112332287021
 20
-2632.117723131851
 30
0.0
 11
-2485.104370303019
 21
-2613.109761147851
 31
0.0
  0
LINE
  5
4D2
330
1F
100
AcDbEntity
  8
LAYER0048
  6
CONTINUOUS
 62
     3
100
AcDbLine
 10
-2438.392102587325
 20
-2570.131017236823
 30
0.0
 11
-2380.699480512321
 21
-2512.43839516182
 31
0.0
  0
LINE
  5
4D3
330
1F
100
AcDbEntity
  8
LAYER0048
  6
CONTINUOUS
 62
     3
100
AcDbLine
 10
-2500.378808482355
 20
-2632.117723131851
 30
0.0
 11
-2481.370846498353
 21
-2613.109761147851
 31
0.0
  0
LINE
  5
4D4
330
1F
100
AcDbEntity
  8
LAYER0048
  6
CONTINUOUS
 62
     3
100
AcDbLine
 10
-2439.191342513853
 20
-2574.663780968016
 30
0.0
 11
-2381.498731846107
 21
-2516.97117030027
 31
0.0
  0
LINE
  5
4D5
330
1F
100
AcDbEntity
  8
LAYER0048
  6
CONTINUOUS
 62
     3
100
AcDbLine
 10
-2496.645284677691
 20
-2632.117723131851
 30
0.0
 11
-2477.635278414422
 21
-2613.107716868585
 31
0.0
  0
LINE
  5
4D6
330
1F
100
AcDbEntity
  8
LAYER0048
  6
CONTINUOUS
 62
     3
100
AcDbLine
 10
-2439.990582440381
 20
-2579.196544699209
 30
0.0
 11
-2382.297983179893
 21
-2521.503945438721
 31
0.0
  0
LINE
  5
4D7
330
1F
100
AcDbEntity
  8
LAYER0048
  6
CONTINUOUS
 62
     3
100
AcDbLine
 10
-2492.911760873025
 20
-2632.117723131851
 30
0.0
 11
-2473.669795611901
 21
-2612.87575787073
 31
0.0
  0
LINE
  5
4D8
330
1F
100
AcDbEntity
  8
LAYER0048
  6
CONTINUOUS
 62
     3
100
AcDbLine
 10
-2440.866455733295
 20
-2583.805941796788
 30
0.0
 11
-2379.882455660358
 21
-2522.821941723852
 31
0.0
  0
LINE
  5
4D9
330
1F
100
AcDbEntity
  8
LAYER0048
  6
CONTINUOUS
 62
     3
100
AcDbLine
 10
-2489.17823706836
 20
-2632.117723131851
 30
0.0
 11
-2469.15742499912
 21
-2612.096911062614
 31
0.0
  0
LINE
  5
4DA
330
1F
100
AcDbEntity
  8
LAYER0048
  6
CONTINUOUS
 62
     3
100
AcDbLine
 10
-2442.595739998144
 20
-2589.268749866302
 30
0.0
 11
-2376.148931855693
 21
-2522.821941723852
 31
0.0
  0
LINE
  5
4DB
330
1F
100
AcDbEntity
  8
LAYER0048
  6
CONTINUOUS
 62
     3
100
AcDbLine
 10
-2485.444713263695
 20
-2632.117723131851
 30
0.0
 11
-2463.694616929607
 21
-2610.367626797765
 31
0.0
  0
LINE
  5
4DC
330
1F
100
AcDbEntity
  8
LAYER0048
  6
CONTINUOUS
 62
     3
100
AcDbLine
 10
-2447.345910283144
 20
-2597.752443955967
 30
0.0
 11
-2372.415408051028
 21
-2522.821941723852
 31
0.0
  0
LINE
  5
4DD
330
1F
100
AcDbEntity
  8
LAYER0048
  6
CONTINUOUS
 62
     3
100
AcDbLine
 10
-2481.71118945903
 20
-2632.117723131851
 30
0.0
 11
-2455.210922839941
 21
-2605.617456512764
 31
0.0
  0
LINE
  5
4DE
330
1F
100
AcDbEntity
  8
LAYER0048
  6
CONTINUOUS
 62
     3
100
AcDbLine
 10
-2477.977665654365
 20
-2632.117723131851
 30
0.0
 11
-2368.681884246363
 21
-2522.821941723852
 31
0.0
  0
LINE
  5
4DF
330
1F
100
AcDbEntity
  8
LAYER0048
  6
CONTINUOUS
 62
     3
100
AcDbLine
 10
-2383.956322425699
 20
-2541.829903707852
 30
0.0
 11
-2364.948360441698
 21
-2522.821941723852
 31
0.0
  0
LINE
  5
4E0
330
1F
100
AcDbEntity
  8
LAYER0048
  6
CONTINUOUS
 62
     3
100
AcDbLine
 10
-2474.2441418497
 20
-2632.117723131851
 30
0.0
 11
-2386.294239883197
 21
-2544.16782116535
 31
0.0
  0
LINE
  5
4E1
330
1F
100
AcDbEntity
  8
LAYER0048
  6
CONTINUOUS
 62
     3
100
AcDbLine
 10
-2380.222798621034
 20
-2541.829903707852
 30
0.0
 11
-2361.214836637033
 21
-2522.821941723852
 31
0.0
  0
LINE
  5
4E2
330
1F
100
AcDbEntity
  8
LAYER0048
  6
CONTINUOUS
 62
     3
100
AcDbLine
 10
-2470.510618045035
 20
-2632.117723131851
 30
0.0
 11
-2387.093491283639
 21
-2548.700596370457
 31
0.0
  0
LINE
  5
4E3
330
1F
100
AcDbEntity
  8
LAYER0048
  6
CONTINUOUS
 62
     3
100
AcDbLine
 10
-2376.489274816369
 20
-2541.829903707852
 30
0.0
 11
-2357.481312832369
 21
-2522.821941723852
 31
0.0
  0
LINE
  5
4E4
330
1F
100
AcDbEntity
  8
LAYER0048
  6
CONTINUOUS
 62
     3
100
AcDbLine
 10
-2466.777094240369
 20
-2632.117723131851
 30
0.0
 11
-2387.892742684081
 21
-2553.233371575564
 31
0.0
  0
LINE
  5
4E5
330
1F
100
AcDbEntity
  8
LAYER0048
  6
CONTINUOUS
 62
     3
100
AcDbLine
 10
-2372.755751011705
 20
-2541.829903707852
 30
0.0
 11
-2354.424849358818
 21
-2523.499002054965
 31
0.0
  0
LINE
  5
4E6
330
1F
100
AcDbEntity
  8
LAYER0048
  6
CONTINUOUS
 62
     3
100
AcDbLine
 10
-2463.043570435704
 20
-2632.117723131851
 30
0.0
 11
-2388.691994084524
 21
-2557.766146780671
 31
0.0
  0
LINE
  5
4E7
330
1F
100
AcDbEntity
  8
LAYER0048
  6
CONTINUOUS
 62
     3
100
AcDbLine
 10
-2369.022227207039
 20
-2541.829903707852
 30
0.0
 11
-2355.224100692603
 21
-2528.031777193416
 31
0.0
  0
LINE
  5
4E8
330
1F
100
AcDbEntity
  8
LAYER0048
  6
CONTINUOUS
 62
     3
100
AcDbLine
 10
-2459.270421555037
 20
-2632.078098055849
 30
0.0
 11
-2389.491245484965
 21
-2562.298921985777
 31
0.0
  0
LINE
  5
4E9
330
1F
100
AcDbEntity
  8
LAYER0048
  6
CONTINUOUS
 62
     3
100
AcDbLine
 10
-2365.288703402374
 20
-2541.829903707852
 30
0.0
 11
-2356.023352026388
 21
-2532.564552331865
 31
0.0
  0
LINE
  5
4EA
330
1F
100
AcDbEntity
  8
LAYER0048
  6
CONTINUOUS
 62
     3
100
AcDbLine
 10
-2455.295123892255
 20
-2631.836324197733
 30
0.0
 11
-2390.290496885407
 21
-2566.831697190885
 31
0.0
  0
LINE
  5
4EB
330
1F
100
AcDbEntity
  8
LAYER0048
  6
CONTINUOUS
 62
     3
100
AcDbLine
 10
-2361.555179597709
 20
-2541.829903707852
 30
0.0
 11
-2356.822603360173
 21
-2537.097327470315
 31
0.0
  0
LINE
  5
4EC
330
1F
100
AcDbEntity
  8
LAYER0048
  6
CONTINUOUS
 62
     3
100
AcDbLine
 10
-2451.053806503464
 20
-2631.328530613606
 30
0.0
 11
-2391.089748285849
 21
-2571.364472395992
 31
0.0
  0
LINE
  5
4ED
330
1F
100
AcDbEntity
  8
LAYER0048
  6
CONTINUOUS
 62
     3
100
AcDbLine
 10
-2357.821655793045
 20
-2541.829903707852
 30
0.0
 11
-2357.621854693958
 21
-2541.630102608765
 31
0.0
  0
LINE
  5
4EE
330
1F
100
AcDbEntity
  8
LAYER0048
  6
CONTINUOUS
 62
     3
100
AcDbLine
 10
-2446.483104447748
 20
-2630.491352362556
 30
0.0
 11
-2391.959576398154
 21
-2575.967824312962
 31
0.0
  0
LINE
  5
4EF
330
1F
100
AcDbEntity
  8
LAYER0048
  6
CONTINUOUS
 62
     3
100
AcDbLine
 10
-2441.466967819433
 20
-2629.208739538905
 30
0.0
 11
-2393.242189221804
 21
-2580.983960941277
 31
0.0
  0
LINE
  5
4F0
330
1F
100
AcDbEntity
  8
LAYER0048
  6
CONTINUOUS
 62
     3
100
AcDbLine
 10
-2435.80367457637
 20
-2627.278970100508
 30
0.0
 11
-2395.171958660202
 21
-2586.64725418434
 31
0.0
  0
LINE
  5
4F1
330
1F
100
AcDbEntity
  8
LAYER0048
  6
CONTINUOUS
 62
     3
100
AcDbLine
 10
-2429.017364089481
 20
-2624.226183418284
 30
0.0
 11
-2398.224745342425
 21
-2593.433564671227
 31
0.0
  0
LINE
  5
4F2
330
1F
100
AcDbEntity
  8
LAYER0048
  6
CONTINUOUS
 62
     3
100
AcDbLine
 10
-2419.124842954677
 20
-2618.067186088145
 30
0.0
 11
-2404.383742672565
 21
-2603.326085806033
 31
0.0
  0
LINE
  5
4F3
330
1F
100
AcDbEntity
  8
LAYER0048
  6
CONTINUOUS
 62
     3
100
AcDbLine
 10
-2153.285162784056
 20
-2551.061945797452
 30
0.0
 11
-2151.192452313657
 21
-2539.134292741452
 31
0.0
  0
LINE
  5
4F4
330
1F
100
AcDbEntity
  8
LAYER0048
  6
CONTINUOUS
 62
     3
100
AcDbLine
 10
-2167.577465212858
 20
-2632.117723131851
 30
0.0
 11
-2163.387940444856
 21
-2608.357770651851
 31
0.0
  0
LINE
  5
4F5
330
1F
100
AcDbEntity
  8
LAYER0048
  6
CONTINUOUS
 62
     3
100
AcDbLine
 10
-2182.328551382458
 20
-2573.215491330252
 30
0.0
 11
-2167.577465212858
 21
-2489.558008251852
 31
0.0
  0
LINE
  5
4F6
330
1F
100
AcDbEntity
  8
LAYER0048
  6
CONTINUOUS
 62
     3
100
AcDbLine
 10
-2357.657085052857
 20
-2632.117723131851
 30
0.0
 11
-2252.525481244857
 21
-2632.117723131851
 31
0.0
  0
LINE
  5
4F7
330
1F
100
AcDbEntity
  8
LAYER0048
  6
CONTINUOUS
 62
     3
100
AcDbLine
 10
-2350.953845424058
 20
-2594.101799163851
 30
0.0
 11
-2357.657085052857
 21
-2632.117723131851
 31
0.0
  0
LINE
  5
4F8
330
1F
100
AcDbEntity
  8
LAYER0048
  6
CONTINUOUS
 62
     3
100
AcDbLine
 10
-2238.049592899258
 20
-2594.101799163851
 30
0.0
 11
-2350.953845424058
 21
-2594.101799163851
 31
0.0
  0
LINE
  5
4F9
330
1F
100
AcDbEntity
  8
LAYER0048
  6
CONTINUOUS
 62
     3
100
AcDbLine
 10
-2191.703865321657
 20
-2489.558008251852
 30
0.0
 11
-2205.291033676858
 21
-2566.614123176652
 31
0.0
  0
LINE
  5
4FA
330
1F
100
AcDbEntity
  8
LAYER0048
  6
CONTINUOUS
 62
     3
100
AcDbLine
 10
-2167.577465212858
 20
-2489.558008251852
 30
0.0
 11
-2191.703865321657
 21
-2489.558008251852
 31
0.0
  0
LINE
  5
4FB
330
1F
100
AcDbEntity
  8
LAYER0048
  6
CONTINUOUS
 62
     3
100
AcDbLine
 10
-2240.790587366457
 20
-2489.558008251852
 30
0.0
 11
-2342.121805785658
 21
-2489.558008251852
 31
0.0
  0
LINE
  5
4FC
330
1F
100
AcDbEntity
  8
LAYER0048
  6
CONTINUOUS
 62
     3
100
AcDbLine
 10
-2244.980112134457
 20
-2513.317960731852
 30
0.0
 11
-2240.790587366457
 21
-2489.558008251852
 31
0.0
  0
LINE
  5
4FD
330
1F
100
AcDbEntity
  8
LAYER0048
  6
CONTINUOUS
 62
     3
100
AcDbLine
 10
-2346.311330553658
 20
-2513.317960731852
 30
0.0
 11
-2244.980112134457
 21
-2513.317960731852
 31
0.0
  0
LINE
  5
4FE
330
1F
100
AcDbEntity
  8
LAYER0048
  6
CONTINUOUS
 62
     3
100
AcDbLine
 10
-2342.121805785658
 20
-2489.558008251852
 30
0.0
 11
-2346.311330553658
 21
-2513.317960731852
 31
0.0
  0
LINE
  5
4FF
330
1F
100
AcDbEntity
  8
LAYER0048
  6
CONTINUOUS
 62
     3
100
AcDbLine
 10
-2382.530381712058
 20
-2522.821941723852
 30
0.0
 11
-2376.665047036858
 21
-2489.558008251852
 31
0.0
  0
LINE
  5
500
330
1F
100
AcDbEntity
  8
LAYER0048
  6
CONTINUOUS
 62
     3
100
AcDbLine
 10
-2391.416133206457
 20
-2573.215491330252
 30
0.0
 11
-2385.882001526458
 21
-2541.829903707852
 31
0.0
  0
LINE
  5
501
330
1F
100
AcDbEntity
  8
LAYER0048
  6
CONTINUOUS
 62
     3
100
AcDbLine
 10
-2433.401906486458
 20
-2541.829903707852
 30
0.0
 11
-2440.431158976058
 21
-2581.695205333452
 31
0.0
  0
LINE
  5
502
330
1F
100
AcDbEntity
  8
LAYER0048
  6
CONTINUOUS
 62
     3
100
AcDbLine
 10
-2424.184951996857
 20
-2489.558008251852
 30
0.0
 11
-2430.050286672059
 21
-2522.821941723852
 31
0.0
  0
LINE
  5
503
330
1F
100
AcDbEntity
  8
LAYER0048
  6
CONTINUOUS
 62
     3
100
AcDbLine
 10
-2430.050286672059
 20
-2522.821941723852
 30
0.0
 11
-2472.818201136058
 21
-2522.821941723852
 31
0.0
  0
LINE
  5
504
330
1F
100
AcDbEntity
  8
LAYER0048
  6
CONTINUOUS
 62
     3
100
AcDbLine
 10
-2354.305465238457
 20
-2522.821941723852
 30
0.0
 11
-2382.530381712058
 21
-2522.821941723852
 31
0.0
  0
LINE
  5
505
330
1F
100
AcDbEntity
  8
LAYER0048
  6
CONTINUOUS
 62
     3
100
AcDbLine
 10
-2385.882001526458
 20
-2541.829903707852
 30
0.0
 11
-2357.657085052857
 21
-2541.829903707852
 31
0.0
  0
LINE
  5
506
330
1F
100
AcDbEntity
  8
LAYER0048
  6
CONTINUOUS
 62
     3
100
AcDbLine
 10
-2476.169820950458
 20
-2541.829903707852
 30
0.0
 11
-2433.401906486458
 21
-2541.829903707852
 31
0.0
  0
LINE
  5
507
330
1F
100
AcDbEntity
  8
LAYER0048
  6
CONTINUOUS
 62
     3
100
AcDbLine
 10
-2472.818201136058
 20
-2522.821941723852
 30
0.0
 11
-2466.952866460857
 21
-2489.558008251852
 31
0.0
  0
LINE
  5
508
330
1F
100
AcDbEntity
  8
LAYER0048
  6
CONTINUOUS
 62
     3
100
AcDbLine
 10
-2482.035155625659
 20
-2575.093837179852
 30
0.0
 11
-2476.169820950458
 21
-2541.829903707852
 31
0.0
  0
LINE
  5
509
330
1F
100
AcDbEntity
  8
LAYER0048
  6
CONTINUOUS
 62
     3
100
AcDbLine
 10
-2523.689725910458
 20
-2541.829903707852
 30
0.0
 11
-2529.555060585659
 21
-2575.093837179852
 31
0.0
  0
LINE
  5
50A
330
1F
100
AcDbEntity
  8
LAYER0048
  6
CONTINUOUS
 62
     3
100
AcDbLine
 10
-2514.472771420857
 20
-2489.558008251852
 30
0.0
 11
-2520.338106096058
 21
-2522.821941723852
 31
0.0
  0
LINE
  5
50B
330
1F
100
AcDbEntity
  8
LAYER0048
  6
CONTINUOUS
 62
     3
100
AcDbLine
 10
-2547.736704892858
 20
-2541.829903707852
 30
0.0
 11
-2523.689725910458
 21
-2541.829903707852
 31
0.0
  0
LINE
  5
50C
330
1F
100
AcDbEntity
  8
LAYER0048
  6
CONTINUOUS
 62
     3
100
AcDbLine
 10
-2520.338106096058
 20
-2522.821941723852
 30
0.0
 11
-2544.385085078458
 21
-2522.821941723852
 31
0.0
  0
LINE
  5
50D
330
1F
100
AcDbEntity
  8
LAYER0048
  6
CONTINUOUS
 62
     3
100
AcDbLine
 10
-2376.665047036858
 20
-2489.558008251852
 30
0.0
 11
-2424.184951996857
 21
-2489.558008251852
 31
0.0
  0
LINE
  5
50E
330
1F
100
AcDbEntity
  8
LAYER0048
  6
CONTINUOUS
 62
     3
100
AcDbLine
 10
-2547.736704892858
 20
-2632.117723131851
 30
0.0
 11
-2461.613063068859
 21
-2632.117723131851
 31
0.0
  0
LINE
  5
50F
330
1F
100
AcDbEntity
  8
LAYER0048
  6
CONTINUOUS
 62
     3
100
AcDbLine
 10
-2544.385085078458
 20
-2613.109761147851
 30
0.0
 11
-2547.736704892858
 21
-2632.117723131851
 31
0.0
  0
LINE
  5
510
330
1F
100
AcDbEntity
  8
LAYER0048
  6
CONTINUOUS
 62
     3
100
AcDbLine
 10
-2477.869529616057
 20
-2613.109761147851
 30
0.0
 11
-2544.385085078458
 21
-2613.109761147851
 31
0.0
  0
LINE
  5
511
330
1F
100
AcDbEntity
  8
LAYER0048
  6
CONTINUOUS
 62
     3
100
AcDbLine
 10
-2466.952866460857
 20
-2489.558008251852
 30
0.0
 11
-2514.472771420857
 21
-2489.558008251852
 31
0.0
  0
LINE
  5
512
330
1F
100
AcDbEntity
  8
LAYER0048
  6
CONTINUOUS
 62
     3
100
AcDbLine
 10
-2529.555060585659
 20
-2575.093837179852
 30
0.0
 11
-2482.035155625659
 21
-2575.093837179852
 31
0.0
  0
LINE
  5
513
330
1F
100
AcDbEntity
  8
LAYER0048
  6
CONTINUOUS
 62
     3
100
AcDbLine
 10
-2357.657085052857
 20
-2541.829903707852
 30
0.0
 11
-2354.305465238457
 21
-2522.821941723852
 31
0.0
  0
LINE
  5
514
330
1F
100
AcDbEntity
  8
LAYER0048
  6
CONTINUOUS
 62
     3
100
AcDbLine
 10
-2544.385085078458
 20
-2522.821941723852
 30
0.0
 11
-2547.736704892858
 21
-2541.829903707852
 31
0.0
  0
ARC
  5
515
330
1F
100
AcDbEntity
  8
LAYER0048
  6
CONTINUOUS
 62
     3
100
AcDbCircle
 10
-2238.049592899258
 20
-2560.837865691852
 30
0.0
 40
33.26393347199957
100
AcDbArc
 50
270.0000000000006
 51
349.999932750911
  0
ARC
  5
516
330
1F
100
AcDbEntity
  8
LAYER0048
  6
CONTINUOUS
 62
     3
100
AcDbCircle
 10
-2252.525481244857
 20
-2560.837865691852
 30
0.0
 40
71.27985744000001
100
AcDbArc
 50
270.0000000000006
 51
349.9999897560571
  0
ARC
  5
517
330
1F
100
AcDbEntity
  8
LAYER0048
  6
CONTINUOUS
 62
     3
100
AcDbCircle
 10
-2477.869529616057
 20
-2575.093837179852
 30
0.0
 40
38.01592396799948
100
AcDbArc
 50
270.0000000000006
 51
350.0000396355528
  0
ARC
  5
518
330
1F
100
AcDbEntity
  8
LAYER0048
  6
CONTINUOUS
 62
     3
100
AcDbCircle
 10
-2461.613063068859
 20
-2560.837865691852
 30
0.0
 40
71.27985744000001
100
AcDbArc
 50
270.0000000000006
 51
349.9999897560575
  0
LINE
  5
519
330
1F
100
AcDbEntity
  8
LAYER0048
  6
CONTINUOUS
 62
     3
100
AcDbLine
 10
-1790.49469196045
 20
-2515.86389155168
 30
0.0
 11
-1786.858229412622
 21
-2512.227429003851
 31
0.0
  0
LINE
  5
51A
330
1F
100
AcDbEntity
  8
LAYER0048
  6
CONTINUOUS
 62
     3
100
AcDbLine
 10
-1762.671933664737
 20
-2491.77465706063
 30
0.0
 11
-1760.455284855957
 21
-2489.558008251852
 31
0.0
  0
LINE
  5
51B
330
1F
100
AcDbEntity
  8
LAYER0048
  6
CONTINUOUS
 62
     3
100
AcDbLine
 10
-1791.293943294236
 20
-2520.39666669013
 30
0.0
 11
-1783.124705607957
 21
-2512.227429003851
 31
0.0
  0
LINE
  5
51C
330
1F
100
AcDbEntity
  8
LAYER0048
  6
CONTINUOUS
 62
     3
100
AcDbLine
 10
-1763.471188392265
 20
-2496.307435592823
 30
0.0
 11
-1756.721761051293
 21
-2489.558008251852
 31
0.0
  0
LINE
  5
51D
330
1F
100
AcDbEntity
  8
LAYER0048
  6
CONTINUOUS
 62
     3
100
AcDbLine
 10
-1792.093194628021
 20
-2524.929441828579
 30
0.0
 11
-1779.391181803292
 21
-2512.227429003851
 31
0.0
  0
LINE
  5
51E
330
1F
100
AcDbEntity
  8
LAYER0048
  6
CONTINUOUS
 62
     3
100
AcDbLine
 10
-1764.270443119792
 20
-2500.840214125015
 30
0.0
 11
-1752.988237246627
 21
-2489.558008251852
 31
0.0
  0
LINE
  5
51F
330
1F
100
AcDbEntity
  8
LAYER0048
  6
CONTINUOUS
 62
     3
100
AcDbLine
 10
-1792.892445961806
 20
-2529.462216967029
 30
0.0
 11
-1775.657657998627
 21
-2512.227429003851
 31
0.0
  0
LINE
  5
520
330
1F
100
AcDbEntity
  8
LAYER0048
  6
CONTINUOUS
 62
     3
100
AcDbLine
 10
-1765.069697847319
 20
-2505.372992657208
 30
0.0
 11
-1749.254713441963
 21
-2489.558008251852
 31
0.0
  0
LINE
  5
521
330
1F
100
AcDbEntity
  8
LAYER0048
  6
CONTINUOUS
 62
     3
100
AcDbLine
 10
-1793.69169729559
 20
-2533.994992105479
 30
0.0
 11
-1771.924134193962
 21
-2512.227429003851
 31
0.0
  0
LINE
  5
522
330
1F
100
AcDbEntity
  8
LAYER0048
  6
CONTINUOUS
 62
     3
100
AcDbLine
 10
-1765.868952574847
 20
-2509.905771189401
 30
0.0
 11
-1745.521189637298
 21
-2489.558008251852
 31
0.0
  0
LINE
  5
523
330
1F
100
AcDbEntity
  8
LAYER0048
  6
CONTINUOUS
 62
     3
100
AcDbLine
 10
-1791.950562869298
 20
-2535.987381483852
 30
0.0
 11
-1768.190610389297
 21
-2512.227429003851
 31
0.0
  0
LINE
  5
524
330
1F
100
AcDbEntity
  8
LAYER0048
  6
CONTINUOUS
 62
     3
100
AcDbLine
 10
-1788.217039064633
 20
-2535.987381483852
 30
0.0
 11
-1741.787665832633
 21
-2489.558008251852
 31
0.0
  0
LINE
  5
525
330
1F
100
AcDbEntity
  8
LAYER0048
  6
CONTINUOUS
 62
     3
100
AcDbLine
 10
-1784.483515259968
 20
-2535.987381483852
 30
0.0
 11
-1738.054142027968
 21
-2489.558008251852
 31
0.0
  0
LINE
  5
526
330
1F
100
AcDbEntity
  8
LAYER0048
  6
CONTINUOUS
 62
     3
100
AcDbLine
 10
-1780.749991455303
 20
-2535.987381483852
 30
0.0
 11
-1734.320618223303
 21
-2489.558008251852
 31
0.0
  0
LINE
  5
527
330
1F
100
AcDbEntity
  8
LAYER0048
  6
CONTINUOUS
 62
     3
100
AcDbLine
 10
-1777.016467650638
 20
-2535.987381483852
 30
0.0
 11
-1730.587094418638
 21
-2489.558008251852
 31
0.0
  0
LINE
  5
528
330
1F
100
AcDbEntity
  8
LAYER0048
  6
CONTINUOUS
 62
     3
100
AcDbLine
 10
-1773.282943845973
 20
-2535.987381483852
 30
0.0
 11
-1726.853570613974
 21
-2489.558008251852
 31
0.0
  0
LINE
  5
529
330
1F
100
AcDbEntity
  8
LAYER0048
  6
CONTINUOUS
 62
     3
100
AcDbLine
 10
-1770.664462118937
 20
-2537.102423561482
 30
0.0
 11
-1723.120046809309
 21
-2489.558008251852
 31
0.0
  0
LINE
  5
52A
330
1F
100
AcDbEntity
  8
LAYER0048
  6
CONTINUOUS
 62
     3
100
AcDbLine
 10
-1771.463712652411
 20
-2541.635197899622
 30
0.0
 11
-1719.386523004644
 21
-2489.558008251852
 31
0.0
  0
LINE
  5
52B
330
1F
100
AcDbEntity
  8
LAYER0048
  6
CONTINUOUS
 62
     3
100
AcDbLine
 10
-1772.262963185886
 20
-2546.167972237762
 30
0.0
 11
-1715.652999199979
 21
-2489.558008251852
 31
0.0
  0
LINE
  5
52C
330
1F
100
AcDbEntity
  8
LAYER0048
  6
CONTINUOUS
 62
     3
100
AcDbLine
 10
-1773.062213719361
 20
-2550.700746575901
 30
0.0
 11
-1714.479425618078
 21
-2492.117958474615
 31
0.0
  0
LINE
  5
52D
330
1F
100
AcDbEntity
  8
LAYER0048
  6
CONTINUOUS
 62
     3
100
AcDbLine
 10
-1773.861464252836
 20
-2555.233520914041
 30
0.0
 11
-1715.278680345605
 21
-2496.650737006808
 31
0.0
  0
LINE
  5
52E
330
1F
100
AcDbEntity
  8
LAYER0048
  6
CONTINUOUS
 62
     3
100
AcDbLine
 10
-1774.660714786311
 20
-2559.76629525218
 30
0.0
 11
-1716.077935073134
 21
-2501.183515539002
 31
0.0
  0
LINE
  5
52F
330
1F
100
AcDbEntity
  8
LAYER0048
  6
CONTINUOUS
 62
     3
100
AcDbLine
 10
-1775.459965319785
 20
-2564.29906959032
 30
0.0
 11
-1716.877189800661
 21
-2505.716294071195
 31
0.0
  0
LINE
  5
530
330
1F
100
AcDbEntity
  8
LAYER0048
  6
CONTINUOUS
 62
     3
100
AcDbLine
 10
-1776.25921585326
 20
-2568.83184392846
 30
0.0
 11
-1717.676444528189
 21
-2510.249072603388
 31
0.0
  0
LINE
  5
531
330
1F
100
AcDbEntity
  8
LAYER0048
  6
CONTINUOUS
 62
     3
100
AcDbLine
 10
-1777.058466386736
 20
-2573.3646182666
 30
0.0
 11
-1715.921277123985
 21
-2512.227429003851
 31
0.0
  0
LINE
  5
532
330
1F
100
AcDbEntity
  8
LAYER0048
  6
CONTINUOUS
 62
     3
100
AcDbLine
 10
-1777.85771692021
 20
-2577.897392604739
 30
0.0
 11
-1712.18775331932
 21
-2512.227429003851
 31
0.0
  0
LINE
  5
533
330
1F
100
AcDbEntity
  8
LAYER0048
  6
CONTINUOUS
 62
     3
100
AcDbLine
 10
-1778.656967453685
 20
-2582.430166942879
 30
0.0
 11
-1708.454229514655
 21
-2512.227429003851
 31
0.0
  0
LINE
  5
534
330
1F
100
AcDbEntity
  8
LAYER0048
  6
CONTINUOUS
 62
     3
100
AcDbLine
 10
-1779.45621798716
 20
-2586.962941281019
 30
0.0
 11
-1704.72070570999
 21
-2512.227429003851
 31
0.0
  0
LINE
  5
535
330
1F
100
AcDbEntity
  8
LAYER0048
  6
CONTINUOUS
 62
     3
100
AcDbLine
 10
-1780.255468520635
 20
-2591.495715619158
 30
0.0
 11
-1700.987181905326
 21
-2512.227429003851
 31
0.0
  0
LINE
  5
536
330
1F
100
AcDbEntity
  8
LAYER0048
  6
CONTINUOUS
 62
     3
100
AcDbLine
 10
-1721.013610580662
 20
-2535.987381483852
 30
0.0
 11
-1697.253658100661
 21
-2512.227429003851
 31
0.0
  0
LINE
  5
537
330
1F
100
AcDbEntity
  8
LAYER0048
  6
CONTINUOUS
 62
     3
100
AcDbLine
 10
-1781.054719054109
 20
-2596.028489957298
 30
0.0
 11
-1722.471953754629
 21
-2537.445724657819
 31
0.0
  0
LINE
  5
538
330
1F
100
AcDbEntity
  8
LAYER0048
  6
CONTINUOUS
 62
     3
100
AcDbLine
 10
-1717.280086775997
 20
-2535.987381483852
 30
0.0
 11
-1693.520134295996
 21
-2512.227429003851
 31
0.0
  0
LINE
  5
539
330
1F
100
AcDbEntity
  8
LAYER0048
  6
CONTINUOUS
 62
     3
100
AcDbLine
 10
-1781.853969587584
 20
-2600.561264295438
 30
0.0
 11
-1723.271204288104
 21
-2541.978498995958
 31
0.0
  0
LINE
  5
53A
330
1F
100
AcDbEntity
  8
LAYER0048
  6
CONTINUOUS
 62
     3
100
AcDbLine
 10
-1713.546562971332
 20
-2535.987381483852
 30
0.0
 11
-1689.786610491331
 21
-2512.227429003851
 31
0.0
  0
LINE
  5
53B
330
1F
100
AcDbEntity
  8
LAYER0048
  6
CONTINUOUS
 62
     3
100
AcDbLine
 10
-1782.653220121059
 20
-2605.094038633578
 30
0.0
 11
-1724.070454821579
 21
-2546.511273334099
 31
0.0
  0
LINE
  5
53C
330
1F
100
AcDbEntity
  8
LAYER0048
  6
CONTINUOUS
 62
     3
100
AcDbLine
 10
-1709.813039166668
 20
-2535.987381483852
 30
0.0
 11
-1686.053086686666
 21
-2512.227429003851
 31
0.0
  0
LINE
  5
53D
330
1F
100
AcDbEntity
  8
LAYER0048
  6
CONTINUOUS
 62
     3
100
AcDbLine
 10
-1783.452470654534
 20
-2609.626812971717
 30
0.0
 11
-1724.869705355054
 21
-2551.044047672239
 31
0.0
  0
LINE
  5
53E
330
1F
100
AcDbEntity
  8
LAYER0048
  6
CONTINUOUS
 62
     3
100
AcDbLine
 10
-1706.079515362002
 20
-2535.987381483852
 30
0.0
 11
-1682.319562882001
 21
-2512.227429003851
 31
0.0
  0
LINE
  5
53F
330
1F
100
AcDbEntity
  8
LAYER0048
  6
CONTINUOUS
 62
     3
100
AcDbLine
 10
-1784.251721188009
 20
-2614.159587309857
 30
0.0
 11
-1725.668955888529
 21
-2555.576822010378
 31
0.0
  0
LINE
  5
540
330
1F
100
AcDbEntity
  8
LAYER0048
  6
CONTINUOUS
 62
     3
100
AcDbLine
 10
-1702.345991557338
 20
-2535.987381483852
 30
0.0
 11
-1678.586039077336
 21
-2512.227429003851
 31
0.0
  0
LINE
  5
541
330
1F
100
AcDbEntity
  8
LAYER0048
  6
CONTINUOUS
 62
     3
100
AcDbLine
 10
-1785.050971721484
 20
-2618.692361647997
 30
0.0
 11
-1726.468206422004
 21
-2560.109596348518
 31
0.0
  0
LINE
  5
542
330
1F
100
AcDbEntity
  8
LAYER0048
  6
CONTINUOUS
 62
     3
100
AcDbLine
 10
-1698.612467752673
 20
-2535.987381483852
 30
0.0
 11
-1674.852515272672
 21
-2512.227429003851
 31
0.0
  0
LINE
  5
543
330
1F
100
AcDbEntity
  8
LAYER0048
  6
CONTINUOUS
 62
     3
100
AcDbLine
 10
-1785.850222254958
 20
-2623.225135986137
 30
0.0
 11
-1727.267456955479
 21
-2564.642370686658
 31
0.0
  0
LINE
  5
544
330
1F
100
AcDbEntity
  8
LAYER0048
  6
CONTINUOUS
 62
     3
100
AcDbLine
 10
-1694.878943948008
 20
-2535.987381483852
 30
0.0
 11
-1671.118991468006
 21
-2512.227429003851
 31
0.0
  0
LINE
  5
545
330
1F
100
AcDbEntity
  8
LAYER0048
  6
CONTINUOUS
 62
     3
100
AcDbLine
 10
-1786.649472788434
 20
-2627.757910324276
 30
0.0
 11
-1728.066707488953
 21
-2569.175145024797
 31
0.0
  0
LINE
  5
546
330
1F
100
AcDbEntity
  8
LAYER0048
  6
CONTINUOUS
 62
     3
100
AcDbLine
 10
-1691.145420143342
 20
-2535.987381483852
 30
0.0
 11
-1667.385467663342
 21
-2512.227429003851
 31
0.0
  0
LINE
  5
547
330
1F
100
AcDbEntity
  8
LAYER0048
  6
CONTINUOUS
 62
     3
100
AcDbLine
 10
-1787.275761791343
 20
-2632.117723131851
 30
0.0
 11
-1728.865958022428
 21
-2573.707919362937
 31
0.0
  0
LINE
  5
548
330
1F
100
AcDbEntity
  8
LAYER0048
  6
CONTINUOUS
 62
     3
100
AcDbLine
 10
-1687.411896338678
 20
-2535.987381483852
 30
0.0
 11
-1663.651943858677
 21
-2512.227429003851
 31
0.0
  0
LINE
  5
549
330
1F
100
AcDbEntity
  8
LAYER0048
  6
CONTINUOUS
 62
     3
100
AcDbLine
 10
-1783.542237986678
 20
-2632.117723131851
 30
0.0
 11
-1729.665208555903
 21
-2578.240693701077
 31
0.0
  0
LINE
  5
54A
330
1F
100
AcDbEntity
  8
LAYER0048
  6
CONTINUOUS
 62
     3
100
AcDbLine
 10
-1683.678372534013
 20
-2535.987381483852
 30
0.0
 11
-1659.918420054012
 21
-2512.227429003851
 31
0.0
  0
LINE
  5
54B
330
1F
100
AcDbEntity
  8
LAYER0048
  6
CONTINUOUS
 62
     3
100
AcDbLine
 10
-1779.808714182013
 20
-2632.117723131851
 30
0.0
 11
-1730.464459089377
 21
-2582.773468039217
 31
0.0
  0
LINE
  5
54C
330
1F
100
AcDbEntity
  8
LAYER0048
  6
CONTINUOUS
 62
     3
100
AcDbLine
 10
-1679.944848729348
 20
-2535.987381483852
 30
0.0
 11
-1656.184896249347
 21
-2512.227429003851
 31
0.0
  0
LINE
  5
54D
330
1F
100
AcDbEntity
  8
LAYER0048
  6
CONTINUOUS
 62
     3
100
AcDbLine
 10
-1776.075190377348
 20
-2632.117723131851
 30
0.0
 11
-1731.263709622853
 21
-2587.306242377356
 31
0.0
  0
LINE
  5
54E
330
1F
100
AcDbEntity
  8
LAYER0048
  6
CONTINUOUS
 62
     3
100
AcDbLine
 10
-1676.211324924683
 20
-2535.987381483852
 30
0.0
 11
-1652.451372444682
 21
-2512.227429003851
 31
0.0
  0
LINE
  5
54F
330
1F
100
AcDbEntity
  8
LAYER0048
  6
CONTINUOUS
 62
     3
100
AcDbLine
 10
-1772.341666572683
 20
-2632.117723131851
 30
0.0
 11
-1732.062960156327
 21
-2591.839016715496
 31
0.0
  0
LINE
  5
550
330
1F
100
AcDbEntity
  8
LAYER0048
  6
CONTINUOUS
 62
     3
100
AcDbLine
 10
-1672.477801120019
 20
-2535.987381483852
 30
0.0
 11
-1648.717848640017
 21
-2512.227429003851
 31
0.0
  0
LINE
  5
551
330
1F
100
AcDbEntity
  8
LAYER0048
  6
CONTINUOUS
 62
     3
100
AcDbLine
 10
-1768.608142768019
 20
-2632.117723131851
 30
0.0
 11
-1732.862210689802
 21
-2596.371791053636
 31
0.0
  0
LINE
  5
552
330
1F
100
AcDbEntity
  8
LAYER0048
  6
CONTINUOUS
 62
     3
100
AcDbLine
 10
-1668.744277315353
 20
-2535.987381483852
 30
0.0
 11
-1644.984324835352
 21
-2512.227429003851
 31
0.0
  0
LINE
  5
553
330
1F
100
AcDbEntity
  8
LAYER0048
  6
CONTINUOUS
 62
     3
100
AcDbLine
 10
-1764.874618963353
 20
-2632.117723131851
 30
0.0
 11
-1733.661461223277
 21
-2600.904565391775
 31
0.0
  0
LINE
  5
554
330
1F
100
AcDbEntity
  8
LAYER0048
  6
CONTINUOUS
 62
     3
100
AcDbLine
 10
-1665.010753510689
 20
-2535.987381483852
 30
0.0
 11
-1641.250801030688
 21
-2512.227429003851
 31
0.0
  0
LINE
  5
555
330
1F
100
AcDbEntity
  8
LAYER0048
  6
CONTINUOUS
 62
     3
100
AcDbLine
 10
-1761.141095158689
 20
-2632.117723131851
 30
0.0
 11
-1734.460711756752
 21
-2605.437339729915
 31
0.0
  0
LINE
  5
556
330
1F
100
AcDbEntity
  8
LAYER0048
  6
CONTINUOUS
 62
     3
100
AcDbLine
 10
-1661.277229706024
 20
-2535.987381483852
 30
0.0
 11
-1637.517277226023
 21
-2512.227429003851
 31
0.0
  0
LINE
  5
557
330
1F
100
AcDbEntity
  8
LAYER0048
  6
CONTINUOUS
 62
     3
100
AcDbLine
 10
-1707.757106265805
 20
-2582.467258043631
 30
0.0
 11
-1707.418490128425
 21
-2582.128641906252
 31
0.0
  0
LINE
  5
558
330
1F
100
AcDbEntity
  8
LAYER0048
  6
CONTINUOUS
 62
     3
100
AcDbLine
 10
-1757.407571354024
 20
-2632.117723131851
 30
0.0
 11
-1735.259962290227
 21
-2609.970114068054
 31
0.0
  0
LINE
  5
559
330
1F
100
AcDbEntity
  8
LAYER0048
  6
CONTINUOUS
 62
     3
100
AcDbLine
 10
-1657.543705901359
 20
-2535.987381483852
 30
0.0
 11
-1633.783753421358
 21
-2512.227429003851
 31
0.0
  0
LINE
  5
55A
330
1F
100
AcDbEntity
  8
LAYER0048
  6
CONTINUOUS
 62
     3
100
AcDbLine
 10
-1708.556357599589
 20
-2587.000033182082
 30
0.0
 11
-1703.684966323759
 21
-2582.128641906252
 31
0.0
  0
LINE
  5
55B
330
1F
100
AcDbEntity
  8
LAYER0048
  6
CONTINUOUS
 62
     3
100
AcDbLine
 10
-1753.674047549359
 20
-2632.117723131851
 30
0.0
 11
-1736.059212823701
 21
-2614.502888406194
 31
0.0
  0
LINE
  5
55C
330
1F
100
AcDbEntity
  8
LAYER0048
  6
CONTINUOUS
 62
     3
100
AcDbLine
 10
-1653.810182096694
 20
-2535.987381483852
 30
0.0
 11
-1630.050229616693
 21
-2512.227429003851
 31
0.0
  0
LINE
  5
55D
330
1F
100
AcDbEntity
  8
LAYER0048
  6
CONTINUOUS
 62
     3
100
AcDbLine
 10
-1709.355608933374
 20
-2591.532808320531
 30
0.0
 11
-1699.951442519095
 21
-2582.128641906252
 31
0.0
  0
LINE
  5
55E
330
1F
100
AcDbEntity
  8
LAYER0048
  6
CONTINUOUS
 62
     3
100
AcDbLine
 10
-1749.940523744694
 20
-2632.117723131851
 30
0.0
 11
-1736.858463357176
 21
-2619.035662744334
 31
0.0
  0
LINE
  5
55F
330
1F
100
AcDbEntity
  8
LAYER0048
  6
CONTINUOUS
 62
     3
100
AcDbLine
 10
-1650.076658292029
 20
-2535.987381483852
 30
0.0
 11
-1626.316705812028
 21
-2512.227429003851
 31
0.0
  0
LINE
  5
560
330
1F
100
AcDbEntity
  8
LAYER0048
  6
CONTINUOUS
 62
     3
100
AcDbLine
 10
-1710.154860267159
 20
-2596.065583458982
 30
0.0
 11
-1696.21791871443
 21
-2582.128641906252
 31
0.0
  0
LINE
  5
561
330
1F
100
AcDbEntity
  8
LAYER0048
  6
CONTINUOUS
 62
     3
100
AcDbLine
 10
-1746.206999940029
 20
-2632.117723131851
 30
0.0
 11
-1737.657713890651
 21
-2623.568437082474
 31
0.0
  0
LINE
  5
562
330
1F
100
AcDbEntity
  8
LAYER0048
  6
CONTINUOUS
 62
     3
100
AcDbLine
 10
-1646.343134487365
 20
-2535.987381483852
 30
0.0
 11
-1622.583182007363
 21
-2512.227429003851
 31
0.0
  0
LINE
  5
563
330
1F
100
AcDbEntity
  8
LAYER0048
  6
CONTINUOUS
 62
     3
100
AcDbLine
 10
-1710.954111600945
 20
-2600.598358597432
 30
0.0
 11
-1692.481014772314
 21
-2582.125261768801
 31
0.0
  0
LINE
  5
564
330
1F
100
AcDbEntity
  8
LAYER0048
  6
CONTINUOUS
 62
     3
100
AcDbLine
 10
-1742.473476135364
 20
-2632.117723131851
 30
0.0
 11
-1738.456964424126
 21
-2628.101211420613
 31
0.0
  0
LINE
  5
565
330
1F
100
AcDbEntity
  8
LAYER0048
  6
CONTINUOUS
 62
     3
100
AcDbLine
 10
-1645.339907486757
 20
-2538.71767828791
 30
0.0
 11
-1618.849658202698
 21
-2512.227429003851
 31
0.0
  0
LINE
  5
566
330
1F
100
AcDbEntity
  8
LAYER0048
  6
CONTINUOUS
 62
     3
100
AcDbLine
 10
-1711.753362934729
 20
-2605.131133735882
 30
0.0
 11
-1688.553351202579
 21
-2581.931122003731
 31
0.0
  0
LINE
  5
567
330
1F
100
AcDbEntity
  8
LAYER0048
  6
CONTINUOUS
 62
     3
100
AcDbLine
 10
-1646.143439709218
 20
-2543.254734315037
 30
0.0
 11
-1615.116134398033
 21
-2512.227429003851
 31
0.0
  0
LINE
  5
568
330
1F
100
AcDbEntity
  8
LAYER0048
  6
CONTINUOUS
 62
     3
100
AcDbLine
 10
-1708.777299780433
 20
-2605.888594386252
 30
0.0
 11
-1684.222342791273
 21
-2581.33363739709
 31
0.0
  0
LINE
  5
569
330
1F
100
AcDbEntity
  8
LAYER0048
  6
CONTINUOUS
 62
     3
100
AcDbLine
 10
-1647.326945773161
 20
-2548.171764183644
 30
0.0
 11
-1611.382610593368
 21
-2512.227429003851
 31
0.0
  0
LINE
  5
56A
330
1F
100
AcDbEntity
  8
LAYER0048
  6
CONTINUOUS
 62
     3
100
AcDbLine
 10
-1705.043775975769
 20
-2605.888594386252
 30
0.0
 11
-1679.305312922666
 21
-2580.150131333148
 31
0.0
  0
LINE
  5
56B
330
1F
100
AcDbEntity
  8
LAYER0048
  6
CONTINUOUS
 62
     3
100
AcDbLine
 10
-1649.539025580732
 20
-2554.117367795879
 30
0.0
 11
-1607.649086788703
 21
-2512.227429003851
 31
0.0
  0
LINE
  5
56C
330
1F
100
AcDbEntity
  8
LAYER0048
  6
CONTINUOUS
 62
     3
100
AcDbLine
 10
-1701.310252171104
 20
-2605.888594386252
 30
0.0
 11
-1673.35970931043
 21
-2577.938051525578
 31
0.0
  0
LINE
  5
56D
330
1F
100
AcDbEntity
  8
LAYER0048
  6
CONTINUOUS
 62
     3
100
AcDbLine
 10
-1654.990446393304
 20
-2563.302312413117
 30
0.0
 11
-1603.915562984039
 21
-2512.227429003851
 31
0.0
  0
LINE
  5
56E
330
1F
100
AcDbEntity
  8
LAYER0048
  6
CONTINUOUS
 62
     3
100
AcDbLine
 10
-1697.576728366439
 20
-2605.888594386252
 30
0.0
 11
-1664.174764693193
 21
-2572.486630713005
 31
0.0
  0
LINE
  5
56F
330
1F
100
AcDbEntity
  8
LAYER0048
  6
CONTINUOUS
 62
     3
100
AcDbLine
 10
-1693.843204561774
 20
-2605.888594386252
 30
0.0
 11
-1600.182039179374
 21
-2512.227429003851
 31
0.0
  0
LINE
  5
570
330
1F
100
AcDbEntity
  8
LAYER0048
  6
CONTINUOUS
 62
     3
100
AcDbLine
 10
-1690.109680757109
 20
-2605.888594386252
 30
0.0
 11
-1597.529149352932
 21
-2513.308062982076
 31
0.0
  0
LINE
  5
571
330
1F
100
AcDbEntity
  8
LAYER0048
  6
CONTINUOUS
 62
     3
100
AcDbLine
 10
-1686.376156952445
 20
-2605.888594386252
 30
0.0
 11
-1598.328393290562
 21
-2517.84083072437
 31
0.0
  0
LINE
  5
572
330
1F
100
AcDbEntity
  8
LAYER0048
  6
CONTINUOUS
 62
     3
100
AcDbLine
 10
-1682.642633147779
 20
-2605.888594386252
 30
0.0
 11
-1599.127637228191
 21
-2522.373598466664
 31
0.0
  0
LINE
  5
573
330
1F
100
AcDbEntity
  8
LAYER0048
  6
CONTINUOUS
 62
     3
100
AcDbLine
 10
-1678.909109343115
 20
-2605.888594386252
 30
0.0
 11
-1599.926881165821
 21
-2526.906366208958
 31
0.0
  0
LINE
  5
574
330
1F
100
AcDbEntity
  8
LAYER0048
  6
CONTINUOUS
 62
     3
100
AcDbLine
 10
-1675.17558553845
 20
-2605.888594386252
 30
0.0
 11
-1600.726125103449
 21
-2531.439133951253
 31
0.0
  0
LINE
  5
575
330
1F
100
AcDbEntity
  8
LAYER0048
  6
CONTINUOUS
 62
     3
100
AcDbLine
 10
-1671.442061733784
 20
-2605.888594386252
 30
0.0
 11
-1601.525369041079
 21
-2535.971901693547
 31
0.0
  0
LINE
  5
576
330
1F
100
AcDbEntity
  8
LAYER0048
  6
CONTINUOUS
 62
     3
100
AcDbLine
 10
-1667.70853792912
 20
-2605.888594386252
 30
0.0
 11
-1602.324612978709
 21
-2540.504669435841
 31
0.0
  0
LINE
  5
577
330
1F
100
AcDbEntity
  8
LAYER0048
  6
CONTINUOUS
 62
     3
100
AcDbLine
 10
-1663.975014124456
 20
-2605.888594386252
 30
0.0
 11
-1603.123856916338
 21
-2545.037437178135
 31
0.0
  0
LINE
  5
578
330
1F
100
AcDbEntity
  8
LAYER0048
  6
CONTINUOUS
 62
     3
100
AcDbLine
 10
-1660.220051404096
 20
-2605.867155470558
 30
0.0
 11
-1603.923100853967
 21
-2549.570204920429
 31
0.0
  0
LINE
  5
579
330
1F
100
AcDbEntity
  8
LAYER0048
  6
CONTINUOUS
 62
     3
100
AcDbLine
 10
-1656.243945595147
 20
-2605.624573466274
 30
0.0
 11
-1604.722344791596
 21
-2554.102972662723
 31
0.0
  0
LINE
  5
57A
330
1F
100
AcDbEntity
  8
LAYER0048
  6
CONTINUOUS
 62
     3
100
AcDbLine
 10
-1651.929808536896
 20
-2605.043960212688
 30
0.0
 11
-1605.521588729225
 21
-2558.635740405017
 31
0.0
  0
LINE
  5
57B
330
1F
100
AcDbEntity
  8
LAYER0048
  6
CONTINUOUS
 62
     3
100
AcDbLine
 10
-1647.151749793772
 20
-2603.999425274229
 30
0.0
 11
-1606.56759045288
 21
-2563.415265933337
 31
0.0
  0
LINE
  5
57C
330
1F
100
AcDbEntity
  8
LAYER0048
  6
CONTINUOUS
 62
     3
100
AcDbLine
 10
-1641.671042718941
 20
-2602.252242004063
 30
0.0
 11
-1608.314773723046
 21
-2568.895973008168
 31
0.0
  0
LINE
  5
57D
330
1F
100
AcDbEntity
  8
LAYER0048
  6
CONTINUOUS
 62
     3
100
AcDbLine
 10
-1634.860923096026
 20
-2599.175646185812
 30
0.0
 11
-1611.391369541298
 21
-2575.706092631084
 31
0.0
  0
LINE
  5
57E
330
1F
100
AcDbEntity
  8
LAYER0048
  6
CONTINUOUS
 62
     3
100
AcDbLine
 10
-1973.400587866348
 20
-2549.428835270978
 30
0.0
 11
-1972.92964204722
 21
-2548.957889451851
 31
0.0
  0
LINE
  5
57F
330
1F
100
AcDbEntity
  8
LAYER0048
  6
CONTINUOUS
 62
     3
100
AcDbLine
 10
-1974.310282936791
 20
-2554.072054146085
 30
0.0
 11
-1969.196118242555
 21
-2548.957889451851
 31
0.0
  0
LINE
  5
580
330
1F
100
AcDbEntity
  8
LAYER0048
  6
CONTINUOUS
 62
     3
100
AcDbLine
 10
-1975.219978007233
 20
-2558.715273021193
 30
0.0
 11
-1965.46259443789
 21
-2548.957889451851
 31
0.0
  0
LINE
  5
581
330
1F
100
AcDbEntity
  8
LAYER0048
  6
CONTINUOUS
 62
     3
100
AcDbLine
 10
-1976.129673077676
 20
-2563.358491896301
 30
0.0
 11
-1961.729070633225
 21
-2548.957889451851
 31
0.0
  0
LINE
  5
582
330
1F
100
AcDbEntity
  8
LAYER0048
  6
CONTINUOUS
 62
     3
100
AcDbLine
 10
-1977.039368148118
 20
-2568.001710771407
 30
0.0
 11
-1957.995546828561
 21
-2548.957889451851
 31
0.0
  0
LINE
  5
583
330
1F
100
AcDbEntity
  8
LAYER0048
  6
CONTINUOUS
 62
     3
100
AcDbLine
 10
-1975.645980255896
 20
-2570.341846683852
 30
0.0
 11
-1954.262023023896
 21
-2548.957889451851
 31
0.0
  0
LINE
  5
584
330
1F
100
AcDbEntity
  8
LAYER0048
  6
CONTINUOUS
 62
     3
100
AcDbLine
 10
-1971.912456451231
 20
-2570.341846683852
 30
0.0
 11
-1950.528499219231
 21
-2548.957889451851
 31
0.0
  0
LINE
  5
585
330
1F
100
AcDbEntity
  8
LAYER0048
  6
CONTINUOUS
 62
     3
100
AcDbLine
 10
-1968.178932646566
 20
-2570.341846683852
 30
0.0
 11
-1946.794975414566
 21
-2548.957889451851
 31
0.0
  0
LINE
  5
586
330
1F
100
AcDbEntity
  8
LAYER0048
  6
CONTINUOUS
 62
     3
100
AcDbLine
 10
-1964.445408841902
 20
-2570.341846683852
 30
0.0
 11
-1943.061451609901
 21
-2548.957889451851
 31
0.0
  0
LINE
  5
587
330
1F
100
AcDbEntity
  8
LAYER0048
  6
CONTINUOUS
 62
     3
100
AcDbLine
 10
-1960.711885037237
 20
-2570.341846683852
 30
0.0
 11
-1939.327927805236
 21
-2548.957889451851
 31
0.0
  0
LINE
  5
588
330
1F
100
AcDbEntity
  8
LAYER0048
  6
CONTINUOUS
 62
     3
100
AcDbLine
 10
-1956.978361232572
 20
-2570.341846683852
 30
0.0
 11
-1935.594404000572
 21
-2548.957889451851
 31
0.0
  0
LINE
  5
589
330
1F
100
AcDbEntity
  8
LAYER0048
  6
CONTINUOUS
 62
     3
100
AcDbLine
 10
-1953.244837427907
 20
-2570.341846683852
 30
0.0
 11
-1931.860880195906
 21
-2548.957889451851
 31
0.0
  0
LINE
  5
58A
330
1F
100
AcDbEntity
  8
LAYER0048
  6
CONTINUOUS
 62
     3
100
AcDbLine
 10
-1949.511313623242
 20
-2570.341846683852
 30
0.0
 11
-1928.127356391242
 21
-2548.957889451851
 31
0.0
  0
LINE
  5
58B
330
1F
100
AcDbEntity
  8
LAYER0048
  6
CONTINUOUS
 62
     3
100
AcDbLine
 10
-1945.777789818577
 20
-2570.341846683852
 30
0.0
 11
-1924.393832586577
 21
-2548.957889451851
 31
0.0
  0
LINE
  5
58C
330
1F
100
AcDbEntity
  8
LAYER0048
  6
CONTINUOUS
 62
     3
100
AcDbLine
 10
-1942.044266013913
 20
-2570.341846683852
 30
0.0
 11
-1920.658921960095
 21
-2548.956502630034
 31
0.0
  0
LINE
  5
58D
330
1F
100
AcDbEntity
  8
LAYER0048
  6
CONTINUOUS
 62
     3
100
AcDbLine
 10
-1938.310742209247
 20
-2570.341846683852
 30
0.0
 11
-1916.783420777931
 21
-2548.814525252535
 31
0.0
  0
LINE
  5
58E
330
1F
100
AcDbEntity
  8
LAYER0048
  6
CONTINUOUS
 62
     3
100
AcDbLine
 10
-1856.317726816104
 20
-2492.082355095373
 30
0.0
 11
-1853.793379972581
 21
-2489.558008251852
 31
0.0
  0
LINE
  5
58F
330
1F
100
AcDbEntity
  8
LAYER0048
  6
CONTINUOUS
 62
     3
100
AcDbLine
 10
-1934.577218404583
 20
-2570.341846683852
 30
0.0
 11
-1912.595551711434
 21
-2548.360179990703
 31
0.0
  0
LINE
  5
590
330
1F
100
AcDbEntity
  8
LAYER0048
  6
CONTINUOUS
 62
     3
100
AcDbLine
 10
-1860.577806047087
 20
-2500.075958131022
 30
0.0
 11
-1850.059856167916
 21
-2489.558008251852
 31
0.0
  0
LINE
  5
591
330
1F
100
AcDbEntity
  8
LAYER0048
  6
CONTINUOUS
 62
     3
100
AcDbLine
 10
-1930.843694599918
 20
-2570.341846683852
 30
0.0
 11
-1908.000487960782
 21
-2547.498640044717
 31
0.0
  0
LINE
  5
592
330
1F
100
AcDbEntity
  8
LAYER0048
  6
CONTINUOUS
 62
     3
100
AcDbLine
 10
-1864.83788527807
 20
-2508.06956116667
 30
0.0
 11
-1846.326332363251
 21
-2489.558008251852
 31
0.0
  0
LINE
  5
593
330
1F
100
AcDbEntity
  8
LAYER0048
  6
CONTINUOUS
 62
     3
100
AcDbLine
 10
-1927.110170795252
 20
-2570.341846683852
 30
0.0
 11
-1902.803912684328
 21
-2546.035588572928
 31
0.0
  0
LINE
  5
594
330
1F
100
AcDbEntity
  8
LAYER0048
  6
CONTINUOUS
 62
     3
100
AcDbLine
 10
-1869.097964509053
 20
-2516.063164202318
 30
0.0
 11
-1842.592808558587
 21
-2489.558008251852
 31
0.0
  0
LINE
  5
595
330
1F
100
AcDbEntity
  8
LAYER0048
  6
CONTINUOUS
 62
     3
100
AcDbLine
 10
-1923.376646990588
 20
-2570.341846683852
 30
0.0
 11
-1896.587522344443
 21
-2543.552722037707
 31
0.0
  0
LINE
  5
596
330
1F
100
AcDbEntity
  8
LAYER0048
  6
CONTINUOUS
 62
     3
100
AcDbLine
 10
-1874.514033653198
 20
-2525.212757151128
 30
0.0
 11
-1838.859284753921
 21
-2489.558008251852
 31
0.0
  0
LINE
  5
597
330
1F
100
AcDbEntity
  8
LAYER0048
  6
CONTINUOUS
 62
     3
100
AcDbLine
 10
-1919.643123185923
 20
-2570.341846683852
 30
0.0
 11
-1887.53908234878
 21
-2538.23780584671
 31
0.0
  0
LINE
  5
598
330
1F
100
AcDbEntity
  8
LAYER0048
  6
CONTINUOUS
 62
     3
100
AcDbLine
 10
-1919.76498522411
 20
-2574.197232526705
 30
0.0
 11
-1835.125760949257
 21
-2489.558008251852
 31
0.0
  0
LINE
  5
599
330
1F
100
AcDbEntity
  8
LAYER0048
  6
CONTINUOUS
 62
     3
100
AcDbLine
 10
-1920.564236557896
 20
-2578.730007665155
 30
0.0
 11
-1831.392237144592
 21
-2489.558008251852
 31
0.0
  0
LINE
  5
59A
330
1F
100
AcDbEntity
  8
LAYER0048
  6
CONTINUOUS
 62
     3
100
AcDbLine
 10
-1921.363487891681
 20
-2583.262782803605
 30
0.0
 11
-1827.658713339927
 21
-2489.558008251852
 31
0.0
  0
LINE
  5
59B
330
1F
100
AcDbEntity
  8
LAYER0048
  6
CONTINUOUS
 62
     3
100
AcDbLine
 10
-1922.162739225466
 20
-2587.795557942055
 30
0.0
 11
-1823.925189535262
 21
-2489.558008251852
 31
0.0
  0
LINE
  5
59C
330
1F
100
AcDbEntity
  8
LAYER0048
  6
CONTINUOUS
 62
     3
100
AcDbLine
 10
-1922.961990559251
 20
-2592.328333080505
 30
0.0
 11
-1820.191665730597
 21
-2489.558008251852
 31
0.0
  0
LINE
  5
59D
330
1F
100
AcDbEntity
  8
LAYER0048
  6
CONTINUOUS
 62
     3
100
AcDbLine
 10
-1923.761241893036
 20
-2596.861108218955
 30
0.0
 11
-1816.458141925932
 21
-2489.558008251852
 31
0.0
  0
LINE
  5
59E
330
1F
100
AcDbEntity
  8
LAYER0048
  6
CONTINUOUS
 62
     3
100
AcDbLine
 10
-1924.560493226821
 20
-2601.393883357406
 30
0.0
 11
-1812.724618121267
 21
-2489.558008251852
 31
0.0
  0
LINE
  5
59F
330
1F
100
AcDbEntity
  8
LAYER0048
  6
CONTINUOUS
 62
     3
100
AcDbLine
 10
-1925.359744560607
 20
-2605.926658495855
 30
0.0
 11
-1808.991094316603
 21
-2489.558008251852
 31
0.0
  0
LINE
  5
5A0
330
1F
100
AcDbEntity
  8
LAYER0048
  6
CONTINUOUS
 62
     3
100
AcDbLine
 10
-1926.158995894391
 20
-2610.459433634306
 30
0.0
 11
-1805.257570511938
 21
-2489.558008251852
 31
0.0
  0
LINE
  5
5A1
330
1F
100
AcDbEntity
  8
LAYER0048
  6
CONTINUOUS
 62
     3
100
AcDbLine
 10
-1926.958247228176
 20
-2614.992208772756
 30
0.0
 11
-1801.524046707273
 21
-2489.558008251852
 31
0.0
  0
LINE
  5
5A2
330
1F
100
AcDbEntity
  8
LAYER0048
  6
CONTINUOUS
 62
     3
100
AcDbLine
 10
-1927.757498561962
 20
-2619.524983911206
 30
0.0
 11
-1797.790522902608
 21
-2489.558008251852
 31
0.0
  0
LINE
  5
5A3
330
1F
100
AcDbEntity
  8
LAYER0048
  6
CONTINUOUS
 62
     3
100
AcDbLine
 10
-1928.556749895747
 20
-2624.057759049656
 30
0.0
 11
-1794.056999097943
 21
-2489.558008251852
 31
0.0
  0
LINE
  5
5A4
330
1F
100
AcDbEntity
  8
LAYER0048
  6
CONTINUOUS
 62
     3
100
AcDbLine
 10
-1871.107313725278
 20
-2570.341846683852
 30
0.0
 11
-1790.323475293278
 21
-2489.558008251852
 31
0.0
  0
LINE
  5
5A5
330
1F
100
AcDbEntity
  8
LAYER0048
  6
CONTINUOUS
 62
     3
100
AcDbLine
 10
-1929.356001229532
 20
-2628.590534188106
 30
0.0
 11
-1871.663307931299
 21
-2570.897840889872
 31
0.0
  0
LINE
  5
5A6
330
1F
100
AcDbEntity
  8
LAYER0048
  6
CONTINUOUS
 62
     3
100
AcDbLine
 10
-1867.266344419259
 20
-2570.234401182497
 30
0.0
 11
-1789.640998495565
 21
-2492.609055258803
 31
0.0
  0
LINE
  5
5A7
330
1F
100
AcDbEntity
  8
LAYER0048
  6
CONTINUOUS
 62
     3
100
AcDbLine
 10
-1929.149666368612
 20
-2632.117723131851
 30
0.0
 11
-1872.462559265083
 21
-2575.430616028322
 31
0.0
  0
LINE
  5
5A8
330
1F
100
AcDbEntity
  8
LAYER0048
  6
CONTINUOUS
 62
     3
100
AcDbLine
 10
-1863.062892263692
 20
-2569.764472831596
 30
0.0
 11
-1799.660358423949
 21
-2506.361938991853
 31
0.0
  0
LINE
  5
5A9
330
1F
100
AcDbEntity
  8
LAYER0048
  6
CONTINUOUS
 62
     3
100
AcDbLine
 10
-1925.416142563947
 20
-2632.117723131851
 30
0.0
 11
-1873.261810598868
 21
-2579.963391166772
 31
0.0
  0
LINE
  5
5AA
330
1F
100
AcDbEntity
  8
LAYER0048
  6
CONTINUOUS
 62
     3
100
AcDbLine
 10
-1858.336833821443
 20
-2568.771938194012
 30
0.0
 11
-1809.679718352333
 21
-2520.114822724902
 31
0.0
  0
LINE
  5
5AB
330
1F
100
AcDbEntity
  8
LAYER0048
  6
CONTINUOUS
 62
     3
100
AcDbLine
 10
-1921.682618759282
 20
-2632.117723131851
 30
0.0
 11
-1874.061061932653
 21
-2584.496166305222
 31
0.0
  0
LINE
  5
5AC
330
1F
100
AcDbEntity
  8
LAYER0048
  6
CONTINUOUS
 62
     3
100
AcDbLine
 10
-1852.757836092078
 20
-2566.926464269312
 30
0.0
 11
-1819.699078280717
 21
-2533.867706457951
 31
0.0
  0
LINE
  5
5AD
330
1F
100
AcDbEntity
  8
LAYER0048
  6
CONTINUOUS
 62
     3
100
AcDbLine
 10
-1917.949094954617
 20
-2632.117723131851
 30
0.0
 11
-1874.860313266438
 21
-2589.028941443672
 31
0.0
  0
LINE
  5
5AE
330
1F
100
AcDbEntity
  8
LAYER0048
  6
CONTINUOUS
 62
     3
100
AcDbLine
 10
-1845.140629735342
 20
-2563.042781717241
 30
0.0
 11
-1829.718438209102
 21
-2547.620590191001
 31
0.0
  0
LINE
  5
5AF
330
1F
100
AcDbEntity
  8
LAYER0048
  6
CONTINUOUS
 62
     3
100
AcDbLine
 10
-1914.215571149952
 20
-2632.117723131851
 30
0.0
 11
-1875.659564600223
 21
-2593.561716582122
 31
0.0
  0
LINE
  5
5B0
330
1F
100
AcDbEntity
  8
LAYER0048
  6
CONTINUOUS
 62
     3
100
AcDbLine
 10
-1910.482047345288
 20
-2632.117723131851
 30
0.0
 11
-1876.458815934008
 21
-2598.094491720572
 31
0.0
  0
LINE
  5
5B1
330
1F
100
AcDbEntity
  8
LAYER0048
  6
CONTINUOUS
 62
     3
100
AcDbLine
 10
-1906.748523540623
 20
-2632.117723131851
 30
0.0
 11
-1877.258067267793
 21
-2602.627266859022
 31
0.0
  0
LINE
  5
5B2
330
1F
100
AcDbEntity
  8
LAYER0048
  6
CONTINUOUS
 62
     3
100
AcDbLine
 10
-1903.014999735958
 20
-2632.117723131851
 30
0.0
 11
-1878.057318601578
 21
-2607.160041997472
 31
0.0
  0
LINE
  5
5B3
330
1F
100
AcDbEntity
  8
LAYER0048
  6
CONTINUOUS
 62
     3
100
AcDbLine
 10
-1899.281475931293
 20
-2632.117723131851
 30
0.0
 11
-1878.856569935363
 21
-2611.692817135921
 31
0.0
  0
LINE
  5
5B4
330
1F
100
AcDbEntity
  8
LAYER0048
  6
CONTINUOUS
 62
     3
100
AcDbLine
 10
-1895.547952126628
 20
-2632.117723131851
 30
0.0
 11
-1879.655821269148
 21
-2616.225592274372
 31
0.0
  0
LINE
  5
5B5
330
1F
100
AcDbEntity
  8
LAYER0048
  6
CONTINUOUS
 62
     3
100
AcDbLine
 10
-1891.814428321963
 20
-2632.117723131851
 30
0.0
 11
-1880.455072602932
 21
-2620.758367412821
 31
0.0
  0
LINE
  5
5B6
330
1F
100
AcDbEntity
  8
LAYER0048
  6
CONTINUOUS
 62
     3
100
AcDbLine
 10
-1888.080904517298
 20
-2632.117723131851
 30
0.0
 11
-1881.254323936718
 21
-2625.291142551272
 31
0.0
  0
LINE
  5
5B7
330
1F
100
AcDbEntity
  8
LAYER0048
  6
CONTINUOUS
 62
     3
100
AcDbLine
 10
-1884.347380712633
 20
-2632.117723131851
 30
0.0
 11
-1882.053575270503
 21
-2629.823917689721
 31
0.0
  0
LINE
  5
5B8
330
1F
100
AcDbEntity
  8
LAYER0048
  6
CONTINUOUS
 62
     3
100
AcDbLine
 10
-1938.634144367097
 20
-2491.620677529742
 30
0.0
 11
-1936.571475089208
 21
-2489.558008251852
 31
0.0
  0
LINE
  5
5B9
330
1F
100
AcDbEntity
  8
LAYER0048
  6
CONTINUOUS
 62
     3
100
AcDbLine
 10
-1939.433395700881
 20
-2496.153452668192
 30
0.0
 11
-1932.837951284543
 21
-2489.558008251852
 31
0.0
  0
LINE
  5
5BA
330
1F
100
AcDbEntity
  8
LAYER0048
  6
CONTINUOUS
 62
     3
100
AcDbLine
 10
-1940.232647034667
 20
-2500.686227806642
 30
0.0
 11
-1929.104427479878
 21
-2489.558008251852
 31
0.0
  0
LINE
  5
5BB
330
1F
100
AcDbEntity
  8
LAYER0048
  6
CONTINUOUS
 62
     3
100
AcDbLine
 10
-1941.031898368452
 20
-2505.219002945091
 30
0.0
 11
-1929.315313931927
 21
-2493.502418508567
 31
0.0
  0
LINE
  5
5BC
330
1F
100
AcDbEntity
  8
LAYER0048
  6
CONTINUOUS
 62
     3
100
AcDbLine
 10
-1941.831149702237
 20
-2509.751778083542
 30
0.0
 11
-1930.114565265713
 21
-2498.035193647017
 31
0.0
  0
LINE
  5
5BD
330
1F
100
AcDbEntity
  8
LAYER0048
  6
CONTINUOUS
 62
     3
100
AcDbLine
 10
-1941.663808545883
 20
-2513.317960731852
 30
0.0
 11
-1930.913816599497
 21
-2502.567968785467
 31
0.0
  0
LINE
  5
5BE
330
1F
100
AcDbEntity
  8
LAYER0048
  6
CONTINUOUS
 62
     3
100
AcDbLine
 10
-1937.930284741217
 20
-2513.317960731852
 30
0.0
 11
-1931.713067933282
 21
-2507.100743923917
 31
0.0
  0
LINE
  5
5BF
330
1F
100
AcDbEntity
  8
LAYER0048
  6
CONTINUOUS
 62
     3
100
AcDbLine
 10
-1934.196760936552
 20
-2513.317960731852
 30
0.0
 11
-1932.512319267067
 21
-2511.633519062367
 31
0.0
  0
LINE
  5
5C0
330
1F
100
AcDbEntity
  8
LAYER0048
  6
CONTINUOUS
 62
     3
100
AcDbLine
 10
-1963.235876340256
 20
-2492.274790479576
 30
0.0
 11
-1960.519094112532
 21
-2489.558008251852
 31
0.0
  0
LINE
  5
5C1
330
1F
100
AcDbEntity
  8
LAYER0048
  6
CONTINUOUS
 62
     3
100
AcDbLine
 10
-1964.03512767404
 20
-2496.807565618025
 30
0.0
 11
-1956.785570307868
 21
-2489.558008251852
 31
0.0
  0
LINE
  5
5C2
330
1F
100
AcDbEntity
  8
LAYER0048
  6
CONTINUOUS
 62
     3
100
AcDbLine
 10
-1964.834379007825
 20
-2501.340340756475
 30
0.0
 11
-1953.117794571299
 21
-2489.623756319948
 31
0.0
  0
LINE
  5
5C3
330
1F
100
AcDbEntity
  8
LAYER0048
  6
CONTINUOUS
 62
     3
100
AcDbLine
 10
-1965.63363034161
 20
-2505.873115894925
 30
0.0
 11
-1953.917045905084
 21
-2494.156531458399
 31
0.0
  0
LINE
  5
5C4
330
1F
100
AcDbEntity
  8
LAYER0048
  6
CONTINUOUS
 62
     3
100
AcDbLine
 10
-1966.432881675395
 20
-2510.405891033375
 30
0.0
 11
-1954.716297238869
 21
-2498.689306596848
 31
0.0
  0
LINE
  5
5C5
330
1F
100
AcDbEntity
  8
LAYER0048
  6
CONTINUOUS
 62
     3
100
AcDbLine
 10
-1965.611427569207
 20
-2513.317960731852
 30
0.0
 11
-1955.515548572654
 21
-2503.222081735299
 31
0.0
  0
LINE
  5
5C6
330
1F
100
AcDbEntity
  8
LAYER0048
  6
CONTINUOUS
 62
     3
100
AcDbLine
 10
-1961.877903764542
 20
-2513.317960731852
 30
0.0
 11
-1956.314799906438
 21
-2507.754856873749
 31
0.0
  0
LINE
  5
5C7
330
1F
100
AcDbEntity
  8
LAYER0048
  6
CONTINUOUS
 62
     3
100
AcDbLine
 10
-1958.144379959878
 20
-2513.317960731852
 30
0.0
 11
-1957.114051240223
 21
-2512.287632012198
 31
0.0
  0
LINE
  5
5C8
330
1F
100
AcDbEntity
  8
LAYER0048
  6
CONTINUOUS
 62
     3
100
AcDbLine
 10
-2105.801588764857
 20
-2491.420122131573
 30
0.0
 11
-2103.939474885132
 21
-2489.558008251852
 31
0.0
  0
LINE
  5
5C9
330
1F
100
AcDbEntity
  8
LAYER0048
  6
CONTINUOUS
 62
     3
100
AcDbLine
 10
-2105.94228839988
 20
-2495.294345571261
 30
0.0
 11
-2100.205951080468
 21
-2489.558008251852
 31
0.0
  0
LINE
  5
5CA
330
1F
100
AcDbEntity
  8
LAYER0048
  6
CONTINUOUS
 62
     3
100
AcDbLine
 10
-2106.462235044907
 20
-2499.547816020953
 30
0.0
 11
-2096.472427275803
 21
-2489.558008251852
 31
0.0
  0
LINE
  5
5CB
330
1F
100
AcDbEntity
  8
LAYER0048
  6
CONTINUOUS
 62
     3
100
AcDbLine
 10
-2107.527710110928
 20
-2504.346814891639
 30
0.0
 11
-2092.738903471138
 21
-2489.558008251852
 31
0.0
  0
LINE
  5
5CC
330
1F
100
AcDbEntity
  8
LAYER0048
  6
CONTINUOUS
 62
     3
100
AcDbLine
 10
-2109.509994083272
 20
-2510.062622668648
 30
0.0
 11
-2089.005379666473
 21
-2489.558008251852
 31
0.0
  0
LINE
  5
5CD
330
1F
100
AcDbEntity
  8
LAYER0048
  6
CONTINUOUS
 62
     3
100
AcDbLine
 10
-2113.880539833376
 20
-2518.166692223417
 30
0.0
 11
-2085.271855861808
 21
-2489.558008251852
 31
0.0
  0
LINE
  5
5CE
330
1F
100
AcDbEntity
  8
LAYER0048
  6
CONTINUOUS
 62
     3
100
AcDbLine
 10
-2135.575221993415
 20
-2551.061945797452
 30
0.0
 11
-2074.071284447814
 21
-2489.558008251852
 31
0.0
  0
LINE
  5
5CF
330
1F
100
AcDbEntity
  8
LAYER0048
  6
CONTINUOUS
 62
     3
100
AcDbLine
 10
-2131.84169818875
 20
-2551.061945797452
 30
0.0
 11
-2070.337760643149
 21
-2489.558008251852
 31
0.0
  0
LINE
  5
5D0
330
1F
100
AcDbEntity
  8
LAYER0048
  6
CONTINUOUS
 62
     3
100
AcDbLine
 10
-2128.108174384085
 20
-2551.061945797452
 30
0.0
 11
-2066.604236838483
 21
-2489.558008251852
 31
0.0
  0
LINE
  5
5D1
330
1F
100
AcDbEntity
  8
LAYER0048
  6
CONTINUOUS
 62
     3
100
AcDbLine
 10
-2124.374650579421
 20
-2551.061945797452
 30
0.0
 11
-2062.870713033819
 21
-2489.558008251852
 31
0.0
  0
LINE
  5
5D2
330
1F
100
AcDbEntity
  8
LAYER0048
  6
CONTINUOUS
 62
     3
100
AcDbLine
 10
-2120.641126774756
 20
-2551.061945797452
 30
0.0
 11
-2059.137189229154
 21
-2489.558008251852
 31
0.0
  0
LINE
  5
5D3
330
1F
100
AcDbEntity
  8
LAYER0048
  6
CONTINUOUS
 62
     3
100
AcDbLine
 10
-2116.804311493448
 20
-2550.958654320808
 30
0.0
 11
-2055.403665424489
 21
-2489.558008251852
 31
0.0
  0
LINE
  5
5D4
330
1F
100
AcDbEntity
  8
LAYER0048
  6
CONTINUOUS
 62
     3
100
AcDbLine
 10
-2112.644753699053
 20
-2550.532620331078
 30
0.0
 11
-2051.670141619824
 21
-2489.558008251852
 31
0.0
  0
LINE
  5
5D5
330
1F
100
AcDbEntity
  8
LAYER0048
  6
CONTINUOUS
 62
     3
100
AcDbLine
 10
-2108.03824130567
 20
-2549.65963174236
 30
0.0
 11
-2047.93661781516
 21
-2489.558008251852
 31
0.0
  0
LINE
  5
5D6
330
1F
100
AcDbEntity
  8
LAYER0048
  6
CONTINUOUS
 62
     3
100
AcDbLine
 10
-2067.963046490495
 20
-2513.317960731852
 30
0.0
 11
-2044.203094010494
 21
-2489.558008251852
 31
0.0
  0
LINE
  5
5D7
330
1F
100
AcDbEntity
  8
LAYER0048
  6
CONTINUOUS
 62
     3
100
AcDbLine
 10
-2102.760324533861
 20
-2548.115238775216
 30
0.0
 11
-2070.732371819093
 21
-2516.08728606045
 31
0.0
  0
LINE
  5
5D8
330
1F
100
AcDbEntity
  8
LAYER0048
  6
CONTINUOUS
 62
     3
100
AcDbLine
 10
-2064.229522685831
 20
-2513.317960731852
 30
0.0
 11
-2040.469570205829
 21
-2489.558008251852
 31
0.0
  0
LINE
  5
5D9
330
1F
100
AcDbEntity
  8
LAYER0048
  6
CONTINUOUS
 62
     3
100
AcDbLine
 10
-2096.221483500674
 20
-2545.309921546695
 30
0.0
 11
-2073.537689047615
 21
-2522.626127093635
 31
0.0
  0
LINE
  5
5DA
330
1F
100
AcDbEntity
  8
LAYER0048
  6
CONTINUOUS
 62
     3
100
AcDbLine
 10
-2060.495998881166
 20
-2513.317960731852
 30
0.0
 11
-2036.736046401165
 21
-2489.558008251852
 31
0.0
  0
LINE
  5
5DB
330
1F
100
AcDbEntity
  8
LAYER0048
  6
CONTINUOUS
 62
     3
100
AcDbLine
 10
-2056.762475076501
 20
-2513.317960731852
 30
0.0
 11
-2033.0025225965
 21
-2489.558008251852
 31
0.0
  0
LINE
  5
5DC
330
1F
100
AcDbEntity
  8
LAYER0048
  6
CONTINUOUS
 62
     3
100
AcDbLine
 10
-2053.028951271836
 20
-2513.317960731852
 30
0.0
 11
-2029.268998791835
 21
-2489.558008251852
 31
0.0
  0
LINE
  5
5DD
330
1F
100
AcDbEntity
  8
LAYER0048
  6
CONTINUOUS
 62
     3
100
AcDbLine
 10
-2049.295427467171
 20
-2513.317960731852
 30
0.0
 11
-2025.53547498717
 21
-2489.558008251852
 31
0.0
  0
LINE
  5
5DE
330
1F
100
AcDbEntity
  8
LAYER0048
  6
CONTINUOUS
 62
     3
100
AcDbLine
 10
-2045.561903662506
 20
-2513.317960731852
 30
0.0
 11
-2021.801951182506
 21
-2489.558008251852
 31
0.0
  0
LINE
  5
5DF
330
1F
100
AcDbEntity
  8
LAYER0048
  6
CONTINUOUS
 62
     3
100
AcDbLine
 10
-2074.56632751372
 20
-2542.322384583066
 30
0.0
 11
-2074.073846638506
 21
-2541.829903707852
 31
0.0
  0
LINE
  5
5E0
330
1F
100
AcDbEntity
  8
LAYER0048
  6
CONTINUOUS
 62
     3
100
AcDbLine
 10
-2041.828379857841
 20
-2513.317960731852
 30
0.0
 11
-2018.06842737784
 21
-2489.558008251852
 31
0.0
  0
LINE
  5
5E1
330
1F
100
AcDbEntity
  8
LAYER0048
  6
CONTINUOUS
 62
     3
100
AcDbLine
 10
-2075.365578847505
 20
-2546.855159721516
 30
0.0
 11
-2070.340322833841
 21
-2541.829903707852
 31
0.0
  0
LINE
  5
5E2
330
1F
100
AcDbEntity
  8
LAYER0048
  6
CONTINUOUS
 62
     3
100
AcDbLine
 10
-2038.094856053176
 20
-2513.317960731852
 30
0.0
 11
-2014.334903573176
 21
-2489.558008251852
 31
0.0
  0
LINE
  5
5E3
330
1F
100
AcDbEntity
  8
LAYER0048
  6
CONTINUOUS
 62
     3
100
AcDbLine
 10
-2076.16483018129
 20
-2551.387934859966
 30
0.0
 11
-2066.606799029176
 21
-2541.829903707852
 31
0.0
  0
LINE
  5
5E4
330
1F
100
AcDbEntity
  8
LAYER0048
  6
CONTINUOUS
 62
     3
100
AcDbLine
 10
-2034.361332248512
 20
-2513.317960731852
 30
0.0
 11
-2010.601379768511
 21
-2489.558008251852
 31
0.0
  0
LINE
  5
5E5
330
1F
100
AcDbEntity
  8
LAYER0048
  6
CONTINUOUS
 62
     3
100
AcDbLine
 10
-2076.964081515076
 20
-2555.920709998416
 30
0.0
 11
-2062.873275224511
 21
-2541.829903707852
 31
0.0
  0
LINE
  5
5E6
330
1F
100
AcDbEntity
  8
LAYER0048
  6
CONTINUOUS
 62
     3
100
AcDbLine
 10
-2030.627808443847
 20
-2513.317960731852
 30
0.0
 11
-2006.867855963846
 21
-2489.558008251852
 31
0.0
  0
LINE
  5
5E7
330
1F
100
AcDbEntity
  8
LAYER0048
  6
CONTINUOUS
 62
     3
100
AcDbLine
 10
-2077.763332848861
 20
-2560.453485136865
 30
0.0
 11
-2059.139751419847
 21
-2541.829903707852
 31
0.0
  0
LINE
  5
5E8
330
1F
100
AcDbEntity
  8
LAYER0048
  6
CONTINUOUS
 62
     3
100
AcDbLine
 10
-2030.59236261989
 20
-2517.01603871256
 30
0.0
 11
-2003.134332159181
 21
-2489.558008251852
 31
0.0
  0
LINE
  5
5E9
330
1F
100
AcDbEntity
  8
LAYER0048
  6
CONTINUOUS
 62
     3
100
AcDbLine
 10
-2074.41418959918
 20
-2560.837865691852
 30
0.0
 11
-2055.406227615181
 21
-2541.829903707852
 31
0.0
  0
LINE
  5
5EA
330
1F
100
AcDbEntity
  8
LAYER0048
  6
CONTINUOUS
 62
     3
100
AcDbLine
 10
-2031.391613953675
 20
-2521.54881385101
 30
0.0
 11
-1999.400808354516
 21
-2489.558008251852
 31
0.0
  0
LINE
  5
5EB
330
1F
100
AcDbEntity
  8
LAYER0048
  6
CONTINUOUS
 62
     3
100
AcDbLine
 10
-2070.680665794515
 20
-2560.837865691852
 30
0.0
 11
-2051.672703810517
 21
-2541.829903707852
 31
0.0
  0
LINE
  5
5EC
330
1F
100
AcDbEntity
  8
LAYER0048
  6
CONTINUOUS
 62
     3
100
AcDbLine
 10
-2032.190865287459
 20
-2526.08158898946
 30
0.0
 11
-1995.667284549851
 21
-2489.558008251852
 31
0.0
  0
LINE
  5
5ED
330
1F
100
AcDbEntity
  8
LAYER0048
  6
CONTINUOUS
 62
     3
100
AcDbLine
 10
-2066.94714198985
 20
-2560.837865691852
 30
0.0
 11
-2047.939180005852
 21
-2541.829903707852
 31
0.0
  0
LINE
  5
5EE
330
1F
100
AcDbEntity
  8
LAYER0048
  6
CONTINUOUS
 62
     3
100
AcDbLine
 10
-2138.226999429849
 20
-2632.117723131851
 30
0.0
 11
-2114.46704694985
 21
-2608.357770651851
 31
0.0
  0
LINE
  5
5EF
330
1F
100
AcDbEntity
  8
LAYER0048
  6
CONTINUOUS
 62
     3
100
AcDbLine
 10
-2032.990116621245
 20
-2530.614364127909
 30
0.0
 11
-1991.933760745186
 21
-2489.558008251852
 31
0.0
  0
LINE
  5
5F0
330
1F
100
AcDbEntity
  8
LAYER0048
  6
CONTINUOUS
 62
     3
100
AcDbLine
 10
-2063.213618185185
 20
-2560.837865691852
 30
0.0
 11
-2044.205656201187
 21
-2541.829903707852
 31
0.0
  0
LINE
  5
5F1
330
1F
100
AcDbEntity
  8
LAYER0048
  6
CONTINUOUS
 62
     3
100
AcDbLine
 10
-2134.493475625185
 20
-2632.117723131851
 30
0.0
 11
-2110.733523145185
 21
-2608.357770651851
 31
0.0
  0
LINE
  5
5F2
330
1F
100
AcDbEntity
  8
LAYER0048
  6
CONTINUOUS
 62
     3
100
AcDbLine
 10
-2033.789367955029
 20
-2535.147139266359
 30
0.0
 11
-1988.200236940521
 21
-2489.558008251852
 31
0.0
  0
LINE
  5
5F3
330
1F
100
AcDbEntity
  8
LAYER0048
  6
CONTINUOUS
 62
     3
100
AcDbLine
 10
-2059.480094380521
 20
-2560.837865691852
 30
0.0
 11
-2040.472132396522
 21
-2541.829903707852
 31
0.0
  0
LINE
  5
5F4
330
1F
100
AcDbEntity
  8
LAYER0048
  6
CONTINUOUS
 62
     3
100
AcDbLine
 10
-2130.75995182052
 20
-2632.117723131851
 30
0.0
 11
-2106.99999934052
 21
-2608.357770651851
 31
0.0
  0
LINE
  5
5F5
330
1F
100
AcDbEntity
  8
LAYER0048
  6
CONTINUOUS
 62
     3
100
AcDbLine
 10
-2034.588619288815
 20
-2539.67991440481
 30
0.0
 11
-1984.466713135857
 21
-2489.558008251852
 31
0.0
  0
LINE
  5
5F6
330
1F
100
AcDbEntity
  8
LAYER0048
  6
CONTINUOUS
 62
     3
100
AcDbLine
 10
-2055.746570575856
 20
-2560.837865691852
 30
0.0
 11
-2036.738608591857
 21
-2541.829903707852
 31
0.0
  0
LINE
  5
5F7
330
1F
100
AcDbEntity
  8
LAYER0048
  6
CONTINUOUS
 62
     3
100
AcDbLine
 10
-2127.026428015855
 20
-2632.117723131851
 30
0.0
 11
-2103.266475535855
 21
-2608.357770651851
 31
0.0
  0
LINE
  5
5F8
330
1F
100
AcDbEntity
  8
LAYER0048
  6
CONTINUOUS
 62
     3
100
AcDbLine
 10
-2052.013046771191
 20
-2560.837865691852
 30
0.0
 11
-1980.733189331191
 21
-2489.558008251852
 31
0.0
  0
LINE
  5
5F9
330
1F
100
AcDbEntity
  8
LAYER0048
  6
CONTINUOUS
 62
     3
100
AcDbLine
 10
-2123.29290421119
 20
-2632.117723131851
 30
0.0
 11
-2099.532951731191
 21
-2608.357770651851
 31
0.0
  0
LINE
  5
5FA
330
1F
100
AcDbEntity
  8
LAYER0048
  6
CONTINUOUS
 62
     3
100
AcDbLine
 10
-2048.279522966526
 20
-2560.837865691852
 30
0.0
 11
-1977.604492856556
 21
-2490.162835581883
 31
0.0
  0
LINE
  5
5FB
330
1F
100
AcDbEntity
  8
LAYER0048
  6
CONTINUOUS
 62
     3
100
AcDbLine
 10
-2119.559380406525
 20
-2632.117723131851
 30
0.0
 11
-2095.799427926525
 21
-2608.357770651851
 31
0.0
  0
LINE
  5
5FC
330
1F
100
AcDbEntity
  8
LAYER0048
  6
CONTINUOUS
 62
     3
100
AcDbLine
 10
-2044.545999161861
 20
-2560.837865691852
 30
0.0
 11
-1978.403744215349
 21
-2494.695610745341
 31
0.0
  0
LINE
  5
5FD
330
1F
100
AcDbEntity
  8
LAYER0048
  6
CONTINUOUS
 62
     3
100
AcDbLine
 10
-2115.82585660186
 20
-2632.117723131851
 30
0.0
 11
-2092.065904121861
 21
-2608.357770651851
 31
0.0
  0
LINE
  5
5FE
330
1F
100
AcDbEntity
  8
LAYER0048
  6
CONTINUOUS
 62
     3
100
AcDbLine
 10
-2040.812475357196
 20
-2560.837865691852
 30
0.0
 11
-1979.202995574143
 21
-2499.228385908798
 31
0.0
  0
LINE
  5
5FF
330
1F
100
AcDbEntity
  8
LAYER0048
  6
CONTINUOUS
 62
     3
100
AcDbLine
 10
-2112.092332797195
 20
-2632.117723131851
 30
0.0
 11
-2088.332380317196
 21
-2608.357770651851
 31
0.0
  0
LINE
  5
600
330
1F
100
AcDbEntity
  8
LAYER0048
  6
CONTINUOUS
 62
     3
100
AcDbLine
 10
-2038.584872518321
 20
-2562.34378665764
 30
0.0
 11
-1980.002246932935
 21
-2503.761161072257
 31
0.0
  0
LINE
  5
601
330
1F
100
AcDbEntity
  8
LAYER0048
  6
CONTINUOUS
 62
     3
100
AcDbLine
 10
-2108.35880899253
 20
-2632.117723131851
 30
0.0
 11
-2084.598856512531
 21
-2608.357770651851
 31
0.0
  0
LINE
  5
602
330
1F
100
AcDbEntity
  8
LAYER0048
  6
CONTINUOUS
 62
     3
100
AcDbLine
 10
-2039.384113499576
 20
-2566.876551443561
 30
0.0
 11
-1980.801498291728
 21
-2508.293936235714
 31
0.0
  0
LINE
  5
603
330
1F
100
AcDbEntity
  8
LAYER0048
  6
CONTINUOUS
 62
     3
100
AcDbLine
 10
-2104.625285187866
 20
-2632.117723131851
 30
0.0
 11
-2080.865332707866
 21
-2608.357770651851
 31
0.0
  0
LINE
  5
604
330
1F
100
AcDbEntity
  8
LAYER0048
  6
CONTINUOUS
 62
     3
100
AcDbLine
 10
-2040.183354480833
 20
-2571.409316229483
 30
0.0
 11
-1981.60074965052
 21
-2512.826711399171
 31
0.0
  0
LINE
  5
605
330
1F
100
AcDbEntity
  8
LAYER0048
  6
CONTINUOUS
 62
     3
100
AcDbLine
 10
-2100.891761383201
 20
-2632.117723131851
 30
0.0
 11
-2077.131808903201
 21
-2608.357770651851
 31
0.0
  0
LINE
  5
606
330
1F
100
AcDbEntity
  8
LAYER0048
  6
CONTINUOUS
 62
     3
100
AcDbLine
 10
-2040.982595462089
 20
-2575.942081015404
 30
0.0
 11
-1982.400001009312
 21
-2517.359486562629
 31
0.0
  0
LINE
  5
607
330
1F
100
AcDbEntity
  8
LAYER0048
  6
CONTINUOUS
 62
     3
100
AcDbLine
 10
-2097.158237578536
 20
-2632.117723131851
 30
0.0
 11
-2073.374772310035
 21
-2608.33425786335
 31
0.0
  0
LINE
  5
608
330
1F
100
AcDbEntity
  8
LAYER0048
  6
CONTINUOUS
 62
     3
100
AcDbLine
 10
-2041.781836443345
 20
-2580.474845801326
 30
0.0
 11
-1983.199252368106
 21
-2521.892261726087
 31
0.0
  0
LINE
  5
609
330
1F
100
AcDbEntity
  8
LAYER0048
  6
CONTINUOUS
 62
     3
100
AcDbLine
 10
-2093.424713773871
 20
-2632.117723131851
 30
0.0
 11
-2069.224832685725
 21
-2607.917842043705
 31
0.0
  0
LINE
  5
60A
330
1F
100
AcDbEntity
  8
LAYER0048
  6
CONTINUOUS
 62
     3
100
AcDbLine
 10
-2042.988177671548
 20
-2585.414710834193
 30
0.0
 11
-1983.998503726898
 21
-2526.425036889545
 31
0.0
  0
LINE
  5
60B
330
1F
100
AcDbEntity
  8
LAYER0048
  6
CONTINUOUS
 62
     3
100
AcDbLine
 10
-2089.691189969206
 20
-2632.117723131851
 30
0.0
 11
-2064.289214374518
 21
-2606.715747537164
 31
0.0
  0
LINE
  5
60C
330
1F
100
AcDbEntity
  8
LAYER0048
  6
CONTINUOUS
 62
     3
100
AcDbLine
 10
-2046.146963060391
 20
-2592.307020027702
 30
0.0
 11
-1984.797755085692
 21
-2530.957812053002
 31
0.0
  0
LINE
  5
60D
330
1F
100
AcDbEntity
  8
LAYER0048
  6
CONTINUOUS
 62
     3
100
AcDbLine
 10
-2085.957666164541
 20
-2632.117723131851
 30
0.0
 11
-2057.39690518101
 21
-2603.556962148319
 31
0.0
  0
LINE
  5
60E
330
1F
100
AcDbEntity
  8
LAYER0048
  6
CONTINUOUS
 62
     3
100
AcDbLine
 10
-2082.224142359877
 20
-2632.117723131851
 30
0.0
 11
-1985.597006444484
 21
-2535.49058721646
 31
0.0
  0
LINE
  5
60F
330
1F
100
AcDbEntity
  8
LAYER0048
  6
CONTINUOUS
 62
     3
100
AcDbLine
 10
-2078.490618555212
 20
-2632.117723131851
 30
0.0
 11
-1986.396257803277
 21
-2540.023362379918
 31
0.0
  0
LINE
  5
610
330
1F
100
AcDbEntity
  8
LAYER0048
  6
CONTINUOUS
 62
     3
100
AcDbLine
 10
-2074.757094750546
 20
-2632.117723131851
 30
0.0
 11
-1987.19550916207
 21
-2544.556137543375
 31
0.0
  0
LINE
  5
611
330
1F
100
AcDbEntity
  8
LAYER0048
  6
CONTINUOUS
 62
     3
100
AcDbLine
 10
-2071.023570945882
 20
-2632.117723131851
 30
0.0
 11
-1987.994760520862
 21
-2549.088912706833
 31
0.0
  0
LINE
  5
612
330
1F
100
AcDbEntity
  8
LAYER0048
  6
CONTINUOUS
 62
     3
100
AcDbLine
 10
-2067.290047141217
 20
-2632.117723131851
 30
0.0
 11
-1988.794011879655
 21
-2553.62168787029
 31
0.0
  0
LINE
  5
613
330
1F
100
AcDbEntity
  8
LAYER0048
  6
CONTINUOUS
 62
     3
100
AcDbLine
 10
-2063.556523336551
 20
-2632.117723131851
 30
0.0
 11
-1989.593263238448
 21
-2558.154463033748
 31
0.0
  0
LINE
  5
614
330
1F
100
AcDbEntity
  8
LAYER0048
  6
CONTINUOUS
 62
     3
100
AcDbLine
 10
-2059.771421523274
 20
-2632.066145123238
 30
0.0
 11
-1990.39251459724
 21
-2562.687238197205
 31
0.0
  0
LINE
  5
615
330
1F
100
AcDbEntity
  8
LAYER0048
  6
CONTINUOUS
 62
     3
100
AcDbLine
 10
-2055.773997741101
 20
-2631.802245145731
 30
0.0
 11
-1991.191765956034
 21
-2567.220013360663
 31
0.0
  0
LINE
  5
616
330
1F
100
AcDbEntity
  8
LAYER0048
  6
CONTINUOUS
 62
     3
100
AcDbLine
 10
-2051.510558973018
 20
-2631.272330182313
 30
0.0
 11
-1991.991017314826
 21
-2571.752788524121
 31
0.0
  0
LINE
  5
617
330
1F
100
AcDbEntity
  8
LAYER0048
  6
CONTINUOUS
 62
     3
100
AcDbLine
 10
-2046.90495168294
 20
-2630.400246696899
 30
0.0
 11
-1992.883480399811
 21
-2576.37877541377
 31
0.0
  0
LINE
  5
618
330
1F
100
AcDbEntity
  8
LAYER0048
  6
CONTINUOUS
 62
     3
100
AcDbLine
 10
-2041.84530243261
 20
-2629.074121251234
 30
0.0
 11
-1994.209605845476
 21
-2581.4384246641
 31
0.0
  0
LINE
  5
619
330
1F
100
AcDbEntity
  8
LAYER0048
  6
CONTINUOUS
 62
     3
100
AcDbLine
 10
-2036.108753124642
 20
-2627.071095747932
 30
0.0
 11
-1996.212631348777
 21
-2587.174973972067
 31
0.0
  0
LINE
  5
61A
330
1F
100
AcDbEntity
  8
LAYER0048
  6
CONTINUOUS
 62
     3
100
AcDbLine
 10
-2029.183029648062
 20
-2623.878896076016
 30
0.0
 11
-1999.404831020694
 21
-2594.100697448648
 31
0.0
  0
LINE
  5
61B
330
1F
100
AcDbEntity
  8
LAYER0048
  6
CONTINUOUS
 62
     3
100
AcDbLine
 10
-2018.631097711636
 20
-2617.060487944255
 30
0.0
 11
-2006.223239152453
 21
-2604.652629385073
 31
0.0
  0
LINE
  5
61C
330
1F
100
AcDbEntity
  8
LAYER0048
  6
CONTINUOUS
 62
     3
100
AcDbLine
 10
-1871.565271056058
 20
-2570.341846683852
 30
0.0
 11
-1870.445288332858
 21
-2570.341846683852
 31
0.0
  0
LINE
  5
61D
330
1F
100
AcDbEntity
  8
LAYER0048
  6
CONTINUOUS
 62
     3
100
AcDbLine
 10
-2034.967720780857
 20
-2541.829903707852
 30
0.0
 11
-2029.940291059258
 21
-2513.317960731852
 31
0.0
  0
LINE
  5
61E
330
1F
100
AcDbEntity
  8
LAYER0048
  6
CONTINUOUS
 62
     3
100
AcDbLine
 10
-2041.851528806458
 20
-2580.870094664652
 30
0.0
 11
-2038.319340595258
 21
-2560.837865691852
 31
0.0
  0
LINE
  5
61F
330
1F
100
AcDbEntity
  8
LAYER0048
  6
CONTINUOUS
 62
     3
100
AcDbLine
 10
-1977.497845372857
 20
-2570.341846683852
 30
0.0
 11
-1919.085176016056
 21
-2570.341846683852
 31
0.0
  0
LINE
  5
620
330
1F
100
AcDbEntity
  8
LAYER0048
  6
CONTINUOUS
 62
     3
100
AcDbLine
 10
-1718.025283699257
 20
-2512.227429003851
 30
0.0
 11
-1714.028035305657
 21
-2489.558008251852
 31
0.0
  0
LINE
  5
621
330
1F
100
AcDbEntity
  8
LAYER0048
  6
CONTINUOUS
 62
     3
100
AcDbLine
 10
-1739.165183913656
 20
-2632.117723131851
 30
0.0
 11
-1722.214808467257
 21
-2535.987381483852
 31
0.0
  0
LINE
  5
622
330
1F
100
AcDbEntity
  8
LAYER0048
  6
CONTINUOUS
 62
     3
100
AcDbLine
 10
-1770.467850086459
 20
-2535.987381483852
 30
0.0
 11
-1787.418225532858
 21
-2632.117723131851
 31
0.0
  0
LINE
  5
623
330
1F
100
AcDbEntity
  8
LAYER0048
  6
CONTINUOUS
 62
     3
100
AcDbLine
 10
-1762.281076924858
 20
-2489.558008251852
 30
0.0
 11
-1766.278325318457
 21
-2512.227429003851
 31
0.0
  0
LINE
  5
624
330
1F
100
AcDbEntity
  8
LAYER0048
  6
CONTINUOUS
 62
     3
100
AcDbLine
 10
-1722.214808467257
 20
-2535.987381483852
 30
0.0
 11
-1644.858510652857
 21
-2535.987381483852
 31
0.0
  0
LINE
  5
625
330
1F
100
AcDbEntity
  8
LAYER0048
  6
CONTINUOUS
 62
     3
100
AcDbLine
 10
-1794.043009641658
 20
-2535.987381483852
 30
0.0
 11
-1770.467850086459
 21
-2535.987381483852
 31
0.0
  0
LINE
  5
626
330
1F
100
AcDbEntity
  8
LAYER0048
  6
CONTINUOUS
 62
     3
100
AcDbLine
 10
-1766.278325318457
 20
-2512.227429003851
 30
0.0
 11
-1789.853484873658
 21
-2512.227429003851
 31
0.0
  0
LINE
  5
627
330
1F
100
AcDbEntity
  8
LAYER0048
  6
CONTINUOUS
 62
     3
100
AcDbLine
 10
-1597.338605692857
 20
-2512.227429003851
 30
0.0
 11
-1718.025283699257
 21
-2512.227429003851
 31
0.0
  0
LINE
  5
628
330
1F
100
AcDbEntity
  8
LAYER0048
  6
CONTINUOUS
 62
     3
100
AcDbLine
 10
-1605.544690982456
 20
-2558.766760664652
 30
0.0
 11
-1597.338605692857
 21
-2512.227429003851
 31
0.0
  0
LINE
  5
629
330
1F
100
AcDbEntity
  8
LAYER0048
  6
CONTINUOUS
 62
     3
100
AcDbLine
 10
-1711.886923814457
 20
-2605.888594386252
 30
0.0
 11
-1661.702307292858
 21
-2605.888594386252
 31
0.0
  0
LINE
  5
62A
330
1F
100
AcDbEntity
  8
LAYER0048
  6
CONTINUOUS
 62
     3
100
AcDbLine
 10
-1707.697399046457
 20
-2582.128641906252
 30
0.0
 11
-1711.886923814457
 21
-2605.888594386252
 31
0.0
  0
LINE
  5
62B
330
1F
100
AcDbEntity
  8
LAYER0048
  6
CONTINUOUS
 62
     3
100
AcDbLine
 10
-1692.868340160058
 20
-2582.128641906252
 30
0.0
 11
-1707.697399046457
 21
-2582.128641906252
 31
0.0
  0
LINE
  5
62C
330
1F
100
AcDbEntity
  8
LAYER0048
  6
CONTINUOUS
 62
     3
100
AcDbLine
 10
-1644.858510652857
 20
-2535.987381483852
 30
0.0
 11
-1646.070346684857
 21
-2542.860447138252
 31
0.0
  0
LINE
  5
62D
330
1F
100
AcDbEntity
  8
LAYER0048
  6
CONTINUOUS
 62
     3
100
AcDbLine
 10
-1789.853484873658
 20
-2512.227429003851
 30
0.0
 11
-1794.043009641658
 21
-2535.987381483852
 31
0.0
  0
LINE
  5
62E
330
1F
100
AcDbEntity
  8
LAYER0048
  6
CONTINUOUS
 62
     3
100
AcDbLine
 10
-1714.028035305657
 20
-2489.558008251852
 30
0.0
 11
-1762.281076924858
 21
-2489.558008251852
 31
0.0
  0
LINE
  5
62F
330
1F
100
AcDbEntity
  8
LAYER0048
  6
CONTINUOUS
 62
     3
100
AcDbLine
 10
-1787.418225532858
 20
-2632.117723131851
 30
0.0
 11
-1739.165183913656
 21
-2632.117723131851
 31
0.0
  0
LINE
  5
630
330
1F
100
AcDbEntity
  8
LAYER0048
  6
CONTINUOUS
 62
     3
100
AcDbLine
 10
-1832.037207465656
 20
-2550.803404683852
 30
0.0
 11
-1787.418225532858
 21
-2489.558008251852
 31
0.0
  0
LINE
  5
631
330
1F
100
AcDbEntity
  8
LAYER0048
  6
CONTINUOUS
 62
     3
100
AcDbLine
 10
-1882.458035452857
 20
-2632.117723131851
 30
0.0
 11
-1871.565271056058
 21
-2570.341846683852
 31
0.0
  0
LINE
  5
632
330
1F
100
AcDbEntity
  8
LAYER0048
  6
CONTINUOUS
 62
     3
100
AcDbLine
 10
-1919.085176016056
 20
-2570.341846683852
 30
0.0
 11
-1929.977940412857
 21
-2632.117723131851
 31
0.0
  0
LINE
  5
633
330
1F
100
AcDbEntity
  8
LAYER0048
  6
CONTINUOUS
 62
     3
100
AcDbLine
 10
-1854.972411379257
 20
-2489.558008251852
 30
0.0
 11
-1871.433707184056
 21
-2520.445946475851
 31
0.0
  0
LINE
  5
634
330
1F
100
AcDbEntity
  8
LAYER0048
  6
CONTINUOUS
 62
     3
100
AcDbLine
 10
-1920.817836000057
 20
-2548.957889451851
 30
0.0
 11
-1973.308320604858
 21
-2548.957889451851
 31
0.0
  0
LINE
  5
635
330
1F
100
AcDbEntity
  8
LAYER0048
  6
CONTINUOUS
 62
     3
100
AcDbLine
 10
-1882.458035452857
 20
-2632.117723131851
 30
0.0
 11
-1929.977940412857
 21
-2632.117723131851
 31
0.0
  0
LINE
  5
636
330
1F
100
AcDbEntity
  8
LAYER0048
  6
CONTINUOUS
 62
     3
100
AcDbLine
 10
-1787.418225532858
 20
-2489.558008251852
 30
0.0
 11
-1854.972411379257
 21
-2489.558008251852
 31
0.0
  0
LINE
  5
637
330
1F
100
AcDbEntity
  8
LAYER0048
  6
CONTINUOUS
 62
     3
100
AcDbLine
 10
-1973.308320604858
 20
-2548.957889451851
 30
0.0
 11
-1977.497845372857
 21
-2570.341846683852
 31
0.0
  0
LINE
  5
638
330
1F
100
AcDbEntity
  8
LAYER0048
  6
CONTINUOUS
 62
     3
100
AcDbLine
 10
-1928.619807302461
 20
-2489.558008251852
 30
0.0
 11
-1938.270439766459
 21
-2489.558008251852
 31
0.0
  0
LINE
  5
639
330
1F
100
AcDbEntity
  8
LAYER0048
  6
CONTINUOUS
 62
     3
100
AcDbLine
 10
-1932.80933207046
 20
-2513.317960731852
 30
0.0
 11
-1928.619807302461
 21
-2489.558008251852
 31
0.0
  0
LINE
  5
63A
330
1F
100
AcDbEntity
  8
LAYER0048
  6
CONTINUOUS
 62
     3
100
AcDbLine
 10
-1942.459964534458
 20
-2513.317960731852
 30
0.0
 11
-1932.80933207046
 21
-2513.317960731852
 31
0.0
  0
LINE
  5
63B
330
1F
100
AcDbEntity
  8
LAYER0048
  6
CONTINUOUS
 62
     3
100
AcDbLine
 10
-1938.270439766459
 20
-2489.558008251852
 30
0.0
 11
-1942.459964534458
 21
-2513.317960731852
 31
0.0
  0
LINE
  5
63C
330
1F
100
AcDbEntity
  8
LAYER0048
  6
CONTINUOUS
 62
     3
100
AcDbLine
 10
-1953.106201401658
 20
-2489.558008251852
 30
0.0
 11
-1962.756833865659
 21
-2489.558008251852
 31
0.0
  0
LINE
  5
63D
330
1F
100
AcDbEntity
  8
LAYER0048
  6
CONTINUOUS
 62
     3
100
AcDbLine
 10
-1957.295726169658
 20
-2513.317960731852
 30
0.0
 11
-1953.106201401658
 21
-2489.558008251852
 31
0.0
  0
LINE
  5
63E
330
1F
100
AcDbEntity
  8
LAYER0048
  6
CONTINUOUS
 62
     3
100
AcDbLine
 10
-1966.946358633659
 20
-2513.317960731852
 30
0.0
 11
-1957.295726169658
 21
-2513.317960731852
 31
0.0
  0
LINE
  5
63F
330
1F
100
AcDbEntity
  8
LAYER0048
  6
CONTINUOUS
 62
     3
100
AcDbLine
 10
-1962.756833865659
 20
-2489.558008251852
 30
0.0
 11
-1966.946358633659
 21
-2513.317960731852
 31
0.0
  0
LINE
  5
640
330
1F
100
AcDbEntity
  8
LAYER0048
  6
CONTINUOUS
 62
     3
100
AcDbLine
 10
-2105.801588764857
 20
-2491.662064597452
 30
0.0
 11
-2105.801588764857
 21
-2489.558008251852
 31
0.0
  0
LINE
  5
641
330
1F
100
AcDbEntity
  8
LAYER0048
  6
CONTINUOUS
 62
     3
100
AcDbLine
 10
-2077.831109577657
 20
-2560.837865691852
 30
0.0
 11
-2038.319340595258
 21
-2560.837865691852
 31
0.0
  0
LINE
  5
642
330
1F
100
AcDbEntity
  8
LAYER0048
  6
CONTINUOUS
 62
     3
100
AcDbLine
 10
-2074.479489763257
 20
-2541.829903707852
 30
0.0
 11
-2077.831109577657
 21
-2560.837865691852
 31
0.0
  0
LINE
  5
643
330
1F
100
AcDbEntity
  8
LAYER0048
  6
CONTINUOUS
 62
     3
100
AcDbLine
 10
-2034.967720780857
 20
-2541.829903707852
 30
0.0
 11
-2074.479489763257
 21
-2541.829903707852
 31
0.0
  0
LINE
  5
644
330
1F
100
AcDbEntity
  8
LAYER0048
  6
CONTINUOUS
 62
     3
100
AcDbLine
 10
-2029.940291059258
 20
-2513.317960731852
 30
0.0
 11
-2069.845061846458
 21
-2513.317960731852
 31
0.0
  0
LINE
  5
645
330
1F
100
AcDbEntity
  8
LAYER0048
  6
CONTINUOUS
 62
     3
100
AcDbLine
 10
-1977.497845372857
 20
-2489.558008251852
 30
0.0
 11
-1992.248931542457
 21
-2573.215491330252
 31
0.0
  0
LINE
  5
646
330
1F
100
AcDbEntity
  8
LAYER0048
  6
CONTINUOUS
 62
     3
100
AcDbLine
 10
-2105.801588764857
 20
-2489.558008251852
 30
0.0
 11
-1977.497845372857
 21
-2489.558008251852
 31
0.0
  0
ARC
  5
647
330
1F
100
AcDbEntity
  8
LAYER0048
  6
CONTINUOUS
 62
     3
100
AcDbCircle
 10
-1661.702307292858
 20
-2548.864708434252
 30
0.0
 40
57.02388595200054
100
AcDbArc
 50
270.0000000000006
 51
350.0000501652083
  0
ARC
  5
648
330
1F
100
AcDbEntity
  8
LAYER0048
  6
CONTINUOUS
 62
     3
100
AcDbCircle
 10
-1692.868340160058
 20
-2534.608736946252
 30
0.0
 40
47.51990496000061
100
AcDbArc
 50
270.0000000000006
 51
350.0000459533484
  0
ARC
  5
649
330
1F
100
AcDbEntity
  8
LAYER0048
  6
CONTINUOUS
 62
     3
100
AcDbCircle
 10
-1870.445288332858
 20
-2522.821941723852
 30
0.0
 40
47.51990496000049
100
AcDbArc
 50
270.0000000000006
 51
323.9255158738096
  0
ARC
  5
64A
330
1F
100
AcDbEntity
  8
LAYER0048
  6
CONTINUOUS
 62
     3
100
AcDbCircle
 10
-1920.817836000057
 20
-2491.934003499851
 30
0.0
 40
57.02388595200006
100
AcDbArc
 50
270.0000000000006
 51
329.9999974675138
  0
ARC
  5
64B
330
1F
100
AcDbEntity
  8
LAYER0048
  6
CONTINUOUS
 62
     3
100
AcDbCircle
 10
-2120.057560252858
 20
-2498.790050341452
 30
0.0
 40
52.27189545600004
100
AcDbArc
 50
270.0000000000006
 51
343.8633330758265
  0
ARC
  5
64C
330
1F
100
AcDbEntity
  8
LAYER0048
  6
CONTINUOUS
 62
     3
100
AcDbCircle
 10
-2062.445861404858
 20
-2560.837865691852
 30
0.0
 40
71.27985744000001
100
AcDbArc
 50
270.0000000000006
 51
349.9999897560574
  0
ARC
  5
64D
330
1F
100
AcDbEntity
  8
LAYER0048
  6
CONTINUOUS
 62
     3
100
AcDbCircle
 10
-2074.610088028858
 20
-2575.093837179852
 30
0.0
 40
33.26393347199837
100
AcDbArc
 50
270.0000000000006
 51
349.9999327509129
  0
LINE
  5
64E
330
1F
100
AcDbEntity
  8
LAYER0048
  6
CONTINUOUS
 62
     3
100
AcDbLine
 10
-2150.509317212075
 20
-2551.061945797452
 30
0.0
 11
-2134.920935653661
 21
-2535.473564239037
 31
0.0
  0
LINE
  5
64F
330
1F
100
AcDbEntity
  8
LAYER0048
  6
CONTINUOUS
 62
     3
100
AcDbLine
 10
-2146.77579340741
 20
-2551.061945797452
 30
0.0
 11
-2126.816866098892
 21
-2531.103018488933
 31
0.0
  0
LINE
  5
650
330
1F
100
AcDbEntity
  8
LAYER0048
  6
CONTINUOUS
 62
     3
100
AcDbLine
 10
-2143.042269602745
 20
-2551.061945797452
 30
0.0
 11
-2081.538332057143
 21
-2489.558008251852
 31
0.0
  0
LINE
  5
651
330
1F
100
AcDbEntity
  8
LAYER0048
  6
CONTINUOUS
 62
     3
100
AcDbLine
 10
-2139.308745798081
 20
-2551.061945797452
 30
0.0
 11
-2077.804808252478
 21
-2489.558008251852
 31
0.0
  0
LINE
  5
652
330
1F
100
AcDbEntity
  8
LAYER0048
  6
CONTINUOUS
 62
     3
100
AcDbLine
 10
-2160.628142257839
 20
-2632.117723131851
 30
0.0
 11
-2136.868189777839
 21
-2608.357770651851
 31
0.0
  0
LINE
  5
653
330
1F
100
AcDbEntity
  8
LAYER0048
  6
CONTINUOUS
 62
     3
100
AcDbLine
 10
-2156.894618453174
 20
-2632.117723131851
 30
0.0
 11
-2133.134665973174
 21
-2608.357770651851
 31
0.0
  0
LINE
  5
654
330
1F
100
AcDbEntity
  8
LAYER0048
  6
CONTINUOUS
 62
     3
100
AcDbLine
 10
-2153.161094648509
 20
-2632.117723131851
 30
0.0
 11
-2129.40114216851
 21
-2608.357770651851
 31
0.0
  0
LINE
  5
655
330
1F
100
AcDbEntity
  8
LAYER0048
  6
CONTINUOUS
 62
     3
100
AcDbLine
 10
-2149.427570843844
 20
-2632.117723131851
 30
0.0
 11
-2125.667618363845
 21
-2608.357770651851
 31
0.0
  0
LINE
  5
656
330
1F
100
AcDbEntity
  8
LAYER0048
  6
CONTINUOUS
 62
     3
100
AcDbLine
 10
-2145.694047039179
 20
-2632.117723131851
 30
0.0
 11
-2121.934094559179
 21
-2608.357770651851
 31
0.0
  0
LINE
  5
657
330
1F
100
AcDbEntity
  8
LAYER0048
  6
CONTINUOUS
 62
     3
100
AcDbLine
 10
-2141.960523234515
 20
-2632.117723131851
 30
0.0
 11
-2118.200570754515
 21
-2608.357770651851
 31
0.0
  0
LINE
  5
658
330
1F
100
AcDbEntity
  8
LAYER0048
  6
CONTINUOUS
 62
     3
100
AcDbLine
 10
-2153.285162784056
 20
-2551.061945797452
 30
0.0
 11
-2120.057560252858
 21
-2551.061945797452
 31
0.0
  0
LINE
  5
659
330
1F
100
AcDbEntity
  8
LAYER0048
  6
CONTINUOUS
 62
     3
100
AcDbLine
 10
-2163.387940444856
 20
-2608.357770651851
 30
0.0
 11
-2074.610088028858
 21
-2608.357770651851
 31
0.0
  0
LINE
  5
65A
330
1F
100
AcDbEntity
  8
LAYER0048
  6
CONTINUOUS
 62
     3
100
AcDbLine
 10
-2062.445861404858
 20
-2632.117723131851
 30
0.0
 11
-2167.577465212858
 21
-2632.117723131851
 31
0.0
  0
ARC
  5
65B
330
1F
100
AcDbEntity
  8
LAYER0048
  6
CONTINUOUS
 62
     3
100
AcDbCircle
 10
-2153.321493724857
 20
-2491.662064597452
 30
0.0
 40
47.51994594153693
100
AcDbArc
 50
272.5678887518231
 51
0.0
  0
VIEWPORT
  5
B4
330
1B
100
AcDbEntity
 67
     1
  8
0
100
AcDbViewport
 68
     1
 10
-0.000000000003638
 20
2.999999999999091
 30
0.0
 40
23130.0
 41
17658.00000000001
 68
     1
 69
     1
1001
ACAD
1000
MVIEW
1002
{
1070
    16
1010
0.0
1020
0.0
1030
0.0
1010
0.0
1020
0.0
1030
1.0
1040
0.0
1040
17658.00000000001
1040
-0.000000000003638
1040
2.999999999999091
1040
50.0
1040
0.0
1040
0.0
1070
     0
1070
   100
1070
     0
1070
     3
1070
     0
1070
     0
1070
     0
1070
     0
1040
0.0
1040
0.0
1040
0.0
1040
0.5
1040
0.5
1040
0.0
1040
0.0
1070
     0
1002
{
1002
}
1002
}
  0
ENDSEC
  0
SECTION
  2
OBJECTS
  0
DICTIONARY
  5
C
330
0
100
AcDbDictionary
  3
ACAD_GROUP
350
D
  3
ACAD_LAYOUT
350
1A
  3
ACAD_MATERIAL
350
43
  3
ACAD_MLEADERSTYLE
350
6B
  3
ACAD_MLINESTYLE
350
17
  3
ACAD_PLOTSETTINGS
350
19
  3
ACAD_SCALELIST
350
47
  3
ACAD_VISUALSTYLE
350
2A
  3
ACDBVARIABLEDICTIONARY
350
65C
1001
ACAD
1000
TREAT_AS_HARD
1070
     0
  0
DICTIONARY
  5
D
102
{ACAD_REACTORS
330
C
102
}
330
C
100
AcDbDictionary
1001
ACAD
1000
TREAT_AS_HARD
1070
     0
  0
DICTIONARY
  5
1A
102
{ACAD_REACTORS
330
C
102
}
330
C
100
AcDbDictionary
1001
ACAD
1000
TREAT_AS_HARD
1070
     0
  0
DICTIONARY
  5
43
102
{ACAD_REACTORS
330
C
102
}
330
C
100
AcDbDictionary
  3
BYBLOCK
350
45
  3
BYLAYER
350
44
  3
GLOBAL
350
46
1001
ACAD
1000
TREAT_AS_HARD
1070
     0
  0
DICTIONARY
  5
6B
102
{ACAD_REACTORS
330
C
102
}
330
C
100
AcDbDictionary
  3
STANDARD
350
6C
1001
ACAD
1000
TREAT_AS_HARD
1070
     0
  0
DICTIONARY
  5
17
102
{ACAD_REACTORS
330
C
102
}
330
C
100
AcDbDictionary
  3
STANDARD
350
18
1001
ACAD
1000
TREAT_AS_HARD
1070
     0
  0
DICTIONARY
  5
19
102
{ACAD_REACTORS
330
C
102
}
330
C
100
AcDbDictionary
1001
ACAD
1000
TREAT_AS_HARD
1070
     0
  0
DICTIONARY
  5
47
102
{ACAD_REACTORS
330
C
102
}
330
C
100
AcDbDictionary
  3
A0
350
48
  3
A1
350
49
  3
A2
350
4A
  3
A3
350
4B
  3
A4
350
4C
  3
A5
350
4D
  3
A6
350
4E
  3
A7
350
4F
  3
A8
350
50
  3
A9
350
51
  3
B0
350
52
  3
B1
350
53
  3
B2
350
54
  3
B3
350
55
  3
B4
350
56
  3
B5
350
57
  3
B6
350
58
  3
B7
350
59
  3
B8
350
5A
  3
B9
350
5B
  3
C0
350
5C
  3
C1
350
5D
  3
C2
350
5E
  3
C3
350
5F
  3
C4
350
60
  3
C5
350
61
  3
C6
350
62
  3
C7
350
63
  3
C8
350
64
  3
C9
350
65
  3
D0
350
66
  3
D1
350
67
  3
D2
350
68
1001
ACAD
1000
TREAT_AS_HARD
1070
     0
  0
DICTIONARY
  5
2A
102
{ACAD_REACTORS
330
C
102
}
330
C
100
AcDbDictionary
  3
2DWIREFRAME
350
2F
  3
BASIC
350
32
  3
BRIGHTEN
350
36
  3
COLORCHANGE
350
3A
  3
CONCEPTUAL
350
34
  3
DIM
350
35
  3
EDGECOLOROFF
350
3D
  3
FACEPATTERN
350
39
  3
FLAT
350
2B
  3
FLATWITHEDGES
350
2C
  3
GOURAUD
350
2D
  3
GOURAUDWITHEDGES
350
2E
  3
HIDDEN
350
31
  3
JITTEROFF
350
3B
  3
LINEPATTERN
350
38
  3
OVERHANGOFF
350
3C
  3
REALISTIC
350
33
  3
SHADED
350
42
  3
SHADED_WITH_EDGES
350
41
  3
SHADES_OF_GRAY
350
3E
  3
SKETCHY
350
3F
  3
THICKEN
350
37
  3
WIREFRAME
350
30
  3
X-RAY
350
40
1001
ACAD
1000
TREAT_AS_HARD
1070
     0
  0
DICTIONARY
  5
65C
102
{ACAD_REACTORS
330
C
102
}
330
C
100
AcDbDictionary
  3
CANNOSCALE
350
663
  3
CMLEADERSTYLE
350
65E
  3
CTABLESTYLE
350
65D
  3
DIMASSOC
350
661
  3
HIDETEXT
350
662
  3
MSLTSCALE
350
664
1001
ACAD
1000
TREAT_AS_HARD
1070
     0
  0
MATERIAL
  5
45
102
{ACAD_REACTORS
330
43
102
}
102
{ACAD_XDICTIONARY
360
667
102
}
330
43
100
AcDbMaterial
  1
BYBLOCK
  0
MATERIAL
  5
44
102
{ACAD_REACTORS
330
43
102
}
102
{ACAD_XDICTIONARY
360
665
102
}
330
43
100
AcDbMaterial
  1
BYLAYER
  0
MATERIAL
  5
46
102
{ACAD_REACTORS
330
43
102
}
102
{ACAD_XDICTIONARY
360
669
102
}
330
43
100
AcDbMaterial
  1
GLOBAL
  0
ACAD_PROXY_OBJECT
  5
6C
102
{ACAD_REACTORS
330
6B
102
}
330
6B
100
AcDbZombieObject
 90
      499
 91
      505
 93
      610
310
40901902A4063FBFFFFFE056BD1B81E855B9FC0AD7A3703D0AD73F4214DD185B99185C9900AD7A3703D0AC73F90141901A02B5E8DC0F42B1CFC02B5E8DC0F42B1CFE5764000000000000300FC0
340
14
340
0
340
11
340
0
 94
        0
1001
ACAD_MLEADERVER
1070
     2
  0
MLINESTYLE
  5
18
102
{ACAD_REACTORS
330
17
102
}
330
17
100
AcDbMlineStyle
  2
Standard
 70
     0
  3

 62
   256
 51
90.0
 52
90.0
 71
     2
 49
0.5
 62
   256
  6
BYLAYER
 49
-0.5
 62
   256
  6
BYLAYER
  0
ACAD_PROXY_OBJECT
  5
48
102
{ACAD_REACTORS
330
47
102
}
330
47
100
AcDbZombieObject
 90
      499
 91
      503
 93
       41
310
903313A31580
  0
ACAD_PROXY_OBJECT
  5
49
102
{ACAD_REACTORS
330
47
102
}
330
47
100
AcDbZombieObject
 90
      499
 91
      503
 93
      105
310
903313A324000000000000004000
  0
ACAD_PROXY_OBJECT
  5
4A
102
{ACAD_REACTORS
330
47
102
}
330
47
100
AcDbZombieObject
 90
      499
 91
      503
 93
      105
310
903313A344000000000000104000
  0
ACAD_PROXY_OBJECT
  5
4B
102
{ACAD_REACTORS
330
47
102
}
330
47
100
AcDbZombieObject
 90
      499
 91
      503
 93
      105
310
903313A354000000000000144000
  0
ACAD_PROXY_OBJECT
  5
4C
102
{ACAD_REACTORS
330
47
102
}
330
47
100
AcDbZombieObject
 90
      499
 91
      503
 93
      105
310
903313A384000000000000204000
  0
ACAD_PROXY_OBJECT
  5
4D
102
{ACAD_REACTORS
330
47
102
}
330
47
100
AcDbZombieObject
 90
      499
 91
      503
 93
      113
310
904313A31304000000000000244000
  0
ACAD_PROXY_OBJECT
  5
4E
102
{ACAD_REACTORS
330
47
102
}
330
47
100
AcDbZombieObject
 90
      499
 91
      503
 93
      113
310
904313A31364000000000000304000
  0
ACAD_PROXY_OBJECT
  5
4F
102
{ACAD_REACTORS
330
47
102
}
330
47
100
AcDbZombieObject
 90
      499
 91
      503
 93
      113
310
904313A32304000000000000344000
  0
ACAD_PROXY_OBJECT
  5
50
102
{ACAD_REACTORS
330
47
102
}
330
47
100
AcDbZombieObject
 90
      499
 91
      503
 93
      113
310
904313A333040000000000003E4000
  0
ACAD_PROXY_OBJECT
  5
51
102
{ACAD_REACTORS
330
47
102
}
330
47
100
AcDbZombieObject
 90
      499
 91
      503
 93
      113
310
904313A34304000000000000444000
  0
ACAD_PROXY_OBJECT
  5
52
102
{ACAD_REACTORS
330
47
102
}
330
47
100
AcDbZombieObject
 90
      499
 91
      503
 93
      113
310
904313A35304000000000000494000
  0
ACAD_PROXY_OBJECT
  5
53
102
{ACAD_REACTORS
330
47
102
}
330
47
100
AcDbZombieObject
 90
      499
 91
      503
 93
      121
310
905313A3130304000000000000594000
  0
ACAD_PROXY_OBJECT
  5
54
102
{ACAD_REACTORS
330
47
102
}
330
47
100
AcDbZombieObject
 90
      499
 91
      503
 93
      105
310
903323A310000000000000010100
  0
ACAD_PROXY_OBJECT
  5
55
102
{ACAD_REACTORS
330
47
102
}
330
47
100
AcDbZombieObject
 90
      499
 91
      503
 93
      105
310
903343A310000000000000410100
  0
ACAD_PROXY_OBJECT
  5
56
102
{ACAD_REACTORS
330
47
102
}
330
47
100
AcDbZombieObject
 90
      499
 91
      503
 93
      105
310
903383A310000000000000810100
  0
ACAD_PROXY_OBJECT
  5
57
102
{ACAD_REACTORS
330
47
102
}
330
47
100
AcDbZombieObject
 90
      499
 91
      503
 93
      113
310
90431303A310000000000000910100
  0
ACAD_PROXY_OBJECT
  5
58
102
{ACAD_REACTORS
330
47
102
}
330
47
100
AcDbZombieObject
 90
      499
 91
      503
 93
      121
310
9053130303A310000000000001650100
  0
ACAD_PROXY_OBJECT
  5
59
102
{ACAD_REACTORS
330
47
102
}
330
47
100
AcDbZombieObject
 90
      499
 91
      503
 93
      257
310
90E312F31323822203D2031272D3022000000000000200FC000000000000284000
  0
ACAD_PROXY_OBJECT
  5
5A
102
{ACAD_REACTORS
330
47
102
}
330
47
100
AcDbZombieObject
 90
      499
 91
      503
 93
      249
310
90D312F363422203D2031272D3022000000000000240FC000000000000284000
  0
ACAD_PROXY_OBJECT
  5
5B
102
{ACAD_REACTORS
330
47
102
}
330
47
100
AcDbZombieObject
 90
      499
 91
      503
 93
      249
310
90D312F333222203D2031272D3022000000000000280FC000000000000284000
  0
ACAD_PROXY_OBJECT
  5
5C
102
{ACAD_REACTORS
330
47
102
}
330
47
100
AcDbZombieObject
 90
      499
 91
      503
 93
      249
310
90D312F313622203D2031272D30220000000000002C0FC000000000000284000
  0
ACAD_PROXY_OBJECT
  5
5D
102
{ACAD_REACTORS
330
47
102
}
330
47
100
AcDbZombieObject
 90
      499
 91
      503
 93
      249
310
90D332F333222203D2031272D30220000000000002E0FC000000000000284000
  0
ACAD_PROXY_OBJECT
  5
5E
102
{ACAD_REACTORS
330
47
102
}
330
47
100
AcDbZombieObject
 90
      499
 91
      503
 93
      241
310
90C312F3822203D2031272D3022000000000000300FC000000000000284000
  0
ACAD_PROXY_OBJECT
  5
5F
102
{ACAD_REACTORS
330
47
102
}
330
47
100
AcDbZombieObject
 90
      499
 91
      503
 93
      249
310
90D332F313622203D2031272D3022000000000000320FC000000000000284000
  0
ACAD_PROXY_OBJECT
  5
60
102
{ACAD_REACTORS
330
47
102
}
330
47
100
AcDbZombieObject
 90
      499
 91
      503
 93
      241
310
90C312F3422203D2031272D3022000000000000340FC000000000000284000
  0
ACAD_PROXY_OBJECT
  5
61
102
{ACAD_REACTORS
330
47
102
}
330
47
100
AcDbZombieObject
 90
      499
 91
      503
 93
      241
310
90C332F3822203D2031272D3022000000000000360FC000000000000284000
  0
ACAD_PROXY_OBJECT
  5
62
102
{ACAD_REACTORS
330
47
102
}
330
47
100
AcDbZombieObject
 90
      499
 91
      503
 93
      241
310
90C312F3222203D2031272D3022000000000000380FC000000000000284000
  0
ACAD_PROXY_OBJECT
  5
63
102
{ACAD_REACTORS
330
47
102
}
330
47
100
AcDbZombieObject
 90
      499
 91
      503
 93
      241
310
90C332F3422203D2031272D30220000000000003A0FC000000000000284000
  0
ACAD_PROXY_OBJECT
  5
64
102
{ACAD_REACTORS
330
47
102
}
330
47
100
AcDbZombieObject
 90
      499
 91
      503
 93
      161
310
90A3122203D2031272D30224000000000000284000
  0
ACAD_PROXY_OBJECT
  5
65
102
{ACAD_REACTORS
330
47
102
}
330
47
100
AcDbZombieObject
 90
      499
 91
      503
 93
      257
310
90E312D312F3222203D2031272D30220000000000003E0FC000000000000284000
  0
ACAD_PROXY_OBJECT
  5
66
102
{ACAD_REACTORS
330
47
102
}
330
47
100
AcDbZombieObject
 90
      499
 91
      503
 93
      225
310
90A3322203D2031272D302200000000000002100000000000000284000
  0
ACAD_PROXY_OBJECT
  5
67
102
{ACAD_REACTORS
330
47
102
}
330
47
100
AcDbZombieObject
 90
      499
 91
      503
 93
      225
310
90A3622203D2031272D302200000000000006100000000000000284000
  0
ACAD_PROXY_OBJECT
  5
68
102
{ACAD_REACTORS
330
47
102
}
330
47
100
AcDbZombieObject
 90
      499
 91
      503
 93
      249
310
90D31272D3022203D2031272D30220000000000000A100000000000000284000
  0
ACAD_PROXY_OBJECT
  5
2F
102
{ACAD_REACTORS
330
2A
102
}
330
2A
100
AcDbZombieObject
 90
      499
 91
      501
 93
      436
310
42CC9915DA5C99599C985B595049028333333333333E33F0000000000000F90107901411070040501600405405064090741402480A0340
1001
ACAD
1000
AcDbSavedByObjectVersion
1070
     0
  0
ACAD_PROXY_OBJECT
  5
32
102
{ACAD_REACTORS
330
2A
102
}
330
2A
100
AcDbZombieObject
 90
      499
 91
      501
 93
      388
310
4150985CDA58D07406404333333333333E33F0000000000000F90107A41107004050150841D405064090741402480A0350
1001
ACAD
1000
AcDbSavedByObjectVersion
1070
     0
  0
ACAD_PROXY_OBJECT
  5
36
102
{ACAD_REACTORS
330
2A
102
}
330
2A
100
AcDbZombieObject
 90
      499
 91
      501
 93
      428
310
42109C9A59DA1D195B90C409028333333333333E33F0000000000000F9010790141107004050150841D405064090741402480A029950
1001
ACAD
1000
AcDbSavedByObjectVersion
1070
     0
  0
ACAD_PROXY_OBJECT
  5
3A
102
{ACAD_REACTORS
330
2A
102
}
330
2A
100
AcDbZombieObject
 90
      499
 91
      501
 93
      452
310
42D0DBDB1BDC90DA185B99D95104090240C333333333333E33F0000000000000F90108901411070040501508421405064090741402480A0350
1001
ACAD
1000
AcDbSavedByObjectVersion
1070
     0
  0
ACAD_PROXY_OBJECT
  5
34
102
{ACAD_REACTORS
330
2A
102
}
330
2A
100
AcDbZombieObject
 90
      499
 91
      501
 93
      500
310
4290DBDB98D95C1D1D585B10940D028333333333333E33F0000000000000F90107902409070040501000000000018199010841D405064090740C02480A0340
1001
ACAD
1000
AcDbSavedByObjectVersion
1070
     0
  0
ACAD_PROXY_OBJECT
  5
35
102
{ACAD_REACTORS
330
2A
102
}
330
2A
100
AcDbZombieObject
 90
      499
 91
      501
 93
      412
310
40D11A5B50B409028333333333333E33F0000000000000F9010790141107004050150841D405064090741402480A02677FFFFFD0
1001
ACAD
1000
AcDbSavedByObjectVersion
1070
     0
  0
ACAD_PROXY_OBJECT
  5
3D
102
{ACAD_REACTORS
330
2A
102
}
330
2A
100
AcDbZombieObject
 90
      499
 91
      501
 93
      452
310
43115919D950DBDB1BDC93D999916409028333333333333E33F0000000000000F9010790141107004050150841D405064090741402480A0350
1001
ACAD
1000
AcDbSavedByObjectVersion
1070
     0
  0
ACAD_PROXY_OBJECT
  5
39
102
{ACAD_REACTORS
330
2A
102
}
330
2A
100
AcDbZombieObject
 90
      499
 91
      501
 93
      444
310
42D19858D95C185D1D195C9B90F409028333333333333E33F0000000000000F9010790141107004050150841D405064090741402480A0350
1001
ACAD
1000
AcDbSavedByObjectVersion
1070
     0
  0
ACAD_PROXY_OBJECT
  5
2B
102
{ACAD_REACTORS
330
2A
102
}
330
2A
100
AcDbZombieObject
 90
      499
 91
      501
 93
      380
310
41119B185D240901404333333333333E33F0000000000000F9010740A907004050150841D405064090741402480A1B50
1001
ACAD
1000
AcDbSavedByObjectVersion
1070
     0
  0
ACAD_PROXY_OBJECT
  5
2C
102
{ACAD_REACTORS
330
2A
102
}
330
2A
100
AcDbZombieObject
 90
      499
 91
      501
 93
      468
310
43519B185D15DA5D1A115919D95CD0140901404333333333333E33F0000000000000F90107409019070040501600405405064090741402480A1B50
1001
ACAD
1000
AcDbSavedByObjectVersion
1070
     0
  0
ACAD_PROXY_OBJECT
  5
2D
102
{ACAD_REACTORS
330
2A
102
}
330
2A
100
AcDbZombieObject
 90
      499
 91
      501
 93
      404
310
41D1DBDD5C985D5910240902404333333333333E33F0000000000000F9010740A9070040501641D405064090741402480A1B50
1001
ACAD
1000
AcDbSavedByObjectVersion
1070
     0
  0
ACAD_PROXY_OBJECT
  5
2E
102
{ACAD_REACTORS
330
2A
102
}
330
2A
100
AcDbZombieObject
 90
      499
 91
      501
 93
      492
310
4411DBDD5C985D5915DA5D1A115919D95CD0340902404333333333333E33F0000000000000F90107409019070040501600405405064090741402480A1B50
1001
ACAD
1000
AcDbSavedByObjectVersion
1070
     0
  0
ACAD_PROXY_OBJECT
  5
31
102
{ACAD_REACTORS
330
2A
102
}
330
2A
100
AcDbZombieObject
 90
      499
 91
      501
 93
      476
310
41921A5919195B90640502408333333333333E33F0000000000000F901079024090700405020000000000001110200405405064090740C02480A0340
1001
ACAD
1000
AcDbSavedByObjectVersion
1070
     0
  0
ACAD_PROXY_OBJECT
  5
3B
102
{ACAD_REACTORS
330
2A
102
}
330
2A
100
AcDbZombieObject
 90
      499
 91
      501
 93
      428
310
42529A5D1D195C93D999914409028333333333333E33F0000000000000F9010790141107004050150A41D405064090741402480A0350
1001
ACAD
1000
AcDbSavedByObjectVersion
1070
     0
  0
ACAD_PROXY_OBJECT
  5
38
102
{ACAD_REACTORS
330
2A
102
}
330
2A
100
AcDbZombieObject
 90
      499
 91
      501
 93
      444
310
42D31A5B995C185D1D195C9B90E409028333333333333E33F0000000000000F9010790141107004050750841D405064090741402483A0350
1001
ACAD
1000
AcDbSavedByObjectVersion
1070
     0
  0
ACAD_PROXY_OBJECT
  5
3C
102
{ACAD_REACTORS
330
2A
102
}
330
2A
100
AcDbZombieObject
 90
      499
 91
      501
 93
      444
310
42D3DD995C9A185B99D3D999915409028333333333333E33F0000000000000F9010790141107004050150941D405064090741402480A0350
1001
ACAD
1000
AcDbSavedByObjectVersion
1070
     0
  0
ACAD_PROXY_OBJECT
  5
33
102
{ACAD_REACTORS
330
2A
102
}
330
2A
100
AcDbZombieObject
 90
      499
 91
      501
 93
      428
310
425499585B1A5CDD1A58D08409038333333333333E33F0000000000000F9010740A907004050150800405405064090740C02480A1B40
1001
ACAD
1000
AcDbSavedByObjectVersion
1070
     0
  0
ACAD_PROXY_OBJECT
  5
42
102
{ACAD_REACTORS
330
2A
102
}
330
2A
100
AcDbZombieObject
 90
      499
 91
      501
 93
      420
310
4194DA1859195911B40902404333333333333E33F0000000000000F9010740A41107004050150800405405064090840C02480A0B40
1001
ACAD
1000
AcDbSavedByObjectVersion
1070
     0
  0
ACAD_PROXY_OBJECT
  5
41
102
{ACAD_REACTORS
330
2A
102
}
330
2A
100
AcDbZombieObject
 90
      499
 91
      501
 93
      516
310
4454DA18591959081DDA5D1A08195919D95CD1A40902404333333333333E33F0000000000000F901074090142907004050250800405405064090740C02480A0B40
1001
ACAD
1000
AcDbSavedByObjectVersion
1070
     0
  0
ACAD_PROXY_OBJECT
  5
3E
102
{ACAD_REACTORS
330
2A
102
}
330
2A
100
AcDbZombieObject
 90
      499
 91
      501
 93
      532
310
4394DA1859195CC81BD98811DC985E5174090240C333333333333E33F0000000000000F901079024090741D01000000000000111010841D405064090740C02480A0340
1001
ACAD
1000
AcDbSavedByObjectVersion
1070
     0
  0
ACAD_PROXY_OBJECT
  5
3F
102
{ACAD_REACTORS
330
2A
102
}
330
2A
100
AcDbZombieObject
 90
      499
 91
      501
 93
      476
310
41D4DAD95D18DA1E51840502408333333333333E33F0000000000000F901079024090741D01000000000000111010B41D405064090741802480A0340
1001
ACAD
1000
AcDbSavedByObjectVersion
1070
     0
  0
ACAD_PROXY_OBJECT
  5
37
102
{ACAD_REACTORS
330
2A
102
}
330
2A
100
AcDbZombieObject
 90
      499
 91
      501
 93
      412
310
41D51A1A58DAD95B90D409028333333333333E33F0000000000000F9010790141107004050150C41D405064090741402480A0350
1001
ACAD
1000
AcDbSavedByObjectVersion
1070
     0
  0
ACAD_PROXY_OBJECT
  5
30
102
{ACAD_REACTORS
330
2A
102
}
330
2A
100
AcDbZombieObject
 90
      499
 91
      501
 93
      420
310
4255DA5C99599C985B595059028333333333333E33F0000000000000F90107901411070040501600405405064090740C02480A0340
1001
ACAD
1000
AcDbSavedByObjectVersion
1070
     0
  0
ACAD_PROXY_OBJECT
  5
40
102
{ACAD_REACTORS
330
2A
102
}
330
2A
100
AcDbZombieObject
 90
      499
 91
      501
 93
      404
310
41560B54985E51940902404000000000000E03F0000000000000F9010740501907004050150841D405064090740C02480A1B40
1001
ACAD
1000
AcDbSavedByObjectVersion
1070
     0
  0
DICTIONARYVAR
  5
663
102
{ACAD_REACTORS
330
65C
102
}
330
65C
100
DictionaryVariables
280
     0
  1
1:1
  0
DICTIONARYVAR
  5
65E
102
{ACAD_REACTORS
330
65C
102
}
330
65C
100
DictionaryVariables
280
     0
  1
Standard
  0
DICTIONARYVAR
  5
65D
102
{ACAD_REACTORS
330
65C
102
}
330
65C
100
DictionaryVariables
280
     0
  1
Standard
  0
DICTIONARYVAR
  5
661
102
{ACAD_REACTORS
330
65C
102
}
330
65C
100
DictionaryVariables
280
     0
  1
2
  0
DICTIONARYVAR
  5
662
102
{ACAD_REACTORS
330
65C
102
}
330
65C
100
DictionaryVariables
280
     0
  1
1
  0
DICTIONARYVAR
  5
664
102
{ACAD_REACTORS
330
65C
102
}
330
65C
100
DictionaryVariables
280
     0
  1
1
  0
DICTIONARY
  5
667
330
45
100
AcDbDictionary
  3
ACAD_XREC_ROUNDTRIP
360
668
1001
ACAD
1000
TREAT_AS_HARD
1070
     1
  0
DICTIONARY
  5
665
330
44
100
AcDbDictionary
  3
ACAD_XREC_ROUNDTRIP
360
666
1001
ACAD
1000
TREAT_AS_HARD
1070
     1
  0
DICTIONARY
  5
669
330
46
100
AcDbDictionary
  3
ACAD_XREC_ROUNDTRIP
360
66A
1001
ACAD
1000
TREAT_AS_HARD
1070
     1
  0
XRECORD
  5
668
102
{ACAD_REACTORS
330
667
102
}
330
667
100
AcDbXrecord
102
MATERIAL
148
0.0
149
0.0
149
0.0
 93
        0
 94
      127
282
     0
 72
     1
 77
     1
171
     1
175
     1
179
     1
273
     0
  0
XRECORD
  5
666
102
{ACAD_REACTORS
330
665
102
}
330
665
100
AcDbXrecord
102
MATERIAL
148
0.0
149
0.0
149
0.0
 93
        0
 94
      127
282
     0
 72
     1
 77
     1
171
     1
175
     1
179
     1
273
     0
  0
XRECORD
  5
66A
102
{ACAD_REACTORS
330
669
102
}
330
669
100
AcDbXrecord
102
MATERIAL
148
0.0
149
0.0
149
0.0
 93
        0
 94
      127
282
     0
 72
     1
 77
     1
171
     1
175
     1
179
     1
273
     0
  0
ENDSEC
  0
EOF
