  0
SECTION
  2
HEADER
  9
$ACADVER
  1
AC1012
  9
$DWGCODEPAGE
  3
ansi_932
  9
$INSBASE
 10
0.0
 20
0.0
 30
0.0
  9
$EXTMIN
 10
-7710.000000000003
 20
-5884.000000000003
 30
0.0
  9
$EXTMAX
 10
7709.999999999997
 20
5888.000000000002
 30
0.0
  9
$LIMMIN
 10
-2970.0
 20
-2100.0
  9
$LIMMAX
 10
2970.0
 20
2100.0
  9
$ORTHOMODE
 70
     0
  9
$REGENMODE
 70
     1
  9
$FILLMODE
 70
     1
  9
$QTEXTMODE
 70
     0
  9
$MIRRTEXT
 70
     1
  9
$DRAGMODE
 70
     2
  9
$LTSCALE
 40
5.0
  9
$OSMODE
 70
    37
  9
$ATTMODE
 70
     1
  9
$TEXTSIZE
 40
0.2
  9
$TRACEWID
 40
0.05
  9
$TEXTSTYLE
  7
STANDARD
  9
$CLAYER
  8
0
  9
$CELTYPE
  6
BYLAYER
  9
$CECOLOR
 62
   256
  9
$CELTSCALE
 40
1.0
  9
$DELOBJ
 70
     1
  9
$DISPSILH
 70
     0
  9
$DIMSCALE
 40
1.0
  9
$DIMASZ
 40
60.00003814697266
  9
$DIMEXO
 40
1.0
  9
$DIMDLI
 40
10.0
  9
$DIMRND
 40
0.0
  9
$DIMDLE
 40
0.0
  9
$DIMEXE
 40
1.0
  9
$DIMTP
 40
0.0
  9
$DIMTM
 40
0.0
  9
$DIMTXT
 40
70.0
  9
$DIMCEN
 40
0.0
  9
$DIMTSZ
 40
0.0
  9
$DIMTOL
 70
     0
  9
$DIMLIM
 70
     0
  9
$DIMTIH
 70
     0
  9
$DIMTOH
 70
     0
  9
$DIMSE1
 70
     0
  9
$DIMSE2
 70
     0
  9
$DIMTAD
 70
     1
  9
$DIMZIN
 70
     8
  9
$DIMBLK
  1

  9
$DIMASO
 70
     1
  9
$DIMSHO
 70
     1
  9
$DIMPOST
  1

  9
$DIMAPOST
  1

  9
$DIMALT
 70
     0
  9
$DIMALTD
 70
     2
  9
$DIMALTF
 40
0.0393700787401575
  9
$DIMLFAC
 40
1.0
  9
$DIMTOFL
 70
     0
  9
$DIMTVP
 40
0.0
  9
$DIMTIX
 70
     0
  9
$DIMSOXD
 70
     0
  9
$DIMSAH
 70
     0
  9
$DIMBLK1
  1

  9
$DIMBLK2
  1

  9
$DIMSTYLE
  2
STANDARD
  9
$DIMCLRD
 70
     0
  9
$DIMCLRE
 70
     0
  9
$DIMCLRT
 70
     0
  9
$DIMTFAC
 40
0.65
  9
$DIMGAP
 40
0.09
  9
$DIMJUST
 70
     0
  9
$DIMSD1
 70
     0
  9
$DIMSD2
 70
     0
  9
$DIMTOLJ
 70
     0
  9
$DIMTZIN
 70
     0
  9
$DIMALTZ
 70
     0
  9
$DIMALTTZ
 70
     0
  9
$DIMFIT
 70
     3
  9
$DIMUPT
 70
     0
  9
$DIMUNIT
 70
     2
  9
$DIMDEC
 70
     2
  9
$DIMTDEC
 70
     2
  9
$DIMALTU
 70
     2
  9
$DIMALTTD
 70
     2
  9
$DIMTXSTY
  7
STANDARD
  9
$DIMAUNIT
 70
     0
  9
$LUNITS
 70
     2
  9
$LUPREC
 70
     4
  9
$SKETCHINC
 40
0.1
  9
$FILLETRAD
 40
0.5
  9
$AUNITS
 70
     0
  9
$AUPREC
 70
     0
  9
$MENU
  1
.
  9
$ELEVATION
 40
0.0
  9
$PELEVATION
 40
0.0
  9
$THICKNESS
 40
0.0
  9
$LIMCHECK
 70
     0
  9
$CHAMFERA
 40
0.0
  9
$CHAMFERB
 40
0.0
  9
$CHAMFERC
 40
0.0
  9
$CHAMFERD
 40
0.0
  9
$SKPOLY
 70
     0
  9
$TDCREATE
 40
2459688.467944896
  9
$TDUPDATE
 40
2459688.467945266
  9
$TDINDWG
 40
0.0000000116
  9
$TDUSRTIMER
 40
0.0000000116
  9
$USRTIMER
 70
     1
  9
$ANGBASE
 50
0.0
  9
$ANGDIR
 70
     0
  9
$PDMODE
 70
     0
  9
$PDSIZE
 40
1.0
  9
$PLINEWID
 40
0.0
  9
$COORDS
 70
     1
  9
$SPLFRAME
 70
     0
  9
$SPLINETYPE
 70
     6
  9
$SPLINESEGS
 70
     8
  9
$ATTDIA
 70
     0
  9
$ATTREQ
 70
     1
  9
$HANDLING
 70
     1
  9
$HANDSEED
  5
602
  9
$SURFTAB1
 70
     6
  9
$SURFTAB2
 70
     6
  9
$SURFTYPE
 70
     6
  9
$SURFU
 70
     6
  9
$SURFV
 70
     6
  9
$UCSNAME
  2

  9
$UCSORG
 10
0.0
 20
0.0
 30
0.0
  9
$UCSXDIR
 10
1.0
 20
0.0
 30
0.0
  9
$UCSYDIR
 10
0.0
 20
1.0
 30
0.0
  9
$PUCSNAME
  2

  9
$PUCSORG
 10
0.0
 20
0.0
 30
0.0
  9
$PUCSXDIR
 10
1.0
 20
0.0
 30
0.0
  9
$PUCSYDIR
 10
0.0
 20
1.0
 30
0.0
  9
$USERI1
 70
     0
  9
$USERI2
 70
     0
  9
$USERI3
 70
     0
  9
$USERI4
 70
     0
  9
$USERI5
 70
     0
  9
$USERR1
 40
0.0
  9
$USERR2
 40
0.0
  9
$USERR3
 40
0.0
  9
$USERR4
 40
0.0
  9
$USERR5
 40
0.0
  9
$WORLDVIEW
 70
     1
  9
$SHADEDGE
 70
     3
  9
$SHADEDIF
 70
    70
  9
$TILEMODE
 70
     1
  9
$MAXACTVP
 70
    64
  9
$PINSBASE
 10
0.0
 20
0.0
 30
0.0
  9
$PLIMCHECK
 70
     0
  9
$PEXTMIN
 10
1.000000000000000E+20
 20
1.000000000000000E+20
 30
1.000000000000000E+20
  9
$PEXTMAX
 10
-1.000000000000000E+20
 20
-1.000000000000000E+20
 30
-1.000000000000000E+20
  9
$PLIMMIN
 10
0.0
 20
0.0
  9
$PLIMMAX
 10
12.0
 20
9.0
  9
$UNITMODE
 70
     0
  9
$VISRETAIN
 70
     0
  9
$PLINEGEN
 70
     1
  9
$PSLTSCALE
 70
     0
  9
$TREEDEPTH
 70
  3020
  9
$PICKSTYLE
 70
     1
  9
$CMLSTYLE
  2
STANDARD
  9
$CMLJUST
 70
     0
  9
$CMLSCALE
 40
1.0
  9
$SAVEIMAGES
 70
     0
  0
ENDSEC
  0
SECTION
  2
CLASSES
  0
CLASS
  1
ACDBDICTIONARYWDFLT
  2
AcDbDictionaryWithDefault
  3
ObjectDBX Classes
 90
    32768
280
     0
281
     0
  0
CLASS
  1
VISUALSTYLE
  2
AcDbVisualStyle
  3
ObjectDBX Classes
 90
     4095
280
     0
281
     0
  0
CLASS
  1
MATERIAL
  2
AcDbMaterial
  3
ObjectDBX Classes
 90
     1153
280
     0
281
     0
  0
CLASS
  1
SCALE
  2
AcDbScale
  3
ObjectDBX Classes
 90
     1153
280
     0
281
     0
  0
CLASS
  1
TABLESTYLE
  2
AcDbTableStyle
  3
ObjectDBX Classes
 90
     4095
280
     0
281
     0
  0
CLASS
  1
MLEADERSTYLE
  2
AcDbMLeaderStyle
  3
ACDB_MLEADERSTYLE_CLASS
 90
     4095
280
     0
281
     0
  0
CLASS
  1
SUN
  2
AcDbSun
  3
SCENEOE
 90
     1153
280
     0
281
     0
  0
CLASS
  1
DICTIONARYVAR
  2
AcDbDictionaryVar
  3
ObjectDBX Classes
 90
        0
280
     0
281
     0
  0
CLASS
  1
XRECORD
  2
AcDbXrecord
  3
ObjectDBX Classes
 90
    32768
280
     0
281
     0
  0
CLASS
  1
LWPOLYLINE
  2
AcDbPolyline
  3
ObjectDBX Classes
 90
    32768
280
     0
281
     1
  0
CLASS
  1
HATCH
  2
AcDbHatch
  3
ObjectDBX Classes
 90
    32768
280
     0
281
     1
  0
CLASS
  1
ACDBPLACEHOLDER
  2
AcDbPlaceHolder
  3
ObjectDBX Classes
 90
        0
280
     0
281
     0
  0
CLASS
  1
LAYOUT
  2
AcDbLayout
  3
ObjectDBX Classes
 90
        0
280
     0
281
     0
  0
ENDSEC
  0
SECTION
  2
TABLES
  0
TABLE
  2
VPORT
  5
8
330
0
100
AcDbSymbolTable
 70
     1
  0
VPORT
  5
29
330
8
100
AcDbSymbolTableRecord
100
AcDbViewportTableRecord
  2
*ACTIVE
 70
     0
 10
0.0
 20
0.0
 11
1.0
 21
1.0
 12
-0.0000000000026183
 22
-5.309616106040494
 13
0.0
 23
0.0
 14
0.5
 24
0.5
 15
0.5
 25
0.5
 16
0.0
 26
0.0
 36
1.0
 17
0.0
 27
0.0
 37
0.0
 40
4017.391616856323
 41
1.305025872509432
 42
50.0
 43
0.0
 44
0.0
 50
0.0
 51
0.0
 71
     0
 72
  1000
 73
     1
 74
     1
 75
     0
 76
     0
 77
     0
 78
     0
  0
ENDTAB
  0
TABLE
  2
LTYPE
  5
5
330
0
100
AcDbSymbolTable
 70
    67
  0
LTYPE
  5
14
330
5
100
AcDbSymbolTableRecord
100
AcDbLinetypeTableRecord
  2
BYBLOCK
 70
     0
  3

 72
    65
 73
     0
 40
0.0
  0
LTYPE
  5
15
330
5
100
AcDbSymbolTableRecord
100
AcDbLinetypeTableRecord
  2
BYLAYER
 70
     0
  3

 72
    65
 73
     0
 40
0.0
  0
LTYPE
  5
16
330
5
100
AcDbSymbolTableRecord
100
AcDbLinetypeTableRecord
  2
CONTINUOUS
 70
     0
  3
Solid line
 72
    65
 73
     0
 40
0.0
  0
LTYPE
  5
6F
330
5
100
AcDbSymbolTableRecord
100
AcDbLinetypeTableRecord
  2
HIDDENX2
 70
     0
  3
Hidden (2x) ____ ____ ____ ____ ____ ____ ____ 
 72
    65
 73
     2
 40
19.05
 49
12.7
 74
     0
 49
-6.35
 74
     0
  0
LTYPE
  5
70
330
5
100
AcDbSymbolTableRecord
100
AcDbLinetypeTableRecord
  2
HIDDEN
 70
     0
  3
Hidden __ __ __ __ __ __ __ __ __ __ __ __ __ __
 72
    65
 73
     2
 40
9.524999999999999
 49
6.35
 74
     0
 49
-3.175
 74
     0
  0
LTYPE
  5
71
330
5
100
AcDbSymbolTableRecord
100
AcDbLinetypeTableRecord
  2
HIDDEN2
 70
     0
  3
Hidden (.5x) _ _ _ _ _ _ _ _ _ _ _ _ _ _ _ _ _ 
 72
    65
 73
     2
 40
4.762499999999999
 49
3.175
 74
     0
 49
-1.5875
 74
     0
  0
LTYPE
  5
72
330
5
100
AcDbSymbolTableRecord
100
AcDbLinetypeTableRecord
  2
DASHED
 70
     0
  3
Dashed __ __ __ __ __ __ __ __ __ __ __ __ __ _
 72
    65
 73
     2
 40
19.05
 49
12.7
 74
     0
 49
-6.35
 74
     0
  0
LTYPE
  5
73
330
5
100
AcDbSymbolTableRecord
100
AcDbLinetypeTableRecord
  2
DASHED2
 70
     0
  3
Dashed (.5x) _ _ _ _ _ _ _ _ _ _ _ _ _ _ _ _ _ 
 72
    65
 73
     2
 40
9.524999999999999
 49
6.35
 74
     0
 49
-3.175
 74
     0
  0
LTYPE
  5
74
330
5
100
AcDbSymbolTableRecord
100
AcDbLinetypeTableRecord
  2
DASHEDX2
 70
     0
  3
Dashed (2x) ____  ____  ____  ____  ____  ___
 72
    65
 73
     2
 40
38.09999999999999
 49
25.4
 74
     0
 49
-12.7
 74
     0
  0
LTYPE
  5
75
330
5
100
AcDbSymbolTableRecord
100
AcDbLinetypeTableRecord
  2
DOTX2
 70
     0
  3
Dot (2x) .  .  .  .  .  .  .  .  .  .  .  .  .  .
 72
    65
 73
     2
 40
12.7
 49
0.0
 74
     0
 49
-12.7
 74
     0
  0
LTYPE
  5
76
330
5
100
AcDbSymbolTableRecord
100
AcDbLinetypeTableRecord
  2
DOT
 70
     0
  3
Dot . . . . . . . . . . . . . . . . . . . . . . . .
 72
    65
 73
     2
 40
6.35
 49
0.0
 74
     0
 49
-6.35
 74
     0
  0
LTYPE
  5
77
330
5
100
AcDbSymbolTableRecord
100
AcDbLinetypeTableRecord
  2
DOT2
 70
     0
  3
Dot (.5x) ........................................
 72
    65
 73
     2
 40
3.175
 49
0.0
 74
     0
 49
-3.175
 74
     0
  0
LTYPE
  5
78
330
5
100
AcDbSymbolTableRecord
100
AcDbLinetypeTableRecord
  2
CENTERX2
 70
     0
  3
Center (2x) ________  __  ________  __  _____
 72
    65
 73
     4
 40
101.6
 49
63.5
 74
     0
 49
-12.7
 74
     0
 49
12.7
 74
     0
 49
-12.7
 74
     0
  0
LTYPE
  5
79
330
5
100
AcDbSymbolTableRecord
100
AcDbLinetypeTableRecord
  2
CENTER
 70
     0
  3
Center ____ _ ____ _ ____ _ ____ _ ____ _ ____
 72
    65
 73
     4
 40
50.8
 49
31.75
 74
     0
 49
-6.35
 74
     0
 49
6.35
 74
     0
 49
-6.35
 74
     0
  0
LTYPE
  5
7A
330
5
100
AcDbSymbolTableRecord
100
AcDbLinetypeTableRecord
  2
CENTER2
 70
     0
  3
Center (.5x) ___ _ ___ _ ___ _ ___ _ ___ _ ___
 72
    65
 73
     4
 40
28.575
 49
19.05
 74
     0
 49
-3.175
 74
     0
 49
3.175
 74
     0
 49
-3.175
 74
     0
  0
LTYPE
  5
7B
330
5
100
AcDbSymbolTableRecord
100
AcDbLinetypeTableRecord
  2
DASHDOTX2
 70
     0
  3
Dash dot (2x) ____  .  ____  .  ____  .  ___
 72
    65
 73
     4
 40
50.8
 49
25.4
 74
     0
 49
-12.7
 74
     0
 49
0.0
 74
     0
 49
-12.7
 74
     0
  0
LTYPE
  5
7C
330
5
100
AcDbSymbolTableRecord
100
AcDbLinetypeTableRecord
  2
DASHDOT
 70
     0
  3
Dash dot __ . __ . __ . __ . __ . __ . __ . __
 72
    65
 73
     4
 40
25.4
 49
12.7
 74
     0
 49
-6.35
 74
     0
 49
0.0
 74
     0
 49
-6.35
 74
     0
  0
LTYPE
  5
7D
330
5
100
AcDbSymbolTableRecord
100
AcDbLinetypeTableRecord
  2
DASHDOT2
 70
     0
  3
Dash dot (.5x) _._._._._._._._._._._._._._._.
 72
    65
 73
     4
 40
12.7
 49
6.35
 74
     0
 49
-3.175
 74
     0
 49
0.0
 74
     0
 49
-3.175
 74
     0
  0
LTYPE
  5
7E
330
5
100
AcDbSymbolTableRecord
100
AcDbLinetypeTableRecord
  2
DIVIDEX2
 70
     0
  3
Divide (2x) ________  .  .  ________  .  .  _
 72
    65
 73
     6
 40
63.5
 49
25.4
 74
     0
 49
-12.7
 74
     0
 49
0.0
 74
     0
 49
-12.7
 74
     0
 49
0.0
 74
     0
 49
-12.7
 74
     0
  0
LTYPE
  5
7F
330
5
100
AcDbSymbolTableRecord
100
AcDbLinetypeTableRecord
  2
DIVIDE
 70
     0
  3
Divide ____ . . ____ . . ____ . . ____ . . ____
 72
    65
 73
     6
 40
31.75
 49
12.7
 74
     0
 49
-6.35
 74
     0
 49
0.0
 74
     0
 49
-6.35
 74
     0
 49
0.0
 74
     0
 49
-6.35
 74
     0
  0
LTYPE
  5
80
330
5
100
AcDbSymbolTableRecord
100
AcDbLinetypeTableRecord
  2
DIVIDE2
 70
     0
  3
Divide (.5x) __..__..__..__..__..__..__..__.._
 72
    65
 73
     6
 40
15.875
 49
6.35
 74
     0
 49
-3.175
 74
     0
 49
0.0
 74
     0
 49
-3.175
 74
     0
 49
0.0
 74
     0
 49
-3.175
 74
     0
  0
LTYPE
  5
81
330
5
100
AcDbSymbolTableRecord
100
AcDbLinetypeTableRecord
  2
BORDERX2
 70
     0
  3
Border (2x) ____  ____  .  ____  ____  .  ___
 72
    65
 73
     6
 40
88.89999999999999
 49
25.4
 74
     0
 49
-12.7
 74
     0
 49
25.4
 74
     0
 49
-12.7
 74
     0
 49
0.0
 74
     0
 49
-12.7
 74
     0
  0
LTYPE
  5
82
330
5
100
AcDbSymbolTableRecord
100
AcDbLinetypeTableRecord
  2
BORDER
 70
     0
  3
Border __ __ . __ __ . __ __ . __ __ . __ __ .
 72
    65
 73
     6
 40
44.45
 49
12.7
 74
     0
 49
-6.35
 74
     0
 49
12.7
 74
     0
 49
-6.35
 74
     0
 49
0.0
 74
     0
 49
-6.35
 74
     0
  0
LTYPE
  5
83
330
5
100
AcDbSymbolTableRecord
100
AcDbLinetypeTableRecord
  2
BORDER2
 70
     0
  3
Border (.5x) __.__.__.__.__.__.__.__.__.__.__.
 72
    65
 73
     6
 40
22.225
 49
6.35
 74
     0
 49
-3.175
 74
     0
 49
6.35
 74
     0
 49
-3.175
 74
     0
 49
0.0
 74
     0
 49
-3.175
 74
     0
  0
LTYPE
  5
84
330
5
100
AcDbSymbolTableRecord
100
AcDbLinetypeTableRecord
  2
PHANTOMX2
 70
     0
  3
Phantom (2x) ____________    ____    ____   _
 72
    65
 73
     6
 40
127.0
 49
63.5
 74
     0
 49
-12.7
 74
     0
 49
12.7
 74
     0
 49
-12.7
 74
     0
 49
12.7
 74
     0
 49
-12.7
 74
     0
  0
LTYPE
  5
85
330
5
100
AcDbSymbolTableRecord
100
AcDbLinetypeTableRecord
  2
PHANTOM
 70
     0
  3
Phantom ______  __  __  ______  __  __  ______ 
 72
    65
 73
     6
 40
63.5
 49
31.75
 74
     0
 49
-6.35
 74
     0
 49
6.35
 74
     0
 49
-6.35
 74
     0
 49
6.35
 74
     0
 49
-6.35
 74
     0
  0
LTYPE
  5
86
330
5
100
AcDbSymbolTableRecord
100
AcDbLinetypeTableRecord
  2
PHANTOM2
 70
     0
  3
Phantom (.5x) ___ _ _ ___ _ _ ___ _ _ ___ _ _
 72
    65
 73
     6
 40
31.75
 49
15.875
 74
     0
 49
-3.175
 74
     0
 49
3.175
 74
     0
 49
-3.175
 74
     0
 49
3.175
 74
     0
 49
-3.175
 74
     0
  0
LTYPE
  5
87
330
5
100
AcDbSymbolTableRecord
100
AcDbLinetypeTableRecord
  2
ACAD_ISO06W100
 70
     0
  3
ISO long-dash triple-dot ____ ... ____ ... ____
 72
    65
 73
     8
 40
36.0
 49
24.0
 74
     0
 49
-3.0
 74
     0
 49
0.0
 74
     0
 49
-3.0
 74
     0
 49
0.0
 74
     0
 49
-3.0
 74
     0
 49
0.0
 74
     0
 49
-3.0
 74
     0
  0
LTYPE
  5
88
330
5
100
AcDbSymbolTableRecord
100
AcDbLinetypeTableRecord
  2
ACAD_ISO13W100
 70
     0
  3
ISO double-dash double-dot __ __ . . __ __ . . _
 72
    65
 73
     8
 40
36.0
 49
12.0
 74
     0
 49
-3.0
 74
     0
 49
12.0
 74
     0
 49
-3.0
 74
     0
 49
0.0
 74
     0
 49
-3.0
 74
     0
 49
0.0
 74
     0
 49
-3.0
 74
     0
  0
LTYPE
  5
89
330
5
100
AcDbSymbolTableRecord
100
AcDbLinetypeTableRecord
  2
ACAD_ISO14W100
 70
     0
  3
ISO dash triple-dot __ . . . __ . . . __ . . . _
 72
    65
 73
     8
 40
24.0
 49
12.0
 74
     0
 49
-3.0
 74
     0
 49
0.0
 74
     0
 49
-3.0
 74
     0
 49
0.0
 74
     0
 49
-3.0
 74
     0
 49
0.0
 74
     0
 49
-3.0
 74
     0
  0
LTYPE
  5
8A
330
5
100
AcDbSymbolTableRecord
100
AcDbLinetypeTableRecord
  2
ACAD_ISO02W100
 70
     0
  3
ISO dash __ __ __ __ __ __ __ __ __ __ __ __ __
 72
    65
 73
     2
 40
15.0
 49
12.0
 74
     0
 49
-3.0
 74
     0
  0
LTYPE
  5
8B
330
5
100
AcDbSymbolTableRecord
100
AcDbLinetypeTableRecord
  2
ACAD_ISO03W100
 70
     0
  3
ISO dash space __    __    __    __    __    __
 72
    65
 73
     2
 40
30.0
 49
12.0
 74
     0
 49
-18.0
 74
     0
  0
LTYPE
  5
8C
330
5
100
AcDbSymbolTableRecord
100
AcDbLinetypeTableRecord
  2
ACAD_ISO04W100
 70
     0
  3
ISO long-dash dot ____ . ____ . ____ . ____ . _
 72
    65
 73
     4
 40
30.0
 49
24.0
 74
     0
 49
-3.0
 74
     0
 49
0.0
 74
     0
 49
-3.0
 74
     0
  0
LTYPE
  5
8D
330
5
100
AcDbSymbolTableRecord
100
AcDbLinetypeTableRecord
  2
ACAD_ISO05W100
 70
     0
  3
ISO long-dash double-dot ____ .. ____ .. ____ . 
 72
    65
 73
     6
 40
33.0
 49
24.0
 74
     0
 49
-3.0
 74
     0
 49
0.0
 74
     0
 49
-3.0
 74
     0
 49
0.0
 74
     0
 49
-3.0
 74
     0
  0
LTYPE
  5
8E
330
5
100
AcDbSymbolTableRecord
100
AcDbLinetypeTableRecord
  2
ACAD_ISO07W100
 70
     0
  3
ISO dot . . . . . . . . . . . . . . . . . . . . 
 72
    65
 73
     2
 40
3.0
 49
0.0
 74
     0
 49
-3.0
 74
     0
  0
LTYPE
  5
8F
330
5
100
AcDbSymbolTableRecord
100
AcDbLinetypeTableRecord
  2
ACAD_ISO08W100
 70
     0
  3
ISO long-dash short-dash ____ __ ____ __ ____ _
 72
    65
 73
     4
 40
36.0
 49
24.0
 74
     0
 49
-3.0
 74
     0
 49
6.0
 74
     0
 49
-3.0
 74
     0
  0
LTYPE
  5
90
330
5
100
AcDbSymbolTableRecord
100
AcDbLinetypeTableRecord
  2
ACAD_ISO09W100
 70
     0
  3
ISO long-dash double-short-dash ____ __ __ ____
 72
    65
 73
     6
 40
45.0
 49
24.0
 74
     0
 49
-3.0
 74
     0
 49
6.0
 74
     0
 49
-3.0
 74
     0
 49
6.0
 74
     0
 49
-3.0
 74
     0
  0
LTYPE
  5
91
330
5
100
AcDbSymbolTableRecord
100
AcDbLinetypeTableRecord
  2
ACAD_ISO10W100
 70
     0
  3
ISO dash dot __ . __ . __ . __ . __ . __ . __ . 
 72
    65
 73
     4
 40
18.0
 49
12.0
 74
     0
 49
-3.0
 74
     0
 49
0.0
 74
     0
 49
-3.0
 74
     0
  0
LTYPE
  5
92
330
5
100
AcDbSymbolTableRecord
100
AcDbLinetypeTableRecord
  2
ACAD_ISO11W100
 70
     0
  3
ISO double-dash dot __ __ . __ __ . __ __ . __ _
 72
    65
 73
     6
 40
33.0
 49
12.0
 74
     0
 49
-3.0
 74
     0
 49
12.0
 74
     0
 49
-3.0
 74
     0
 49
0.0
 74
     0
 49
-3.0
 74
     0
  0
LTYPE
  5
93
330
5
100
AcDbSymbolTableRecord
100
AcDbLinetypeTableRecord
  2
ACAD_ISO12W100
 70
     0
  3
ISO dash double-dot __ . . __ . . __ . . __ . . 
 72
    65
 73
     6
 40
21.0
 49
12.0
 74
     0
 49
-3.0
 74
     0
 49
0.0
 74
     0
 49
-3.0
 74
     0
 49
0.0
 74
     0
 49
-3.0
 74
     0
  0
LTYPE
  5
94
330
5
100
AcDbSymbolTableRecord
100
AcDbLinetypeTableRecord
  2
ACAD_ISO15W100
 70
     0
  3
ISO double-dash triple-dot __ __ . . . __ __ . .
 72
    65
 73
    10
 40
39.0
 49
12.0
 74
     0
 49
-3.0
 74
     0
 49
12.0
 74
     0
 49
-3.0
 74
     0
 49
0.0
 74
     0
 49
-3.0
 74
     0
 49
0.0
 74
     0
 49
-3.0
 74
     0
 49
0.0
 74
     0
 49
-3.0
 74
     0
  0
LTYPE
  5
95
330
5
100
AcDbSymbolTableRecord
100
AcDbLinetypeTableRecord
  2
JIS_02_0_7
 70
     0
  3
HIDDEN0.75 _ _ _ _ _ _ _ _ _ _ _ _ _ _ _ _ _ 
 72
    65
 73
     2
 40
1.35
 49
0.75
 74
     0
 49
-0.6
 74
     0
  0
LTYPE
  5
96
330
5
100
AcDbSymbolTableRecord
100
AcDbLinetypeTableRecord
  2
JIS_02_1_0
 70
     0
  3
HIDDEN01 _ _ _ _ _ _ _ _ _ _ _ _ _ _ _ _ _ 
 72
    65
 73
     2
 40
2.0
 49
1.0
 74
     0
 49
-1.0
 74
     0
  0
LTYPE
  5
97
330
5
100
AcDbSymbolTableRecord
100
AcDbLinetypeTableRecord
  2
JIS_02_1_2
 70
     0
  3
HIDDEN01.25  _ _ _ _ _ _ _ _ _ _ _ _ _ _ _ _ _ 
 72
    65
 73
     2
 40
2.5
 49
1.25
 74
     0
 49
-1.25
 74
     0
  0
LTYPE
  5
98
330
5
100
AcDbSymbolTableRecord
100
AcDbLinetypeTableRecord
  2
JIS_02_2_0
 70
     0
  3
HIDDEN02 __ __ __ __ __ __ __ __ __ __ __ 
 72
    65
 73
     2
 40
3.0
 49
2.0
 74
     0
 49
-1.0
 74
     0
  0
LTYPE
  5
99
330
5
100
AcDbSymbolTableRecord
100
AcDbLinetypeTableRecord
  2
JIS_02_4_0
 70
     0
  3
HIDDEN04 ____ ____ ____ ____ ____ ____ ____ 
 72
    65
 73
     2
 40
5.5
 49
4.0
 74
     0
 49
-1.5
 74
     0
  0
LTYPE
  5
9A
330
5
100
AcDbSymbolTableRecord
100
AcDbLinetypeTableRecord
  2
JIS_08_11
 70
     0
  3
1SASEN11 ___ _ ___ _ ___ _ ___ _ ___ _ ___
 72
    65
 73
     4
 40
12.8
 49
11.0
 74
     0
 49
-0.6
 74
     0
 49
0.6
 74
     0
 49
-0.6
 74
     0
  0
LTYPE
  5
9B
330
5
100
AcDbSymbolTableRecord
100
AcDbLinetypeTableRecord
  2
JIS_08_15
 70
     0
  3
1SASEN15 ____ _ ____ _ ____ _ ____ _ ____ 
 72
    65
 73
     4
 40
17.25
 49
15.0
 74
     0
 49
-0.75
 74
     0
 49
0.75
 74
     0
 49
-0.75
 74
     0
  0
LTYPE
  5
9C
330
5
100
AcDbSymbolTableRecord
100
AcDbLinetypeTableRecord
  2
JIS_08_25
 70
     0
  3
1SASEN25 ________  __  ________  __  _____
 72
    65
 73
     4
 40
28.0
 49
25.0
 74
     0
 49
-1.125
 74
     0
 49
0.75
 74
     0
 49
-1.125
 74
     0
  0
LTYPE
  5
9D
330
5
100
AcDbSymbolTableRecord
100
AcDbLinetypeTableRecord
  2
JIS_08_37
 70
     0
  3
1SASEN37 ________  __  ________  __  _____
 72
    65
 73
     4
 40
40.5
 49
37.5
 74
     0
 49
-1.125
 74
     0
 49
0.75
 74
     0
 49
-1.125
 74
     0
  0
LTYPE
  5
9E
330
5
100
AcDbSymbolTableRecord
100
AcDbLinetypeTableRecord
  2
JIS_08_50
 70
     0
  3
1SASEN50 _______________  __  ____________
 72
    65
 73
     4
 40
53.0
 49
50.0
 74
     0
 49
-1.125
 74
     0
 49
0.75
 74
     0
 49
-1.125
 74
     0
  0
LTYPE
  5
9F
330
5
100
AcDbSymbolTableRecord
100
AcDbLinetypeTableRecord
  2
JIS_09_08
 70
     0
  3
2SASEN8 __ _ _ __ _ _ __ _ _ __ _ _ __ _ _ 
 72
    65
 73
     6
 40
10.75
 49
8.0
 74
     0
 49
-0.55
 74
     0
 49
0.55
 74
     0
 49
-0.55
 74
     0
 49
0.55
 74
     0
 49
-0.55
 74
     0
  0
LTYPE
  5
A0
330
5
100
AcDbSymbolTableRecord
100
AcDbLinetypeTableRecord
  2
JIS_09_15
 70
     0
  3
2SASEN15 ___ _ _ ___ _ _ ___ _ _ ___ _ _ ___ 
 72
    65
 73
     6
 40
18.9
 49
15.0
 74
     0
 49
-0.9
 74
     0
 49
0.6
 74
     0
 49
-0.9
 74
     0
 49
0.6
 74
     0
 49
-0.9
 74
     0
  0
LTYPE
  5
A1
330
5
100
AcDbSymbolTableRecord
100
AcDbLinetypeTableRecord
  2
JIS_09_29
 70
     0
  3
2SASEN29 ______　__  __  ______　__  __  ___
 72
    65
 73
     6
 40
34.0
 49
29.0
 74
     0
 49
-1.2
 74
     0
 49
0.7
 74
     0
 49
-1.2
 74
     0
 49
0.7
 74
     0
 49
-1.2
 74
     0
  0
LTYPE
  5
A2
330
5
100
AcDbSymbolTableRecord
100
AcDbLinetypeTableRecord
  2
JIS_09_50
 70
     0
  3
2SASEN50 ____________　__  __  _____________
 72
    65
 73
     6
 40
55.0
 49
50.0
 74
     0
 49
-1.2
 74
     0
 49
0.7
 74
     0
 49
-1.2
 74
     0
 49
0.7
 74
     0
 49
-1.2
 74
     0
  0
LTYPE
  5
A3
330
5
100
AcDbSymbolTableRecord
100
AcDbLinetypeTableRecord
  2
SXF_破線
 70
     0
  3
02 dashed -- -- -- -- -- --
 72
    65
 73
     2
 40
7.5
 49
6.0
 74
     0
 49
-1.5
 74
     0
  0
LTYPE
  5
A4
330
5
100
AcDbSymbolTableRecord
100
AcDbLinetypeTableRecord
  2
SXF_跳び破線
 70
     0
  3
03 dashed_spaced --  --  --  --
 72
    65
 73
     2
 40
12.0
 49
6.0
 74
     0
 49
-6.0
 74
     0
  0
LTYPE
  5
A5
330
5
100
AcDbSymbolTableRecord
100
AcDbLinetypeTableRecord
  2
SXF_一点長鎖線
 70
     0
  3
04 long_dashed_dotted ---- . ---- . ----
 72
    65
 73
     4
 40
15.25
 49
12.0
 74
     0
 49
-1.5
 74
     0
 49
0.25
 74
     0
 49
-1.5
 74
     0
  0
LTYPE
  5
A6
330
5
100
AcDbSymbolTableRecord
100
AcDbLinetypeTableRecord
  2
SXF_二点長鎖線
 70
     0
  3
05 long_dashed_double-dotted ---- . . ---- 
 72
    65
 73
     6
 40
17.0
 49
12.0
 74
     0
 49
-1.5
 74
     0
 49
0.25
 74
     0
 49
-1.5
 74
     0
 49
0.25
 74
     0
 49
-1.5
 74
     0
  0
LTYPE
  5
A7
330
5
100
AcDbSymbolTableRecord
100
AcDbLinetypeTableRecord
  2
SXF_三点長鎖線
 70
     0
  3
06 long_dashed_triplicate-dotted ---- ... ---- 
 72
    65
 73
     8
 40
18.75
 49
12.0
 74
     0
 49
-1.5
 74
     0
 49
0.25
 74
     0
 49
-1.5
 74
     0
 49
0.25
 74
     0
 49
-1.5
 74
     0
 49
0.25
 74
     0
 49
-1.5
 74
     0
  0
LTYPE
  5
A8
330
5
100
AcDbSymbolTableRecord
100
AcDbLinetypeTableRecord
  2
SXF_点線
 70
     0
  3
07 dotted . . . . . . . . . . . . 
 72
    65
 73
     2
 40
1.75
 49
0.25
 74
     0
 49
-1.5
 74
     0
  0
LTYPE
  5
A9
330
5
100
AcDbSymbolTableRecord
100
AcDbLinetypeTableRecord
  2
SXF_一点鎖線
 70
     0
  3
08 chain ---- - --- - --- - ---
 72
    65
 73
     4
 40
18.5
 49
12.0
 74
     0
 49
-1.5
 74
     0
 49
3.5
 74
     0
 49
-1.5
 74
     0
  0
LTYPE
  5
AA
330
5
100
AcDbSymbolTableRecord
100
AcDbLinetypeTableRecord
  2
SXF_二点鎖線
 70
     0
  3
09 chain_double_dash ---- - - ---- - - ----
 72
    65
 73
     6
 40
23.5
 49
12.0
 74
     0
 49
-1.5
 74
     0
 49
3.5
 74
     0
 49
-1.5
 74
     0
 49
3.5
 74
     0
 49
-1.5
 74
     0
  0
LTYPE
  5
AB
330
5
100
AcDbSymbolTableRecord
100
AcDbLinetypeTableRecord
  2
SXF_一点短鎖線
 70
     0
  3
10 dashed_dotted -- . -- . -- . --
 72
    65
 73
     4
 40
9.25
 49
6.0
 74
     0
 49
-1.5
 74
     0
 49
0.25
 74
     0
 49
-1.5
 74
     0
  0
LTYPE
  5
AC
330
5
100
AcDbSymbolTableRecord
100
AcDbLinetypeTableRecord
  2
SXF_一点二短鎖線
 70
     0
  3
11 double-dashed_dotted -- -- . -- --
 72
    65
 73
     6
 40
16.75
 49
6.0
 74
     0
 49
-1.5
 74
     0
 49
6.0
 74
     0
 49
-1.5
 74
     0
 49
0.25
 74
     0
 49
-1.5
 74
     0
  0
LTYPE
  5
AD
330
5
100
AcDbSymbolTableRecord
100
AcDbLinetypeTableRecord
  2
SXF_二点短鎖線
 70
     0
  3
12 dashed_double_dotted -- . . -- . . --
 72
    65
 73
     6
 40
11.0
 49
6.0
 74
     0
 49
-1.5
 74
     0
 49
0.25
 74
     0
 49
-1.5
 74
     0
 49
0.25
 74
     0
 49
-1.5
 74
     0
  0
LTYPE
  5
AE
330
5
100
AcDbSymbolTableRecord
100
AcDbLinetypeTableRecord
  2
SXF_二点二短鎖線
 70
     0
  3
13 double-dashed_double-dotted -- -- . . -- --
 72
    65
 73
     8
 40
18.5
 49
6.0
 74
     0
 49
-1.5
 74
     0
 49
6.0
 74
     0
 49
-1.5
 74
     0
 49
0.25
 74
     0
 49
-1.5
 74
     0
 49
0.25
 74
     0
 49
-1.5
 74
     0
  0
LTYPE
  5
AF
330
5
100
AcDbSymbolTableRecord
100
AcDbLinetypeTableRecord
  2
SXF_三点短鎖線
 70
     0
  3
14 dashed triplicate-dotted -- . . . -- . . . --
 72
    65
 73
     8
 40
12.75
 49
6.0
 74
     0
 49
-1.5
 74
     0
 49
0.25
 74
     0
 49
-1.5
 74
     0
 49
0.25
 74
     0
 49
-1.5
 74
     0
 49
0.25
 74
     0
 49
-1.5
 74
     0
  0
LTYPE
  5
B0
330
5
100
AcDbSymbolTableRecord
100
AcDbLinetypeTableRecord
  2
SXF_三点二短鎖線
 70
     0
  3
15 double-dashed triplicate-dotted -- -- . . . -- -- 
 72
    65
 73
    10
 40
20.25
 49
6.0
 74
     0
 49
-1.5
 74
     0
 49
6.0
 74
     0
 49
-1.5
 74
     0
 49
0.25
 74
     0
 49
-1.5
 74
     0
 49
0.25
 74
     0
 49
-1.5
 74
     0
 49
0.25
 74
     0
 49
-1.5
 74
     0
  0
ENDTAB
  0
TABLE
  2
LAYER
  5
2
330
0
100
AcDbSymbolTable
 70
     3
  0
LAYER
  5
10
330
2
100
AcDbSymbolTableRecord
100
AcDbLayerTableRecord
  2
0
 70
     0
 62
     7
  6
CONTINUOUS
  0
LAYER
  5
B1
330
2
100
AcDbSymbolTableRecord
100
AcDbLayerTableRecord
  2
LAYER0032
 70
     0
 62
     7
  6
CONTINUOUS
  0
LAYER
  5
B2
330
2
100
AcDbSymbolTableRecord
100
AcDbLayerTableRecord
  2
LAYER0048
 70
     0
 62
     7
  6
CONTINUOUS
  0
ENDTAB
  0
TABLE
  2
STYLE
  5
3
330
0
100
AcDbSymbolTable
 70
     4
  0
STYLE
  5
11
330
3
100
AcDbSymbolTableRecord
100
AcDbTextStyleTableRecord
  2
STANDARD
 70
     0
 40
0.0
 41
1.0
 50
0.0
 71
     0
 42
0.2
  3
txt.shx
  4
bigfont.shx
  0
STYLE
  5
FF
330
3
100
AcDbSymbolTableRecord
100
AcDbTextStyleTableRecord
  2
DCSTYLE0
 70
     0
 40
0.0
 41
0.8
 50
0.0
 71
     0
 42
0.2
  3
ＭＳ Ｐゴシック
  4

1001
ACAD
1000
ＭＳ Ｐゴシック
1071
    32802
  0
STYLE
  5
207
330
3
100
AcDbSymbolTableRecord
100
AcDbTextStyleTableRecord
  2
DCSTYLE1
 70
     0
 40
0.0
 41
0.8
 50
0.0
 71
     0
 42
0.2
  3
ＭＳ ゴシック
  4

1001
ACAD
1000
ＭＳ ゴシック
1071
    32802
  0
STYLE
  5
20A
330
3
100
AcDbSymbolTableRecord
100
AcDbTextStyleTableRecord
  2
DCSTYLE2
 70
     0
 40
0.0
 41
0.8
 50
0.0
 71
     0
 42
0.2
  3
HGRSGU.TTC
  4

1001
ACAD
1000
HGP創英角ｺﾞｼｯｸUB
1071
    32802
  0
ENDTAB
  0
TABLE
  2
VIEW
  5
6
330
0
100
AcDbSymbolTable
 70
     0
  0
ENDTAB
  0
TABLE
  2
UCS
  5
7
330
0
100
AcDbSymbolTable
 70
     0
  0
ENDTAB
  0
TABLE
  2
APPID
  5
9
330
0
100
AcDbSymbolTable
 70
     3
  0
APPID
  5
12
330
9
100
AcDbSymbolTableRecord
100
AcDbRegAppTableRecord
  2
ACAD
 70
     0
  0
APPID
  5
6E
330
9
100
AcDbSymbolTableRecord
100
AcDbRegAppTableRecord
  2
DAFUSIONOUT
 70
     0
  0
APPID
  5
601
330
9
100
AcDbSymbolTableRecord
100
AcDbRegAppTableRecord
  2
ACAD_MLEADERVER
 70
     0
  0
ENDTAB
  0
TABLE
  2
DIMSTYLE
  5
A
330
0
100
AcDbSymbolTable
 70
     2
  0
DIMSTYLE
105
27
330
A
100
AcDbSymbolTableRecord
100
AcDbDimStyleTableRecord
  2
STANDARD
 70
     0
  3

  4

  5

  6

  7

 40
1.0
 41
0.18
 42
0.0625
 43
0.38
 44
0.18
 45
0.0
 46
0.0
 47
0.0
 48
0.0
140
0.18
141
0.09
142
0.0
143
25.4
144
1.0
145
0.0
146
1.0
147
0.09
 71
     0
 72
     0
 73
     1
 74
     1
 75
     0
 76
     0
 77
     0
 78
     0
170
     0
171
     2
172
     0
173
     0
174
     0
175
     0
176
     0
177
     0
178
     0
270
     2
271
     4
272
     4
273
     2
274
     2
340
11
275
     0
280
     0
281
     0
282
     0
283
     1
284
     0
285
     0
286
     0
287
     3
288
     0
  0
DIMSTYLE
105
5DC
102
{ACAD_REACTORS
330
5DB
330
5DD
330
5DE
330
5DF
330
5E0
330
5E1
330
5E2
330
5E6
330
5E7
330
5E8
102
}
330
A
100
AcDbSymbolTableRecord
100
AcDbDimStyleTableRecord
  2
DC_ROTATED
 70
     0
  3

  4

  5

  6
OPEN30
  7
OPEN30
 40
1.0
 41
60.00003814697266
 42
20.0
 43
0.38
 44
20.0
 45
0.0
 46
0.0
 47
0.0
 48
0.0
140
60.0
141
0.09
142
0.0
143
25.4
144
1.0
145
0.0
146
1.0
147
20.00000000000006
 71
     0
 72
     0
 73
     0
 74
     0
 75
     0
 76
     0
 77
     3
 78
     8
170
     0
171
     2
172
     1
173
     1
174
     0
175
     0
176
     4
177
     4
178
     4
270
     2
271
     1
272
     4
273
     2
274
     4
340
FF
275
     0
280
     0
281
     0
282
     0
283
     0
284
     8
285
     0
286
     0
287
     3
288
     1
  0
ENDTAB
  0
TABLE
  2
BLOCK_RECORD
  5
1
330
0
100
AcDbSymbolTable
 70
    26
  0
BLOCK_RECORD
  5
1F
330
1
100
AcDbSymbolTableRecord
100
AcDbBlockTableRecord
  2
*MODEL_SPACE
  0
BLOCK_RECORD
  5
1B
330
1
100
AcDbSymbolTableRecord
100
AcDbBlockTableRecord
  2
*PAPER_SPACE
  0
BLOCK_RECORD
  5
B4
330
1
100
AcDbSymbolTableRecord
100
AcDbBlockTableRecord
  2
DC_GROUP_1
  0
BLOCK_RECORD
  5
B7
330
1
100
AcDbSymbolTableRecord
100
AcDbBlockTableRecord
  2
DC_GROUP_2
  0
BLOCK_RECORD
  5
BA
330
1
100
AcDbSymbolTableRecord
100
AcDbBlockTableRecord
  2
DC_GROUP_3
  0
BLOCK_RECORD
  5
BD
330
1
100
AcDbSymbolTableRecord
100
AcDbBlockTableRecord
  2
DC_GROUP_4
  0
BLOCK_RECORD
  5
C0
330
1
100
AcDbSymbolTableRecord
100
AcDbBlockTableRecord
  2
DC_GROUP_5
  0
BLOCK_RECORD
  5
C3
330
1
100
AcDbSymbolTableRecord
100
AcDbBlockTableRecord
  2
DC_GROUP_6
  0
BLOCK_RECORD
  5
C6
330
1
100
AcDbSymbolTableRecord
100
AcDbBlockTableRecord
  2
DC_GROUP_7
  0
BLOCK_RECORD
  5
C9
330
1
100
AcDbSymbolTableRecord
100
AcDbBlockTableRecord
  2
DC_GROUP_8
  0
BLOCK_RECORD
  5
CC
330
1
100
AcDbSymbolTableRecord
100
AcDbBlockTableRecord
  2
DC_GROUP_9
  0
BLOCK_RECORD
  5
CF
330
1
100
AcDbSymbolTableRecord
100
AcDbBlockTableRecord
  2
DC_GROUP_10
  0
BLOCK_RECORD
  5
D2
330
1
100
AcDbSymbolTableRecord
100
AcDbBlockTableRecord
  2
DC_GROUP_11
  0
BLOCK_RECORD
  5
D5
330
1
100
AcDbSymbolTableRecord
100
AcDbBlockTableRecord
  2
*D12
  0
BLOCK_RECORD
  5
D8
330
1
100
AcDbSymbolTableRecord
100
AcDbBlockTableRecord
  2
*D13
  0
BLOCK_RECORD
  5
DB
330
1
100
AcDbSymbolTableRecord
100
AcDbBlockTableRecord
  2
*D14
  0
BLOCK_RECORD
  5
DE
330
1
100
AcDbSymbolTableRecord
100
AcDbBlockTableRecord
  2
*D15
  0
BLOCK_RECORD
  5
E1
330
1
100
AcDbSymbolTableRecord
100
AcDbBlockTableRecord
  2
*D16
  0
BLOCK_RECORD
  5
E4
330
1
100
AcDbSymbolTableRecord
100
AcDbBlockTableRecord
  2
*D17
  0
BLOCK_RECORD
  5
E7
330
1
100
AcDbSymbolTableRecord
100
AcDbBlockTableRecord
  2
*D18
  0
BLOCK_RECORD
  5
EA
330
1
100
AcDbSymbolTableRecord
100
AcDbBlockTableRecord
  2
DC_GROUP_12
  0
BLOCK_RECORD
  5
ED
330
1
100
AcDbSymbolTableRecord
100
AcDbBlockTableRecord
  2
DC_GROUP_13
  0
BLOCK_RECORD
  5
F0
330
1
100
AcDbSymbolTableRecord
100
AcDbBlockTableRecord
  2
DC_GROUP_14
  0
BLOCK_RECORD
  5
F3
330
1
100
AcDbSymbolTableRecord
100
AcDbBlockTableRecord
  2
*D22
  0
BLOCK_RECORD
  5
F6
330
1
100
AcDbSymbolTableRecord
100
AcDbBlockTableRecord
  2
*D23
  0
BLOCK_RECORD
  5
F9
330
1
100
AcDbSymbolTableRecord
100
AcDbBlockTableRecord
  2
*D24
  0
BLOCK_RECORD
  5
FC
330
1
100
AcDbSymbolTableRecord
100
AcDbBlockTableRecord
  2
DC_GROUP_15
  0
BLOCK_RECORD
  5
12B
330
1
100
AcDbSymbolTableRecord
100
AcDbBlockTableRecord
  2
_OPEN30
  0
ENDTAB
  0
ENDSEC
  0
SECTION
  2
BLOCKS
  0
BLOCK
  5
20
330
1F
100
AcDbEntity
  8
0
100
AcDbBlockBegin
  2
*MODEL_SPACE
 70
     0
 10
0.0
 20
0.0
 30
0.0
  3
*MODEL_SPACE
  1

  0
ENDBLK
  5
21
330
1F
100
AcDbEntity
  8
0
100
AcDbBlockEnd
  0
BLOCK
  5
1C
330
1B
100
AcDbEntity
 67
     1
  8
0
100
AcDbBlockBegin
  2
*PAPER_SPACE
 70
     0
 10
0.0
 20
0.0
 30
0.0
  3
*PAPER_SPACE
  1

  0
ENDBLK
  5
1D
330
1B
100
AcDbEntity
 67
     1
  8
0
100
AcDbBlockEnd
  0
BLOCK
  5
B5
330
B4
100
AcDbEntity
  8
0
100
AcDbBlockBegin
  2
DC_GROUP_1
 70
     0
 10
0.0
 20
0.0
 30
0.0
  3
DC_GROUP_1
  1

  0
TEXT
  5
100
330
B4
100
AcDbEntity
  8
LAYER0048
 62
     2
100
AcDbText
 10
-2244.926773139204
 20
-574.470550579308
 30
0.0
 40
100.0
  1
注   意
 41
1.038081189520887
  7
DCSTYLE0
 72
     5
 11
-1804.926773139204
 21
-574.470550579308
 31
0.0
100
AcDbText
  0
LINE
  5
101
330
B4
100
AcDbEntity
  8
LAYER0048
  6
CONTINUOUS
 62
     7
100
AcDbLine
 10
-2254.926773139204
 20
-572.470550579308
 30
0.0
 11
-1794.926773139204
 21
-572.470550579308
 31
0.0
  0
ENDBLK
  5
B6
330
B4
100
AcDbEntity
  8
0
100
AcDbBlockEnd
  0
BLOCK
  5
B8
330
B7
100
AcDbEntity
  8
0
100
AcDbBlockBegin
  2
DC_GROUP_2
 70
     0
 10
0.0
 20
0.0
 30
0.0
  3
DC_GROUP_2
  1

  0
LINE
  5
102
330
B7
100
AcDbEntity
  8
LAYER0032
  6
CONTINUOUS
 62
     3
100
AcDbLine
 10
1592.872704639917
 20
-587.0192434493374
 30
0.0
 11
1591.331731477136
 21
-590.0960594464068
 31
0.0
  0
LINE
  5
103
330
B7
100
AcDbEntity
  8
LAYER0032
  6
CONTINUOUS
 62
     3
100
AcDbLine
 10
1591.331731477136
 20
-590.0960594464068
 30
0.0
 11
1586.717543640784
 21
-602.9595644670553
 31
0.0
  0
LINE
  5
104
330
B7
100
AcDbEntity
  8
LAYER0032
  6
CONTINUOUS
 62
     3
100
AcDbLine
 10
1586.717543640784
 20
-602.9595644670553
 30
0.0
 11
1584.179822984045
 21
-616.4033075045745
 31
0.0
  0
LINE
  5
105
330
B7
100
AcDbEntity
  8
LAYER0032
  6
CONTINUOUS
 62
     3
100
AcDbLine
 10
1584.179822984045
 20
-616.4033075045745
 30
0.0
 11
1582.98717749509
 21
-630.24340182785
 31
0.0
  0
LINE
  5
106
330
B7
100
AcDbEntity
  8
LAYER0032
  6
CONTINUOUS
 62
     3
100
AcDbLine
 10
1582.98717749509
 20
-630.24340182785
 30
0.0
 11
1582.350683223458
 21
-644.2805504014077
 31
0.0
  0
LINE
  5
107
330
B7
100
AcDbEntity
  8
LAYER0032
  6
CONTINUOUS
 62
     3
100
AcDbLine
 10
1582.350683223458
 20
-644.2805504014077
 30
0.0
 11
1581.493748070711
 21
-658.3182606019545
 31
0.0
  0
LINE
  5
108
330
B7
100
AcDbEntity
  8
LAYER0032
  6
CONTINUOUS
 62
     3
100
AcDbLine
 10
1581.493748070711
 20
-658.3182606019545
 30
0.0
 11
1579.993948951659
 21
-672.2405821198572
 31
0.0
  0
LINE
  5
109
330
B7
100
AcDbEntity
  8
LAYER0032
  6
CONTINUOUS
 62
     3
100
AcDbLine
 10
1579.993948951659
 20
-672.2405821198572
 30
0.0
 11
1577.827309921964
 21
-686.0221763404534
 31
0.0
  0
LINE
  5
10A
330
B7
100
AcDbEntity
  8
LAYER0032
  6
CONTINUOUS
 62
     3
100
AcDbLine
 10
1577.827309921964
 20
-686.0221763404534
 30
0.0
 11
1574.991081055892
 21
-699.6425317022222
 31
0.0
  0
LINE
  5
10B
330
B7
100
AcDbEntity
  8
LAYER0032
  6
CONTINUOUS
 62
     3
100
AcDbLine
 10
1574.991081055892
 20
-699.6425317022222
 30
0.0
 11
1571.482512427711
 21
-713.0811366436437
 31
0.0
  0
LINE
  5
10C
330
B7
100
AcDbEntity
  8
LAYER0032
  6
CONTINUOUS
 62
     3
100
AcDbLine
 10
1571.482512427711
 20
-713.0811366436437
 30
0.0
 11
1567.298854111687
 21
-726.3174796031972
 31
0.0
  0
LINE
  5
10D
330
B7
100
AcDbEntity
  8
LAYER0032
  6
CONTINUOUS
 62
     3
100
AcDbLine
 10
1567.298854111687
 20
-726.3174796031972
 30
0.0
 11
1562.437356182086
 21
-739.3310490193635
 31
0.0
  0
LINE
  5
10E
330
B7
100
AcDbEntity
  8
LAYER0032
  6
CONTINUOUS
 62
     3
100
AcDbLine
 10
1562.437356182086
 20
-739.3310490193635
 30
0.0
 11
1556.895268713177
 21
-752.101333330621
 31
0.0
  0
LINE
  5
10F
330
B7
100
AcDbEntity
  8
LAYER0032
  6
CONTINUOUS
 62
     3
100
AcDbLine
 10
1556.895268713177
 20
-752.101333330621
 30
0.0
 11
1550.669841779225
 21
-764.6078209754505
 31
0.0
  0
LINE
  5
110
330
B7
100
AcDbEntity
  8
LAYER0032
  6
CONTINUOUS
 62
     3
100
AcDbLine
 10
1550.669841779225
 20
-764.6078209754505
 30
0.0
 11
1543.777407012185
 21
-776.8380082746971
 31
0.0
  0
LINE
  5
111
330
B7
100
AcDbEntity
  8
LAYER0032
  6
CONTINUOUS
 62
     3
100
AcDbLine
 10
1543.777407012185
 20
-776.8380082746971
 30
0.0
 11
1536.445512127629
 21
-788.868031773407
 31
0.0
  0
LINE
  5
112
330
B7
100
AcDbEntity
  8
LAYER0032
  6
CONTINUOUS
 62
     3
100
AcDbLine
 10
1536.445512127629
 20
-788.868031773407
 30
0.0
 11
1529.033100097251
 21
-800.8291701476701
 31
0.0
  0
LINE
  5
113
330
B7
100
AcDbEntity
  8
LAYER0032
  6
CONTINUOUS
 62
     3
100
AcDbLine
 10
1529.033100097251
 20
-800.8291701476701
 30
0.0
 11
1521.901094927302
 21
-812.853533446566
 31
0.0
  0
LINE
  5
114
330
B7
100
AcDbEntity
  8
LAYER0032
  6
CONTINUOUS
 62
     3
100
AcDbLine
 10
1521.901094927302
 20
-812.853533446566
 30
0.0
 11
1515.410420624031
 21
-825.073231719175
 31
0.0
  0
LINE
  5
115
330
B7
100
AcDbEntity
  8
LAYER0032
  6
CONTINUOUS
 62
     3
100
AcDbLine
 10
1515.410420624031
 20
-825.073231719175
 30
0.0
 11
1509.922001193686
 21
-837.6203750145778
 31
0.0
  0
LINE
  5
116
330
B7
100
AcDbEntity
  8
LAYER0032
  6
CONTINUOUS
 62
     3
100
AcDbLine
 10
1509.922001193686
 20
-837.6203750145778
 30
0.0
 11
1505.796760642517
 21
-850.6270733818537
 31
0.0
  0
LINE
  5
117
330
B7
100
AcDbEntity
  8
LAYER0032
  6
CONTINUOUS
 62
     3
100
AcDbLine
 10
1505.796760642517
 20
-850.6270733818537
 30
0.0
 11
1503.350896668089
 21
-864.2091236192718
 31
0.0
  0
LINE
  5
118
330
B7
100
AcDbEntity
  8
LAYER0032
  6
CONTINUOUS
 62
     3
100
AcDbLine
 10
1503.350896668089
 20
-864.2091236192718
 30
0.0
 11
1502.327676025091
 21
-878.2733545497967
 31
0.0
  0
LINE
  5
119
330
B7
100
AcDbEntity
  8
LAYER0032
  6
CONTINUOUS
 62
     3
100
AcDbLine
 10
1502.327676025091
 20
-878.2733545497967
 30
0.0
 11
1502.073909843351
 21
-892.5819937486267
 31
0.0
  0
LINE
  5
11A
330
B7
100
AcDbEntity
  8
LAYER0032
  6
CONTINUOUS
 62
     3
100
AcDbLine
 10
1502.073909843351
 20
-892.5819937486267
 30
0.0
 11
1501.928484897347
 21
-906.8943785010988
 31
0.0
  0
LINE
  5
11B
330
B7
100
AcDbEntity
  8
LAYER0032
  6
CONTINUOUS
 62
     3
100
AcDbLine
 10
1501.928484897347
 20
-906.8943785010988
 30
0.0
 11
1501.426252936937
 21
-917.0192434493374
 31
0.0
  0
ENDBLK
  5
B9
330
B7
100
AcDbEntity
  8
0
100
AcDbBlockEnd
  0
BLOCK
  5
BB
330
BA
100
AcDbEntity
  8
0
100
AcDbBlockBegin
  2
DC_GROUP_3
 70
     0
 10
0.0
 20
0.0
 30
0.0
  3
DC_GROUP_3
  1

  0
CIRCLE
  5
11C
330
BA
100
AcDbEntity
  8
LAYER0032
  6
CONTINUOUS
 62
     3
100
AcDbCircle
 10
490.3111461601802
 20
67.90223528596471
 30
0.0
 40
4.188
  0
CIRCLE
  5
11D
330
BA
100
AcDbEntity
  8
LAYER0032
  6
CONTINUOUS
 62
     3
100
AcDbCircle
 10
490.3111461601802
 20
67.90223528596471
 30
0.0
 40
5.0
  0
ENDBLK
  5
BC
330
BA
100
AcDbEntity
  8
0
100
AcDbBlockEnd
  0
BLOCK
  5
BE
330
BD
100
AcDbEntity
  8
0
100
AcDbBlockBegin
  2
DC_GROUP_4
 70
     0
 10
0.0
 20
0.0
 30
0.0
  3
DC_GROUP_4
  1

  0
CIRCLE
  5
11E
330
BD
100
AcDbEntity
  8
LAYER0032
  6
CONTINUOUS
 62
     3
100
AcDbCircle
 10
1610.31114616018
 20
67.90223528596471
 30
0.0
 40
4.188
  0
CIRCLE
  5
11F
330
BD
100
AcDbEntity
  8
LAYER0032
  6
CONTINUOUS
 62
     3
100
AcDbCircle
 10
1610.31114616018
 20
67.90223528596471
 30
0.0
 40
5.0
  0
ENDBLK
  5
BF
330
BD
100
AcDbEntity
  8
0
100
AcDbBlockEnd
  0
BLOCK
  5
C1
330
C0
100
AcDbEntity
  8
0
100
AcDbBlockBegin
  2
DC_GROUP_5
 70
     0
 10
0.0
 20
0.0
 30
0.0
  3
DC_GROUP_5
  1

  0
CIRCLE
  5
120
330
C0
100
AcDbEntity
  8
LAYER0032
  6
CONTINUOUS
 62
     3
100
AcDbCircle
 10
1610.31114616018
 20
598.9022352859647
 30
0.0
 40
4.188
  0
CIRCLE
  5
121
330
C0
100
AcDbEntity
  8
LAYER0032
  6
CONTINUOUS
 62
     3
100
AcDbCircle
 10
1610.31114616018
 20
598.9022352859647
 30
0.0
 40
5.0
  0
ENDBLK
  5
C2
330
C0
100
AcDbEntity
  8
0
100
AcDbBlockEnd
  0
BLOCK
  5
C4
330
C3
100
AcDbEntity
  8
0
100
AcDbBlockBegin
  2
DC_GROUP_6
 70
     0
 10
0.0
 20
0.0
 30
0.0
  3
DC_GROUP_6
  1

  0
CIRCLE
  5
122
330
C3
100
AcDbEntity
  8
LAYER0032
  6
CONTINUOUS
 62
     3
100
AcDbCircle
 10
490.3111461601802
 20
598.9022352859647
 30
0.0
 40
4.188
  0
CIRCLE
  5
123
330
C3
100
AcDbEntity
  8
LAYER0032
  6
CONTINUOUS
 62
     3
100
AcDbCircle
 10
490.3111461601802
 20
598.9022352859647
 30
0.0
 40
5.0
  0
ENDBLK
  5
C5
330
C3
100
AcDbEntity
  8
0
100
AcDbBlockEnd
  0
BLOCK
  5
C7
330
C6
100
AcDbEntity
  8
0
100
AcDbBlockBegin
  2
DC_GROUP_7
 70
     0
 10
0.0
 20
0.0
 30
0.0
  3
DC_GROUP_7
  1

  0
LINE
  5
124
330
C6
100
AcDbEntity
  8
LAYER0032
  6
CONTINUOUS
 62
     3
100
AcDbLine
 10
1745.837643160181
 20
333.4022352859647
 30
0.0
 11
1748.724394160181
 21
328.4022352859647
 31
0.0
  0
LINE
  5
125
330
C6
100
AcDbEntity
  8
LAYER0032
  6
CONTINUOUS
 62
     3
100
AcDbLine
 10
1748.724394160181
 20
328.4022352859647
 30
0.0
 11
1754.49789716018
 21
328.4022352859647
 31
0.0
  0
LINE
  5
126
330
C6
100
AcDbEntity
  8
LAYER0032
  6
CONTINUOUS
 62
     3
100
AcDbLine
 10
1754.49789716018
 20
328.4022352859647
 30
0.0
 11
1757.38464816018
 21
333.4022352859647
 31
0.0
  0
LINE
  5
127
330
C6
100
AcDbEntity
  8
LAYER0032
  6
CONTINUOUS
 62
     3
100
AcDbLine
 10
1757.38464816018
 20
333.4022352859647
 30
0.0
 11
1754.49789716018
 21
338.4022352859647
 31
0.0
  0
LINE
  5
128
330
C6
100
AcDbEntity
  8
LAYER0032
  6
CONTINUOUS
 62
     3
100
AcDbLine
 10
1754.49789716018
 20
338.4022352859647
 30
0.0
 11
1748.724394160181
 21
338.4022352859647
 31
0.0
  0
LINE
  5
129
330
C6
100
AcDbEntity
  8
LAYER0032
  6
CONTINUOUS
 62
     3
100
AcDbLine
 10
1748.724394160181
 20
338.4022352859647
 30
0.0
 11
1745.837643160181
 21
333.4022352859647
 31
0.0
  0
ENDBLK
  5
C8
330
C6
100
AcDbEntity
  8
0
100
AcDbBlockEnd
  0
BLOCK
  5
CA
330
C9
100
AcDbEntity
  8
0
100
AcDbBlockBegin
  2
DC_GROUP_8
 70
     0
 10
0.0
 20
0.0
 30
0.0
  3
DC_GROUP_8
  1

  0
LINE
  5
12A
330
C9
100
AcDbEntity
  8
LAYER0032
  6
CONTINUOUS
 62
     4
100
AcDbLine
 10
1678.705648341878
 20
-966.917839991761
 30
0.0
 11
1522.41974016731
 21
-1222.038731097115
 31
0.0
  0
INSERT
  5
131
330
C9
100
AcDbEntity
  8
LAYER0032
 62
     4
100
AcDbBlockReference
  2
_OPEN30
 10
1678.705648341878
 20
-966.917839991761
 30
0.0
 41
60.00005615230571
 42
59.99978736447287
 50
58.50855207800305
  0
LINE
  5
132
330
C9
100
AcDbEntity
  8
LAYER0032
  6
CONTINUOUS
 62
     4
100
AcDbLine
 10
1522.41974016731
 20
-1222.038731097115
 30
0.0
 11
1378.419740167309
 21
-1222.038731097115
 31
0.0
  0
TEXT
  5
133
330
C9
100
AcDbEntity
  8
LAYER0032
 62
     4
100
AcDbText
 10
1378.41974016731
 20
-1222.038731097115
 30
0.0
 40
60.0
  1
エルボ
 41
0.5793528133301135
  7
DCSTYLE0
 72
     5
 11
1522.41974016731
 21
-1222.038731097115
 31
0.0
100
AcDbText
  0
ENDBLK
  5
CB
330
C9
100
AcDbEntity
  8
0
100
AcDbBlockEnd
  0
BLOCK
  5
CD
330
CC
100
AcDbEntity
  8
0
100
AcDbBlockBegin
  2
DC_GROUP_9
 70
     0
 10
0.0
 20
0.0
 30
0.0
  3
DC_GROUP_9
  1

  0
LINE
  5
134
330
CC
100
AcDbEntity
  8
LAYER0032
  6
CONTINUOUS
 62
     4
100
AcDbLine
 10
1712.811146160181
 20
-969.0512942569053
 30
0.0
 11
1562.214653563669
 21
-1331.064147561196
 31
0.0
  0
INSERT
  5
135
330
CC
100
AcDbEntity
  8
LAYER0032
 62
     4
100
AcDbBlockReference
  2
_OPEN30
 10
1712.811146160181
 20
-969.0512942569053
 30
0.0
 41
60.00005615230571
 42
59.99978736447287
 50
67.41280474236648
  0
LINE
  5
136
330
CC
100
AcDbEntity
  8
LAYER0032
  6
CONTINUOUS
 62
     4
100
AcDbLine
 10
1562.214653563669
 20
-1331.064147561196
 30
0.0
 11
1370.214653563669
 21
-1331.064147561196
 31
0.0
  0
TEXT
  5
137
330
CC
100
AcDbEntity
  8
LAYER0032
 62
     4
100
AcDbText
 10
1370.214653565422
 20
-1331.064147561196
 30
0.0
 40
60.0
  1
ニップル
 41
0.6236693312536558
  7
DCSTYLE0
 72
     5
 11
1562.214653565422
 21
-1331.064147561196
 31
0.0
100
AcDbText
  0
ENDBLK
  5
CE
330
CC
100
AcDbEntity
  8
0
100
AcDbBlockEnd
  0
BLOCK
  5
D0
330
CF
100
AcDbEntity
  8
0
100
AcDbBlockBegin
  2
DC_GROUP_10
 70
     0
 10
0.0
 20
0.0
 30
0.0
  3
DC_GROUP_10
  1

  0
LINE
  5
138
330
CF
100
AcDbEntity
  8
LAYER0032
  6
CONTINUOUS
 62
     4
100
AcDbLine
 10
1762.495749125517
 20
-969.5105663278405
 30
0.0
 11
1819.011267334748
 21
-1225.672185362258
 31
0.0
  0
INSERT
  5
139
330
CF
100
AcDbEntity
  8
LAYER0032
 62
     4
100
AcDbBlockReference
  2
_OPEN30
 10
1762.495749125517
 20
-969.5105663278405
 30
0.0
 41
60.00005615230571
 42
59.99978736447287
 50
102.4415410781275
  0
LINE
  5
13A
330
CF
100
AcDbEntity
  8
LAYER0032
  6
CONTINUOUS
 62
     4
100
AcDbLine
 10
1819.011267334748
 20
-1225.672185362258
 30
0.0
 11
2107.011267334748
 21
-1225.672185362258
 31
0.0
  0
TEXT
  5
13B
330
CF
100
AcDbEntity
  8
LAYER0032
 62
     4
100
AcDbText
 10
1819.011267334748
 20
-1225.672185362258
 30
0.0
 40
60.0
  1
ボールバルブ
 41
0.5692490212362084
  7
DCSTYLE0
 72
     5
 11
2107.011267334748
 21
-1225.672185362258
 31
0.0
100
AcDbText
  0
ENDBLK
  5
D1
330
CF
100
AcDbEntity
  8
0
100
AcDbBlockEnd
  0
BLOCK
  5
D3
330
D2
100
AcDbEntity
  8
0
100
AcDbBlockBegin
  2
DC_GROUP_11
 70
     0
 10
0.0
 20
0.0
 30
0.0
  3
DC_GROUP_11
  1

  0
LINE
  5
13C
330
D2
100
AcDbEntity
  8
LAYER0032
  6
CONTINUOUS
 62
     3
100
AcDbLine
 10
1624.998897651142
 20
-918.6577509366748
 30
0.0
 11
1622.099668940961
 21
-924.7360427987155
 31
0.0
  0
LINE
  5
13D
330
D2
100
AcDbEntity
  8
LAYER0032
  6
CONTINUOUS
 62
     3
100
AcDbLine
 10
1622.099668940961
 20
-924.7360427987155
 30
0.0
 11
1618.522670668529
 21
-930.5188769355241
 31
0.0
  0
LINE
  5
13E
330
D2
100
AcDbEntity
  8
LAYER0032
  6
CONTINUOUS
 62
     3
100
AcDbLine
 10
1618.522670668529
 20
-930.5188769355241
 30
0.0
 11
1614.556941634394
 21
-936.1394776654256
 31
0.0
  0
LINE
  5
13F
330
D2
100
AcDbEntity
  8
LAYER0032
  6
CONTINUOUS
 62
     3
100
AcDbLine
 10
1614.556941634394
 20
-936.1394776654256
 30
0.0
 11
1610.497511927626
 21
-941.7337830128204
 31
0.0
  0
LINE
  5
140
330
D2
100
AcDbEntity
  8
LAYER0032
  6
CONTINUOUS
 62
     3
100
AcDbLine
 10
1610.497511927626
 20
-941.7337830128204
 30
0.0
 11
1606.639411637295
 21
-947.4377310021096
 31
0.0
  0
LINE
  5
141
330
D2
100
AcDbEntity
  8
LAYER0032
  6
CONTINUOUS
 62
     3
100
AcDbLine
 10
1606.639411637295
 20
-947.4377310021096
 30
0.0
 11
1603.239106093465
 21
-953.3692033862867
 31
0.0
  0
LINE
  5
142
330
D2
100
AcDbEntity
  8
LAYER0032
  6
CONTINUOUS
 62
     3
100
AcDbLine
 10
1603.239106093465
 20
-953.3692033862867
 30
0.0
 11
1600.303349570374
 21
-959.5291655751939
 31
0.0
  0
LINE
  5
143
330
D2
100
AcDbEntity
  8
LAYER0032
  6
CONTINUOUS
 62
     3
100
AcDbLine
 10
1600.303349570374
 20
-959.5291655751939
 30
0.0
 11
1597.739437355428
 21
-965.8720156330878
 31
0.0
  0
LINE
  5
144
330
D2
100
AcDbEntity
  8
LAYER0032
  6
CONTINUOUS
 62
     3
100
AcDbLine
 10
1597.739437355428
 20
-965.8720156330878
 30
0.0
 11
1595.454408371594
 21
-972.352031592723
 31
0.0
  0
LINE
  5
145
330
D2
100
AcDbEntity
  8
LAYER0032
  6
CONTINUOUS
 62
     3
100
AcDbLine
 10
1625.545997787726
 20
-917.019243449336
 30
0.0
 11
1624.998897651142
 21
-918.6577509366748
 31
0.0
  0
LINE
  5
146
330
D2
100
AcDbEntity
  8
LAYER0032
  6
CONTINUOUS
 62
     3
100
AcDbLine
 10
1593.963571260515
 20
-977.019243449337
 30
0.0
 11
1595.454408371594
 21
-972.352031592723
 31
0.0
  0
ENDBLK
  5
D4
330
D2
100
AcDbEntity
  8
0
100
AcDbBlockEnd
  0
BLOCK
  5
D6
330
D5
100
AcDbEntity
  8
0
100
AcDbBlockBegin
  2
*D12
 70
     1
 10
0.0
 20
0.0
 30
0.0
  3
*D12
  1

  0
LINE
  5
147
330
D5
100
AcDbEntity
  8
LAYER0032
  6
CONTINUOUS
 62
     4
100
AcDbLine
 10
267.7289237305329
 20
67.90223528596471
 30
0.0
 11
267.7289237305329
 21
598.9022352859647
 31
0.0
  0
INSERT
  5
148
330
D5
100
AcDbEntity
  8
LAYER0032
 62
     4
100
AcDbBlockReference
  2
_OPEN30
 10
267.7289237305329
 20
67.90223528596471
 30
0.0
 41
60.00005615230571
 42
59.99978736447287
 50
270.0
  0
INSERT
  5
149
330
D5
100
AcDbEntity
  8
LAYER0032
 62
     4
100
AcDbBlockReference
  2
_OPEN30
 10
267.7289237305329
 20
598.9022352859647
 30
0.0
 41
60.00005615230571
 42
59.99978736447287
 50
90.0
  0
LINE
  5
14A
330
D5
100
AcDbEntity
  8
LAYER0032
  6
CONTINUOUS
 62
     4
100
AcDbLine
 10
325.3111461601802
 20
67.90223528596471
 30
0.0
 11
247.7289237305329
 21
67.90223528596471
 31
0.0
  0
LINE
  5
14B
330
D5
100
AcDbEntity
  8
LAYER0032
  6
CONTINUOUS
 62
     4
100
AcDbLine
 10
325.3111461601802
 20
598.9022352859647
 30
0.0
 11
247.7289237305329
 21
598.9022352859647
 31
0.0
  0
TEXT
  5
14C
330
D5
100
AcDbEntity
  8
LAYER0032
 62
     4
100
AcDbText
 10
247.7289237305328
 20
261.4022352859647
 30
0.0
 40
60.0
  1
531
 50
90.0
 41
1.1
  7
DCSTYLE0
 72
     5
 11
247.7289237305328
 21
405.4022352859647
 31
0.0
100
AcDbText
  0
ENDBLK
  5
D7
330
D5
100
AcDbEntity
  8
0
100
AcDbBlockEnd
  0
BLOCK
  5
D9
330
D8
100
AcDbEntity
  8
0
100
AcDbBlockBegin
  2
*D13
 70
     1
 10
0.0
 20
0.0
 30
0.0
  3
*D13
  1

  0
LINE
  5
14D
330
D8
100
AcDbEntity
  8
LAYER0032
  6
CONTINUOUS
 62
     4
100
AcDbLine
 10
138.1114790998567
 20
-16.59776471403529
 30
0.0
 11
138.1114790998567
 21
683.4022352859647
 31
0.0
  0
INSERT
  5
14E
330
D8
100
AcDbEntity
  8
LAYER0032
 62
     4
100
AcDbBlockReference
  2
_OPEN30
 10
138.1114790998567
 20
-16.59776471403529
 30
0.0
 41
60.00005615230571
 42
59.99978736447287
 50
270.0
  0
INSERT
  5
14F
330
D8
100
AcDbEntity
  8
LAYER0032
 62
     4
100
AcDbBlockReference
  2
_OPEN30
 10
138.1114790998567
 20
683.4022352859647
 30
0.0
 41
60.00005615230571
 42
59.99978736447287
 50
90.0
  0
LINE
  5
150
330
D8
100
AcDbEntity
  8
LAYER0032
  6
CONTINUOUS
 62
     4
100
AcDbLine
 10
373.3111461601802
 20
-16.59776471403529
 30
0.0
 11
118.1114790998567
 21
-16.59776471403529
 31
0.0
  0
LINE
  5
151
330
D8
100
AcDbEntity
  8
LAYER0032
  6
CONTINUOUS
 62
     4
100
AcDbLine
 10
373.3111461601802
 20
683.4022352859647
 30
0.0
 11
118.1114790998567
 21
683.4022352859647
 31
0.0
  0
TEXT
  5
152
330
D8
100
AcDbEntity
  8
LAYER0032
 62
     4
100
AcDbText
 10
118.1114790998566
 20
261.4022352859647
 30
0.0
 40
60.0
  1
700
 50
90.0
 41
1.1
  7
DCSTYLE0
 72
     5
 11
118.1114790998566
 21
405.4022352859647
 31
0.0
100
AcDbText
  0
ENDBLK
  5
DA
330
D8
100
AcDbEntity
  8
0
100
AcDbBlockEnd
  0
BLOCK
  5
DC
330
DB
100
AcDbEntity
  8
0
100
AcDbBlockBegin
  2
*D14
 70
     1
 10
0.0
 20
0.0
 30
0.0
  3
*D14
  1

  0
LINE
  5
153
330
DB
100
AcDbEntity
  8
LAYER0032
  6
CONTINUOUS
 62
     4
100
AcDbLine
 10
619.063131547869
 20
67.90223528596471
 30
0.0
 11
619.063131547869
 21
598.9022352859647
 31
0.0
  0
INSERT
  5
154
330
DB
100
AcDbEntity
  8
LAYER0032
 62
     4
100
AcDbBlockReference
  2
_OPEN30
 10
619.063131547869
 20
67.90223528596471
 30
0.0
 41
60.00005615230571
 42
59.99978736447287
 50
270.0
  0
INSERT
  5
155
330
DB
100
AcDbEntity
  8
LAYER0032
 62
     4
100
AcDbBlockReference
  2
_OPEN30
 10
619.063131547869
 20
598.9022352859647
 30
0.0
 41
60.00005615230571
 42
59.99978736447287
 50
90.0
  0
LINE
  5
156
330
DB
100
AcDbEntity
  8
LAYER0032
  6
CONTINUOUS
 62
     4
100
AcDbLine
 10
541.8728254946461
 20
67.90223528596471
 30
0.0
 11
639.063131547869
 21
67.90223528596471
 31
0.0
  0
LINE
  5
157
330
DB
100
AcDbEntity
  8
LAYER0032
  6
CONTINUOUS
 62
     4
100
AcDbLine
 10
541.8728254946461
 20
598.9022352859647
 30
0.0
 11
639.063131547869
 21
598.9022352859647
 31
0.0
  0
TEXT
  5
158
330
DB
100
AcDbEntity
  8
LAYER0032
 62
     4
100
AcDbText
 10
599.063131547869
 20
261.4022352859647
 30
0.0
 40
60.0
  1
531
 50
90.0
 41
1.1
  7
DCSTYLE0
 72
     5
 11
599.063131547869
 21
405.4022352859647
 31
0.0
100
AcDbText
  0
ENDBLK
  5
DD
330
DB
100
AcDbEntity
  8
0
100
AcDbBlockEnd
  0
BLOCK
  5
DF
330
DE
100
AcDbEntity
  8
0
100
AcDbBlockBegin
  2
*D15
 70
     1
 10
0.0
 20
0.0
 30
0.0
  3
*D15
  1

  0
LINE
  5
159
330
DE
100
AcDbEntity
  8
LAYER0032
  6
CONTINUOUS
 62
     4
100
AcDbLine
 10
490.3111461601802
 20
775.3367057043606
 30
0.0
 11
1610.31114616018
 21
775.3367057043606
 31
0.0
  0
INSERT
  5
15A
330
DE
100
AcDbEntity
  8
LAYER0032
 62
     4
100
AcDbBlockReference
  2
_OPEN30
 10
490.3111461601802
 20
775.3367057043606
 30
0.0
 41
60.00005615230571
 42
59.99978736447287
 50
180.0
  0
INSERT
  5
15B
330
DE
100
AcDbEntity
  8
LAYER0032
 62
     4
100
AcDbBlockReference
  2
_OPEN30
 10
1610.31114616018
 20
775.3367057043606
 30
0.0
 41
60.00005615230571
 42
59.99978736447287
 50
360.0
  0
LINE
  5
15C
330
DE
100
AcDbEntity
  8
LAYER0032
  6
CONTINUOUS
 62
     4
100
AcDbLine
 10
490.3111461601802
 20
648.9022352859647
 30
0.0
 11
490.3111461601802
 21
795.3367057043606
 31
0.0
  0
LINE
  5
15D
330
DE
100
AcDbEntity
  8
LAYER0032
  6
CONTINUOUS
 62
     4
100
AcDbLine
 10
1610.31114616018
 20
648.9022352859647
 30
0.0
 11
1610.31114616018
 21
795.3367057043606
 31
0.0
  0
TEXT
  5
15E
330
DE
100
AcDbEntity
  8
LAYER0032
 62
     4
100
AcDbText
 10
954.3111461601802
 20
795.3367057043597
 30
0.0
 40
60.0
  1
1120
 41
1.1
  7
DCSTYLE0
 72
     5
 11
1146.31114616018
 21
795.3367057043597
 31
0.0
100
AcDbText
  0
ENDBLK
  5
E0
330
DE
100
AcDbEntity
  8
0
100
AcDbBlockEnd
  0
BLOCK
  5
E2
330
E1
100
AcDbEntity
  8
0
100
AcDbBlockBegin
  2
*D16
 70
     1
 10
0.0
 20
0.0
 30
0.0
  3
*D16
  1

  0
LINE
  5
15F
330
E1
100
AcDbEntity
  8
LAYER0032
  6
CONTINUOUS
 62
     4
100
AcDbLine
 10
393.3111461601802
 20
908.2739735271371
 30
0.0
 11
1707.31114616018
 21
908.2739735271371
 31
0.0
  0
INSERT
  5
160
330
E1
100
AcDbEntity
  8
LAYER0032
 62
     4
100
AcDbBlockReference
  2
_OPEN30
 10
393.3111461601802
 20
908.2739735271371
 30
0.0
 41
60.00005615230571
 42
59.99978736447287
 50
180.0
  0
INSERT
  5
161
330
E1
100
AcDbEntity
  8
LAYER0032
 62
     4
100
AcDbBlockReference
  2
_OPEN30
 10
1707.31114616018
 20
908.2739735271371
 30
0.0
 41
60.00005615230571
 42
59.99978736447287
 50
360.0
  0
LINE
  5
162
330
E1
100
AcDbEntity
  8
LAYER0032
  6
CONTINUOUS
 62
     4
100
AcDbLine
 10
393.3111461601802
 20
703.4022352859647
 30
0.0
 11
393.3111461601802
 21
928.2739735271371
 31
0.0
  0
LINE
  5
163
330
E1
100
AcDbEntity
  8
LAYER0032
  6
CONTINUOUS
 62
     4
100
AcDbLine
 10
1707.31114616018
 20
703.4022352859647
 30
0.0
 11
1707.31114616018
 21
928.2739735271371
 31
0.0
  0
TEXT
  5
164
330
E1
100
AcDbEntity
  8
LAYER0032
 62
     4
100
AcDbText
 10
954.3111461601802
 20
928.2739735271371
 30
0.0
 40
60.0
  1
1314
 41
1.1
  7
DCSTYLE0
 72
     5
 11
1146.31114616018
 21
928.2739735271371
 31
0.0
100
AcDbText
  0
ENDBLK
  5
E3
330
E1
100
AcDbEntity
  8
0
100
AcDbBlockEnd
  0
BLOCK
  5
E5
330
E4
100
AcDbEntity
  8
0
100
AcDbBlockBegin
  2
*D17
 70
     1
 10
0.0
 20
0.0
 30
0.0
  3
*D17
  1

  0
LINE
  5
165
330
E4
100
AcDbEntity
  8
LAYER0032
  6
CONTINUOUS
 62
     4
100
AcDbLine
 10
370.3111461601802
 20
1033.375633815764
 30
0.0
 11
1730.31114616018
 21
1033.375633815764
 31
0.0
  0
INSERT
  5
166
330
E4
100
AcDbEntity
  8
LAYER0032
 62
     4
100
AcDbBlockReference
  2
_OPEN30
 10
370.3111461601802
 20
1033.375633815764
 30
0.0
 41
60.00005615230571
 42
59.99978736447287
 50
180.0
  0
INSERT
  5
167
330
E4
100
AcDbEntity
  8
LAYER0032
 62
     4
100
AcDbBlockReference
  2
_OPEN30
 10
1730.31114616018
 20
1033.375633815764
 30
0.0
 41
60.00005615230571
 42
59.99978736447287
 50
360.0
  0
LINE
  5
168
330
E4
100
AcDbEntity
  8
LAYER0032
  6
CONTINUOUS
 62
     4
100
AcDbLine
 10
370.3111461601802
 20
658.9022352859647
 30
0.0
 11
370.3111461601802
 21
1053.375633815764
 31
0.0
  0
LINE
  5
169
330
E4
100
AcDbEntity
  8
LAYER0032
  6
CONTINUOUS
 62
     4
100
AcDbLine
 10
1730.31114616018
 20
658.9022352859647
 30
0.0
 11
1730.31114616018
 21
1053.375633815764
 31
0.0
  0
TEXT
  5
16A
330
E4
100
AcDbEntity
  8
LAYER0032
 62
     4
100
AcDbText
 10
954.3111461601802
 20
1053.375633815764
 30
0.0
 40
60.0
  1
1360
 41
1.1
  7
DCSTYLE0
 72
     5
 11
1146.31114616018
 21
1053.375633815764
 31
0.0
100
AcDbText
  0
ENDBLK
  5
E6
330
E4
100
AcDbEntity
  8
0
100
AcDbBlockEnd
  0
BLOCK
  5
E8
330
E7
100
AcDbEntity
  8
0
100
AcDbBlockBegin
  2
*D18
 70
     1
 10
0.0
 20
0.0
 30
0.0
  3
*D18
  1

  0
LINE
  5
16B
330
E7
100
AcDbEntity
  8
LAYER0032
  6
CONTINUOUS
 62
     4
100
AcDbLine
 10
345.3111461601802
 20
1153.497559316241
 30
0.0
 11
1755.31114616018
 21
1153.497559316241
 31
0.0
  0
INSERT
  5
16C
330
E7
100
AcDbEntity
  8
LAYER0032
 62
     4
100
AcDbBlockReference
  2
_OPEN30
 10
345.3111461601802
 20
1153.497559316241
 30
0.0
 41
60.00005615230571
 42
59.99978736447287
 50
180.0
  0
INSERT
  5
16D
330
E7
100
AcDbEntity
  8
LAYER0032
 62
     4
100
AcDbBlockReference
  2
_OPEN30
 10
1755.31114616018
 20
1153.497559316241
 30
0.0
 41
60.00005615230571
 42
59.99978736447287
 50
360.0
  0
LINE
  5
16E
330
E7
100
AcDbEntity
  8
LAYER0032
  6
CONTINUOUS
 62
     4
100
AcDbLine
 10
345.3111461601802
 20
659.1022352859654
 30
0.0
 11
345.3111461601802
 21
1173.497559316241
 31
0.0
  0
LINE
  5
16F
330
E7
100
AcDbEntity
  8
LAYER0032
  6
CONTINUOUS
 62
     4
100
AcDbLine
 10
1755.31114616018
 20
659.1022352859654
 30
0.0
 11
1755.31114616018
 21
1173.497559316241
 31
0.0
  0
TEXT
  5
170
330
E7
100
AcDbEntity
  8
LAYER0032
 62
     4
100
AcDbText
 10
954.3111461601802
 20
1173.49755931624
 30
0.0
 40
60.0
  1
1410
 41
1.1
  7
DCSTYLE0
 72
     5
 11
1146.31114616018
 21
1173.49755931624
 31
0.0
100
AcDbText
  0
ENDBLK
  5
E9
330
E7
100
AcDbEntity
  8
0
100
AcDbBlockEnd
  0
BLOCK
  5
EB
330
EA
100
AcDbEntity
  8
0
100
AcDbBlockBegin
  2
DC_GROUP_12
 70
     0
 10
0.0
 20
0.0
 30
0.0
  3
DC_GROUP_12
  1

  0
LINE
  5
171
330
EA
100
AcDbEntity
  8
LAYER0032
  6
CONTINUOUS
 62
     4
100
AcDbLine
 10
490.3111461601803
 20
62.9022352859638
 30
0.0
 11
546.5970543347485
 21
-196.2186558193898
 31
0.0
  0
INSERT
  5
172
330
EA
100
AcDbEntity
  8
LAYER0032
 62
     4
100
AcDbBlockReference
  2
_OPEN30
 10
490.3111461601803
 20
62.9022352859638
 30
0.0
 41
60.00005615230571
 42
59.99978736447287
 50
102.2553312357333
  0
LINE
  5
173
330
EA
100
AcDbEntity
  8
LAYER0032
  6
CONTINUOUS
 62
     4
100
AcDbLine
 10
546.5970543347485
 20
-196.2186558193898
 30
0.0
 11
978.5970543347485
 21
-196.2186558193898
 31
0.0
  0
TEXT
  5
174
330
EA
100
AcDbEntity
  8
LAYER0032
 62
     4
100
AcDbText
 10
546.5970543347485
 20
-196.2186558193898
 30
0.0
 40
60.0
  1
４－Ｍ１０×１．５
 41
0.7055484756396434
  7
DCSTYLE0
 72
     5
 11
978.5970543347485
 21
-196.2186558193898
 31
0.0
100
AcDbText
  0
ENDBLK
  5
EC
330
EA
100
AcDbEntity
  8
0
100
AcDbBlockEnd
  0
BLOCK
  5
EE
330
ED
100
AcDbEntity
  8
0
100
AcDbBlockBegin
  2
DC_GROUP_13
 70
     0
 10
0.0
 20
0.0
 30
0.0
  3
DC_GROUP_13
  1

  0
LINE
  5
175
330
ED
100
AcDbEntity
  8
LAYER0032
  6
CONTINUOUS
 62
     4
100
AcDbLine
 10
733.6314170092833
 20
-587.0192434493374
 30
0.0
 11
583.1455318421563
 21
-457.6721853622585
 31
0.0
  0
INSERT
  5
176
330
ED
100
AcDbEntity
  8
LAYER0032
 62
     4
100
AcDbBlockReference
  2
_OPEN30
 10
733.6314170092833
 20
-587.0192434493374
 30
0.0
 41
60.00005615230571
 42
59.99978736447287
 50
319.3199689392983
  0
LINE
  5
177
330
ED
100
AcDbEntity
  8
LAYER0032
  6
CONTINUOUS
 62
     4
100
AcDbLine
 10
583.1455318421563
 20
-457.6721853622585
 30
0.0
 11
487.1455318421559
 21
-457.6721853622585
 31
0.0
  0
TEXT
  5
178
330
ED
100
AcDbEntity
  8
LAYER0032
 62
     4
100
AcDbText
 10
487.1455318421563
 20
-457.6721853622585
 30
0.0
 40
60.0
  1
本体
 41
0.55
  7
DCSTYLE0
 72
     5
 11
583.1455318421563
 21
-457.6721853622585
 31
0.0
100
AcDbText
  0
ENDBLK
  5
EF
330
ED
100
AcDbEntity
  8
0
100
AcDbBlockEnd
  0
BLOCK
  5
F1
330
F0
100
AcDbEntity
  8
0
100
AcDbBlockBegin
  2
DC_GROUP_14
 70
     0
 10
0.0
 20
0.0
 30
0.0
  3
DC_GROUP_14
  1

  0
LINE
  5
179
330
F0
100
AcDbEntity
  8
LAYER0032
  6
CONTINUOUS
 62
     4
100
AcDbLine
 10
733.6314170092833
 20
-977.0192434493383
 30
0.0
 11
583.1455318421563
 21
-1222.672185362259
 31
0.0
  0
INSERT
  5
17A
330
F0
100
AcDbEntity
  8
LAYER0032
 62
     4
100
AcDbBlockReference
  2
_OPEN30
 10
733.6314170092833
 20
-977.0192434493383
 30
0.0
 41
60.00005615230571
 42
59.99978736447287
 50
58.50855207800298
  0
LINE
  5
17B
330
F0
100
AcDbEntity
  8
LAYER0032
  6
CONTINUOUS
 62
     4
100
AcDbLine
 10
583.1455318421563
 20
-1222.672185362259
 30
0.0
 11
487.1455318421559
 21
-1222.672185362259
 31
0.0
  0
TEXT
  5
17C
330
F0
100
AcDbEntity
  8
LAYER0032
 62
     4
100
AcDbText
 10
487.1455318421563
 20
-1222.672185362259
 30
0.0
 40
60.0
  1
架台
 41
0.55
  7
DCSTYLE0
 72
     5
 11
583.1455318421563
 21
-1222.672185362259
 31
0.0
100
AcDbText
  0
ENDBLK
  5
F2
330
F0
100
AcDbEntity
  8
0
100
AcDbBlockEnd
  0
BLOCK
  5
F4
330
F3
100
AcDbEntity
  8
0
100
AcDbBlockBegin
  2
*D22
 70
     1
 10
0.0
 20
0.0
 30
0.0
  3
*D22
  1

  0
LINE
  5
17D
330
F3
100
AcDbEntity
  8
LAYER0032
  6
CONTINUOUS
 62
     4
100
AcDbLine
 10
267.7289237305329
 20
-977.0192434493365
 30
0.0
 11
267.7289237305329
 21
-917.0192434493365
 31
0.0
  0
LINE
  5
17E
330
F3
100
AcDbEntity
  8
LAYER0032
  6
CONTINUOUS
 62
     4
100
AcDbLine
 10
325.3111461601802
 20
-977.0192434493365
 30
0.0
 11
247.7289237305329
 21
-977.0192434493365
 31
0.0
  0
LINE
  5
17F
330
F3
100
AcDbEntity
  8
LAYER0032
  6
CONTINUOUS
 62
     4
100
AcDbLine
 10
350.3111461601802
 20
-917.0192434493365
 30
0.0
 11
247.7289237305329
 21
-917.0192434493365
 31
0.0
  0
LINE
  5
180
330
F3
100
AcDbEntity
  8
LAYER0032
  6
CONTINUOUS
 62
     4
100
AcDbLine
 10
267.7289237305329
 20
-1170.974843449337
 30
0.0
 11
267.7289237305329
 21
-977.0192434493365
 31
0.0
  0
INSERT
  5
181
330
F3
100
AcDbEntity
  8
LAYER0032
 62
     4
100
AcDbBlockReference
  2
_OPEN30
 10
267.7289237305329
 20
-977.0192434493365
 30
0.0
 41
60.00005615230571
 42
59.99978736447287
 50
90.0
  0
TEXT
  5
182
330
F3
100
AcDbEntity
  8
LAYER0032
 62
     4
100
AcDbText
 10
247.7289237305329
 20
-1150.974843449337
 30
0.0
 40
60.0
  1
60
 50
90.0
 41
1.1
  7
DCSTYLE0
 72
     5
 11
247.7289237305329
 21
-1054.974843449337
 31
0.0
100
AcDbText
  0
ENDBLK
  5
F5
330
F3
100
AcDbEntity
  8
0
100
AcDbBlockEnd
  0
BLOCK
  5
F7
330
F6
100
AcDbEntity
  8
0
100
AcDbBlockBegin
  2
*D23
 70
     1
 10
0.0
 20
0.0
 30
0.0
  3
*D23
  1

  0
LINE
  5
183
330
F6
100
AcDbEntity
  8
LAYER0032
  6
CONTINUOUS
 62
     4
100
AcDbLine
 10
267.7289237305329
 20
-917.0192434493365
 30
0.0
 11
267.7289237305329
 21
-587.0192434493365
 31
0.0
  0
INSERT
  5
184
330
F6
100
AcDbEntity
  8
LAYER0032
 62
     4
100
AcDbBlockReference
  2
_OPEN30
 10
267.7289237305329
 20
-917.0192434493365
 30
0.0
 41
60.00005615230571
 42
59.99978736447287
 50
270.0
  0
INSERT
  5
185
330
F6
100
AcDbEntity
  8
LAYER0032
 62
     4
100
AcDbBlockReference
  2
_OPEN30
 10
267.7289237305329
 20
-587.0192434493365
 30
0.0
 41
60.00005615230571
 42
59.99978736447287
 50
90.0
  0
LINE
  5
186
330
F6
100
AcDbEntity
  8
LAYER0032
  6
CONTINUOUS
 62
     4
100
AcDbLine
 10
350.3111461601802
 20
-917.0192434493365
 30
0.0
 11
247.7289237305329
 21
-917.0192434493365
 31
0.0
  0
LINE
  5
187
330
F6
100
AcDbEntity
  8
LAYER0032
  6
CONTINUOUS
 62
     4
100
AcDbLine
 10
373.3111461601802
 20
-587.0192434493365
 30
0.0
 11
247.7289237305329
 21
-587.0192434493365
 31
0.0
  0
TEXT
  5
188
330
F6
100
AcDbEntity
  8
LAYER0032
 62
     4
100
AcDbText
 10
247.7289237305329
 20
-824.0192434493365
 30
0.0
 40
60.0
  1
330
 50
90.0
 41
1.1
  7
DCSTYLE0
 72
     5
 11
247.7289237305329
 21
-680.0192434493365
 31
0.0
100
AcDbText
  0
ENDBLK
  5
F8
330
F6
100
AcDbEntity
  8
0
100
AcDbBlockEnd
  0
BLOCK
  5
FA
330
F9
100
AcDbEntity
  8
0
100
AcDbBlockBegin
  2
*D24
 70
     1
 10
0.0
 20
0.0
 30
0.0
  3
*D24
  1

  0
LINE
  5
189
330
F9
100
AcDbEntity
  8
LAYER0032
  6
CONTINUOUS
 62
     4
100
AcDbLine
 10
138.1114790998567
 20
-977.0192434493365
 30
0.0
 11
138.1114790998567
 21
-587.019243449337
 31
0.0
  0
INSERT
  5
18A
330
F9
100
AcDbEntity
  8
LAYER0032
 62
     4
100
AcDbBlockReference
  2
_OPEN30
 10
138.1114790998567
 20
-977.0192434493365
 30
0.0
 41
60.00005615230571
 42
59.99978736447287
 50
270.0
  0
INSERT
  5
18B
330
F9
100
AcDbEntity
  8
LAYER0032
 62
     4
100
AcDbBlockReference
  2
_OPEN30
 10
138.1114790998567
 20
-587.019243449337
 30
0.0
 41
60.00005615230571
 42
59.99978736447287
 50
90.0
  0
LINE
  5
18C
330
F9
100
AcDbEntity
  8
LAYER0032
  6
CONTINUOUS
 62
     4
100
AcDbLine
 10
325.3111461601802
 20
-977.0192434493365
 30
0.0
 11
118.1114790998567
 21
-977.0192434493365
 31
0.0
  0
LINE
  5
18D
330
F9
100
AcDbEntity
  8
LAYER0032
  6
CONTINUOUS
 62
     4
100
AcDbLine
 10
373.3111461601802
 20
-587.019243449337
 30
0.0
 11
118.1114790998567
 21
-587.019243449337
 31
0.0
  0
TEXT
  5
18E
330
F9
100
AcDbEntity
  8
LAYER0032
 62
     4
100
AcDbText
 10
118.1114790998566
 20
-854.0192434493365
 30
0.0
 40
60.0
  1
390
 50
90.0
 41
1.1
  7
DCSTYLE0
 72
     5
 11
118.1114790998566
 21
-710.0192434493365
 31
0.0
100
AcDbText
  0
ENDBLK
  5
FB
330
F9
100
AcDbEntity
  8
0
100
AcDbBlockEnd
  0
BLOCK
  5
FD
330
FC
100
AcDbEntity
  8
0
100
AcDbBlockBegin
  2
DC_GROUP_15
 70
     0
 10
0.0
 20
0.0
 30
0.0
  3
DC_GROUP_15
  1

  0
LINE
  5
18F
330
FC
100
AcDbEntity
  8
LAYER0032
  6
CONTINUOUS
 62
     4
100
AcDbLine
 10
1730.31114616018
 20
60.9022352859638
 30
0.0
 11
1786.597054334748
 21
-194.2186558193889
 31
0.0
  0
INSERT
  5
190
330
FC
100
AcDbEntity
  8
LAYER0032
 62
     4
100
AcDbBlockReference
  2
_OPEN30
 10
1730.31114616018
 20
60.9022352859638
 30
0.0
 41
60.00005615230571
 42
59.99978736447287
 50
102.4415410781277
  0
LINE
  5
191
330
FC
100
AcDbEntity
  8
LAYER0032
  6
CONTINUOUS
 62
     4
100
AcDbLine
 10
1786.597054334748
 20
-194.2186558193889
 30
0.0
 11
2026.597054334748
 21
-194.2186558193889
 31
0.0
  0
TEXT
  5
192
330
FC
100
AcDbEntity
  8
LAYER0032
 62
     4
100
AcDbText
 10
1786.597054334748
 20
-194.2186558193889
 30
0.0
 40
60.0
  1
４－φ１４
 41
0.6788624787775892
  7
DCSTYLE0
 72
     5
 11
2026.597054334748
 21
-194.2186558193889
 31
0.0
100
AcDbText
  0
ENDBLK
  5
FE
330
FC
100
AcDbEntity
  8
0
100
AcDbBlockEnd
  0
BLOCK
  5
12C
330
12B
100
AcDbEntity
  8
0
100
AcDbBlockBegin
  2
_OPEN30
 70
     0
 10
0.0
 20
0.0
 30
0.0
  3
_OPEN30
  1

  0
LINE
  5
12E
330
12B
100
AcDbEntity
  8
0
  6
BYBLOCK
 62
     0
100
AcDbLine
 10
-1.0
 20
0.267949
 30
0.0
 11
0.0
 21
0.0
 31
0.0
  0
LINE
  5
12F
330
12B
100
AcDbEntity
  8
0
  6
BYBLOCK
 62
     0
100
AcDbLine
 10
0.0
 20
0.0
 30
0.0
 11
-1.0
 21
-0.267949
 31
0.0
  0
LINE
  5
130
330
12B
100
AcDbEntity
  8
0
  6
BYBLOCK
 62
     0
100
AcDbLine
 10
0.0
 20
0.0
 30
0.0
 11
-1.0
 21
0.0
 31
0.0
  0
ENDBLK
  5
12D
330
12B
100
AcDbEntity
  8
0
100
AcDbBlockEnd
  0
ENDSEC
  0
SECTION
  2
ENTITIES
  0
LINE
  5
193
330
1F
100
AcDbEntity
  8
LAYER0048
  6
CONTINUOUS
 62
     7
100
AcDbLine
 10
-2570.000000000003
 20
1963.999999999999
 30
0.0
 11
2569.999999999997
 21
1964.0
 31
0.0
  0
LINE
  5
194
330
1F
100
AcDbEntity
  8
LAYER0048
  6
CONTINUOUS
 62
     7
100
AcDbLine
 10
2569.999999999997
 20
1964.0
 30
0.0
 11
2569.999999999997
 21
-1856.000000000001
 31
0.0
  0
LINE
  5
195
330
1F
100
AcDbEntity
  8
LAYER0048
  6
CONTINUOUS
 62
     7
100
AcDbLine
 10
-2570.000000000003
 20
-1856.000000000001
 30
0.0
 11
-2570.000000000003
 21
1964.0
 31
0.0
  0
LINE
  5
196
330
1F
100
AcDbEntity
  8
LAYER0048
  6
CONTINUOUS
 62
     7
100
AcDbLine
 10
-2253.770102348987
 20
1170.329753864358
 30
0.0
 11
-253.7701023489869
 21
1170.329753864359
 31
0.0
  0
LINE
  5
197
330
1F
100
AcDbEntity
  8
LAYER0048
  6
CONTINUOUS
 62
     7
100
AcDbLine
 10
-253.7701023489869
 20
1458.329753864359
 30
0.0
 11
-253.7701023489869
 21
-349.6702461356425
 31
0.0
  0
LINE
  5
198
330
1F
100
AcDbEntity
  8
LAYER0048
  6
CONTINUOUS
 62
     7
100
AcDbLine
 10
-253.7701023489869
 20
-141.6702461356425
 30
0.0
 11
-2253.770102348987
 21
-141.6702461356425
 31
0.0
  0
LINE
  5
199
330
1F
100
AcDbEntity
  8
LAYER0048
  6
CONTINUOUS
 62
     7
100
AcDbLine
 10
-2253.770102348987
 20
-349.6702461356425
 30
0.0
 11
-2253.770102348987
 21
1458.329753864358
 31
0.0
  0
LINE
  5
19A
330
1F
100
AcDbEntity
  8
LAYER0048
  6
CONTINUOUS
 62
     7
100
AcDbLine
 10
-2253.770102348987
 20
1042.329753864358
 30
0.0
 11
-253.7701023489869
 21
1042.329753864359
 31
0.0
  0
LINE
  5
19B
330
1F
100
AcDbEntity
  8
LAYER0048
  6
CONTINUOUS
 62
     7
100
AcDbLine
 10
-2253.770102348987
 20
450.3297538643575
 30
0.0
 11
-253.7701023489866
 21
450.3297538643584
 31
0.0
  0
LINE
  5
19C
330
1F
100
AcDbEntity
  8
LAYER0048
  6
CONTINUOUS
 62
     7
100
AcDbLine
 10
-1813.770102348987
 20
-349.6702461356425
 30
0.0
 11
-1813.770102348987
 21
1042.329753864358
 31
0.0
  0
LINE
  5
19D
330
1F
100
AcDbEntity
  8
LAYER0048
  6
CONTINUOUS
 62
     7
100
AcDbLine
 10
-2253.770102348987
 20
1330.329753864358
 30
0.0
 11
-253.7701023489869
 21
1330.329753864359
 31
0.0
  0
LINE
  5
19E
330
1F
100
AcDbEntity
  8
LAYER0048
  6
CONTINUOUS
 62
     7
100
AcDbLine
 10
-2253.770102348987
 20
1458.329753864358
 30
0.0
 11
-253.7701023489869
 21
1458.329753864359
 31
0.0
  0
LINE
  5
19F
330
1F
100
AcDbEntity
  8
LAYER0048
  6
CONTINUOUS
 62
     7
100
AcDbLine
 10
-253.7701023489869
 20
-349.6702461356425
 30
0.0
 11
-2253.770102348987
 21
-349.6702461356425
 31
0.0
  0
LINE
  5
1A0
330
1F
100
AcDbEntity
  8
LAYER0048
  6
CONTINUOUS
 62
     7
100
AcDbLine
 10
2569.999999999997
 20
-1856.000000000001
 30
0.0
 11
-2570.000000000003
 21
-1856.000000000001
 31
0.0
  0
LINE
  5
1A1
330
1F
100
AcDbEntity
  8
LAYER0048
  6
CONTINUOUS
 62
     7
100
AcDbLine
 10
-2268.434537186966
 20
-1638.663994023792
 30
0.0
 11
-2263.948046263033
 21
-1634.177503099859
 31
0.0
  0
LINE
  5
1A2
330
1F
100
AcDbEntity
  8
LAYER0048
  6
CONTINUOUS
 62
     7
100
AcDbLine
 10
-2270.362916506676
 20
-1641.723744193401
 30
0.0
 11
-2260.888296093424
 21
-1632.24912378015
 31
0.0
  0
LINE
  5
1A3
330
1F
100
AcDbEntity
  8
LAYER0048
  6
CONTINUOUS
 62
     7
100
AcDbLine
 10
-2271.32280655162
 20
-1643.815005088243
 30
0.0
 11
-2258.797035198584
 21
-1631.289233735208
 31
0.0
  0
LINE
  5
1A4
330
1F
100
AcDbEntity
  8
LAYER0048
  6
CONTINUOUS
 62
     7
100
AcDbLine
 10
-2271.935799392684
 20
-1645.559368779206
 30
0.0
 11
-2257.05267150762
 21
-1630.676240894142
 31
0.0
  0
LINE
  5
1A5
330
1F
100
AcDbEntity
  8
LAYER0048
  6
CONTINUOUS
 62
     7
100
AcDbLine
 10
-2272.346999893683
 20
-1647.101940130104
 30
0.0
 11
-2255.510100156723
 21
-1630.265040393143
 31
0.0
  0
LINE
  5
1A6
330
1F
100
AcDbEntity
  8
LAYER0048
  6
CONTINUOUS
 62
     7
100
AcDbLine
 10
-2272.621545731683
 20
-1648.507856818002
 30
0.0
 11
-2254.104183468825
 21
-1629.990494555143
 31
0.0
  0
LINE
  5
1A7
330
1F
100
AcDbEntity
  8
LAYER0048
  6
CONTINUOUS
 62
     7
100
AcDbLine
 10
-2272.794508252416
 20
-1649.812190188633
 30
0.0
 11
-2252.799850098193
 21
-1629.81753203441
 31
0.0
  0
LINE
  5
1A8
330
1F
100
AcDbEntity
  8
LAYER0048
  6
CONTINUOUS
 62
     7
100
AcDbLine
 10
-2272.886045153575
 20
-1651.035097939692
 30
0.0
 11
-2251.576942347136
 21
-1629.725995133252
 31
0.0
  0
LINE
  5
1A9
330
1F
100
AcDbEntity
  8
LAYER0048
  6
CONTINUOUS
 62
     7
100
AcDbLine
 10
-2272.911252666215
 20
-1652.191676302228
 30
0.0
 11
-2250.420363984597
 21
-1629.700787620611
 31
0.0
  0
LINE
  5
1AA
330
1F
100
AcDbEntity
  8
LAYER0048
  6
CONTINUOUS
 62
     7
100
AcDbLine
 10
-2272.880153468723
 20
-1653.291947954636
 30
0.0
 11
-2249.320092332191
 21
-1629.731886818104
 31
0.0
  0
LINE
  5
1AB
330
1F
100
AcDbEntity
  8
LAYER0048
  6
CONTINUOUS
 62
     7
100
AcDbLine
 10
-2272.798909605419
 20
-1654.342074941229
 30
0.0
 11
-2248.269965345596
 21
-1629.813130681407
 31
0.0
  0
LINE
  5
1AC
330
1F
100
AcDbEntity
  8
LAYER0048
  6
CONTINUOUS
 62
     7
100
AcDbLine
 10
-2272.674407874146
 20
-1655.348944059855
 30
0.0
 11
-2247.263096226973
 21
-1629.937632412682
 31
0.0
  0
LINE
  5
1AD
330
1F
100
AcDbEntity
  8
LAYER0048
  6
CONTINUOUS
 62
     7
100
AcDbLine
 10
-2272.51108730158
 20
-1656.316994337188
 30
0.0
 11
-2246.29504594964
 21
-1630.100952985248
 31
0.0
  0
LINE
  5
1AE
330
1F
100
AcDbEntity
  8
LAYER0048
  6
CONTINUOUS
 62
     7
100
AcDbLine
 10
-2272.311549018046
 20
-1657.248826903552
 30
0.0
 11
-2245.363213383274
 21
-1630.300491268781
 31
0.0
  0
LINE
  5
1AF
330
1F
100
AcDbEntity
  8
LAYER0048
  6
CONTINUOUS
 62
     7
100
AcDbLine
 10
-2272.079335386313
 20
-1658.147984121719
 30
0.0
 11
-2244.464056165108
 21
-1630.532704900513
 31
0.0
  0
LINE
  5
1B0
330
1F
100
AcDbEntity
  8
LAYER0048
  6
CONTINUOUS
 62
     7
100
AcDbLine
 10
-2271.817212164981
 20
-1659.017231750284
 30
0.0
 11
-2243.594808536542
 21
-1630.794828121846
 31
0.0
  0
LINE
  5
1B1
330
1F
100
AcDbEntity
  8
LAYER0048
  6
CONTINUOUS
 62
     7
100
AcDbLine
 10
-2271.52543070771
 20
-1659.856821142912
 30
0.0
 11
-2242.755219143914
 21
-1631.086609579118
 31
0.0
  0
LINE
  5
1B2
330
1F
100
AcDbEntity
  8
LAYER0048
  6
CONTINUOUS
 62
     7
100
AcDbLine
 10
-2271.206998846333
 20
-1660.669760131434
 30
0.0
 11
-2241.942280155393
 21
-1631.405041440493
 31
0.0
  0
LINE
  5
1B3
330
1F
100
AcDbEntity
  8
LAYER0048
  6
CONTINUOUS
 62
     7
100
AcDbLine
 10
-2270.863172614076
 20
-1661.457304749075
 30
0.0
 11
-2241.154735537752
 21
-1631.748867672751
 31
0.0
  0
LINE
  5
1B4
330
1F
100
AcDbEntity
  8
LAYER0048
  6
CONTINUOUS
 62
     7
100
AcDbLine
 10
-2270.494976966199
 20
-1662.220479951097
 30
0.0
 11
-2240.39156033573
 21
-1632.117063320627
 31
0.0
  0
LINE
  5
1B5
330
1F
100
AcDbEntity
  8
LAYER0048
  6
CONTINUOUS
 62
     7
100
AcDbLine
 10
-2270.10328669574
 20
-1662.960160530537
 30
0.0
 11
-2239.651879756289
 21
-1632.508753591086
 31
0.0
  0
LINE
  5
1B6
330
1F
100
AcDbEntity
  8
LAYER0048
  6
CONTINUOUS
 62
     7
100
AcDbLine
 10
-2269.688281092492
 20
-1663.676525777185
 30
0.0
 11
-2238.935514509642
 21
-1632.923759194335
 31
0.0
  0
LINE
  5
1B7
330
1F
100
AcDbEntity
  8
LAYER0048
  6
CONTINUOUS
 62
     7
100
AcDbLine
 10
-2269.251282315955
 20
-1664.370897850547
 30
0.0
 11
-2238.241142436278
 21
-1633.360757970871
 31
0.0
  0
LINE
  5
1B8
330
1F
100
AcDbEntity
  8
LAYER0048
  6
CONTINUOUS
 62
     7
100
AcDbLine
 10
-2268.792803456535
 20
-1665.043789841026
 30
0.0
 11
-2237.568250445801
 21
-1633.819236830293
 31
0.0
  0
LINE
  5
1B9
330
1F
100
AcDbEntity
  8
LAYER0048
  6
CONTINUOUS
 62
     7
100
AcDbLine
 10
-2268.313263490491
 20
-1665.695620724881
 30
0.0
 11
-2236.916419561945
 21
-1634.298776796335
 31
0.0
  0
LINE
  5
1BA
330
1F
100
AcDbEntity
  8
LAYER0048
  6
CONTINUOUS
 62
     7
100
AcDbLine
 10
-2267.812993652565
 20
-1666.326721736854
 30
0.0
 11
-2236.285318549973
 21
-1634.799046634261
 31
0.0
  0
LINE
  5
1BB
330
1F
100
AcDbEntity
  8
LAYER0048
  6
CONTINUOUS
 62
     7
100
AcDbLine
 10
-2267.292242371672
 20
-1666.937341305858
 30
0.0
 11
-2235.674698980969
 21
-1635.319797915156
 31
0.0
  0
LINE
  5
1BC
330
1F
100
AcDbEntity
  8
LAYER0048
  6
CONTINUOUS
 62
     7
100
AcDbLine
 10
-2266.751178913801
 20
-1667.527648697886
 30
0.0
 11
-2235.084391588941
 21
-1635.860861373025
 31
0.0
  0
LINE
  5
1BD
330
1F
100
AcDbEntity
  8
LAYER0048
  6
CONTINUOUS
 62
     7
100
AcDbLine
 10
-2266.189895836349
 20
-1668.097736470333
 30
0.0
 11
-2234.514303816493
 21
-1636.422144450477
 31
0.0
  0
LINE
  5
1BE
330
1F
100
AcDbEntity
  8
LAYER0048
  6
CONTINUOUS
 62
     7
100
AcDbLine
 10
-2265.60841032303
 20
-1668.647621806912
 30
0.0
 11
-2233.964418479914
 21
-1637.003629963796
 31
0.0
  0
LINE
  5
1BF
330
1F
100
AcDbEntity
  8
LAYER0048
  6
CONTINUOUS
 62
     7
100
AcDbLine
 10
-2265.006664436689
 20
-1669.177246770468
 30
0.0
 11
-2233.434793516357
 21
-1637.605375850138
 31
0.0
  0
LINE
  5
1C0
330
1F
100
AcDbEntity
  8
LAYER0048
  6
CONTINUOUS
 62
     7
100
AcDbLine
 10
-2264.384524297149
 20
-1669.686477480828
 30
0.0
 11
-2232.925562805999
 21
-1638.227515989678
 31
0.0
  0
LINE
  5
1C1
330
1F
100
AcDbEntity
  8
LAYER0048
  6
CONTINUOUS
 62
     7
100
AcDbLine
 10
-2263.741778161332
 20
-1670.175102194908
 30
0.0
 11
-2232.436938091917
 21
-1638.870262125495
 31
0.0
  0
LINE
  5
1C2
330
1F
100
AcDbEntity
  8
LAYER0048
  6
CONTINUOUS
 62
     7
100
AcDbLine
 10
-2263.078133352039
 20
-1670.642828235515
 30
0.0
 11
-2231.969212051311
 21
-1639.533906934787
 31
0.0
  0
LINE
  5
1C3
330
1F
100
AcDbEntity
  8
LAYER0048
  6
CONTINUOUS
 62
     7
100
AcDbLine
 10
-2262.393211948476
 20
-1671.089277681851
 30
0.0
 11
-2231.522762604975
 21
-1640.21882833835
 31
0.0
  0
LINE
  5
1C4
330
1F
100
AcDbEntity
  8
LAYER0048
  6
CONTINUOUS
 62
     7
100
AcDbLine
 10
-2261.686165990595
 20
-1671.513602573867
 30
0.0
 11
-2231.09843771296
 21
-1640.925874296233
 31
0.0
  0
LINE
  5
1C5
330
1F
100
AcDbEntity
  8
LAYER0048
  6
CONTINUOUS
 62
     7
100
AcDbLine
 10
-2260.956525654039
 20
-1671.91533308721
 30
0.0
 11
-2230.696707199616
 21
-1641.655514632787
 31
0.0
  0
LINE
  5
1C6
330
1F
100
AcDbEntity
  8
LAYER0048
  6
CONTINUOUS
 62
     7
100
AcDbLine
 10
-2260.203757560405
 20
-1672.293935843475
 30
0.0
 11
-2230.318104443351
 21
-1642.40828272642
 31
0.0
  0
LINE
  5
1C7
330
1F
100
AcDbEntity
  8
LAYER0048
  6
CONTINUOUS
 62
     7
100
AcDbLine
 10
-2259.427041569628
 20
-1672.648590702597
 30
0.0
 11
-2229.96344958423
 21
-1643.184998717199
 31
0.0
  0
LINE
  5
1C8
330
1F
100
AcDbEntity
  8
LAYER0048
  6
CONTINUOUS
 62
     7
100
AcDbLine
 10
-2258.625421603339
 20
-1672.978341586206
 30
0.0
 11
-2229.63369870062
 21
-1643.986618683487
 31
0.0
  0
LINE
  5
1C9
330
1F
100
AcDbEntity
  8
LAYER0048
  6
CONTINUOUS
 62
     7
100
AcDbLine
 10
-2257.797686128069
 20
-1673.281976960835
 30
0.0
 11
-2229.330063325992
 21
-1644.814354158758
 31
0.0
  0
LINE
  5
1CA
330
1F
100
AcDbEntity
  8
LAYER0048
  6
CONTINUOUS
 62
     7
100
AcDbLine
 10
-2256.941116461713
 20
-1673.556778144376
 30
0.0
 11
-2229.055262142451
 21
-1645.670923825114
 31
0.0
  0
LINE
  5
1CB
330
1F
100
AcDbEntity
  8
LAYER0048
  6
CONTINUOUS
 62
     7
100
AcDbLine
 10
-2256.055426921468
 20
-1673.802459454031
 30
0.0
 11
-2228.809580832797
 21
-1646.556613365358
 31
0.0
  0
LINE
  5
1CC
330
1F
100
AcDbEntity
  8
LAYER0048
  6
CONTINUOUS
 62
     7
100
AcDbLine
 10
-2255.138376622504
 20
-1674.016780004965
 30
0.0
 11
-2228.595260281861
 21
-1647.473663664322
 31
0.0
  0
LINE
  5
1CD
330
1F
100
AcDbEntity
  8
LAYER0048
  6
CONTINUOUS
 62
     7
100
AcDbLine
 10
-2254.186012634846
 20
-1674.195786867204
 30
0.0
 11
-2228.416253419621
 21
-1648.42602765198
 31
0.0
  0
LINE
  5
1CE
330
1F
100
AcDbEntity
  8
LAYER0048
  6
CONTINUOUS
 62
     7
100
AcDbLine
 10
-2253.196995388402
 20
-1674.338140470659
 30
0.0
 11
-2228.273899816166
 21
-1649.415044898424
 31
0.0
  0
LINE
  5
1CF
330
1F
100
AcDbEntity
  8
LAYER0048
  6
CONTINUOUS
 62
     7
100
AcDbLine
 10
-2252.165733709026
 20
-1674.438249641182
 30
0.0
 11
-2228.173790645644
 21
-1650.4463065778
 31
0.0
  0
LINE
  5
1D0
330
1F
100
AcDbEntity
  8
LAYER0048
  6
CONTINUOUS
 62
     7
100
AcDbLine
 10
-2251.087848283468
 20
-1674.491735065522
 30
0.0
 11
-2228.120305221303
 21
-1651.524192003358
 31
0.0
  0
LINE
  5
1D1
330
1F
100
AcDbEntity
  8
LAYER0048
  6
CONTINUOUS
 62
     7
100
AcDbLine
 10
-2249.957021152568
 20
-1674.492278784522
 30
0.0
 11
-2228.119761502305
 21
-1652.655019134258
 31
0.0
  0
LINE
  5
1D2
330
1F
100
AcDbEntity
  8
LAYER0048
  6
CONTINUOUS
 62
     7
100
AcDbLine
 10
-2248.764210493042
 20
-1674.430838974893
 30
0.0
 11
-2228.181201311933
 21
-1653.847829793785
 31
0.0
  0
LINE
  5
1D3
330
1F
100
AcDbEntity
  8
LAYER0048
  6
CONTINUOUS
 62
     7
100
AcDbLine
 10
-2247.497549701396
 20
-1674.295549033146
 30
0.0
 11
-2228.316491253679
 21
-1655.11449058543
 31
0.0
  0
LINE
  5
1D4
330
1F
100
AcDbEntity
  8
LAYER0048
  6
CONTINUOUS
 62
     7
100
AcDbLine
 10
-2246.138922648743
 20
-1674.068292830391
 30
0.0
 11
-2228.543747456435
 21
-1656.473117638084
 31
0.0
  0
LINE
  5
1D5
330
1F
100
AcDbEntity
  8
LAYER0048
  6
CONTINUOUS
 62
     7
100
AcDbLine
 10
-2244.661202519187
 20
-1673.721943550734
 30
0.0
 11
-2228.890096736092
 21
-1657.950837767639
 31
0.0
  0
LINE
  5
1D6
330
1F
100
AcDbEntity
  8
LAYER0048
  6
CONTINUOUS
 62
     7
100
AcDbLine
 10
-2243.015210545058
 20
-1673.207322426504
 30
0.0
 11
-2229.404717860323
 21
-1659.596829741769
 31
0.0
  0
LINE
  5
1D7
330
1F
100
AcDbEntity
  8
LAYER0048
  6
CONTINUOUS
 62
     7
100
AcDbLine
 10
-2241.104924181549
 20
-1672.428406912891
 30
0.0
 11
-2230.183633373935
 21
-1661.507116105279
 31
0.0
  0
LINE
  5
1D8
330
1F
100
AcDbEntity
  8
LAYER0048
  6
CONTINUOUS
 62
     7
100
AcDbLine
 10
-2238.640621210143
 20
-1671.095474791385
 30
0.0
 11
-2231.516565495442
 21
-1663.971419076684
 31
0.0
  0
LINE
  5
1D9
330
1F
100
AcDbEntity
  8
LAYER0048
  6
CONTINUOUS
 62
     7
100
AcDbLine
 10
-2268.463395262278
 20
-1635.221631365004
 30
0.0
 11
-2284.112052822583
 21
-1590.099987464245
 31
0.0
  0
LINE
  5
1DA
330
1F
100
AcDbEntity
  8
LAYER0048
  6
CONTINUOUS
 62
     7
100
AcDbLine
 10
-2268.463395262278
 20
-1668.978343563484
 30
0.0
 11
-2284.112052822582
 21
-1708.099987464244
 31
0.0
  0
LINE
  5
1DB
330
1F
100
AcDbEntity
  8
LAYER0048
  6
CONTINUOUS
 62
     7
100
AcDbLine
 10
-2216.912052822582
 20
-1708.099987464244
 30
0.0
 11
-2232.560710382884
 21
-1668.978343563484
 31
0.0
  0
LINE
  5
1DC
330
1F
100
AcDbEntity
  8
LAYER0048
  6
CONTINUOUS
 62
     7
100
AcDbLine
 10
-2216.912052822583
 20
-1590.099987464245
 30
0.0
 11
-2232.560710382884
 21
-1635.221631365004
 31
0.0
  0
LINE
  5
1DD
330
1F
100
AcDbEntity
  8
LAYER0048
  6
CONTINUOUS
 62
     7
100
AcDbLine
 10
-2284.112052822582
 20
-1708.099987464244
 30
0.0
 11
-2306.512052822582
 21
-1652.099987464244
 31
0.0
  0
LINE
  5
1DE
330
1F
100
AcDbEntity
  8
LAYER0048
  6
CONTINUOUS
 62
     7
100
AcDbLine
 10
-2284.112052822583
 20
-1590.099987464245
 30
0.0
 11
-2306.512052822582
 21
-1652.099987464244
 31
0.0
  0
LINE
  5
1DF
330
1F
100
AcDbEntity
  8
LAYER0048
  6
CONTINUOUS
 62
     7
100
AcDbLine
 10
-2194.512052822582
 20
-1652.099987464244
 30
0.0
 11
-2216.912052822582
 21
-1708.099987464244
 31
0.0
  0
LINE
  5
1E0
330
1F
100
AcDbEntity
  8
LAYER0048
  6
CONTINUOUS
 62
     7
100
AcDbLine
 10
-2194.512052822582
 20
-1652.099987464244
 30
0.0
 11
-2216.912052822583
 21
-1590.099987464245
 31
0.0
  0
ARC
  5
1E1
330
1F
100
AcDbEntity
  8
LAYER0048
  6
CONTINUOUS
 62
     7
100
AcDbCircle
 10
-2250.512052822582
 20
-1652.099987464244
 30
0.0
 40
24.63999999999909
100
AcDbArc
 50
223.2354670295922
 51
316.7645329704119
  0
ARC
  5
1E2
330
1F
100
AcDbEntity
  8
LAYER0048
  6
CONTINUOUS
 62
     7
100
AcDbCircle
 10
-2250.512052822582
 20
-1652.099987464244
 30
0.0
 40
24.64000000000141
100
AcDbArc
 50
43.23546702959138
 51
136.7645329704061
  0
CIRCLE
  5
1E3
330
1F
100
AcDbEntity
  8
LAYER0048
  6
CONTINUOUS
 62
     7
100
AcDbCircle
 10
-2250.512052822582
 20
-1652.099987464244
 30
0.0
 40
22.4
  0
TEXT
  5
1E4
330
1F
100
AcDbEntity
  8
LAYER0048
 62
     4
100
AcDbText
 10
-160.3865868719981
 20
-1607.721142094924
 30
0.0
 40
80.0
  1
（1314-4.6）×（700-4.6）×（330-4.6）/10　=296リットル
 41
1.031142357166978
  7
DCSTYLE0
 72
     5
 11
2527.613413128002
 21
-1607.721142094924
 31
0.0
100
AcDbText
  0
TEXT
  5
1E5
330
1F
100
AcDbEntity
  8
LAYER0048
 62
     4
100
AcDbText
 10
-219.8493408662927
 20
-1452.410546139361
 30
0.0
 40
100.0
  1
容量計算
 41
0.653125
  7
DCSTYLE0
 72
     5
 11
160.1506591337073
 21
-1452.410546139361
 31
0.0
100
AcDbText
  0
TEXT
  5
1E6
330
1F
100
AcDbEntity
  8
LAYER0048
 62
     4
100
AcDbText
 10
-2205.770102348987
 20
951.3297538643585
 30
0.0
 40
70.0
  1
容　　　量
 41
0.8460976329905026
  7
DCSTYLE0
 72
     5
 11
-1861.770102348987
 21
951.3297538643585
 31
0.0
100
AcDbText
  0
TEXT
  5
1E7
330
1F
100
AcDbEntity
  8
LAYER0048
 62
     4
100
AcDbText
 10
-2205.770102348987
 20
855.3297538643587
 30
0.0
 40
70.0
  1
適用タンク
 41
0.7620916626036079
  7
DCSTYLE0
 72
     5
 11
-1861.770102348987
 21
855.3297538643587
 31
0.0
100
AcDbText
  0
TEXT
  5
1E8
330
1F
100
AcDbEntity
  8
LAYER0048
 62
     4
100
AcDbText
 10
-2205.770102348987
 20
759.3297538643577
 30
0.0
 40
70.0
  1
本体材質
 41
0.8446428571428571
  7
DCSTYLE0
 72
     5
 11
-1861.770102348987
 21
759.3297538643577
 31
0.0
100
AcDbText
  0
TEXT
  5
1E9
330
1F
100
AcDbEntity
  8
LAYER0048
 62
     4
100
AcDbText
 10
-2205.770102348987
 20
663.3297538643571
 30
0.0
 40
70.0
  1
本体板厚
 41
0.8446428571428571
  7
DCSTYLE0
 72
     5
 11
-1861.770102348987
 21
663.3297538643571
 31
0.0
100
AcDbText
  0
TEXT
  5
1EA
330
1F
100
AcDbEntity
  8
LAYER0048
 62
     4
100
AcDbText
 10
-2205.770102348987
 20
263.3297538643579
 30
0.0
 40
70.0
  1
水　抜　口
 41
0.7804961641472605
  7
DCSTYLE0
 72
     5
 11
-1861.770102348987
 21
263.3297538643579
 31
0.0
100
AcDbText
  0
TEXT
  5
1EB
330
1F
100
AcDbEntity
  8
LAYER0048
 62
     4
100
AcDbText
 10
-1734.534847563039
 20
951.3297538643578
 30
0.0
 40
70.0
  1
296　リットル
 41
1.013001818890477
  7
DCSTYLE0
 72
     5
 11
-1188.534847563039
 21
951.3297538643578
 31
0.0
100
AcDbText
  0
TEXT
  5
1EC
330
1F
100
AcDbEntity
  8
LAYER0048
 62
     4
100
AcDbText
 10
-1732.659259155038
 20
855.3297538643583
 30
0.0
 40
70.0
  1
ＫＳ1/2/3－250、200、KU3-200
 41
1.034579657166926
  7
DCSTYLE0
 72
     5
 11
-356.6592591550382
 21
855.3297538643583
 31
0.0
100
AcDbText
  0
TEXT
  5
1ED
330
1F
100
AcDbEntity
  8
LAYER0048
 62
     4
100
AcDbText
 10
-1730.787669859038
 20
263.3297538643579
 30
0.0
 40
70.0
  1
Ｒ1/2　おねじ
 41
0.9520238095238096
  7
DCSTYLE0
 72
     5
 11
-1184.787669859038
 21
263.3297538643579
 31
0.0
100
AcDbText
  0
TEXT
  5
1EE
330
1F
100
AcDbEntity
  8
LAYER0048
 62
     4
100
AcDbText
 10
-1732.659259155038
 20
-120.6702461356422
 30
0.0
 40
70.0
  1
約59ｋｇ
 41
1.040372940156115
  7
DCSTYLE0
 72
     5
 11
-1396.659259155038
 21
-120.6702461356422
 31
0.0
100
AcDbText
  0
TEXT
  5
1EF
330
1F
100
AcDbEntity
  8
LAYER0048
 62
     4
100
AcDbText
 10
-2205.770102348987
 20
-120.6702461356423
 30
0.0
 40
70.0
  1
完成重量
 41
0.8446428571428571
  7
DCSTYLE0
 72
     5
 11
-1861.770102348987
 21
-120.6702461356423
 31
0.0
100
AcDbText
  0
TEXT
  5
1F0
330
1F
100
AcDbEntity
  8
LAYER0048
 62
     4
100
AcDbText
 10
-2205.770102348987
 20
167.3297538643581
 30
0.0
 40
70.0
  1
付　属　品
 41
0.7804961641472605
  7
DCSTYLE0
 72
     5
 11
-1861.770102348987
 21
167.3297538643581
 31
0.0
100
AcDbText
  0
TEXT
  5
1F1
330
1F
100
AcDbEntity
  8
LAYER0048
 62
     4
100
AcDbText
 10
-1732.659259155038
 20
167.3297538643583
 30
0.0
 40
70.0
  1
Ｒｃ１／２ボールバルブ、ニップル、エルボ
 41
0.7919247389268995
  7
DCSTYLE0
 72
     5
 11
-346.6592591550379
 21
167.3297538643583
 31
0.0
100
AcDbText
  0
TEXT
  5
1F2
330
1F
100
AcDbEntity
  8
LAYER0048
 62
     4
100
AcDbText
 10
-2205.770102348987
 20
567.3297538643578
 30
0.0
 40
70.0
  1
架台材質
 41
0.8446428571428571
  7
DCSTYLE0
 72
     5
 11
-1861.770102348987
 21
567.3297538643578
 31
0.0
100
AcDbText
  0
TEXT
  5
1F3
330
1F
100
AcDbEntity
  8
LAYER0048
 62
     4
100
AcDbText
 10
-2205.770102348987
 20
471.3297538643571
 30
0.0
 40
70.0
  1
架台板厚
 41
0.8446428571428571
  7
DCSTYLE0
 72
     5
 11
-1861.770102348987
 21
471.3297538643571
 31
0.0
100
AcDbText
  0
TEXT
  5
1F4
330
1F
100
AcDbEntity
  8
LAYER0048
 62
     4
100
AcDbText
 10
-2205.770102348987
 20
-232.6702461356423
 30
0.0
 40
70.0
  1
耐震条件
 41
0.8446428571428571
  7
DCSTYLE0
 72
     5
 11
-1861.770102348987
 21
-232.6702461356423
 31
0.0
100
AcDbText
  0
TEXT
  5
1F5
330
1F
100
AcDbEntity
  8
LAYER0048
 62
     4
100
AcDbText
 10
-2205.770102348987
 20
-336.6702461356426
 30
0.0
 40
70.0
  1
防油堤固定
 41
0.6757142857142857
  7
DCSTYLE0
 72
     5
 11
-1861.770102348987
 21
-336.6702461356426
 31
0.0
100
AcDbText
  0
TEXT
  5
1F6
330
1F
100
AcDbEntity
  8
LAYER0048
 62
     4
100
AcDbText
 10
-1734.230914259038
 20
759.3297538643577
 30
0.0
 40
70.0
  1
溶融亜鉛メッキ鋼板
 41
0.7190371096942947
  7
DCSTYLE0
 72
     5
 11
-1118.230914259038
 21
759.3297538643577
 31
0.0
100
AcDbText
  0
TEXT
  5
1F7
330
1F
100
AcDbEntity
  8
LAYER0048
 62
     4
100
AcDbText
 10
-1732.659259155038
 20
663.3297538643571
 30
0.0
 40
70.0
  1
2.3ｍｍ
 41
1.072223463687151
  7
DCSTYLE0
 72
     5
 11
-1396.659259155038
 21
663.3297538643571
 31
0.0
100
AcDbText
  0
TEXT
  5
1F8
330
1F
100
AcDbEntity
  8
LAYER0048
 62
     4
100
AcDbText
 10
-1732.659259155038
 20
471.3297538643571
 30
0.0
 40
70.0
  1
3.2ｍｍ
 41
1.072223463687151
  7
DCSTYLE0
 72
     5
 11
-1396.659259155038
 21
471.3297538643571
 31
0.0
100
AcDbText
  0
TEXT
  5
1F9
330
1F
100
AcDbEntity
  8
LAYER0048
 62
     4
100
AcDbText
 10
-1734.230914259038
 20
567.3297538643579
 30
0.0
 40
70.0
  1
溶融亜鉛メッキ鋼板
 41
0.7190371096942947
  7
DCSTYLE0
 72
     5
 11
-1118.230914259038
 21
567.3297538643579
 31
0.0
100
AcDbText
  0
TEXT
  5
1FA
330
1F
100
AcDbEntity
  8
LAYER0048
 62
     4
100
AcDbText
 10
-1732.659259155038
 20
-24.67024613564242
 30
0.0
 40
70.0
  1
ライトベージュ２１
 41
0.8327842468995552
  7
DCSTYLE0
 72
     5
 11
-1116.659259155038
 21
-24.67024613564242
 31
0.0
100
AcDbText
  0
TEXT
  5
1FB
330
1F
100
AcDbEntity
  8
LAYER0048
 62
     4
100
AcDbText
 10
-1732.659259155038
 20
71.3297538643581
 30
0.0
 40
70.0
  1
平ワッシャ－、六角ナット、補修塗料
 41
0.7056222589690129
  7
DCSTYLE0
 72
     5
 11
-652.659259155038
 21
71.3297538643581
 31
0.0
100
AcDbText
  0
TEXT
  5
1FC
330
1F
100
AcDbEntity
  8
LAYER0048
 62
     4
100
AcDbText
 10
-2205.770102348987
 20
-24.67024613564242
 30
0.0
 40
70.0
  1
塗　装　色
 41
0.7804961641472605
  7
DCSTYLE0
 72
     5
 11
-1861.770102348987
 21
-24.67024613564242
 31
0.0
100
AcDbText
  0
TEXT
  5
1FD
330
1F
100
AcDbEntity
  8
LAYER0048
 62
     4
100
AcDbText
 10
1959.710190517301
 20
-1557.336607912731
 30
0.0
 40
50.0
  1
６
 41
0.8045271629778672
  7
DCSTYLE0
 72
     5
 11
1999.710190517301
 21
-1557.336607912731
 31
0.0
100
AcDbText
  0
TEXT
  5
1FE
330
1F
100
AcDbEntity
  8
LAYER0048
 62
     4
100
AcDbText
 10
-1729.159259155038
 20
-336.6702461356426
 30
0.0
 40
70.0
  1
アンカーボルト（あと施工接着式　M12　深さ90mm以上）
 41
0.6025950259836673
  7
DCSTYLE0
 72
     5
 11
-308.1592591550379
 21
-336.6702461356426
 31
0.0
100
AcDbText
  0
TEXT
  5
1FF
330
1F
100
AcDbEntity
  8
LAYER0048
 62
     4
100
AcDbText
 10
-1730.787669859038
 20
-232.6702461356423
 30
0.0
 40
70.0
  1
耐震設計震度　1.0以下
 41
0.822163170000697
  7
DCSTYLE0
 72
     5
 11
-904.7876698590378
 21
-232.6702461356423
 31
0.0
100
AcDbText
  0
TEXT
  5
200
330
1F
100
AcDbEntity
  8
LAYER0048
 62
     4
100
AcDbText
 10
-1734.298899339038
 20
363.3297538643574
 30
0.0
 40
70.0
  1
ポリエステル樹脂静電粉体塗装
 41
0.7089174674957606
  7
DCSTYLE0
 72
     5
 11
-768.2988993390381
 21
363.3297538643574
 31
0.0
100
AcDbText
  0
TEXT
  5
201
330
1F
100
AcDbEntity
  8
LAYER0048
 62
     4
100
AcDbText
 10
-2205.770102348987
 20
363.3297538643574
 30
0.0
 40
70.0
  1
塗　　　装
 41
0.846097632990502
  7
DCSTYLE0
 72
     5
 11
-1861.770102348987
 21
363.3297538643574
 31
0.0
100
AcDbText
  0
TEXT
  5
202
330
1F
100
AcDbEntity
  8
LAYER0048
 62
     2
100
AcDbText
 10
-2256.550318571046
 20
-719.6258660880784
 30
0.0
 40
100.0
  1
防油堤は、地震等の振動により容易に破損、移動
 41
0.6504793717381251
  7
DCSTYLE0
 72
     5
 11
-286.5503185710459
 21
-719.6258660880784
 31
0.0
100
AcDbText
  0
TEXT
  5
203
330
1F
100
AcDbEntity
  8
LAYER0048
 62
     2
100
AcDbText
 10
-2256.550318571046
 20
-843.6258660880785
 30
0.0
 40
100.0
  1
しないように、水平で丈夫なコンクリート床面な
 41
0.7011540447197889
  7
DCSTYLE0
 72
     5
 11
-286.5503185710459
 21
-843.6258660880785
 31
0.0
100
AcDbText
  0
TEXT
  5
204
330
1F
100
AcDbEntity
  8
LAYER0048
 62
     2
100
AcDbText
 10
-2256.550318571046
 20
-967.6258660880785
 30
0.0
 40
100.0
  1
どにアンカーボルトで、正しく固定して下さい。
 41
0.7151847648447429
  7
DCSTYLE0
 72
     5
 11
-286.5503185710459
 21
-967.6258660880785
 31
0.0
100
AcDbText
  0
TEXT
  5
205
330
1F
100
AcDbEntity
  8
LAYER0048
 62
     2
100
AcDbText
 10
-1701.770102348987
 20
1066.329753864359
 30
0.0
 40
80.0
  1
仕　様　明　細　書
 41
1.005550565834381
  7
DCSTYLE0
 72
     5
 11
-805.7701023489872
 21
1066.329753864359
 31
0.0
100
AcDbText
  0
TEXT
  5
206
330
1F
100
AcDbEntity
  8
LAYER0048
 62
     2
100
AcDbText
 10
-1428.736192437747
 20
1354.329753864358
 30
0.0
 40
80.0
  1
型　　式
 41
0.9707102272727273
  7
DCSTYLE0
 72
     5
 11
-1052.736192437747
 21
1354.329753864358
 31
0.0
100
AcDbText
  0
TEXT
  5
208
330
1F
100
AcDbEntity
  8
LAYER0048
 62
     2
100
AcDbText
 10
1641.999999999997
 20
-1960.000000000001
 30
0.0
 40
80.0
  1
96482-58010-02
 41
1.230307692307692
  7
DCSTYLE1
 72
     5
 11
2537.999999999997
 21
-1960.000000000001
 31
0.0
100
AcDbText
  0
TEXT
  5
209
330
1F
100
AcDbEntity
  8
LAYER0048
 62
     2
100
AcDbText
 10
-1693.770102348987
 20
1200.329753864358
 30
0.0
 40
100.0
  1
SSBF-250G
 41
1.193096432930964
  7
DCSTYLE0
 72
     5
 11
-813.7701023489872
 21
1200.329753864358
 31
0.0
100
AcDbText
  0
TEXT
  5
20B
330
1F
100
AcDbEntity
  8
LAYER0048
 62
     2
100
AcDbText
 10
-1583.706204650561
 20
1582.800897437159
 30
0.0
 40
260.0
  1
サンダイヤ　防油堤　仕様書
 41
0.8142042925481567
  7
DCSTYLE2
 72
     5
 11
1600.293795349439
 21
1582.800897437159
 31
0.0
100
AcDbText
  0
INSERT
  5
20C
330
1F
100
AcDbEntity
  8
LAYER0048
  6
CONTINUOUS
100
AcDbBlockReference
  2
DC_GROUP_1
 10
0.0
 20
0.0
 30
0.0
  0
TEXT
  5
20D
330
1F
100
AcDbEntity
  8
LAYER0048
 62
     7
100
AcDbText
 10
-2183.608212839691
 20
-1722.07682069692
 30
0.0
 40
95.5691577595244
  1
　株式会社
 41
0.6694653891066917
  7
DCSTYLE0
 72
     5
 11
-1749.531423399264
 21
-1722.07682069692
 31
0.0
100
AcDbText
  0
LINE
  5
20E
330
1F
100
AcDbEntity
  8
LAYER0048
  6
CONTINUOUS
 62
     3
100
AcDbLine
 10
-1374.328348488596
 20
-1647.251225312528
 30
0.0
 11
-1373.126141834031
 21
-1646.049018657963
 31
0.0
  0
LINE
  5
20F
330
1F
100
AcDbEntity
  8
LAYER0048
  6
CONTINUOUS
 62
     3
100
AcDbLine
 10
-1374.857969228761
 20
-1650.26986192247
 30
0.0
 11
-1370.29049486757
 21
-1645.702387561279
 31
0.0
  0
LINE
  5
210
330
1F
100
AcDbEntity
  8
LAYER0048
  6
CONTINUOUS
 62
     3
100
AcDbLine
 10
-1375.387589968927
 20
-1653.288498532413
 30
0.0
 11
-1367.091162287112
 21
-1644.992070850598
 31
0.0
  0
LINE
  5
211
330
1F
100
AcDbEntity
  8
LAYER0048
  6
CONTINUOUS
 62
     3
100
AcDbLine
 10
-1382.313584682216
 20
-1692.571699552798
 30
0.0
 11
-1382.001904273662
 21
-1692.260019144245
 31
0.0
  0
LINE
  5
212
330
1F
100
AcDbEntity
  8
LAYER0048
  6
CONTINUOUS
 62
     3
100
AcDbLine
 10
-1382.846418904739
 20
-1695.593549645098
 30
0.0
 11
-1379.512888403885
 21
-1692.260019144245
 31
0.0
  0
LINE
  5
213
330
1F
100
AcDbEntity
  8
LAYER0048
  6
CONTINUOUS
 62
     3
100
AcDbLine
 10
-1383.379253127263
 20
-1698.615399737398
 30
0.0
 11
-1377.023872534109
 21
-1692.260019144245
 31
0.0
  0
LINE
  5
214
330
1F
100
AcDbEntity
  8
LAYER0048
  6
CONTINUOUS
 62
     3
100
AcDbLine
 10
-1383.912087349787
 20
-1701.637249829698
 30
0.0
 11
-1374.534856664332
 21
-1692.260019144245
 31
0.0
  0
LINE
  5
215
330
1F
100
AcDbEntity
  8
LAYER0048
  6
CONTINUOUS
 62
     3
100
AcDbLine
 10
-1384.44492157231
 20
-1704.659099921998
 30
0.0
 11
-1372.045840794555
 21
-1692.260019144245
 31
0.0
  0
LINE
  5
216
330
1F
100
AcDbEntity
  8
LAYER0048
  6
CONTINUOUS
 62
     3
100
AcDbLine
 10
-1384.977755794834
 20
-1707.680950014299
 30
0.0
 11
-1369.556824924779
 21
-1692.260019144245
 31
0.0
  0
LINE
  5
217
330
1F
100
AcDbEntity
  8
LAYER0048
  6
CONTINUOUS
 62
     3
100
AcDbLine
 10
-1382.907777375002
 20
-1708.099987464245
 30
0.0
 11
-1367.067809055002
 21
-1692.260019144245
 31
0.0
  0
LINE
  5
218
330
1F
100
AcDbEntity
  8
LAYER0048
  6
CONTINUOUS
 62
     3
100
AcDbLine
 10
-1501.838451487474
 20
-1615.464312645701
 30
0.0
 11
-1499.434316386017
 21
-1613.060177544246
 31
0.0
  0
LINE
  5
219
330
1F
100
AcDbEntity
  8
LAYER0048
  6
CONTINUOUS
 62
     3
100
AcDbLine
 10
-1502.371285709997
 20
-1618.486162738
 30
0.0
 11
-1496.945300516241
 21
-1613.060177544246
 31
0.0
  0
LINE
  5
21A
330
1F
100
AcDbEntity
  8
LAYER0048
  6
CONTINUOUS
 62
     3
100
AcDbLine
 10
-1502.904119932521
 20
-1621.508012830301
 30
0.0
 11
-1494.456284646465
 21
-1613.060177544246
 31
0.0
  0
LINE
  5
21B
330
1F
100
AcDbEntity
  8
LAYER0048
  6
CONTINUOUS
 62
     3
100
AcDbLine
 10
-1503.436954155044
 20
-1624.5298629226
 30
0.0
 11
-1491.967268776687
 21
-1613.060177544246
 31
0.0
  0
LINE
  5
21C
330
1F
100
AcDbEntity
  8
LAYER0048
  6
CONTINUOUS
 62
     3
100
AcDbLine
 10
-1503.969788377567
 20
-1627.551713014901
 30
0.0
 11
-1489.478252906911
 21
-1613.060177544246
 31
0.0
  0
LINE
  5
21D
330
1F
100
AcDbEntity
  8
LAYER0048
  6
CONTINUOUS
 62
     3
100
AcDbLine
 10
-1502.829205357134
 20
-1628.900145864246
 30
0.0
 11
-1486.989237037135
 21
-1613.060177544246
 31
0.0
  0
LINE
  5
21E
330
1F
100
AcDbEntity
  8
LAYER0048
  6
CONTINUOUS
 62
     3
100
AcDbLine
 10
-1500.340189487358
 20
-1628.900145864246
 30
0.0
 11
-1484.500221167358
 21
-1613.060177544246
 31
0.0
  0
LINE
  5
21F
330
1F
100
AcDbEntity
  8
LAYER0048
  6
CONTINUOUS
 62
     3
100
AcDbLine
 10
-1497.851173617581
 20
-1628.900145864246
 30
0.0
 11
-1482.011205297581
 21
-1613.060177544246
 31
0.0
  0
LINE
  5
220
330
1F
100
AcDbEntity
  8
LAYER0048
  6
CONTINUOUS
 62
     3
100
AcDbLine
 10
-1495.362157747805
 20
-1628.900145864246
 30
0.0
 11
-1479.522189427805
 21
-1613.060177544246
 31
0.0
  0
LINE
  5
221
330
1F
100
AcDbEntity
  8
LAYER0048
  6
CONTINUOUS
 62
     3
100
AcDbLine
 10
-1492.873141878028
 20
-1628.900145864246
 30
0.0
 11
-1477.033173558028
 21
-1613.060177544246
 31
0.0
  0
LINE
  5
222
330
1F
100
AcDbEntity
  8
LAYER0048
  6
CONTINUOUS
 62
     3
100
AcDbLine
 10
-1490.384126008251
 20
-1628.900145864246
 30
0.0
 11
-1474.544157688252
 21
-1613.060177544246
 31
0.0
  0
LINE
  5
223
330
1F
100
AcDbEntity
  8
LAYER0048
  6
CONTINUOUS
 62
     3
100
AcDbLine
 10
-1487.895110138475
 20
-1628.900145864246
 30
0.0
 11
-1472.055141818475
 21
-1613.060177544246
 31
0.0
  0
LINE
  5
224
330
1F
100
AcDbEntity
  8
LAYER0048
  6
CONTINUOUS
 62
     3
100
AcDbLine
 10
-1485.406094268698
 20
-1628.900145864246
 30
0.0
 11
-1469.566125948699
 21
-1613.060177544246
 31
0.0
  0
LINE
  5
225
330
1F
100
AcDbEntity
  8
LAYER0048
  6
CONTINUOUS
 62
     3
100
AcDbLine
 10
-1482.917078398921
 20
-1628.900145864246
 30
0.0
 11
-1467.077110078922
 21
-1613.060177544246
 31
0.0
  0
LINE
  5
226
330
1F
100
AcDbEntity
  8
LAYER0048
  6
CONTINUOUS
 62
     3
100
AcDbLine
 10
-1480.428062529145
 20
-1628.900145864246
 30
0.0
 11
-1464.588094209145
 21
-1613.060177544246
 31
0.0
  0
LINE
  5
227
330
1F
100
AcDbEntity
  8
LAYER0048
  6
CONTINUOUS
 62
     3
100
AcDbLine
 10
-1477.939046659369
 20
-1628.900145864246
 30
0.0
 11
-1462.099078339369
 21
-1613.060177544246
 31
0.0
  0
LINE
  5
228
330
1F
100
AcDbEntity
  8
LAYER0048
  6
CONTINUOUS
 62
     3
100
AcDbLine
 10
-1475.450030789591
 20
-1628.900145864246
 30
0.0
 11
-1459.610062469592
 21
-1613.060177544246
 31
0.0
  0
LINE
  5
229
330
1F
100
AcDbEntity
  8
LAYER0048
  6
CONTINUOUS
 62
     3
100
AcDbLine
 10
-1472.961014919815
 20
-1628.900145864246
 30
0.0
 11
-1457.121046599816
 21
-1613.060177544246
 31
0.0
  0
LINE
  5
22A
330
1F
100
AcDbEntity
  8
LAYER0048
  6
CONTINUOUS
 62
     3
100
AcDbLine
 10
-1470.471999050038
 20
-1628.900145864246
 30
0.0
 11
-1454.632030730039
 21
-1613.060177544246
 31
0.0
  0
LINE
  5
22B
330
1F
100
AcDbEntity
  8
LAYER0048
  6
CONTINUOUS
 62
     3
100
AcDbLine
 10
-1467.982983180262
 20
-1628.900145864246
 30
0.0
 11
-1452.143014860262
 21
-1613.060177544246
 31
0.0
  0
LINE
  5
22C
330
1F
100
AcDbEntity
  8
LAYER0048
  6
CONTINUOUS
 62
     3
100
AcDbLine
 10
-1465.493967310485
 20
-1628.900145864246
 30
0.0
 11
-1449.653998990486
 21
-1613.060177544246
 31
0.0
  0
LINE
  5
22D
330
1F
100
AcDbEntity
  8
LAYER0048
  6
CONTINUOUS
 62
     3
100
AcDbLine
 10
-1463.004951440709
 20
-1628.900145864246
 30
0.0
 11
-1447.164983120709
 21
-1613.060177544246
 31
0.0
  0
LINE
  5
22E
330
1F
100
AcDbEntity
  8
LAYER0048
  6
CONTINUOUS
 62
     3
100
AcDbLine
 10
-1460.515935570932
 20
-1628.900145864246
 30
0.0
 11
-1444.675967250933
 21
-1613.060177544246
 31
0.0
  0
LINE
  5
22F
330
1F
100
AcDbEntity
  8
LAYER0048
  6
CONTINUOUS
 62
     3
100
AcDbLine
 10
-1458.026919701156
 20
-1628.900145864246
 30
0.0
 11
-1442.186951381156
 21
-1613.060177544246
 31
0.0
  0
LINE
  5
230
330
1F
100
AcDbEntity
  8
LAYER0048
  6
CONTINUOUS
 62
     3
100
AcDbLine
 10
-1455.537903831379
 20
-1628.900145864246
 30
0.0
 11
-1439.697935511379
 21
-1613.060177544246
 31
0.0
  0
LINE
  5
231
330
1F
100
AcDbEntity
  8
LAYER0048
  6
CONTINUOUS
 62
     3
100
AcDbLine
 10
-1453.048887961603
 20
-1628.900145864246
 30
0.0
 11
-1437.208919641603
 21
-1613.060177544246
 31
0.0
  0
LINE
  5
232
330
1F
100
AcDbEntity
  8
LAYER0048
  6
CONTINUOUS
 62
     3
100
AcDbLine
 10
-1450.559872091826
 20
-1628.900145864246
 30
0.0
 11
-1434.719903771826
 21
-1613.060177544246
 31
0.0
  0
LINE
  5
233
330
1F
100
AcDbEntity
  8
LAYER0048
  6
CONTINUOUS
 62
     3
100
AcDbLine
 10
-1448.07085622205
 20
-1628.900145864246
 30
0.0
 11
-1434.209226365967
 21
-1615.038516008163
 31
0.0
  0
LINE
  5
234
330
1F
100
AcDbEntity
  8
LAYER0048
  6
CONTINUOUS
 62
     3
100
AcDbLine
 10
-1445.581840352273
 20
-1628.900145864246
 30
0.0
 11
-1434.74206058849
 21
-1618.060366100463
 31
0.0
  0
LINE
  5
235
330
1F
100
AcDbEntity
  8
LAYER0048
  6
CONTINUOUS
 62
     3
100
AcDbLine
 10
-1443.092824482496
 20
-1628.900145864246
 30
0.0
 11
-1435.274894811014
 21
-1621.082216192763
 31
0.0
  0
LINE
  5
236
330
1F
100
AcDbEntity
  8
LAYER0048
  6
CONTINUOUS
 62
     3
100
AcDbLine
 10
-1440.60380861272
 20
-1628.900145864246
 30
0.0
 11
-1435.807729033536
 21
-1624.104066285063
 31
0.0
  0
LINE
  5
237
330
1F
100
AcDbEntity
  8
LAYER0048
  6
CONTINUOUS
 62
     3
100
AcDbLine
 10
-1438.114792742943
 20
-1628.900145864246
 30
0.0
 11
-1436.34056325606
 21
-1627.125916377363
 31
0.0
  0
LINE
  5
238
330
1F
100
AcDbEntity
  8
LAYER0048
  6
CONTINUOUS
 62
     3
100
AcDbLine
 10
-1507.387718794582
 20
-1683.238976697225
 30
0.0
 11
-1506.9047802496
 21
-1682.756038152245
 31
0.0
  0
LINE
  5
239
330
1F
100
AcDbEntity
  8
LAYER0048
  6
CONTINUOUS
 62
     3
100
AcDbLine
 10
-1507.920553017105
 20
-1686.260826789524
 30
0.0
 11
-1504.415764379824
 21
-1682.756038152245
 31
0.0
  0
LINE
  5
23A
330
1F
100
AcDbEntity
  8
LAYER0048
  6
CONTINUOUS
 62
     3
100
AcDbLine
 10
-1508.453387239628
 20
-1689.282676881824
 30
0.0
 11
-1501.926748510047
 21
-1682.756038152245
 31
0.0
  0
LINE
  5
23B
330
1F
100
AcDbEntity
  8
LAYER0048
  6
CONTINUOUS
 62
     3
100
AcDbLine
 10
-1508.986221462151
 20
-1692.304526974124
 30
0.0
 11
-1499.437732640271
 21
-1682.756038152245
 31
0.0
  0
LINE
  5
23C
330
1F
100
AcDbEntity
  8
LAYER0048
  6
CONTINUOUS
 62
     3
100
AcDbLine
 10
-1509.519055684675
 20
-1695.326377066424
 30
0.0
 11
-1496.948716770494
 21
-1682.756038152245
 31
0.0
  0
LINE
  5
23D
330
1F
100
AcDbEntity
  8
LAYER0048
  6
CONTINUOUS
 62
     3
100
AcDbLine
 10
-1510.051889907198
 20
-1698.348227158724
 30
0.0
 11
-1494.459700900718
 21
-1682.756038152245
 31
0.0
  0
LINE
  5
23E
330
1F
100
AcDbEntity
  8
LAYER0048
  6
CONTINUOUS
 62
     3
100
AcDbLine
 10
-1510.584724129721
 20
-1701.370077251024
 30
0.0
 11
-1491.970685030941
 21
-1682.756038152245
 31
0.0
  0
LINE
  5
23F
330
1F
100
AcDbEntity
  8
LAYER0048
  6
CONTINUOUS
 62
     3
100
AcDbLine
 10
-1511.117558352244
 20
-1704.391927343324
 30
0.0
 11
-1489.481669161164
 21
-1682.756038152245
 31
0.0
  0
LINE
  5
240
330
1F
100
AcDbEntity
  8
LAYER0048
  6
CONTINUOUS
 62
     3
100
AcDbLine
 10
-1511.650392574768
 20
-1707.413777435624
 30
0.0
 11
-1486.992653291388
 21
-1682.756038152245
 31
0.0
  0
LINE
  5
241
330
1F
100
AcDbEntity
  8
LAYER0048
  6
CONTINUOUS
 62
     3
100
AcDbLine
 10
-1509.847586733611
 20
-1708.099987464245
 30
0.0
 11
-1484.503637421611
 21
-1682.756038152245
 31
0.0
  0
LINE
  5
242
330
1F
100
AcDbEntity
  8
LAYER0048
  6
CONTINUOUS
 62
     3
100
AcDbLine
 10
-1507.358570863834
 20
-1708.099987464245
 30
0.0
 11
-1482.014621551835
 21
-1682.756038152245
 31
0.0
  0
LINE
  5
243
330
1F
100
AcDbEntity
  8
LAYER0048
  6
CONTINUOUS
 62
     3
100
AcDbLine
 10
-1504.869554994058
 20
-1708.099987464245
 30
0.0
 11
-1479.525605682058
 21
-1682.756038152245
 31
0.0
  0
LINE
  5
244
330
1F
100
AcDbEntity
  8
LAYER0048
  6
CONTINUOUS
 62
     3
100
AcDbLine
 10
-1502.380539124281
 20
-1708.099987464245
 30
0.0
 11
-1477.036589812281
 21
-1682.756038152245
 31
0.0
  0
LINE
  5
245
330
1F
100
AcDbEntity
  8
LAYER0048
  6
CONTINUOUS
 62
     3
100
AcDbLine
 10
-1499.891523254505
 20
-1708.099987464245
 30
0.0
 11
-1474.547573942505
 21
-1682.756038152245
 31
0.0
  0
LINE
  5
246
330
1F
100
AcDbEntity
  8
LAYER0048
  6
CONTINUOUS
 62
     3
100
AcDbLine
 10
-1497.402507384728
 20
-1708.099987464245
 30
0.0
 11
-1472.058558072728
 21
-1682.756038152245
 31
0.0
  0
LINE
  5
247
330
1F
100
AcDbEntity
  8
LAYER0048
  6
CONTINUOUS
 62
     3
100
AcDbLine
 10
-1401.40612287248
 20
-1614.592618821773
 30
0.0
 11
-1399.873681594953
 21
-1613.060177544246
 31
0.0
  0
LINE
  5
248
330
1F
100
AcDbEntity
  8
LAYER0048
  6
CONTINUOUS
 62
     3
100
AcDbLine
 10
-1494.913491514951
 20
-1708.099987464245
 30
0.0
 11
-1469.569542202952
 21
-1682.756038152245
 31
0.0
  0
LINE
  5
249
330
1F
100
AcDbEntity
  8
LAYER0048
  6
CONTINUOUS
 62
     3
100
AcDbLine
 10
-1401.938961047513
 20
-1617.614472866582
 30
0.0
 11
-1397.384665725176
 21
-1613.060177544246
 31
0.0
  0
LINE
  5
24A
330
1F
100
AcDbEntity
  8
LAYER0048
  6
CONTINUOUS
 62
     3
100
AcDbLine
 10
-1492.424475645175
 20
-1708.099987464245
 30
0.0
 11
-1467.080526333175
 21
-1682.756038152245
 31
0.0
  0
LINE
  5
24B
330
1F
100
AcDbEntity
  8
LAYER0048
  6
CONTINUOUS
 62
     3
100
AcDbLine
 10
-1402.471799222546
 20
-1620.636326911392
 30
0.0
 11
-1394.8956498554
 21
-1613.060177544246
 31
0.0
  0
LINE
  5
24C
330
1F
100
AcDbEntity
  8
LAYER0048
  6
CONTINUOUS
 62
     3
100
AcDbLine
 10
-1489.935459775398
 20
-1708.099987464245
 30
0.0
 11
-1464.591510463398
 21
-1682.756038152245
 31
0.0
  0
LINE
  5
24D
330
1F
100
AcDbEntity
  8
LAYER0048
  6
CONTINUOUS
 62
     3
100
AcDbLine
 10
-1403.004637397579
 20
-1623.658180956202
 30
0.0
 11
-1392.406633985623
 21
-1613.060177544246
 31
0.0
  0
LINE
  5
24E
330
1F
100
AcDbEntity
  8
LAYER0048
  6
CONTINUOUS
 62
     3
100
AcDbLine
 10
-1487.446443905621
 20
-1708.099987464245
 30
0.0
 11
-1462.102494593622
 21
-1682.756038152245
 31
0.0
  0
LINE
  5
24F
330
1F
100
AcDbEntity
  8
LAYER0048
  6
CONTINUOUS
 62
     3
100
AcDbLine
 10
-1403.537475572613
 20
-1626.680035001011
 30
0.0
 11
-1389.917618115847
 21
-1613.060177544246
 31
0.0
  0
LINE
  5
250
330
1F
100
AcDbEntity
  8
LAYER0048
  6
CONTINUOUS
 62
     3
100
AcDbLine
 10
-1484.957428035845
 20
-1708.099987464245
 30
0.0
 11
-1459.613478723845
 21
-1682.756038152245
 31
0.0
  0
LINE
  5
251
330
1F
100
AcDbEntity
  8
LAYER0048
  6
CONTINUOUS
 62
     3
100
AcDbLine
 10
-1404.070313747646
 20
-1629.701889045822
 30
0.0
 11
-1387.42860224607
 21
-1613.060177544246
 31
0.0
  0
LINE
  5
252
330
1F
100
AcDbEntity
  8
LAYER0048
  6
CONTINUOUS
 62
     3
100
AcDbLine
 10
-1482.468412166069
 20
-1708.099987464245
 30
0.0
 11
-1457.124462854068
 21
-1682.756038152245
 31
0.0
  0
LINE
  5
253
330
1F
100
AcDbEntity
  8
LAYER0048
  6
CONTINUOUS
 62
     3
100
AcDbLine
 10
-1404.603151922679
 20
-1632.723743090631
 30
0.0
 11
-1385.075632016166
 21
-1613.19622318412
 31
0.0
  0
LINE
  5
254
330
1F
100
AcDbEntity
  8
LAYER0048
  6
CONTINUOUS
 62
     3
100
AcDbLine
 10
-1479.979396296292
 20
-1708.099987464245
 30
0.0
 11
-1454.635446984292
 21
-1682.756038152245
 31
0.0
  0
LINE
  5
255
330
1F
100
AcDbEntity
  8
LAYER0048
  6
CONTINUOUS
 62
     3
100
AcDbLine
 10
-1405.135990097712
 20
-1635.745597135441
 30
0.0
 11
-1385.608466255361
 21
-1616.218073293091
 31
0.0
  0
LINE
  5
256
330
1F
100
AcDbEntity
  8
LAYER0048
  6
CONTINUOUS
 62
     3
100
AcDbLine
 10
-1477.490380426515
 20
-1708.099987464245
 30
0.0
 11
-1452.146431114516
 21
-1682.756038152245
 31
0.0
  0
LINE
  5
257
330
1F
100
AcDbEntity
  8
LAYER0048
  6
CONTINUOUS
 62
     3
100
AcDbLine
 10
-1405.668828272745
 20
-1638.767451180251
 30
0.0
 11
-1386.141300494556
 21
-1619.239923402063
 31
0.0
  0
LINE
  5
258
330
1F
100
AcDbEntity
  8
LAYER0048
  6
CONTINUOUS
 62
     3
100
AcDbLine
 10
-1475.001364556739
 20
-1708.099987464245
 30
0.0
 11
-1449.657415244739
 21
-1682.756038152245
 31
0.0
  0
LINE
  5
259
330
1F
100
AcDbEntity
  8
LAYER0048
  6
CONTINUOUS
 62
     3
100
AcDbLine
 10
-1406.201666447778
 20
-1641.789305225061
 30
0.0
 11
-1386.674134733752
 21
-1622.261773511035
 31
0.0
  0
LINE
  5
25A
330
1F
100
AcDbEntity
  8
LAYER0048
  6
CONTINUOUS
 62
     3
100
AcDbLine
 10
-1472.512348686962
 20
-1708.099987464245
 30
0.0
 11
-1447.168399374962
 21
-1682.756038152245
 31
0.0
  0
LINE
  5
25B
330
1F
100
AcDbEntity
  8
LAYER0048
  6
CONTINUOUS
 62
     3
100
AcDbLine
 10
-1406.734504622812
 20
-1644.811159269871
 30
0.0
 11
-1387.206968972946
 21
-1625.283623620007
 31
0.0
  0
LINE
  5
25C
330
1F
100
AcDbEntity
  8
LAYER0048
  6
CONTINUOUS
 62
     3
100
AcDbLine
 10
-1470.023332817185
 20
-1708.099987464245
 30
0.0
 11
-1444.679383505186
 21
-1682.756038152245
 31
0.0
  0
LINE
  5
25D
330
1F
100
AcDbEntity
  8
LAYER0048
  6
CONTINUOUS
 62
     3
100
AcDbLine
 10
-1407.267342797845
 20
-1647.83301331468
 30
0.0
 11
-1387.739803212142
 21
-1628.305473728978
 31
0.0
  0
LINE
  5
25E
330
1F
100
AcDbEntity
  8
LAYER0048
  6
CONTINUOUS
 62
     3
100
AcDbLine
 10
-1467.534316947409
 20
-1708.099987464245
 30
0.0
 11
-1442.190367635409
 21
-1682.756038152245
 31
0.0
  0
LINE
  5
25F
330
1F
100
AcDbEntity
  8
LAYER0048
  6
CONTINUOUS
 62
     3
100
AcDbLine
 10
-1407.800180972878
 20
-1650.85486735949
 30
0.0
 11
-1388.272637451337
 21
-1631.32732383795
 31
0.0
  0
LINE
  5
260
330
1F
100
AcDbEntity
  8
LAYER0048
  6
CONTINUOUS
 62
     3
100
AcDbLine
 10
-1465.045301077632
 20
-1708.099987464245
 30
0.0
 11
-1439.701351765632
 21
-1682.756038152245
 31
0.0
  0
LINE
  5
261
330
1F
100
AcDbEntity
  8
LAYER0048
  6
CONTINUOUS
 62
     3
100
AcDbLine
 10
-1408.333019147911
 20
-1653.8767214043
 30
0.0
 11
-1388.805471690532
 21
-1634.349173946921
 31
0.0
  0
LINE
  5
262
330
1F
100
AcDbEntity
  8
LAYER0048
  6
CONTINUOUS
 62
     3
100
AcDbLine
 10
-1462.556285207856
 20
-1708.099987464245
 30
0.0
 11
-1437.212335895856
 21
-1682.756038152245
 31
0.0
  0
LINE
  5
263
330
1F
100
AcDbEntity
  8
LAYER0048
  6
CONTINUOUS
 62
     3
100
AcDbLine
 10
-1408.865857322944
 20
-1656.89857544911
 30
0.0
 11
-1389.338305929728
 21
-1637.371024055893
 31
0.0
  0
LINE
  5
264
330
1F
100
AcDbEntity
  8
LAYER0048
  6
CONTINUOUS
 62
     3
100
AcDbLine
 10
-1460.067269338079
 20
-1708.099987464245
 30
0.0
 11
-1434.72332002608
 21
-1682.756038152245
 31
0.0
  0
LINE
  5
265
330
1F
100
AcDbEntity
  8
LAYER0048
  6
CONTINUOUS
 62
     3
100
AcDbLine
 10
-1409.398695497977
 20
-1659.92042949392
 30
0.0
 11
-1389.871140168922
 21
-1640.392874164865
 31
0.0
  0
LINE
  5
266
330
1F
100
AcDbEntity
  8
LAYER0048
  6
CONTINUOUS
 62
     3
100
AcDbLine
 10
-1457.578253468303
 20
-1708.099987464245
 30
0.0
 11
-1432.234304156302
 21
-1682.756038152245
 31
0.0
  0
LINE
  5
267
330
1F
100
AcDbEntity
  8
LAYER0048
  6
CONTINUOUS
 62
     3
100
AcDbLine
 10
-1409.93153367301
 20
-1662.942283538729
 30
0.0
 11
-1390.403974408117
 21
-1643.414724273837
 31
0.0
  0
LINE
  5
268
330
1F
100
AcDbEntity
  8
LAYER0048
  6
CONTINUOUS
 62
     3
100
AcDbLine
 10
-1455.089237598526
 20
-1708.099987464245
 30
0.0
 11
-1429.612074229848
 21
-1682.622824095567
 31
0.0
  0
LINE
  5
269
330
1F
100
AcDbEntity
  8
LAYER0048
  6
CONTINUOUS
 62
     3
100
AcDbLine
 10
-1410.540475709377
 20
-1666.040241444873
 30
0.0
 11
-1390.936808647313
 21
-1646.436574382808
 31
0.0
  0
LINE
  5
26A
330
1F
100
AcDbEntity
  8
LAYER0048
  6
CONTINUOUS
 62
     3
100
AcDbLine
 10
-1452.600221728749
 20
-1708.099987464245
 30
0.0
 11
-1426.572902992212
 21
-1682.072668727707
 31
0.0
  0
LINE
  5
26B
330
1F
100
AcDbEntity
  8
LAYER0048
  6
CONTINUOUS
 62
     3
100
AcDbLine
 10
-1411.911004107449
 20
-1669.89978571272
 30
0.0
 11
-1391.469642886508
 21
-1649.458424491781
 31
0.0
  0
LINE
  5
26C
330
1F
100
AcDbEntity
  8
LAYER0048
  6
CONTINUOUS
 62
     3
100
AcDbLine
 10
-1450.111205858973
 20
-1708.099987464245
 30
0.0
 11
-1422.713358724363
 21
-1680.702140329636
 31
0.0
  0
LINE
  5
26D
330
1F
100
AcDbEntity
  8
LAYER0048
  6
CONTINUOUS
 62
     3
100
AcDbLine
 10
-1447.622189989196
 20
-1708.099987464245
 30
0.0
 11
-1392.002477125703
 21
-1652.480274600752
 31
0.0
  0
LINE
  5
26E
330
1F
100
AcDbEntity
  8
LAYER0048
  6
CONTINUOUS
 62
     3
100
AcDbLine
 10
-1445.133174119419
 20
-1708.099987464245
 30
0.0
 11
-1392.535311364898
 21
-1655.502124709724
 31
0.0
  0
LINE
  5
26F
330
1F
100
AcDbEntity
  8
LAYER0048
  6
CONTINUOUS
 62
     3
100
AcDbLine
 10
-1442.644158249643
 20
-1708.099987464245
 30
0.0
 11
-1393.068145604093
 21
-1658.523974818695
 31
0.0
  0
LINE
  5
270
330
1F
100
AcDbEntity
  8
LAYER0048
  6
CONTINUOUS
 62
     3
100
AcDbLine
 10
-1440.128909389113
 20
-1708.073754473492
 30
0.0
 11
-1393.600979843289
 21
-1661.545824927668
 31
0.0
  0
LINE
  5
271
330
1F
100
AcDbEntity
  8
LAYER0048
  6
CONTINUOUS
 62
     3
100
AcDbLine
 10
-1437.479255214224
 20
-1707.913116168379
 30
0.0
 11
-1394.133814082484
 21
-1664.567675036639
 31
0.0
  0
LINE
  5
272
330
1F
100
AcDbEntity
  8
LAYER0048
  6
CONTINUOUS
 62
     3
100
AcDbLine
 10
-1434.652182843215
 20
-1707.575059667147
 30
0.0
 11
-1394.666648321679
 21
-1667.589525145611
 31
0.0
  0
LINE
  5
273
330
1F
100
AcDbEntity
  8
LAYER0048
  6
CONTINUOUS
 62
     3
100
AcDbLine
 10
-1431.605793781782
 20
-1707.017686475491
 30
0.0
 11
-1395.246050191992
 21
-1670.6579428857
 31
0.0
  0
LINE
  5
274
330
1F
100
AcDbEntity
  8
LAYER0048
  6
CONTINUOUS
 62
     3
100
AcDbLine
 10
-1428.262632208833
 20
-1706.163540772318
 30
0.0
 11
-1396.100195895164
 21
-1674.00110445865
 31
0.0
  0
LINE
  5
275
330
1F
100
AcDbEntity
  8
LAYER0048
  6
CONTINUOUS
 62
     3
100
AcDbLine
 10
-1424.488668269386
 20
-1704.878592702648
 30
0.0
 11
-1397.385143964834
 21
-1677.775068398097
 31
0.0
  0
LINE
  5
276
330
1F
100
AcDbEntity
  8
LAYER0048
  6
CONTINUOUS
 62
     3
100
AcDbLine
 10
-1419.967439405477
 20
-1702.846379708516
 30
0.0
 11
-1399.417356958967
 21
-1682.296297262006
 31
0.0
  0
LINE
  5
277
330
1F
100
AcDbEntity
  8
LAYER0048
  6
CONTINUOUS
 62
     3
100
AcDbLine
 10
-1413.384449032336
 20
-1698.752405205151
 30
0.0
 11
-1403.511331462332
 21
-1688.879287635147
 31
0.0
  0
LINE
  5
278
330
1F
100
AcDbEntity
  8
LAYER0048
  6
CONTINUOUS
 62
     3
100
AcDbLine
 10
-1616.82599092801
 20
-1615.95712207651
 30
0.0
 11
-1613.929046395747
 21
-1613.060177544246
 31
0.0
  0
LINE
  5
279
330
1F
100
AcDbEntity
  8
LAYER0048
  6
CONTINUOUS
 62
     3
100
AcDbLine
 10
-1636.289203019148
 20
-1635.420334167648
 30
0.0
 11
-1636.105002043746
 21
-1635.236133192245
 31
0.0
  0
LINE
  5
27A
330
1F
100
AcDbEntity
  8
LAYER0048
  6
CONTINUOUS
 62
     3
100
AcDbLine
 10
-1617.358825150533
 20
-1618.97897216881
 30
0.0
 11
-1611.44003052597
 21
-1613.060177544246
 31
0.0
  0
LINE
  5
27B
330
1F
100
AcDbEntity
  8
LAYER0048
  6
CONTINUOUS
 62
     3
100
AcDbLine
 10
-1636.822037241671
 20
-1638.442184259948
 30
0.0
 11
-1633.615986173969
 21
-1635.236133192245
 31
0.0
  0
LINE
  5
27C
330
1F
100
AcDbEntity
  8
LAYER0048
  6
CONTINUOUS
 62
     3
100
AcDbLine
 10
-1617.891659373056
 20
-1622.00082226111
 30
0.0
 11
-1608.951014656193
 21
-1613.060177544246
 31
0.0
  0
LINE
  5
27D
330
1F
100
AcDbEntity
  8
LAYER0048
  6
CONTINUOUS
 62
     3
100
AcDbLine
 10
-1637.354871464195
 20
-1641.464034352248
 30
0.0
 11
-1631.126970304192
 21
-1635.236133192245
 31
0.0
  0
LINE
  5
27E
330
1F
100
AcDbEntity
  8
LAYER0048
  6
CONTINUOUS
 62
     3
100
AcDbLine
 10
-1618.42449359558
 20
-1625.02267235341
 30
0.0
 11
-1606.461998786416
 21
-1613.060177544246
 31
0.0
  0
LINE
  5
27F
330
1F
100
AcDbEntity
  8
LAYER0048
  6
CONTINUOUS
 62
     3
100
AcDbLine
 10
-1637.887705686718
 20
-1644.485884444548
 30
0.0
 11
-1628.637954434415
 21
-1635.236133192245
 31
0.0
  0
LINE
  5
280
330
1F
100
AcDbEntity
  8
LAYER0048
  6
CONTINUOUS
 62
     3
100
AcDbLine
 10
-1618.957327818104
 20
-1628.044522445711
 30
0.0
 11
-1603.972982916639
 21
-1613.060177544246
 31
0.0
  0
LINE
  5
281
330
1F
100
AcDbEntity
  8
LAYER0048
  6
CONTINUOUS
 62
     3
100
AcDbLine
 10
-1638.420539909241
 20
-1647.507734536848
 30
0.0
 11
-1626.148938564638
 21
-1635.236133192245
 31
0.0
  0
LINE
  5
282
330
1F
100
AcDbEntity
  8
LAYER0048
  6
CONTINUOUS
 62
     3
100
AcDbLine
 10
-1619.490162040627
 20
-1631.066372538011
 30
0.0
 11
-1601.483967046863
 21
-1613.060177544246
 31
0.0
  0
LINE
  5
283
330
1F
100
AcDbEntity
  8
LAYER0048
  6
CONTINUOUS
 62
     3
100
AcDbLine
 10
-1636.331897350862
 20
-1647.908107848246
 30
0.0
 11
-1623.659922694862
 21
-1635.236133192245
 31
0.0
  0
LINE
  5
284
330
1F
100
AcDbEntity
  8
LAYER0048
  6
CONTINUOUS
 62
     3
100
AcDbLine
 10
-1620.022996263151
 20
-1634.088222630311
 30
0.0
 11
-1598.994951177086
 21
-1613.060177544246
 31
0.0
  0
LINE
  5
285
330
1F
100
AcDbEntity
  8
LAYER0048
  6
CONTINUOUS
 62
     3
100
AcDbLine
 10
-1633.842881481086
 20
-1647.908107848246
 30
0.0
 11
-1621.170906825085
 21
-1635.236133192245
 31
0.0
  0
LINE
  5
286
330
1F
100
AcDbEntity
  8
LAYER0048
  6
CONTINUOUS
 62
     3
100
AcDbLine
 10
-1631.353865611309
 20
-1647.908107848246
 30
0.0
 11
-1596.505935307309
 21
-1613.060177544246
 31
0.0
  0
LINE
  5
287
330
1F
100
AcDbEntity
  8
LAYER0048
  6
CONTINUOUS
 62
     3
100
AcDbLine
 10
-1628.864849741532
 20
-1647.908107848246
 30
0.0
 11
-1594.016919437532
 21
-1613.060177544246
 31
0.0
  0
LINE
  5
288
330
1F
100
AcDbEntity
  8
LAYER0048
  6
CONTINUOUS
 62
     3
100
AcDbLine
 10
-1626.375833871755
 20
-1647.908107848246
 30
0.0
 11
-1591.527903567755
 21
-1613.060177544246
 31
0.0
  0
LINE
  5
289
330
1F
100
AcDbEntity
  8
LAYER0048
  6
CONTINUOUS
 62
     3
100
AcDbLine
 10
-1623.886818001979
 20
-1647.908107848246
 30
0.0
 11
-1589.038887697979
 21
-1613.060177544246
 31
0.0
  0
LINE
  5
28A
330
1F
100
AcDbEntity
  8
LAYER0048
  6
CONTINUOUS
 62
     3
100
AcDbLine
 10
-1622.687167375767
 20
-1649.197473091811
 30
0.0
 11
-1586.549871828202
 21
-1613.060177544246
 31
0.0
  0
LINE
  5
28B
330
1F
100
AcDbEntity
  8
LAYER0048
  6
CONTINUOUS
 62
     3
100
AcDbLine
 10
-1623.220001598291
 20
-1652.219323184112
 30
0.0
 11
-1584.758206066133
 21
-1613.757527651953
 31
0.0
  0
LINE
  5
28C
330
1F
100
AcDbEntity
  8
LAYER0048
  6
CONTINUOUS
 62
     3
100
AcDbLine
 10
-1623.752835820814
 20
-1655.241173276412
 30
0.0
 11
-1585.291040288656
 21
-1616.779377744253
 31
0.0
  0
LINE
  5
28D
330
1F
100
AcDbEntity
  8
LAYER0048
  6
CONTINUOUS
 62
     3
100
AcDbLine
 10
-1624.285670043338
 20
-1658.263023368712
 30
0.0
 11
-1585.82387451118
 21
-1619.801227836554
 31
0.0
  0
LINE
  5
28E
330
1F
100
AcDbEntity
  8
LAYER0048
  6
CONTINUOUS
 62
     3
100
AcDbLine
 10
-1624.818504265862
 20
-1661.284873461012
 30
0.0
 11
-1586.356708733703
 21
-1622.823077928854
 31
0.0
  0
LINE
  5
28F
330
1F
100
AcDbEntity
  8
LAYER0048
  6
CONTINUOUS
 62
     3
100
AcDbLine
 10
-1625.351338488385
 20
-1664.306723553312
 30
0.0
 11
-1586.889542956227
 21
-1625.844928021154
 31
0.0
  0
LINE
  5
290
330
1F
100
AcDbEntity
  8
LAYER0048
  6
CONTINUOUS
 62
     3
100
AcDbLine
 10
-1625.884172710909
 20
-1667.328573645613
 30
0.0
 11
-1587.422377178751
 21
-1628.866778113454
 31
0.0
  0
LINE
  5
291
330
1F
100
AcDbEntity
  8
LAYER0048
  6
CONTINUOUS
 62
     3
100
AcDbLine
 10
-1626.150646691766
 20
-1670.084063496246
 30
0.0
 11
-1587.955211401274
 21
-1631.888628205754
 31
0.0
  0
LINE
  5
292
330
1F
100
AcDbEntity
  8
LAYER0048
  6
CONTINUOUS
 62
     3
100
AcDbLine
 10
-1623.661630821989
 20
-1670.084063496246
 30
0.0
 11
-1588.488045623798
 21
-1634.910478298055
 31
0.0
  0
LINE
  5
293
330
1F
100
AcDbEntity
  8
LAYER0048
  6
CONTINUOUS
 62
     3
100
AcDbLine
 10
-1621.172614952213
 20
-1670.084063496246
 30
0.0
 11
-1586.324684648212
 21
-1635.236133192245
 31
0.0
  0
LINE
  5
294
330
1F
100
AcDbEntity
  8
LAYER0048
  6
CONTINUOUS
 62
     3
100
AcDbLine
 10
-1618.683599082436
 20
-1670.084063496246
 30
0.0
 11
-1583.835668778435
 21
-1635.236133192245
 31
0.0
  0
LINE
  5
295
330
1F
100
AcDbEntity
  8
LAYER0048
  6
CONTINUOUS
 62
     3
100
AcDbLine
 10
-1616.194583212659
 20
-1670.084063496246
 30
0.0
 11
-1581.346652908659
 21
-1635.236133192245
 31
0.0
  0
LINE
  5
296
330
1F
100
AcDbEntity
  8
LAYER0048
  6
CONTINUOUS
 62
     3
100
AcDbLine
 10
-1613.705567342882
 20
-1670.084063496246
 30
0.0
 11
-1578.857637038882
 21
-1635.236133192245
 31
0.0
  0
LINE
  5
297
330
1F
100
AcDbEntity
  8
LAYER0048
  6
CONTINUOUS
 62
     3
100
AcDbLine
 10
-1556.536600757472
 20
-1615.404112780613
 30
0.0
 11
-1554.192665521105
 21
-1613.060177544246
 31
0.0
  0
LINE
  5
298
330
1F
100
AcDbEntity
  8
LAYER0048
  6
CONTINUOUS
 62
     3
100
AcDbLine
 10
-1589.040595825106
 20
-1647.908107848246
 30
0.0
 11
-1576.368621169105
 21
-1635.236133192245
 31
0.0
  0
LINE
  5
299
330
1F
100
AcDbEntity
  8
LAYER0048
  6
CONTINUOUS
 62
     3
100
AcDbLine
 10
-1611.216551473106
 20
-1670.084063496246
 30
0.0
 11
-1591.152216736414
 21
-1650.019728759555
 31
0.0
  0
LINE
  5
29A
330
1F
100
AcDbEntity
  8
LAYER0048
  6
CONTINUOUS
 62
     3
100
AcDbLine
 10
-1557.069434979996
 20
-1618.425962872913
 30
0.0
 11
-1551.703649651328
 21
-1613.060177544246
 31
0.0
  0
LINE
  5
29B
330
1F
100
AcDbEntity
  8
LAYER0048
  6
CONTINUOUS
 62
     3
100
AcDbLine
 10
-1586.551579955329
 20
-1647.908107848246
 30
0.0
 11
-1573.879605299328
 21
-1635.236133192245
 31
0.0
  0
LINE
  5
29C
330
1F
100
AcDbEntity
  8
LAYER0048
  6
CONTINUOUS
 62
     3
100
AcDbLine
 10
-1608.727535603329
 20
-1670.084063496246
 30
0.0
 11
-1591.685050958938
 21
-1653.041578851855
 31
0.0
  0
LINE
  5
29D
330
1F
100
AcDbEntity
  8
LAYER0048
  6
CONTINUOUS
 62
     3
100
AcDbLine
 10
-1636.724526687135
 20
-1698.081054580051
 30
0.0
 11
-1634.07148491533
 21
-1695.428012808245
 31
0.0
  0
LINE
  5
29E
330
1F
100
AcDbEntity
  8
LAYER0048
  6
CONTINUOUS
 62
     3
100
AcDbLine
 10
-1557.60226920252
 20
-1621.447812965214
 30
0.0
 11
-1549.214633781552
 21
-1613.060177544246
 31
0.0
  0
LINE
  5
29F
330
1F
100
AcDbEntity
  8
LAYER0048
  6
CONTINUOUS
 62
     3
100
AcDbLine
 10
-1584.062564085553
 20
-1647.908107848246
 30
0.0
 11
-1571.390589429551
 21
-1635.236133192245
 31
0.0
  0
LINE
  5
2A0
330
1F
100
AcDbEntity
  8
LAYER0048
  6
CONTINUOUS
 62
     3
100
AcDbLine
 10
-1606.238519733552
 20
-1670.084063496246
 30
0.0
 11
-1592.217885181461
 21
-1656.063428944155
 31
0.0
  0
LINE
  5
2A1
330
1F
100
AcDbEntity
  8
LAYER0048
  6
CONTINUOUS
 62
     3
100
AcDbLine
 10
-1637.257360909658
 20
-1701.102904672351
 30
0.0
 11
-1631.582469045553
 21
-1695.428012808245
 31
0.0
  0
LINE
  5
2A2
330
1F
100
AcDbEntity
  8
LAYER0048
  6
CONTINUOUS
 62
     3
100
AcDbLine
 10
-1558.135103425043
 20
-1624.469663057514
 30
0.0
 11
-1546.725617911775
 21
-1613.060177544246
 31
0.0
  0
LINE
  5
2A3
330
1F
100
AcDbEntity
  8
LAYER0048
  6
CONTINUOUS
 62
     3
100
AcDbLine
 10
-1581.573548215776
 20
-1647.908107848246
 30
0.0
 11
-1568.901573559775
 21
-1635.236133192245
 31
0.0
  0
LINE
  5
2A4
330
1F
100
AcDbEntity
  8
LAYER0048
  6
CONTINUOUS
 62
     3
100
AcDbLine
 10
-1603.749503863776
 20
-1670.084063496246
 30
0.0
 11
-1592.750719403985
 21
-1659.085279036455
 31
0.0
  0
LINE
  5
2A5
330
1F
100
AcDbEntity
  8
LAYER0048
  6
CONTINUOUS
 62
     3
100
AcDbLine
 10
-1637.790195132181
 20
-1704.124754764651
 30
0.0
 11
-1629.093453175776
 21
-1695.428012808245
 31
0.0
  0
LINE
  5
2A6
330
1F
100
AcDbEntity
  8
LAYER0048
  6
CONTINUOUS
 62
     3
100
AcDbLine
 10
-1558.667937647566
 20
-1627.491513149814
 30
0.0
 11
-1544.236602041999
 21
-1613.060177544246
 31
0.0
  0
LINE
  5
2A7
330
1F
100
AcDbEntity
  8
LAYER0048
  6
CONTINUOUS
 62
     3
100
AcDbLine
 10
-1579.084532345999
 20
-1647.908107848246
 30
0.0
 11
-1566.412557689998
 21
-1635.236133192245
 31
0.0
  0
LINE
  5
2A8
330
1F
100
AcDbEntity
  8
LAYER0048
  6
CONTINUOUS
 62
     3
100
AcDbLine
 10
-1601.260487993999
 20
-1670.084063496246
 30
0.0
 11
-1593.283553626509
 21
-1662.107129128756
 31
0.0
  0
LINE
  5
2A9
330
1F
100
AcDbEntity
  8
LAYER0048
  6
CONTINUOUS
 62
     3
100
AcDbLine
 10
-1638.323029354704
 20
-1707.146604856951
 30
0.0
 11
-1626.604437306
 21
-1695.428012808245
 31
0.0
  0
LINE
  5
2AA
330
1F
100
AcDbEntity
  8
LAYER0048
  6
CONTINUOUS
 62
     3
100
AcDbLine
 10
-1559.20077187009
 20
-1630.513363242114
 30
0.0
 11
-1541.747586172221
 21
-1613.060177544246
 31
0.0
  0
LINE
  5
2AB
330
1F
100
AcDbEntity
  8
LAYER0048
  6
CONTINUOUS
 62
     3
100
AcDbLine
 10
-1576.595516476222
 20
-1647.908107848246
 30
0.0
 11
-1563.923541820222
 21
-1635.236133192245
 31
0.0
  0
LINE
  5
2AC
330
1F
100
AcDbEntity
  8
LAYER0048
  6
CONTINUOUS
 62
     3
100
AcDbLine
 10
-1598.771472124222
 20
-1670.084063496246
 30
0.0
 11
-1593.816387849033
 21
-1665.128979221056
 31
0.0
  0
LINE
  5
2AD
330
1F
100
AcDbEntity
  8
LAYER0048
  6
CONTINUOUS
 62
     3
100
AcDbLine
 10
-1636.787396092224
 20
-1708.099987464245
 30
0.0
 11
-1624.115421436223
 21
-1695.428012808245
 31
0.0
  0
LINE
  5
2AE
330
1F
100
AcDbEntity
  8
LAYER0048
  6
CONTINUOUS
 62
     3
100
AcDbLine
 10
-1559.733606092614
 20
-1633.535213334414
 30
0.0
 11
-1539.258570302445
 21
-1613.060177544246
 31
0.0
  0
LINE
  5
2AF
330
1F
100
AcDbEntity
  8
LAYER0048
  6
CONTINUOUS
 62
     3
100
AcDbLine
 10
-1574.106500606445
 20
-1647.908107848246
 30
0.0
 11
-1561.434525950445
 21
-1635.236133192245
 31
0.0
  0
LINE
  5
2B0
330
1F
100
AcDbEntity
  8
LAYER0048
  6
CONTINUOUS
 62
     3
100
AcDbLine
 10
-1596.282456254446
 20
-1670.084063496246
 30
0.0
 11
-1594.349222071556
 21
-1668.150829313356
 31
0.0
  0
LINE
  5
2B1
330
1F
100
AcDbEntity
  8
LAYER0048
  6
CONTINUOUS
 62
     3
100
AcDbLine
 10
-1634.298380222448
 20
-1708.099987464245
 30
0.0
 11
-1621.626405566446
 21
-1695.428012808245
 31
0.0
  0
LINE
  5
2B2
330
1F
100
AcDbEntity
  8
LAYER0048
  6
CONTINUOUS
 62
     3
100
AcDbLine
 10
-1571.617484736669
 20
-1647.908107848246
 30
0.0
 11
-1536.769554432669
 21
-1613.060177544246
 31
0.0
  0
LINE
  5
2B3
330
1F
100
AcDbEntity
  8
LAYER0048
  6
CONTINUOUS
 62
     3
100
AcDbLine
 10
-1631.809364352671
 20
-1708.099987464245
 30
0.0
 11
-1619.13738969667
 21
-1695.428012808245
 31
0.0
  0
LINE
  5
2B4
330
1F
100
AcDbEntity
  8
LAYER0048
  6
CONTINUOUS
 62
     3
100
AcDbLine
 10
-1569.128468866892
 20
-1647.908107848246
 30
0.0
 11
-1534.280538562892
 21
-1613.060177544246
 31
0.0
  0
LINE
  5
2B5
330
1F
100
AcDbEntity
  8
LAYER0048
  6
CONTINUOUS
 62
     3
100
AcDbLine
 10
-1629.320348482894
 20
-1708.099987464245
 30
0.0
 11
-1616.648373826893
 21
-1695.428012808245
 31
0.0
  0
LINE
  5
2B6
330
1F
100
AcDbEntity
  8
LAYER0048
  6
CONTINUOUS
 62
     3
100
AcDbLine
 10
-1566.639452997115
 20
-1647.908107848246
 30
0.0
 11
-1531.791522693116
 21
-1613.060177544246
 31
0.0
  0
LINE
  5
2B7
330
1F
100
AcDbEntity
  8
LAYER0048
  6
CONTINUOUS
 62
     3
100
AcDbLine
 10
-1626.831332613117
 20
-1708.099987464245
 30
0.0
 11
-1614.159357957116
 21
-1695.428012808245
 31
0.0
  0
LINE
  5
2B8
330
1F
100
AcDbEntity
  8
LAYER0048
  6
CONTINUOUS
 62
     3
100
AcDbLine
 10
-1564.150437127339
 20
-1647.908107848246
 30
0.0
 11
-1529.302506823339
 21
-1613.060177544246
 31
0.0
  0
LINE
  5
2B9
330
1F
100
AcDbEntity
  8
LAYER0048
  6
CONTINUOUS
 62
     3
100
AcDbLine
 10
-1624.34231674334
 20
-1708.099987464245
 30
0.0
 11
-1611.670342087339
 21
-1695.428012808245
 31
0.0
  0
LINE
  5
2BA
330
1F
100
AcDbEntity
  8
LAYER0048
  6
CONTINUOUS
 62
     3
100
AcDbLine
 10
-1562.397775352105
 20
-1648.644461942788
 30
0.0
 11
-1526.813490953562
 21
-1613.060177544246
 31
0.0
  0
LINE
  5
2BB
330
1F
100
AcDbEntity
  8
LAYER0048
  6
CONTINUOUS
 62
     3
100
AcDbLine
 10
-1621.853300873564
 20
-1708.099987464245
 30
0.0
 11
-1609.181326217562
 21
-1695.428012808245
 31
0.0
  0
LINE
  5
2BC
330
1F
100
AcDbEntity
  8
LAYER0048
  6
CONTINUOUS
 62
     3
100
AcDbLine
 10
-1562.930601969789
 20
-1651.66630443025
 30
0.0
 11
-1524.468815895596
 21
-1613.204518356056
 31
0.0
  0
LINE
  5
2BD
330
1F
100
AcDbEntity
  8
LAYER0048
  6
CONTINUOUS
 62
     3
100
AcDbLine
 10
-1619.364285003787
 20
-1708.099987464245
 30
0.0
 11
-1606.692310347786
 21
-1695.428012808245
 31
0.0
  0
LINE
  5
2BE
330
1F
100
AcDbEntity
  8
LAYER0048
  6
CONTINUOUS
 62
     3
100
AcDbLine
 10
-1563.463428587475
 20
-1654.688146917712
 30
0.0
 11
-1525.001650118119
 21
-1616.226368448357
 31
0.0
  0
LINE
  5
2BF
330
1F
100
AcDbEntity
  8
LAYER0048
  6
CONTINUOUS
 62
     3
100
AcDbLine
 10
-1616.87526913401
 20
-1708.099987464245
 30
0.0
 11
-1604.203294478009
 21
-1695.428012808245
 31
0.0
  0
LINE
  5
2C0
330
1F
100
AcDbEntity
  8
LAYER0048
  6
CONTINUOUS
 62
     3
100
AcDbLine
 10
-1563.99625520516
 20
-1657.709989405174
 30
0.0
 11
-1525.534484340643
 21
-1619.248218540657
 31
0.0
  0
LINE
  5
2C1
330
1F
100
AcDbEntity
  8
LAYER0048
  6
CONTINUOUS
 62
     3
100
AcDbLine
 10
-1614.386253264234
 20
-1708.099987464245
 30
0.0
 11
-1601.714278608232
 21
-1695.428012808245
 31
0.0
  0
LINE
  5
2C2
330
1F
100
AcDbEntity
  8
LAYER0048
  6
CONTINUOUS
 62
     3
100
AcDbLine
 10
-1564.529081822846
 20
-1660.731831892636
 30
0.0
 11
-1526.067318563167
 21
-1622.270068632957
 31
0.0
  0
LINE
  5
2C3
330
1F
100
AcDbEntity
  8
LAYER0048
  6
CONTINUOUS
 62
     3
100
AcDbLine
 10
-1611.897237394457
 20
-1708.099987464245
 30
0.0
 11
-1599.225262738455
 21
-1695.428012808245
 31
0.0
  0
LINE
  5
2C4
330
1F
100
AcDbEntity
  8
LAYER0048
  6
CONTINUOUS
 62
     3
100
AcDbLine
 10
-1565.061908440532
 20
-1663.753674380098
 30
0.0
 11
-1526.60015278569
 21
-1625.291918725258
 31
0.0
  0
LINE
  5
2C5
330
1F
100
AcDbEntity
  8
LAYER0048
  6
CONTINUOUS
 62
     3
100
AcDbLine
 10
-1609.40822152468
 20
-1708.099987464245
 30
0.0
 11
-1596.736246868679
 21
-1695.428012808245
 31
0.0
  0
LINE
  5
2C6
330
1F
100
AcDbEntity
  8
LAYER0048
  6
CONTINUOUS
 62
     3
100
AcDbLine
 10
-1565.594735058216
 20
-1666.77551686756
 30
0.0
 11
-1527.132987008214
 21
-1628.313768817558
 31
0.0
  0
LINE
  5
2C7
330
1F
100
AcDbEntity
  8
LAYER0048
  6
CONTINUOUS
 62
     3
100
AcDbLine
 10
-1606.919205654903
 20
-1708.099987464245
 30
0.0
 11
-1594.247230998902
 21
-1695.428012808245
 31
0.0
  0
LINE
  5
2C8
330
1F
100
AcDbEntity
  8
LAYER0048
  6
CONTINUOUS
 62
     3
100
AcDbLine
 10
-1566.127561675902
 20
-1669.797359355022
 30
0.0
 11
-1527.665821230737
 21
-1631.335618909858
 31
0.0
  0
LINE
  5
2C9
330
1F
100
AcDbEntity
  8
LAYER0048
  6
CONTINUOUS
 62
     3
100
AcDbLine
 10
-1604.430189785127
 20
-1708.099987464245
 30
0.0
 11
-1591.756852276281
 21
-1695.426649955401
 31
0.0
  0
LINE
  5
2CA
330
1F
100
AcDbEntity
  8
LAYER0048
  6
CONTINUOUS
 62
     3
100
AcDbLine
 10
-1566.660388293587
 20
-1672.819201842484
 30
0.0
 11
-1528.198655453261
 21
-1634.357469002158
 31
0.0
  0
LINE
  5
2CB
330
1F
100
AcDbEntity
  8
LAYER0048
  6
CONTINUOUS
 62
     3
100
AcDbLine
 10
-1601.94117391535
 20
-1708.099987464245
 30
0.0
 11
-1589.113197074601
 21
-1695.272010623498
 31
0.0
  0
LINE
  5
2CC
330
1F
100
AcDbEntity
  8
LAYER0048
  6
CONTINUOUS
 62
     3
100
AcDbLine
 10
-1567.244303822196
 20
-1675.89213324087
 30
0.0
 11
-1526.588303773571
 21
-1635.236133192245
 31
0.0
  0
LINE
  5
2CD
330
1F
100
AcDbEntity
  8
LAYER0048
  6
CONTINUOUS
 62
     3
100
AcDbLine
 10
-1599.452158045573
 20
-1708.099987464245
 30
0.0
 11
-1586.104949999413
 21
-1694.752779418087
 31
0.0
  0
LINE
  5
2CE
330
1F
100
AcDbEntity
  8
LAYER0048
  6
CONTINUOUS
 62
     3
100
AcDbLine
 10
-1568.397159998762
 20
-1679.534005287212
 30
0.0
 11
-1524.099287903795
 21
-1635.236133192245
 31
0.0
  0
LINE
  5
2CF
330
1F
100
AcDbEntity
  8
LAYER0048
  6
CONTINUOUS
 62
     3
100
AcDbLine
 10
-1596.963142175796
 20
-1708.099987464245
 30
0.0
 11
-1582.463077953071
 21
-1693.599923241521
 31
0.0
  0
LINE
  5
2D0
330
1F
100
AcDbEntity
  8
LAYER0048
  6
CONTINUOUS
 62
     3
100
AcDbLine
 10
-1571.563940188762
 20
-1685.189801346989
 30
0.0
 11
-1521.610272034018
 21
-1635.236133192245
 31
0.0
  0
LINE
  5
2D1
330
1F
100
AcDbEntity
  8
LAYER0048
  6
CONTINUOUS
 62
     3
100
AcDbLine
 10
-1594.47412630602
 20
-1708.099987464245
 30
0.0
 11
-1576.807281893294
 21
-1690.43314305152
 31
0.0
  0
LINE
  5
2D2
330
1F
100
AcDbEntity
  8
LAYER0048
  6
CONTINUOUS
 62
     3
100
AcDbLine
 10
-1591.985110436243
 20
-1708.099987464245
 30
0.0
 11
-1519.121256164241
 21
-1635.236133192245
 31
0.0
  0
LINE
  5
2D3
330
1F
100
AcDbEntity
  8
LAYER0048
  6
CONTINUOUS
 62
     3
100
AcDbLine
 10
-1529.304214950465
 20
-1647.908107848246
 30
0.0
 11
-1516.632240294465
 21
-1635.236133192245
 31
0.0
  0
LINE
  5
2D4
330
1F
100
AcDbEntity
  8
LAYER0048
  6
CONTINUOUS
 62
     3
100
AcDbLine
 10
-1589.496094566466
 20
-1708.099987464245
 30
0.0
 11
-1530.862826588798
 21
-1649.466719486577
 31
0.0
  0
LINE
  5
2D5
330
1F
100
AcDbEntity
  8
LAYER0048
  6
CONTINUOUS
 62
     3
100
AcDbLine
 10
-1526.815199080688
 20
-1647.908107848246
 30
0.0
 11
-1514.143224424688
 21
-1635.236133192245
 31
0.0
  0
LINE
  5
2D6
330
1F
100
AcDbEntity
  8
LAYER0048
  6
CONTINUOUS
 62
     3
100
AcDbLine
 10
-1587.007078696689
 20
-1708.099987464245
 30
0.0
 11
-1531.395660855759
 21
-1652.488569623315
 31
0.0
  0
LINE
  5
2D7
330
1F
100
AcDbEntity
  8
LAYER0048
  6
CONTINUOUS
 62
     3
100
AcDbLine
 10
-1524.326183210912
 20
-1647.908107848246
 30
0.0
 11
-1511.654208554912
 21
-1635.236133192245
 31
0.0
  0
LINE
  5
2D8
330
1F
100
AcDbEntity
  8
LAYER0048
  6
CONTINUOUS
 62
     3
100
AcDbLine
 10
-1584.518062826912
 20
-1708.099987464245
 30
0.0
 11
-1531.92849512272
 21
-1655.510419760054
 31
0.0
  0
LINE
  5
2D9
330
1F
100
AcDbEntity
  8
LAYER0048
  6
CONTINUOUS
 62
     3
100
AcDbLine
 10
-1521.837167341136
 20
-1647.908107848246
 30
0.0
 11
-1509.616566239212
 21
-1635.687506746321
 31
0.0
  0
LINE
  5
2DA
330
1F
100
AcDbEntity
  8
LAYER0048
  6
CONTINUOUS
 62
     3
100
AcDbLine
 10
-1582.029046957136
 20
-1708.099987464245
 30
0.0
 11
-1532.461329389682
 21
-1658.532269896791
 31
0.0
  0
LINE
  5
2DB
330
1F
100
AcDbEntity
  8
LAYER0048
  6
CONTINUOUS
 62
     3
100
AcDbLine
 10
-1519.348151471359
 20
-1647.908107848246
 30
0.0
 11
-1510.149400461735
 21
-1638.709356838621
 31
0.0
  0
LINE
  5
2DC
330
1F
100
AcDbEntity
  8
LAYER0048
  6
CONTINUOUS
 62
     3
100
AcDbLine
 10
-1579.513614370024
 20
-1708.07357074691
 30
0.0
 11
-1532.994163656643
 21
-1661.554120033529
 31
0.0
  0
LINE
  5
2DD
330
1F
100
AcDbEntity
  8
LAYER0048
  6
CONTINUOUS
 62
     3
100
AcDbLine
 10
-1516.859135601582
 20
-1647.908107848246
 30
0.0
 11
-1510.682234684258
 21
-1641.731206930921
 31
0.0
  0
LINE
  5
2DE
330
1F
100
AcDbEntity
  8
LAYER0048
  6
CONTINUOUS
 62
     3
100
AcDbLine
 10
-1576.863415928169
 20
-1707.912388174833
 30
0.0
 11
-1533.526997923604
 21
-1664.575970170267
 31
0.0
  0
LINE
  5
2DF
330
1F
100
AcDbEntity
  8
LAYER0048
  6
CONTINUOUS
 62
     3
100
AcDbLine
 10
-1514.370119731806
 20
-1647.908107848246
 30
0.0
 11
-1511.215068906781
 21
-1644.753057023221
 31
0.0
  0
LINE
  5
2E0
330
1F
100
AcDbEntity
  8
LAYER0048
  6
CONTINUOUS
 62
     3
100
AcDbLine
 10
-1574.035871002309
 20
-1707.573859118749
 30
0.0
 11
-1534.059832190566
 21
-1667.597820307005
 31
0.0
  0
LINE
  5
2E1
330
1F
100
AcDbEntity
  8
LAYER0048
  6
CONTINUOUS
 62
     3
100
AcDbLine
 10
-1511.881103862029
 20
-1647.908107848246
 30
0.0
 11
-1511.747903129305
 21
-1647.774907115521
 31
0.0
  0
LINE
  5
2E2
330
1F
100
AcDbEntity
  8
LAYER0048
  6
CONTINUOUS
 62
     3
100
AcDbLine
 10
-1570.988736298498
 20
-1707.015740284715
 30
0.0
 11
-1534.639717598769
 21
-1670.666721584985
 31
0.0
  0
LINE
  5
2E3
330
1F
100
AcDbEntity
  8
LAYER0048
  6
CONTINUOUS
 62
     3
100
AcDbLine
 10
-1567.644645212954
 20
-1706.160665068948
 30
0.0
 11
-1535.494792814536
 21
-1674.010812670529
 31
0.0
  0
LINE
  5
2E4
330
1F
100
AcDbEntity
  8
LAYER0048
  6
CONTINUOUS
 62
     3
100
AcDbLine
 10
-1563.869116384246
 20
-1704.874152110016
 30
0.0
 11
-1536.781305773468
 21
-1677.786341499237
 31
0.0
  0
LINE
  5
2E5
330
1F
100
AcDbEntity
  8
LAYER0048
  6
CONTINUOUS
 62
     3
100
AcDbLine
 10
-1559.344909392987
 20
-1702.838960988533
 30
0.0
 11
-1538.81649689495
 21
-1682.310548490496
 31
0.0
  0
LINE
  5
2E6
330
1F
100
AcDbEntity
  8
LAYER0048
  6
CONTINUOUS
 62
     3
100
AcDbLine
 10
-1552.749895303117
 20
-1698.732962768441
 30
0.0
 11
-1542.922495115043
 21
-1688.905562580366
 31
0.0
  0
LINE
  5
2E7
330
1F
100
AcDbEntity
  8
LAYER0048
  6
CONTINUOUS
 62
     3
100
AcDbLine
 10
-1375.523441856037
 20
-1654.062802574645
 30
0.0
 11
-1374.128301542437
 21
-1646.111033870645
 31
0.0
  0
LINE
  5
2E8
330
1F
100
AcDbEntity
  8
LAYER0048
  6
CONTINUOUS
 62
     3
100
AcDbLine
 10
-1385.051643475239
 20
-1708.099987464245
 30
0.0
 11
-1382.258626963237
 21
-1692.260019144245
 31
0.0
  0
LINE
  5
2E9
330
1F
100
AcDbEntity
  8
LAYER0048
  6
CONTINUOUS
 62
     3
100
AcDbLine
 10
-1394.885700921639
 20
-1668.831832929845
 30
0.0
 11
-1385.051643475239
 21
-1613.060177544246
 31
0.0
  0
LINE
  5
2EA
330
1F
100
AcDbEntity
  8
LAYER0048
  6
CONTINUOUS
 62
     3
100
AcDbLine
 10
-1511.771390035238
 20
-1708.099987464245
 30
0.0
 11
-1441.683654163237
 21
-1708.099987464245
 31
0.0
  0
LINE
  5
2EB
330
1F
100
AcDbEntity
  8
LAYER0048
  6
CONTINUOUS
 62
     3
100
AcDbLine
 10
-1507.302563616038
 20
-1682.756038152245
 30
0.0
 11
-1511.771390035238
 21
-1708.099987464245
 31
0.0
  0
LINE
  5
2EC
330
1F
100
AcDbEntity
  8
LAYER0048
  6
CONTINUOUS
 62
     3
100
AcDbLine
 10
-1432.033061932839
 20
-1682.756038152245
 30
0.0
 11
-1507.302563616038
 21
-1682.756038152245
 31
0.0
  0
LINE
  5
2ED
330
1F
100
AcDbEntity
  8
LAYER0048
  6
CONTINUOUS
 62
     3
100
AcDbLine
 10
-1401.135910214438
 20
-1613.060177544246
 30
0.0
 11
-1410.194022451238
 21
-1664.430920827446
 31
0.0
  0
LINE
  5
2EE
330
1F
100
AcDbEntity
  8
LAYER0048
  6
CONTINUOUS
 62
     3
100
AcDbLine
 10
-1385.051643475239
 20
-1613.060177544246
 30
0.0
 11
-1401.135910214438
 21
-1613.060177544246
 31
0.0
  0
LINE
  5
2EF
330
1F
100
AcDbEntity
  8
LAYER0048
  6
CONTINUOUS
 62
     3
100
AcDbLine
 10
-1433.860391577638
 20
-1613.060177544246
 30
0.0
 11
-1501.414537190438
 21
-1613.060177544246
 31
0.0
  0
LINE
  5
2F0
330
1F
100
AcDbEntity
  8
LAYER0048
  6
CONTINUOUS
 62
     3
100
AcDbLine
 10
-1436.653408089637
 20
-1628.900145864246
 30
0.0
 11
-1433.860391577638
 21
-1613.060177544246
 31
0.0
  0
LINE
  5
2F1
330
1F
100
AcDbEntity
  8
LAYER0048
  6
CONTINUOUS
 62
     3
100
AcDbLine
 10
-1504.207553702438
 20
-1628.900145864246
 30
0.0
 11
-1436.653408089637
 21
-1628.900145864246
 31
0.0
  0
LINE
  5
2F2
330
1F
100
AcDbEntity
  8
LAYER0048
  6
CONTINUOUS
 62
     3
100
AcDbLine
 10
-1501.414537190438
 20
-1613.060177544246
 30
0.0
 11
-1504.207553702438
 21
-1628.900145864246
 31
0.0
  0
LINE
  5
2F3
330
1F
100
AcDbEntity
  8
LAYER0048
  6
CONTINUOUS
 62
     3
100
AcDbLine
 10
-1528.353587808039
 20
-1635.236133192245
 30
0.0
 11
-1524.443364691238
 21
-1613.060177544246
 31
0.0
  0
LINE
  5
2F4
330
1F
100
AcDbEntity
  8
LAYER0048
  6
CONTINUOUS
 62
     3
100
AcDbLine
 10
-1534.277422137638
 20
-1668.831832929845
 30
0.0
 11
-1530.588001017638
 21
-1647.908107848246
 31
0.0
  0
LINE
  5
2F5
330
1F
100
AcDbEntity
  8
LAYER0048
  6
CONTINUOUS
 62
     3
100
AcDbLine
 10
-1562.267937657638
 20
-1647.908107848246
 30
0.0
 11
-1566.954105984038
 21
-1674.484975598645
 31
0.0
  0
LINE
  5
2F6
330
1F
100
AcDbEntity
  8
LAYER0048
  6
CONTINUOUS
 62
     3
100
AcDbLine
 10
-1556.123301331238
 20
-1613.060177544246
 30
0.0
 11
-1560.033524448039
 21
-1635.236133192245
 31
0.0
  0
LINE
  5
2F7
330
1F
100
AcDbEntity
  8
LAYER0048
  6
CONTINUOUS
 62
     3
100
AcDbLine
 10
-1560.033524448039
 20
-1635.236133192245
 30
0.0
 11
-1588.545467424038
 21
-1635.236133192245
 31
0.0
  0
LINE
  5
2F8
330
1F
100
AcDbEntity
  8
LAYER0048
  6
CONTINUOUS
 62
     3
100
AcDbLine
 10
-1509.536976825638
 20
-1635.236133192245
 30
0.0
 11
-1528.353587808039
 21
-1635.236133192245
 31
0.0
  0
LINE
  5
2F9
330
1F
100
AcDbEntity
  8
LAYER0048
  6
CONTINUOUS
 62
     3
100
AcDbLine
 10
-1530.588001017638
 20
-1647.908107848246
 30
0.0
 11
-1511.771390035238
 21
-1647.908107848246
 31
0.0
  0
LINE
  5
2FA
330
1F
100
AcDbEntity
  8
LAYER0048
  6
CONTINUOUS
 62
     3
100
AcDbLine
 10
-1590.779880633638
 20
-1647.908107848246
 30
0.0
 11
-1562.267937657638
 21
-1647.908107848246
 31
0.0
  0
LINE
  5
2FB
330
1F
100
AcDbEntity
  8
LAYER0048
  6
CONTINUOUS
 62
     3
100
AcDbLine
 10
-1588.545467424038
 20
-1635.236133192245
 30
0.0
 11
-1584.635244307237
 21
-1613.060177544246
 31
0.0
  0
LINE
  5
2FC
330
1F
100
AcDbEntity
  8
LAYER0048
  6
CONTINUOUS
 62
     3
100
AcDbLine
 10
-1594.690103750439
 20
-1670.084063496246
 30
0.0
 11
-1590.779880633638
 21
-1647.908107848246
 31
0.0
  0
LINE
  5
2FD
330
1F
100
AcDbEntity
  8
LAYER0048
  6
CONTINUOUS
 62
     3
100
AcDbLine
 10
-1622.459817273638
 20
-1647.908107848246
 30
0.0
 11
-1626.370040390439
 21
-1670.084063496246
 31
0.0
  0
LINE
  5
2FE
330
1F
100
AcDbEntity
  8
LAYER0048
  6
CONTINUOUS
 62
     3
100
AcDbLine
 10
-1616.315180947238
 20
-1613.060177544246
 30
0.0
 11
-1620.225404064039
 21
-1635.236133192245
 31
0.0
  0
LINE
  5
2FF
330
1F
100
AcDbEntity
  8
LAYER0048
  6
CONTINUOUS
 62
     3
100
AcDbLine
 10
-1638.491136595238
 20
-1647.908107848246
 30
0.0
 11
-1622.459817273638
 21
-1647.908107848246
 31
0.0
  0
LINE
  5
300
330
1F
100
AcDbEntity
  8
LAYER0048
  6
CONTINUOUS
 62
     3
100
AcDbLine
 10
-1620.225404064039
 20
-1635.236133192245
 30
0.0
 11
-1636.256723385639
 21
-1635.236133192245
 31
0.0
  0
LINE
  5
301
330
1F
100
AcDbEntity
  8
LAYER0048
  6
CONTINUOUS
 62
     3
100
AcDbLine
 10
-1524.443364691238
 20
-1613.060177544246
 30
0.0
 11
-1556.123301331238
 21
-1613.060177544246
 31
0.0
  0
LINE
  5
302
330
1F
100
AcDbEntity
  8
LAYER0048
  6
CONTINUOUS
 62
     3
100
AcDbLine
 10
-1638.491136595238
 20
-1708.099987464245
 30
0.0
 11
-1581.075375379239
 21
-1708.099987464245
 31
0.0
  0
LINE
  5
303
330
1F
100
AcDbEntity
  8
LAYER0048
  6
CONTINUOUS
 62
     3
100
AcDbLine
 10
-1636.256723385639
 20
-1695.428012808245
 30
0.0
 11
-1638.491136595238
 21
-1708.099987464245
 31
0.0
  0
LINE
  5
304
330
1F
100
AcDbEntity
  8
LAYER0048
  6
CONTINUOUS
 62
     3
100
AcDbLine
 10
-1591.913019744038
 20
-1695.428012808245
 30
0.0
 11
-1636.256723385639
 21
-1695.428012808245
 31
0.0
  0
LINE
  5
305
330
1F
100
AcDbEntity
  8
LAYER0048
  6
CONTINUOUS
 62
     3
100
AcDbLine
 10
-1584.635244307237
 20
-1613.060177544246
 30
0.0
 11
-1616.315180947238
 21
-1613.060177544246
 31
0.0
  0
LINE
  5
306
330
1F
100
AcDbEntity
  8
LAYER0048
  6
CONTINUOUS
 62
     3
100
AcDbLine
 10
-1626.370040390439
 20
-1670.084063496246
 30
0.0
 11
-1594.690103750439
 21
-1670.084063496246
 31
0.0
  0
LINE
  5
307
330
1F
100
AcDbEntity
  8
LAYER0048
  6
CONTINUOUS
 62
     3
100
AcDbLine
 10
-1511.771390035238
 20
-1647.908107848246
 30
0.0
 11
-1509.536976825638
 21
-1635.236133192245
 31
0.0
  0
LINE
  5
308
330
1F
100
AcDbEntity
  8
LAYER0048
  6
CONTINUOUS
 62
     3
100
AcDbLine
 10
-1636.256723385639
 20
-1635.236133192245
 30
0.0
 11
-1638.491136595238
 21
-1647.908107848246
 31
0.0
  0
ARC
  5
309
330
1F
100
AcDbEntity
  8
LAYER0048
  6
CONTINUOUS
 62
     3
100
AcDbCircle
 10
-1432.033061932839
 20
-1660.580082504245
 30
0.0
 40
22.17595564799971
100
AcDbArc
 50
270.0000000000006
 51
349.999932750911
  0
ARC
  5
30A
330
1F
100
AcDbEntity
  8
LAYER0048
  6
CONTINUOUS
 62
     3
100
AcDbCircle
 10
-1441.683654163237
 20
-1660.580082504245
 30
0.0
 40
47.51990496000001
100
AcDbArc
 50
270.0000000000006
 51
349.9999897560571
  0
ARC
  5
30B
330
1F
100
AcDbEntity
  8
LAYER0048
  6
CONTINUOUS
 62
     3
100
AcDbCircle
 10
-1591.913019744038
 20
-1670.084063496246
 30
0.0
 40
25.34394931199965
100
AcDbArc
 50
270.0000000000006
 51
350.0000396355528
  0
ARC
  5
30C
330
1F
100
AcDbEntity
  8
LAYER0048
  6
CONTINUOUS
 62
     3
100
AcDbCircle
 10
-1581.075375379239
 20
-1660.580082504245
 30
0.0
 40
47.51990496000001
100
AcDbArc
 50
270.0000000000006
 51
349.9999897560575
  0
LINE
  5
30D
330
1F
100
AcDbEntity
  8
LAYER0048
  6
CONTINUOUS
 62
     3
100
AcDbLine
 10
-1133.663127973633
 20
-1630.597433077464
 30
0.0
 11
-1131.238819608414
 21
-1628.173124712245
 31
0.0
  0
LINE
  5
30E
330
1F
100
AcDbEntity
  8
LAYER0048
  6
CONTINUOUS
 62
     3
100
AcDbLine
 10
-1115.114622443157
 20
-1614.537943416765
 30
0.0
 11
-1113.636856570638
 21
-1613.060177544246
 31
0.0
  0
LINE
  5
30F
330
1F
100
AcDbEntity
  8
LAYER0048
  6
CONTINUOUS
 62
     3
100
AcDbLine
 10
-1134.195962196157
 20
-1633.619283169764
 30
0.0
 11
-1128.749803738638
 21
-1628.173124712245
 31
0.0
  0
LINE
  5
310
330
1F
100
AcDbEntity
  8
LAYER0048
  6
CONTINUOUS
 62
     3
100
AcDbLine
 10
-1115.647458928176
 20
-1617.55979577156
 30
0.0
 11
-1111.147840700861
 21
-1613.060177544246
 31
0.0
  0
LINE
  5
311
330
1F
100
AcDbEntity
  8
LAYER0048
  6
CONTINUOUS
 62
     3
100
AcDbLine
 10
-1134.72879641868
 20
-1636.641133262064
 30
0.0
 11
-1126.260787868861
 21
-1628.173124712245
 31
0.0
  0
LINE
  5
312
330
1F
100
AcDbEntity
  8
LAYER0048
  6
CONTINUOUS
 62
     3
100
AcDbLine
 10
-1116.180295413194
 20
-1620.581648126355
 30
0.0
 11
-1108.658824831084
 21
-1613.060177544246
 31
0.0
  0
LINE
  5
313
330
1F
100
AcDbEntity
  8
LAYER0048
  6
CONTINUOUS
 62
     3
100
AcDbLine
 10
-1135.261630641203
 20
-1639.662983354364
 30
0.0
 11
-1123.771771999084
 21
-1628.173124712245
 31
0.0
  0
LINE
  5
314
330
1F
100
AcDbEntity
  8
LAYER0048
  6
CONTINUOUS
 62
     3
100
AcDbLine
 10
-1116.713131898212
 20
-1623.60350048115
 30
0.0
 11
-1106.169808961308
 21
-1613.060177544246
 31
0.0
  0
LINE
  5
315
330
1F
100
AcDbEntity
  8
LAYER0048
  6
CONTINUOUS
 62
     3
100
AcDbLine
 10
-1135.794464863726
 20
-1642.684833446664
 30
0.0
 11
-1121.282756129308
 21
-1628.173124712245
 31
0.0
  0
LINE
  5
316
330
1F
100
AcDbEntity
  8
LAYER0048
  6
CONTINUOUS
 62
     3
100
AcDbLine
 10
-1117.245968383231
 20
-1626.625352835945
 30
0.0
 11
-1103.680793091532
 21
-1613.060177544246
 31
0.0
  0
LINE
  5
317
330
1F
100
AcDbEntity
  8
LAYER0048
  6
CONTINUOUS
 62
     3
100
AcDbLine
 10
-1134.633708579531
 20
-1644.013093032245
 30
0.0
 11
-1118.793740259531
 21
-1628.173124712245
 31
0.0
  0
LINE
  5
318
330
1F
100
AcDbEntity
  8
LAYER0048
  6
CONTINUOUS
 62
     3
100
AcDbLine
 10
-1132.144692709755
 20
-1644.013093032245
 30
0.0
 11
-1101.191777221755
 21
-1613.060177544246
 31
0.0
  0
LINE
  5
319
330
1F
100
AcDbEntity
  8
LAYER0048
  6
CONTINUOUS
 62
     3
100
AcDbLine
 10
-1129.655676839978
 20
-1644.013093032245
 30
0.0
 11
-1098.702761351978
 21
-1613.060177544246
 31
0.0
  0
LINE
  5
31A
330
1F
100
AcDbEntity
  8
LAYER0048
  6
CONTINUOUS
 62
     3
100
AcDbLine
 10
-1127.166660970201
 20
-1644.013093032245
 30
0.0
 11
-1096.213745482202
 21
-1613.060177544246
 31
0.0
  0
LINE
  5
31B
330
1F
100
AcDbEntity
  8
LAYER0048
  6
CONTINUOUS
 62
     3
100
AcDbLine
 10
-1124.677645100425
 20
-1644.013093032245
 30
0.0
 11
-1093.724729612425
 21
-1613.060177544246
 31
0.0
  0
LINE
  5
31C
330
1F
100
AcDbEntity
  8
LAYER0048
  6
CONTINUOUS
 62
     3
100
AcDbLine
 10
-1122.188629230649
 20
-1644.013093032245
 30
0.0
 11
-1091.235713742649
 21
-1613.060177544246
 31
0.0
  0
LINE
  5
31D
330
1F
100
AcDbEntity
  8
LAYER0048
  6
CONTINUOUS
 62
     3
100
AcDbLine
 10
-1120.442974745957
 20
-1644.756454417332
 30
0.0
 11
-1088.746697872872
 21
-1613.060177544246
 31
0.0
  0
LINE
  5
31E
330
1F
100
AcDbEntity
  8
LAYER0048
  6
CONTINUOUS
 62
     3
100
AcDbLine
 10
-1120.97580843494
 20
-1647.778303976093
 30
0.0
 11
-1086.257682003096
 21
-1613.060177544246
 31
0.0
  0
LINE
  5
31F
330
1F
100
AcDbEntity
  8
LAYER0048
  6
CONTINUOUS
 62
     3
100
AcDbLine
 10
-1121.508642123924
 20
-1650.800153534852
 30
0.0
 11
-1083.768666133319
 21
-1613.060177544246
 31
0.0
  0
LINE
  5
320
330
1F
100
AcDbEntity
  8
LAYER0048
  6
CONTINUOUS
 62
     3
100
AcDbLine
 10
-1122.041475812907
 20
-1653.822003093612
 30
0.0
 11
-1082.986283745385
 21
-1614.766811026088
 31
0.0
  0
LINE
  5
321
330
1F
100
AcDbEntity
  8
LAYER0048
  6
CONTINUOUS
 62
     3
100
AcDbLine
 10
-1122.57430950189
 20
-1656.843852652371
 30
0.0
 11
-1083.519120230403
 21
-1617.788663380883
 31
0.0
  0
LINE
  5
322
330
1F
100
AcDbEntity
  8
LAYER0048
  6
CONTINUOUS
 62
     3
100
AcDbLine
 10
-1123.107143190874
 20
-1659.865702211132
 30
0.0
 11
-1084.051956715422
 21
-1620.810515735679
 31
0.0
  0
LINE
  5
323
330
1F
100
AcDbEntity
  8
LAYER0048
  6
CONTINUOUS
 62
     3
100
AcDbLine
 10
-1123.639976879856
 20
-1662.887551769891
 30
0.0
 11
-1084.58479320044
 21
-1623.832368090474
 31
0.0
  0
LINE
  5
324
330
1F
100
AcDbEntity
  8
LAYER0048
  6
CONTINUOUS
 62
     3
100
AcDbLine
 10
-1124.17281056884
 20
-1665.909401328651
 30
0.0
 11
-1085.117629685459
 21
-1626.854220445269
 31
0.0
  0
LINE
  5
325
330
1F
100
AcDbEntity
  8
LAYER0048
  6
CONTINUOUS
 62
     3
100
AcDbLine
 10
-1124.705644257823
 20
-1668.931250887411
 30
0.0
 11
-1083.947518082656
 21
-1628.173124712245
 31
0.0
  0
LINE
  5
326
330
1F
100
AcDbEntity
  8
LAYER0048
  6
CONTINUOUS
 62
     3
100
AcDbLine
 10
-1125.238477946806
 20
-1671.95310044617
 30
0.0
 11
-1081.45850221288
 21
-1628.173124712245
 31
0.0
  0
LINE
  5
327
330
1F
100
AcDbEntity
  8
LAYER0048
  6
CONTINUOUS
 62
     3
100
AcDbLine
 10
-1125.771311635789
 20
-1674.97495000493
 30
0.0
 11
-1078.969486343103
 21
-1628.173124712245
 31
0.0
  0
LINE
  5
328
330
1F
100
AcDbEntity
  8
LAYER0048
  6
CONTINUOUS
 62
     3
100
AcDbLine
 10
-1126.304145324773
 20
-1677.99679956369
 30
0.0
 11
-1076.480470473326
 21
-1628.173124712245
 31
0.0
  0
LINE
  5
329
330
1F
100
AcDbEntity
  8
LAYER0048
  6
CONTINUOUS
 62
     3
100
AcDbLine
 10
-1126.836979013756
 20
-1681.01864912245
 30
0.0
 11
-1073.99145460355
 21
-1628.173124712245
 31
0.0
  0
LINE
  5
32A
330
1F
100
AcDbEntity
  8
LAYER0048
  6
CONTINUOUS
 62
     3
100
AcDbLine
 10
-1087.342407053774
 20
-1644.013093032245
 30
0.0
 11
-1071.502438733773
 21
-1628.173124712245
 31
0.0
  0
LINE
  5
32B
330
1F
100
AcDbEntity
  8
LAYER0048
  6
CONTINUOUS
 62
     3
100
AcDbLine
 10
-1127.369812702739
 20
-1684.04049868121
 30
0.0
 11
-1088.314635836419
 21
-1644.985321814891
 31
0.0
  0
LINE
  5
32C
330
1F
100
AcDbEntity
  8
LAYER0048
  6
CONTINUOUS
 62
     3
100
AcDbLine
 10
-1084.853391183997
 20
-1644.013093032245
 30
0.0
 11
-1069.013422863997
 21
-1628.173124712245
 31
0.0
  0
LINE
  5
32D
330
1F
100
AcDbEntity
  8
LAYER0048
  6
CONTINUOUS
 62
     3
100
AcDbLine
 10
-1127.902646391722
 20
-1687.06234823997
 30
0.0
 11
-1088.847469525402
 21
-1648.00717137365
 31
0.0
  0
LINE
  5
32E
330
1F
100
AcDbEntity
  8
LAYER0048
  6
CONTINUOUS
 62
     3
100
AcDbLine
 10
-1082.364375314221
 20
-1644.013093032245
 30
0.0
 11
-1066.52440699422
 21
-1628.173124712245
 31
0.0
  0
LINE
  5
32F
330
1F
100
AcDbEntity
  8
LAYER0048
  6
CONTINUOUS
 62
     3
100
AcDbLine
 10
-1128.435480080705
 20
-1690.084197798729
 30
0.0
 11
-1089.380303214386
 21
-1651.02902093241
 31
0.0
  0
LINE
  5
330
330
1F
100
AcDbEntity
  8
LAYER0048
  6
CONTINUOUS
 62
     3
100
AcDbLine
 10
-1079.875359444445
 20
-1644.013093032245
 30
0.0
 11
-1064.035391124443
 21
-1628.173124712245
 31
0.0
  0
LINE
  5
331
330
1F
100
AcDbEntity
  8
LAYER0048
  6
CONTINUOUS
 62
     3
100
AcDbLine
 10
-1128.968313769689
 20
-1693.106047357489
 30
0.0
 11
-1089.913136903369
 21
-1654.05087049117
 31
0.0
  0
LINE
  5
332
330
1F
100
AcDbEntity
  8
LAYER0048
  6
CONTINUOUS
 62
     3
100
AcDbLine
 10
-1077.386343574668
 20
-1644.013093032245
 30
0.0
 11
-1061.546375254667
 21
-1628.173124712245
 31
0.0
  0
LINE
  5
333
330
1F
100
AcDbEntity
  8
LAYER0048
  6
CONTINUOUS
 62
     3
100
AcDbLine
 10
-1129.501147458672
 20
-1696.127896916249
 30
0.0
 11
-1090.445970592352
 21
-1657.07272004993
 31
0.0
  0
LINE
  5
334
330
1F
100
AcDbEntity
  8
LAYER0048
  6
CONTINUOUS
 62
     3
100
AcDbLine
 10
-1074.897327704891
 20
-1644.013093032245
 30
0.0
 11
-1059.05735938489
 21
-1628.173124712245
 31
0.0
  0
LINE
  5
335
330
1F
100
AcDbEntity
  8
LAYER0048
  6
CONTINUOUS
 62
     3
100
AcDbLine
 10
-1130.033981147655
 20
-1699.149746475009
 30
0.0
 11
-1090.978804281335
 21
-1660.09456960869
 31
0.0
  0
LINE
  5
336
330
1F
100
AcDbEntity
  8
LAYER0048
  6
CONTINUOUS
 62
     3
100
AcDbLine
 10
-1072.408311835115
 20
-1644.013093032245
 30
0.0
 11
-1056.568343515114
 21
-1628.173124712245
 31
0.0
  0
LINE
  5
337
330
1F
100
AcDbEntity
  8
LAYER0048
  6
CONTINUOUS
 62
     3
100
AcDbLine
 10
-1130.566814836639
 20
-1702.171596033769
 30
0.0
 11
-1091.511637970319
 21
-1663.11641916745
 31
0.0
  0
LINE
  5
338
330
1F
100
AcDbEntity
  8
LAYER0048
  6
CONTINUOUS
 62
     3
100
AcDbLine
 10
-1069.919295965338
 20
-1644.013093032245
 30
0.0
 11
-1054.079327645337
 21
-1628.173124712245
 31
0.0
  0
LINE
  5
339
330
1F
100
AcDbEntity
  8
LAYER0048
  6
CONTINUOUS
 62
     3
100
AcDbLine
 10
-1131.099648525622
 20
-1705.193445592528
 30
0.0
 11
-1092.044471659302
 21
-1666.138268726209
 31
0.0
  0
LINE
  5
33A
330
1F
100
AcDbEntity
  8
LAYER0048
  6
CONTINUOUS
 62
     3
100
AcDbLine
 10
-1067.430280095561
 20
-1644.013093032245
 30
0.0
 11
-1051.590311775561
 21
-1628.173124712245
 31
0.0
  0
LINE
  5
33B
330
1F
100
AcDbEntity
  8
LAYER0048
  6
CONTINUOUS
 62
     3
100
AcDbLine
 10
-1131.517174527561
 20
-1708.099987464245
 30
0.0
 11
-1092.577305348285
 21
-1669.160118284969
 31
0.0
  0
LINE
  5
33C
330
1F
100
AcDbEntity
  8
LAYER0048
  6
CONTINUOUS
 62
     3
100
AcDbLine
 10
-1064.941264225785
 20
-1644.013093032245
 30
0.0
 11
-1049.101295905784
 21
-1628.173124712245
 31
0.0
  0
LINE
  5
33D
330
1F
100
AcDbEntity
  8
LAYER0048
  6
CONTINUOUS
 62
     3
100
AcDbLine
 10
-1129.028158657785
 20
-1708.099987464245
 30
0.0
 11
-1093.110139037268
 21
-1672.181967843729
 31
0.0
  0
LINE
  5
33E
330
1F
100
AcDbEntity
  8
LAYER0048
  6
CONTINUOUS
 62
     3
100
AcDbLine
 10
-1062.452248356008
 20
-1644.013093032245
 30
0.0
 11
-1046.612280036007
 21
-1628.173124712245
 31
0.0
  0
LINE
  5
33F
330
1F
100
AcDbEntity
  8
LAYER0048
  6
CONTINUOUS
 62
     3
100
AcDbLine
 10
-1126.539142788008
 20
-1708.099987464245
 30
0.0
 11
-1093.642972726251
 21
-1675.203817402489
 31
0.0
  0
LINE
  5
340
330
1F
100
AcDbEntity
  8
LAYER0048
  6
CONTINUOUS
 62
     3
100
AcDbLine
 10
-1059.963232486232
 20
-1644.013093032245
 30
0.0
 11
-1044.123264166231
 21
-1628.173124712245
 31
0.0
  0
LINE
  5
341
330
1F
100
AcDbEntity
  8
LAYER0048
  6
CONTINUOUS
 62
     3
100
AcDbLine
 10
-1124.050126918231
 20
-1708.099987464245
 30
0.0
 11
-1094.175806415235
 21
-1678.225666961248
 31
0.0
  0
LINE
  5
342
330
1F
100
AcDbEntity
  8
LAYER0048
  6
CONTINUOUS
 62
     3
100
AcDbLine
 10
-1057.474216616455
 20
-1644.013093032245
 30
0.0
 11
-1041.634248296454
 21
-1628.173124712245
 31
0.0
  0
LINE
  5
343
330
1F
100
AcDbEntity
  8
LAYER0048
  6
CONTINUOUS
 62
     3
100
AcDbLine
 10
-1121.561111048455
 20
-1708.099987464245
 30
0.0
 11
-1094.708640104217
 21
-1681.247516520008
 31
0.0
  0
LINE
  5
344
330
1F
100
AcDbEntity
  8
LAYER0048
  6
CONTINUOUS
 62
     3
100
AcDbLine
 10
-1054.985200746679
 20
-1644.013093032245
 30
0.0
 11
-1039.145232426677
 21
-1628.173124712245
 31
0.0
  0
LINE
  5
345
330
1F
100
AcDbEntity
  8
LAYER0048
  6
CONTINUOUS
 62
     3
100
AcDbLine
 10
-1119.072095178679
 20
-1708.099987464245
 30
0.0
 11
-1095.241473793201
 21
-1684.269366078768
 31
0.0
  0
LINE
  5
346
330
1F
100
AcDbEntity
  8
LAYER0048
  6
CONTINUOUS
 62
     3
100
AcDbLine
 10
-1052.496184876902
 20
-1644.013093032245
 30
0.0
 11
-1036.656216556901
 21
-1628.173124712245
 31
0.0
  0
LINE
  5
347
330
1F
100
AcDbEntity
  8
LAYER0048
  6
CONTINUOUS
 62
     3
100
AcDbLine
 10
-1116.583079308902
 20
-1708.099987464245
 30
0.0
 11
-1095.774307482184
 21
-1687.291215637528
 31
0.0
  0
LINE
  5
348
330
1F
100
AcDbEntity
  8
LAYER0048
  6
CONTINUOUS
 62
     3
100
AcDbLine
 10
-1050.007169007125
 20
-1644.013093032245
 30
0.0
 11
-1034.167200687124
 21
-1628.173124712245
 31
0.0
  0
LINE
  5
349
330
1F
100
AcDbEntity
  8
LAYER0048
  6
CONTINUOUS
 62
     3
100
AcDbLine
 10
-1114.094063439125
 20
-1708.099987464245
 30
0.0
 11
-1096.307141171167
 21
-1690.313065196288
 31
0.0
  0
LINE
  5
34A
330
1F
100
AcDbEntity
  8
LAYER0048
  6
CONTINUOUS
 62
     3
100
AcDbLine
 10
-1047.518153137349
 20
-1644.013093032245
 30
0.0
 11
-1031.678184817348
 21
-1628.173124712245
 31
0.0
  0
LINE
  5
34B
330
1F
100
AcDbEntity
  8
LAYER0048
  6
CONTINUOUS
 62
     3
100
AcDbLine
 10
-1078.504737510536
 20
-1674.999677405432
 30
0.0
 11
-1078.278993418949
 21
-1674.773933313846
 31
0.0
  0
LINE
  5
34C
330
1F
100
AcDbEntity
  8
LAYER0048
  6
CONTINUOUS
 62
     3
100
AcDbLine
 10
-1111.605047569349
 20
-1708.099987464245
 30
0.0
 11
-1096.839974860151
 21
-1693.334914755048
 31
0.0
  0
LINE
  5
34D
330
1F
100
AcDbEntity
  8
LAYER0048
  6
CONTINUOUS
 62
     3
100
AcDbLine
 10
-1045.029137267572
 20
-1644.013093032245
 30
0.0
 11
-1029.189168947571
 21
-1628.173124712245
 31
0.0
  0
LINE
  5
34E
330
1F
100
AcDbEntity
  8
LAYER0048
  6
CONTINUOUS
 62
     3
100
AcDbLine
 10
-1079.037571733059
 20
-1678.021527497733
 30
0.0
 11
-1075.789977549173
 21
-1674.773933313846
 31
0.0
  0
LINE
  5
34F
330
1F
100
AcDbEntity
  8
LAYER0048
  6
CONTINUOUS
 62
     3
100
AcDbLine
 10
-1109.116031699572
 20
-1708.099987464245
 30
0.0
 11
-1097.372808549134
 21
-1696.356764313807
 31
0.0
  0
LINE
  5
350
330
1F
100
AcDbEntity
  8
LAYER0048
  6
CONTINUOUS
 62
     3
100
AcDbLine
 10
-1042.540121397795
 20
-1644.013093032245
 30
0.0
 11
-1026.700153077795
 21
-1628.173124712245
 31
0.0
  0
LINE
  5
351
330
1F
100
AcDbEntity
  8
LAYER0048
  6
CONTINUOUS
 62
     3
100
AcDbLine
 10
-1079.570405955582
 20
-1681.043377590032
 30
0.0
 11
-1073.300961679396
 21
-1674.773933313846
 31
0.0
  0
LINE
  5
352
330
1F
100
AcDbEntity
  8
LAYER0048
  6
CONTINUOUS
 62
     3
100
AcDbLine
 10
-1106.627015829795
 20
-1708.099987464245
 30
0.0
 11
-1097.905642238117
 21
-1699.378613872567
 31
0.0
  0
LINE
  5
353
330
1F
100
AcDbEntity
  8
LAYER0048
  6
CONTINUOUS
 62
     3
100
AcDbLine
 10
-1040.051105528019
 20
-1644.013093032245
 30
0.0
 11
-1024.211137208018
 21
-1628.173124712245
 31
0.0
  0
LINE
  5
354
330
1F
100
AcDbEntity
  8
LAYER0048
  6
CONTINUOUS
 62
     3
100
AcDbLine
 10
-1080.103240178106
 20
-1684.065227682332
 30
0.0
 11
-1070.811945809619
 21
-1674.773933313846
 31
0.0
  0
LINE
  5
355
330
1F
100
AcDbEntity
  8
LAYER0048
  6
CONTINUOUS
 62
     3
100
AcDbLine
 10
-1104.137999960019
 20
-1708.099987464245
 30
0.0
 11
-1098.4384759271
 21
-1702.400463431327
 31
0.0
  0
LINE
  5
356
330
1F
100
AcDbEntity
  8
LAYER0048
  6
CONTINUOUS
 62
     3
100
AcDbLine
 10
-1037.562089658242
 20
-1644.013093032245
 30
0.0
 11
-1021.722121338241
 21
-1628.173124712245
 31
0.0
  0
LINE
  5
357
330
1F
100
AcDbEntity
  8
LAYER0048
  6
CONTINUOUS
 62
     3
100
AcDbLine
 10
-1080.636074400629
 20
-1687.087077774632
 30
0.0
 11
-1068.320676514875
 21
-1674.771679888879
 31
0.0
  0
LINE
  5
358
330
1F
100
AcDbEntity
  8
LAYER0048
  6
CONTINUOUS
 62
     3
100
AcDbLine
 10
-1101.648984090242
 20
-1708.099987464245
 30
0.0
 11
-1098.971309616083
 21
-1705.422312990087
 31
0.0
  0
LINE
  5
359
330
1F
100
AcDbEntity
  8
LAYER0048
  6
CONTINUOUS
 62
     3
100
AcDbLine
 10
-1036.893271657838
 20
-1645.833290901617
 30
0.0
 11
-1019.233105468465
 21
-1628.173124712245
 31
0.0
  0
LINE
  5
35A
330
1F
100
AcDbEntity
  8
LAYER0048
  6
CONTINUOUS
 62
     3
100
AcDbLine
 10
-1081.168908623152
 20
-1690.108927866932
 30
0.0
 11
-1065.702234135052
 21
-1674.642253378831
 31
0.0
  0
LINE
  5
35B
330
1F
100
AcDbEntity
  8
LAYER0048
  6
CONTINUOUS
 62
     3
100
AcDbLine
 10
-1037.428959806145
 20
-1648.857994919702
 30
0.0
 11
-1016.744089598689
 21
-1628.173124712245
 31
0.0
  0
LINE
  5
35C
330
1F
100
AcDbEntity
  8
LAYER0048
  6
CONTINUOUS
 62
     3
100
AcDbLine
 10
-1079.184866520289
 20
-1690.613901633846
 30
0.0
 11
-1062.814895194182
 21
-1674.243930307738
 31
0.0
  0
LINE
  5
35D
330
1F
100
AcDbEntity
  8
LAYER0048
  6
CONTINUOUS
 62
     3
100
AcDbLine
 10
-1038.217963848773
 20
-1652.136014832107
 30
0.0
 11
-1014.255073728911
 21
-1628.173124712245
 31
0.0
  0
LINE
  5
35E
330
1F
100
AcDbEntity
  8
LAYER0048
  6
CONTINUOUS
 62
     3
100
AcDbLine
 10
-1076.695850650512
 20
-1690.613901633846
 30
0.0
 11
-1059.536875281777
 21
-1673.45492626511
 31
0.0
  0
LINE
  5
35F
330
1F
100
AcDbEntity
  8
LAYER0048
  6
CONTINUOUS
 62
     3
100
AcDbLine
 10
-1039.692683720487
 20
-1656.099750573597
 30
0.0
 11
-1011.766057859135
 21
-1628.173124712245
 31
0.0
  0
LINE
  5
360
330
1F
100
AcDbEntity
  8
LAYER0048
  6
CONTINUOUS
 62
     3
100
AcDbLine
 10
-1074.206834780736
 20
-1690.613901633846
 30
0.0
 11
-1055.573139540286
 21
-1671.980206393396
 31
0.0
  0
LINE
  5
361
330
1F
100
AcDbEntity
  8
LAYER0048
  6
CONTINUOUS
 62
     3
100
AcDbLine
 10
-1043.326964262202
 20
-1662.223046985089
 30
0.0
 11
-1009.277041989359
 21
-1628.173124712245
 31
0.0
  0
LINE
  5
362
330
1F
100
AcDbEntity
  8
LAYER0048
  6
CONTINUOUS
 62
     3
100
AcDbLine
 10
-1071.717818910959
 20
-1690.613901633846
 30
0.0
 11
-1049.449843128795
 21
-1668.345925851681
 31
0.0
  0
LINE
  5
363
330
1F
100
AcDbEntity
  8
LAYER0048
  6
CONTINUOUS
 62
     3
100
AcDbLine
 10
-1069.228803041182
 20
-1690.613901633846
 30
0.0
 11
-1006.788026119582
 21
-1628.173124712245
 31
0.0
  0
LINE
  5
364
330
1F
100
AcDbEntity
  8
LAYER0048
  6
CONTINUOUS
 62
     3
100
AcDbLine
 10
-1066.739787171406
 20
-1690.613901633846
 30
0.0
 11
-1005.019432901954
 21
-1628.893547364395
 31
0.0
  0
LINE
  5
365
330
1F
100
AcDbEntity
  8
LAYER0048
  6
CONTINUOUS
 62
     3
100
AcDbLine
 10
-1064.250771301629
 20
-1690.613901633846
 30
0.0
 11
-1005.552262193707
 21
-1631.915392525925
 31
0.0
  0
LINE
  5
366
330
1F
100
AcDbEntity
  8
LAYER0048
  6
CONTINUOUS
 62
     3
100
AcDbLine
 10
-1061.761755431852
 20
-1690.613901633846
 30
0.0
 11
-1006.08509148546
 21
-1634.937237687453
 31
0.0
  0
LINE
  5
367
330
1F
100
AcDbEntity
  8
LAYER0048
  6
CONTINUOUS
 62
     3
100
AcDbLine
 10
-1059.272739562076
 20
-1690.613901633846
 30
0.0
 11
-1006.617920777213
 21
-1637.959082848983
 31
0.0
  0
LINE
  5
368
330
1F
100
AcDbEntity
  8
LAYER0048
  6
CONTINUOUS
 62
     3
100
AcDbLine
 10
-1056.783723692299
 20
-1690.613901633846
 30
0.0
 11
-1007.150750068966
 21
-1640.980928010513
 31
0.0
  0
LINE
  5
369
330
1F
100
AcDbEntity
  8
LAYER0048
  6
CONTINUOUS
 62
     3
100
AcDbLine
 10
-1054.294707822522
 20
-1690.613901633846
 30
0.0
 11
-1007.683579360719
 21
-1644.002773172042
 31
0.0
  0
LINE
  5
36A
330
1F
100
AcDbEntity
  8
LAYER0048
  6
CONTINUOUS
 62
     3
100
AcDbLine
 10
-1051.805691952746
 20
-1690.613901633846
 30
0.0
 11
-1008.216408652472
 21
-1647.024618333571
 31
0.0
  0
LINE
  5
36B
330
1F
100
AcDbEntity
  8
LAYER0048
  6
CONTINUOUS
 62
     3
100
AcDbLine
 10
-1049.31667608297
 20
-1690.613901633846
 30
0.0
 11
-1008.749237944225
 21
-1650.046463495101
 31
0.0
  0
LINE
  5
36C
330
1F
100
AcDbEntity
  8
LAYER0048
  6
CONTINUOUS
 62
     3
100
AcDbLine
 10
-1046.81336760273
 20
-1690.599609023383
 30
0.0
 11
-1009.282067235978
 21
-1653.068308656631
 31
0.0
  0
LINE
  5
36D
330
1F
100
AcDbEntity
  8
LAYER0048
  6
CONTINUOUS
 62
     3
100
AcDbLine
 10
-1044.162630396765
 20
-1690.437887687194
 30
0.0
 11
-1009.81489652773
 21
-1656.09015381816
 31
0.0
  0
LINE
  5
36E
330
1F
100
AcDbEntity
  8
LAYER0048
  6
CONTINUOUS
 62
     3
100
AcDbLine
 10
-1041.286539024597
 20
-1690.050812184803
 30
0.0
 11
-1010.347725819483
 21
-1659.111998979689
 31
0.0
  0
LINE
  5
36F
330
1F
100
AcDbEntity
  8
LAYER0048
  6
CONTINUOUS
 62
     3
100
AcDbLine
 10
-1038.101166529181
 20
-1689.354455559163
 30
0.0
 11
-1011.04506030192
 21
-1662.298349331903
 31
0.0
  0
LINE
  5
370
330
1F
100
AcDbEntity
  8
LAYER0048
  6
CONTINUOUS
 62
     3
100
AcDbLine
 10
-1034.447361812627
 20
-1688.189666712386
 30
0.0
 11
-1012.209849148697
 21
-1665.952154048457
 31
0.0
  0
LINE
  5
371
330
1F
100
AcDbEntity
  8
LAYER0048
  6
CONTINUOUS
 62
     3
100
AcDbLine
 10
-1029.907282064016
 20
-1686.138602833553
 30
0.0
 11
-1014.260913027531
 21
-1670.492233797067
 31
0.0
  0
LINE
  5
372
330
1F
100
AcDbEntity
  8
LAYER0048
  6
CONTINUOUS
 62
     3
100
AcDbLine
 10
-1255.600391910898
 20
-1652.974062223663
 30
0.0
 11
-1255.28642803148
 21
-1652.660098344245
 31
0.0
  0
LINE
  5
373
330
1F
100
AcDbEntity
  8
LAYER0048
  6
CONTINUOUS
 62
     3
100
AcDbLine
 10
-1256.206855291193
 20
-1656.069541473734
 30
0.0
 11
-1252.797412161703
 21
-1652.660098344245
 31
0.0
  0
LINE
  5
374
330
1F
100
AcDbEntity
  8
LAYER0048
  6
CONTINUOUS
 62
     3
100
AcDbLine
 10
-1256.813318671488
 20
-1659.165020723806
 30
0.0
 11
-1250.308396291926
 21
-1652.660098344245
 31
0.0
  0
LINE
  5
375
330
1F
100
AcDbEntity
  8
LAYER0048
  6
CONTINUOUS
 62
     3
100
AcDbLine
 10
-1257.419782051783
 20
-1662.260499973878
 30
0.0
 11
-1247.81938042215
 21
-1652.660098344245
 31
0.0
  0
LINE
  5
376
330
1F
100
AcDbEntity
  8
LAYER0048
  6
CONTINUOUS
 62
     3
100
AcDbLine
 10
-1258.026245432078
 20
-1665.355979223949
 30
0.0
 11
-1245.330364552373
 21
-1652.660098344245
 31
0.0
  0
LINE
  5
377
330
1F
100
AcDbEntity
  8
LAYER0048
  6
CONTINUOUS
 62
     3
100
AcDbLine
 10
-1257.097320170597
 20
-1666.916069832246
 30
0.0
 11
-1242.841348682596
 21
-1652.660098344245
 31
0.0
  0
LINE
  5
378
330
1F
100
AcDbEntity
  8
LAYER0048
  6
CONTINUOUS
 62
     3
100
AcDbLine
 10
-1254.60830430082
 20
-1666.916069832246
 30
0.0
 11
-1240.35233281282
 21
-1652.660098344245
 31
0.0
  0
LINE
  5
379
330
1F
100
AcDbEntity
  8
LAYER0048
  6
CONTINUOUS
 62
     3
100
AcDbLine
 10
-1252.119288431044
 20
-1666.916069832246
 30
0.0
 11
-1237.863316943044
 21
-1652.660098344245
 31
0.0
  0
LINE
  5
37A
330
1F
100
AcDbEntity
  8
LAYER0048
  6
CONTINUOUS
 62
     3
100
AcDbLine
 10
-1249.630272561267
 20
-1666.916069832246
 30
0.0
 11
-1235.374301073266
 21
-1652.660098344245
 31
0.0
  0
LINE
  5
37B
330
1F
100
AcDbEntity
  8
LAYER0048
  6
CONTINUOUS
 62
     3
100
AcDbLine
 10
-1247.141256691491
 20
-1666.916069832246
 30
0.0
 11
-1232.88528520349
 21
-1652.660098344245
 31
0.0
  0
LINE
  5
37C
330
1F
100
AcDbEntity
  8
LAYER0048
  6
CONTINUOUS
 62
     3
100
AcDbLine
 10
-1244.652240821714
 20
-1666.916069832246
 30
0.0
 11
-1230.396269333714
 21
-1652.660098344245
 31
0.0
  0
LINE
  5
37D
330
1F
100
AcDbEntity
  8
LAYER0048
  6
CONTINUOUS
 62
     3
100
AcDbLine
 10
-1242.163224951938
 20
-1666.916069832246
 30
0.0
 11
-1227.907253463937
 21
-1652.660098344245
 31
0.0
  0
LINE
  5
37E
330
1F
100
AcDbEntity
  8
LAYER0048
  6
CONTINUOUS
 62
     3
100
AcDbLine
 10
-1239.674209082161
 20
-1666.916069832246
 30
0.0
 11
-1225.41823759416
 21
-1652.660098344245
 31
0.0
  0
LINE
  5
37F
330
1F
100
AcDbEntity
  8
LAYER0048
  6
CONTINUOUS
 62
     3
100
AcDbLine
 10
-1237.185193212384
 20
-1666.916069832246
 30
0.0
 11
-1222.929221724384
 21
-1652.660098344245
 31
0.0
  0
LINE
  5
380
330
1F
100
AcDbEntity
  8
LAYER0048
  6
CONTINUOUS
 62
     3
100
AcDbLine
 10
-1234.696177342608
 20
-1666.916069832246
 30
0.0
 11
-1220.439281306729
 21
-1652.659173796367
 31
0.0
  0
LINE
  5
381
330
1F
100
AcDbEntity
  8
LAYER0048
  6
CONTINUOUS
 62
     3
100
AcDbLine
 10
-1232.207161472831
 20
-1666.916069832246
 30
0.0
 11
-1217.855613851954
 21
-1652.564522211368
 31
0.0
  0
LINE
  5
382
330
1F
100
AcDbEntity
  8
LAYER0048
  6
CONTINUOUS
 62
     3
100
AcDbLine
 10
-1177.545151210735
 20
-1614.743075439926
 30
0.0
 11
-1175.862253315054
 21
-1613.060177544246
 31
0.0
  0
LINE
  5
383
330
1F
100
AcDbEntity
  8
LAYER0048
  6
CONTINUOUS
 62
     3
100
AcDbLine
 10
-1229.718145603055
 20
-1666.916069832246
 30
0.0
 11
-1215.063701140956
 21
-1652.261625370147
 31
0.0
  0
LINE
  5
384
330
1F
100
AcDbEntity
  8
LAYER0048
  6
CONTINUOUS
 62
     3
100
AcDbLine
 10
-1180.385204031391
 20
-1620.072144130359
 30
0.0
 11
-1173.373237445277
 21
-1613.060177544246
 31
0.0
  0
LINE
  5
385
330
1F
100
AcDbEntity
  8
LAYER0048
  6
CONTINUOUS
 62
     3
100
AcDbLine
 10
-1227.229129733278
 20
-1666.916069832246
 30
0.0
 11
-1212.000325307188
 21
-1651.687265406156
 31
0.0
  0
LINE
  5
386
330
1F
100
AcDbEntity
  8
LAYER0048
  6
CONTINUOUS
 62
     3
100
AcDbLine
 10
-1183.225256852046
 20
-1625.401212820791
 30
0.0
 11
-1170.8842215755
 21
-1613.060177544246
 31
0.0
  0
LINE
  5
387
330
1F
100
AcDbEntity
  8
LAYER0048
  6
CONTINUOUS
 62
     3
100
AcDbLine
 10
-1224.740113863501
 20
-1666.916069832246
 30
0.0
 11
-1208.535941789552
 21
-1650.711897758296
 31
0.0
  0
LINE
  5
388
330
1F
100
AcDbEntity
  8
LAYER0048
  6
CONTINUOUS
 62
     3
100
AcDbLine
 10
-1186.065309672702
 20
-1630.730281511223
 30
0.0
 11
-1168.395205705724
 21
-1613.060177544246
 31
0.0
  0
LINE
  5
389
330
1F
100
AcDbEntity
  8
LAYER0048
  6
CONTINUOUS
 62
     3
100
AcDbLine
 10
-1222.251097993725
 20
-1666.916069832246
 30
0.0
 11
-1204.391681562961
 21
-1649.056653401482
 31
0.0
  0
LINE
  5
38A
330
1F
100
AcDbEntity
  8
LAYER0048
  6
CONTINUOUS
 62
     3
100
AcDbLine
 10
-1189.676022435465
 20
-1636.830010143763
 30
0.0
 11
-1165.906189835947
 21
-1613.060177544246
 31
0.0
  0
LINE
  5
38B
330
1F
100
AcDbEntity
  8
LAYER0048
  6
CONTINUOUS
 62
     3
100
AcDbLine
 10
-1219.762082123948
 20
-1666.916069832246
 30
0.0
 11
-1198.35938823252
 21
-1645.513375940818
 31
0.0
  0
LINE
  5
38C
330
1F
100
AcDbEntity
  8
LAYER0048
  6
CONTINUOUS
 62
     3
100
AcDbLine
 10
-1219.84332348274
 20
-1669.486327060815
 30
0.0
 11
-1163.417173966171
 21
-1613.060177544246
 31
0.0
  0
LINE
  5
38D
330
1F
100
AcDbEntity
  8
LAYER0048
  6
CONTINUOUS
 62
     3
100
AcDbLine
 10
-1220.376157705263
 20
-1672.508177153114
 30
0.0
 11
-1160.928158096394
 21
-1613.060177544246
 31
0.0
  0
LINE
  5
38E
330
1F
100
AcDbEntity
  8
LAYER0048
  6
CONTINUOUS
 62
     3
100
AcDbLine
 10
-1220.908991927786
 20
-1675.530027245414
 30
0.0
 11
-1158.439142226618
 21
-1613.060177544246
 31
0.0
  0
LINE
  5
38F
330
1F
100
AcDbEntity
  8
LAYER0048
  6
CONTINUOUS
 62
     3
100
AcDbLine
 10
-1221.44182615031
 20
-1678.551877337715
 30
0.0
 11
-1155.950126356841
 21
-1613.060177544246
 31
0.0
  0
LINE
  5
390
330
1F
100
AcDbEntity
  8
LAYER0048
  6
CONTINUOUS
 62
     3
100
AcDbLine
 10
-1221.974660372833
 20
-1681.573727430015
 30
0.0
 11
-1153.461110487064
 21
-1613.060177544246
 31
0.0
  0
LINE
  5
391
330
1F
100
AcDbEntity
  8
LAYER0048
  6
CONTINUOUS
 62
     3
100
AcDbLine
 10
-1222.507494595357
 20
-1684.595577522315
 30
0.0
 11
-1150.972094617288
 21
-1613.060177544246
 31
0.0
  0
LINE
  5
392
330
1F
100
AcDbEntity
  8
LAYER0048
  6
CONTINUOUS
 62
     3
100
AcDbLine
 10
-1223.04032881788
 20
-1687.617427614615
 30
0.0
 11
-1148.483078747511
 21
-1613.060177544246
 31
0.0
  0
LINE
  5
393
330
1F
100
AcDbEntity
  8
LAYER0048
  6
CONTINUOUS
 62
     3
100
AcDbLine
 10
-1223.573163040404
 20
-1690.639277706915
 30
0.0
 11
-1145.994062877734
 21
-1613.060177544246
 31
0.0
  0
LINE
  5
394
330
1F
100
AcDbEntity
  8
LAYER0048
  6
CONTINUOUS
 62
     3
100
AcDbLine
 10
-1224.105997262927
 20
-1693.661127799215
 30
0.0
 11
-1143.505047007958
 21
-1613.060177544246
 31
0.0
  0
LINE
  5
395
330
1F
100
AcDbEntity
  8
LAYER0048
  6
CONTINUOUS
 62
     3
100
AcDbLine
 10
-1224.63883148545
 20
-1696.682977891515
 30
0.0
 11
-1141.016031138181
 21
-1613.060177544246
 31
0.0
  0
LINE
  5
396
330
1F
100
AcDbEntity
  8
LAYER0048
  6
CONTINUOUS
 62
     3
100
AcDbLine
 10
-1225.171665707974
 20
-1699.704827983815
 30
0.0
 11
-1138.527015268405
 21
-1613.060177544246
 31
0.0
  0
LINE
  5
397
330
1F
100
AcDbEntity
  8
LAYER0048
  6
CONTINUOUS
 62
     3
100
AcDbLine
 10
-1225.704499930497
 20
-1702.726678076115
 30
0.0
 11
-1136.037999398628
 21
-1613.060177544246
 31
0.0
  0
LINE
  5
398
330
1F
100
AcDbEntity
  8
LAYER0048
  6
CONTINUOUS
 62
     3
100
AcDbLine
 10
-1187.404875816851
 20
-1666.916069832246
 30
0.0
 11
-1133.548983528852
 21
-1613.060177544246
 31
0.0
  0
LINE
  5
399
330
1F
100
AcDbEntity
  8
LAYER0048
  6
CONTINUOUS
 62
     3
100
AcDbLine
 10
-1226.237334153021
 20
-1705.748528168415
 30
0.0
 11
-1187.775538620865
 21
-1667.286732636259
 31
0.0
  0
LINE
  5
39A
330
1F
100
AcDbEntity
  8
LAYER0048
  6
CONTINUOUS
 62
     3
100
AcDbLine
 10
-1184.844229612838
 20
-1666.844439498009
 30
0.0
 11
-1133.093998997042
 21
-1615.094208882213
 31
0.0
  0
LINE
  5
39B
330
1F
100
AcDbEntity
  8
LAYER0048
  6
CONTINUOUS
 62
     3
100
AcDbLine
 10
-1226.099777579074
 20
-1708.099987464245
 30
0.0
 11
-1188.308372843388
 21
-1670.308582728559
 31
0.0
  0
LINE
  5
39C
330
1F
100
AcDbEntity
  8
LAYER0048
  6
CONTINUOUS
 62
     3
100
AcDbLine
 10
-1182.041928175794
 20
-1666.531153930742
 30
0.0
 11
-1139.773572282632
 21
-1624.26279803758
 31
0.0
  0
LINE
  5
39D
330
1F
100
AcDbEntity
  8
LAYER0048
  6
CONTINUOUS
 62
     3
100
AcDbLine
 10
-1223.610761709297
 20
-1708.099987464245
 30
0.0
 11
-1188.841207065912
 21
-1673.330432820859
 31
0.0
  0
LINE
  5
39E
330
1F
100
AcDbEntity
  8
LAYER0048
  6
CONTINUOUS
 62
     3
100
AcDbLine
 10
-1178.891222547628
 20
-1665.869464172352
 30
0.0
 11
-1146.453145568222
 21
-1633.431387192946
 31
0.0
  0
LINE
  5
39F
330
1F
100
AcDbEntity
  8
LAYER0048
  6
CONTINUOUS
 62
     3
100
AcDbLine
 10
-1221.121745839521
 20
-1708.099987464245
 30
0.0
 11
-1189.374041288435
 21
-1676.352282913159
 31
0.0
  0
LINE
  5
3A0
330
1F
100
AcDbEntity
  8
LAYER0048
  6
CONTINUOUS
 62
     3
100
AcDbLine
 10
-1175.171890728051
 20
-1664.639148222552
 30
0.0
 11
-1153.132718853811
 21
-1642.599976348312
 31
0.0
  0
LINE
  5
3A1
330
1F
100
AcDbEntity
  8
LAYER0048
  6
CONTINUOUS
 62
     3
100
AcDbLine
 10
-1218.632729969744
 20
-1708.099987464245
 30
0.0
 11
-1189.906875510958
 21
-1679.374133005459
 31
0.0
  0
LINE
  5
3A2
330
1F
100
AcDbEntity
  8
LAYER0048
  6
CONTINUOUS
 62
     3
100
AcDbLine
 10
-1170.093753156894
 20
-1662.050026521172
 30
0.0
 11
-1159.812292139401
 21
-1651.768565503678
 31
0.0
  0
LINE
  5
3A3
330
1F
100
AcDbEntity
  8
LAYER0048
  6
CONTINUOUS
 62
     3
100
AcDbLine
 10
-1216.143714099967
 20
-1708.099987464245
 30
0.0
 11
-1190.439709733482
 21
-1682.395983097759
 31
0.0
  0
LINE
  5
3A4
330
1F
100
AcDbEntity
  8
LAYER0048
  6
CONTINUOUS
 62
     3
100
AcDbLine
 10
-1213.654698230191
 20
-1708.099987464245
 30
0.0
 11
-1190.972543956005
 21
-1685.417833190059
 31
0.0
  0
LINE
  5
3A5
330
1F
100
AcDbEntity
  8
LAYER0048
  6
CONTINUOUS
 62
     3
100
AcDbLine
 10
-1211.165682360415
 20
-1708.099987464245
 30
0.0
 11
-1191.505378178528
 21
-1688.439683282359
 31
0.0
  0
LINE
  5
3A6
330
1F
100
AcDbEntity
  8
LAYER0048
  6
CONTINUOUS
 62
     3
100
AcDbLine
 10
-1208.676666490638
 20
-1708.099987464245
 30
0.0
 11
-1192.038212401052
 21
-1691.461533374659
 31
0.0
  0
LINE
  5
3A7
330
1F
100
AcDbEntity
  8
LAYER0048
  6
CONTINUOUS
 62
     3
100
AcDbLine
 10
-1206.187650620861
 20
-1708.099987464245
 30
0.0
 11
-1192.571046623575
 21
-1694.483383466959
 31
0.0
  0
LINE
  5
3A8
330
1F
100
AcDbEntity
  8
LAYER0048
  6
CONTINUOUS
 62
     3
100
AcDbLine
 10
-1203.698634751085
 20
-1708.099987464245
 30
0.0
 11
-1193.103880846098
 21
-1697.505233559259
 31
0.0
  0
LINE
  5
3A9
330
1F
100
AcDbEntity
  8
LAYER0048
  6
CONTINUOUS
 62
     3
100
AcDbLine
 10
-1201.209618881308
 20
-1708.099987464245
 30
0.0
 11
-1193.636715068621
 21
-1700.527083651559
 31
0.0
  0
LINE
  5
3AA
330
1F
100
AcDbEntity
  8
LAYER0048
  6
CONTINUOUS
 62
     3
100
AcDbLine
 10
-1198.720603011531
 20
-1708.099987464245
 30
0.0
 11
-1194.169549291145
 21
-1703.548933743859
 31
0.0
  0
LINE
  5
3AB
330
1F
100
AcDbEntity
  8
LAYER0048
  6
CONTINUOUS
 62
     3
100
AcDbLine
 10
-1196.231587141755
 20
-1708.099987464245
 30
0.0
 11
-1194.702383513668
 21
-1706.570783836159
 31
0.0
  0
LINE
  5
3AC
330
1F
100
AcDbEntity
  8
LAYER0048
  6
CONTINUOUS
 62
     3
100
AcDbLine
 10
-1232.422762911397
 20
-1614.435290396173
 30
0.0
 11
-1231.047650059471
 21
-1613.060177544246
 31
0.0
  0
LINE
  5
3AD
330
1F
100
AcDbEntity
  8
LAYER0048
  6
CONTINUOUS
 62
     3
100
AcDbLine
 10
-1232.95559713392
 20
-1617.457140488472
 30
0.0
 11
-1228.558634189695
 21
-1613.060177544246
 31
0.0
  0
LINE
  5
3AE
330
1F
100
AcDbEntity
  8
LAYER0048
  6
CONTINUOUS
 62
     3
100
AcDbLine
 10
-1233.488431356444
 20
-1620.478990580772
 30
0.0
 11
-1226.069618319918
 21
-1613.060177544246
 31
0.0
  0
LINE
  5
3AF
330
1F
100
AcDbEntity
  8
LAYER0048
  6
CONTINUOUS
 62
     3
100
AcDbLine
 10
-1234.021265578967
 20
-1623.500840673072
 30
0.0
 11
-1226.210209287951
 21
-1615.689784382056
 31
0.0
  0
LINE
  5
3B0
330
1F
100
AcDbEntity
  8
LAYER0048
  6
CONTINUOUS
 62
     3
100
AcDbLine
 10
-1234.554099801491
 20
-1626.522690765372
 30
0.0
 11
-1226.743043510475
 21
-1618.711634474356
 31
0.0
  0
LINE
  5
3B1
330
1F
100
AcDbEntity
  8
LAYER0048
  6
CONTINUOUS
 62
     3
100
AcDbLine
 10
-1234.442539030588
 20
-1628.900145864246
 30
0.0
 11
-1227.275877732998
 21
-1621.733484566656
 31
0.0
  0
LINE
  5
3B2
330
1F
100
AcDbEntity
  8
LAYER0048
  6
CONTINUOUS
 62
     3
100
AcDbLine
 10
-1231.953523160811
 20
-1628.900145864246
 30
0.0
 11
-1227.808711955521
 21
-1624.755334658956
 31
0.0
  0
LINE
  5
3B3
330
1F
100
AcDbEntity
  8
LAYER0048
  6
CONTINUOUS
 62
     3
100
AcDbLine
 10
-1229.464507291034
 20
-1628.900145864246
 30
0.0
 11
-1228.341546178044
 21
-1627.777184751255
 31
0.0
  0
LINE
  5
3B4
330
1F
100
AcDbEntity
  8
LAYER0048
  6
CONTINUOUS
 62
     3
100
AcDbLine
 10
-1248.82391756017
 20
-1614.871365696062
 30
0.0
 11
-1247.012729408354
 21
-1613.060177544246
 31
0.0
  0
LINE
  5
3B5
330
1F
100
AcDbEntity
  8
LAYER0048
  6
CONTINUOUS
 62
     3
100
AcDbLine
 10
-1249.356751782693
 20
-1617.893215788361
 30
0.0
 11
-1244.523713538578
 21
-1613.060177544246
 31
0.0
  0
LINE
  5
3B6
330
1F
100
AcDbEntity
  8
LAYER0048
  6
CONTINUOUS
 62
     3
100
AcDbLine
 10
-1249.889586005216
 20
-1620.915065880661
 30
0.0
 11
-1242.078529714199
 21
-1613.104009589644
 31
0.0
  0
LINE
  5
3B7
330
1F
100
AcDbEntity
  8
LAYER0048
  6
CONTINUOUS
 62
     3
100
AcDbLine
 10
-1250.422420227739
 20
-1623.936915972961
 30
0.0
 11
-1242.611363936722
 21
-1616.125859681944
 31
0.0
  0
LINE
  5
3B8
330
1F
100
AcDbEntity
  8
LAYER0048
  6
CONTINUOUS
 62
     3
100
AcDbLine
 10
-1250.955254450263
 20
-1626.958766065261
 30
0.0
 11
-1243.144198159245
 21
-1619.147709774243
 31
0.0
  0
LINE
  5
3B9
330
1F
100
AcDbEntity
  8
LAYER0048
  6
CONTINUOUS
 62
     3
100
AcDbLine
 10
-1250.40761837947
 20
-1628.900145864246
 30
0.0
 11
-1243.677032381769
 21
-1622.169559866543
 31
0.0
  0
LINE
  5
3BA
330
1F
100
AcDbEntity
  8
LAYER0048
  6
CONTINUOUS
 62
     3
100
AcDbLine
 10
-1247.918602509694
 20
-1628.900145864246
 30
0.0
 11
-1244.209866604292
 21
-1625.191409958843
 31
0.0
  0
LINE
  5
3BB
330
1F
100
AcDbEntity
  8
LAYER0048
  6
CONTINUOUS
 62
     3
100
AcDbLine
 10
-1245.429586639918
 20
-1628.900145864246
 30
0.0
 11
-1244.742700826815
 21
-1628.213260051143
 31
0.0
  0
LINE
  5
3BC
330
1F
100
AcDbEntity
  8
LAYER0048
  6
CONTINUOUS
 62
     3
100
AcDbLine
 10
-1343.867725843238
 20
-1614.301586797393
 30
0.0
 11
-1342.626316590088
 21
-1613.060177544246
 31
0.0
  0
LINE
  5
3BD
330
1F
100
AcDbEntity
  8
LAYER0048
  6
CONTINUOUS
 62
     3
100
AcDbLine
 10
-1343.961525599919
 20
-1616.884402423852
 30
0.0
 11
-1340.137300720312
 21
-1613.060177544246
 31
0.0
  0
LINE
  5
3BE
330
1F
100
AcDbEntity
  8
LAYER0048
  6
CONTINUOUS
 62
     3
100
AcDbLine
 10
-1344.308156696604
 20
-1619.720049390312
 30
0.0
 11
-1337.648284850535
 21
-1613.060177544246
 31
0.0
  0
LINE
  5
3BF
330
1F
100
AcDbEntity
  8
LAYER0048
  6
CONTINUOUS
 62
     3
100
AcDbLine
 10
-1345.018473407285
 20
-1622.91938197077
 30
0.0
 11
-1335.159268980758
 21
-1613.060177544246
 31
0.0
  0
LINE
  5
3C0
330
1F
100
AcDbEntity
  8
LAYER0048
  6
CONTINUOUS
 62
     3
100
AcDbLine
 10
-1346.339996055514
 20
-1626.729920488776
 30
0.0
 11
-1332.670253110982
 21
-1613.060177544246
 31
0.0
  0
LINE
  5
3C1
330
1F
100
AcDbEntity
  8
LAYER0048
  6
CONTINUOUS
 62
     3
100
AcDbLine
 10
-1349.25369322225
 20
-1632.132633525289
 30
0.0
 11
-1330.181237241205
 21
-1613.060177544246
 31
0.0
  0
LINE
  5
3C2
330
1F
100
AcDbEntity
  8
LAYER0048
  6
CONTINUOUS
 62
     3
100
AcDbLine
 10
-1363.716814662276
 20
-1654.062802574645
 30
0.0
 11
-1322.714189631876
 21
-1613.060177544246
 31
0.0
  0
LINE
  5
3C3
330
1F
100
AcDbEntity
  8
LAYER0048
  6
CONTINUOUS
 62
     3
100
AcDbLine
 10
-1361.2277987925
 20
-1654.062802574645
 30
0.0
 11
-1320.225173762099
 21
-1613.060177544246
 31
0.0
  0
LINE
  5
3C4
330
1F
100
AcDbEntity
  8
LAYER0048
  6
CONTINUOUS
 62
     3
100
AcDbLine
 10
-1358.738782922723
 20
-1654.062802574645
 30
0.0
 11
-1317.736157892322
 21
-1613.060177544246
 31
0.0
  0
LINE
  5
3C5
330
1F
100
AcDbEntity
  8
LAYER0048
  6
CONTINUOUS
 62
     3
100
AcDbLine
 10
-1356.249767052947
 20
-1654.062802574645
 30
0.0
 11
-1315.247142022546
 21
-1613.060177544246
 31
0.0
  0
LINE
  5
3C6
330
1F
100
AcDbEntity
  8
LAYER0048
  6
CONTINUOUS
 62
     3
100
AcDbLine
 10
-1353.76075118317
 20
-1654.062802574645
 30
0.0
 11
-1312.758126152769
 21
-1613.060177544246
 31
0.0
  0
LINE
  5
3C7
330
1F
100
AcDbEntity
  8
LAYER0048
  6
CONTINUOUS
 62
     3
100
AcDbLine
 10
-1351.202874328965
 20
-1653.993941590217
 30
0.0
 11
-1310.269110282992
 21
-1613.060177544246
 31
0.0
  0
LINE
  5
3C8
330
1F
100
AcDbEntity
  8
LAYER0048
  6
CONTINUOUS
 62
     3
100
AcDbLine
 10
-1348.429835799368
 20
-1653.709918930397
 30
0.0
 11
-1307.780094413215
 21
-1613.060177544246
 31
0.0
  0
LINE
  5
3C9
330
1F
100
AcDbEntity
  8
LAYER0048
  6
CONTINUOUS
 62
     3
100
AcDbLine
 10
-1345.358827537112
 20
-1653.127926537918
 30
0.0
 11
-1305.291078543439
 21
-1613.060177544246
 31
0.0
  0
LINE
  5
3CA
330
1F
100
AcDbEntity
  8
LAYER0048
  6
CONTINUOUS
 62
     3
100
AcDbLine
 10
-1318.642030993663
 20
-1628.900145864246
 30
0.0
 11
-1302.802062673662
 21
-1613.060177544246
 31
0.0
  0
LINE
  5
3CB
330
1F
100
AcDbEntity
  8
LAYER0048
  6
CONTINUOUS
 62
     3
100
AcDbLine
 10
-1341.840216355906
 20
-1652.098331226488
 30
0.0
 11
-1320.488247879395
 21
-1630.746362749977
 31
0.0
  0
LINE
  5
3CC
330
1F
100
AcDbEntity
  8
LAYER0048
  6
CONTINUOUS
 62
     3
100
AcDbLine
 10
-1316.153015123887
 20
-1628.900145864246
 30
0.0
 11
-1300.313046803886
 21
-1613.060177544246
 31
0.0
  0
LINE
  5
3CD
330
1F
100
AcDbEntity
  8
LAYER0048
  6
CONTINUOUS
 62
     3
100
AcDbLine
 10
-1337.480989000449
 20
-1650.228119740807
 30
0.0
 11
-1322.358459365076
 21
-1635.105590105434
 31
0.0
  0
LINE
  5
3CE
330
1F
100
AcDbEntity
  8
LAYER0048
  6
CONTINUOUS
 62
     3
100
AcDbLine
 10
-1313.66399925411
 20
-1628.900145864246
 30
0.0
 11
-1297.824030934109
 21
-1613.060177544246
 31
0.0
  0
LINE
  5
3CF
330
1F
100
AcDbEntity
  8
LAYER0048
  6
CONTINUOUS
 62
     3
100
AcDbLine
 10
-1311.174983384333
 20
-1628.900145864246
 30
0.0
 11
-1295.335015064333
 21
-1613.060177544246
 31
0.0
  0
LINE
  5
3D0
330
1F
100
AcDbEntity
  8
LAYER0048
  6
CONTINUOUS
 62
     3
100
AcDbLine
 10
-1308.685967514557
 20
-1628.900145864246
 30
0.0
 11
-1292.845999194556
 21
-1613.060177544246
 31
0.0
  0
LINE
  5
3D1
330
1F
100
AcDbEntity
  8
LAYER0048
  6
CONTINUOUS
 62
     3
100
AcDbLine
 10
-1306.19695164478
 20
-1628.900145864246
 30
0.0
 11
-1290.35698332478
 21
-1613.060177544246
 31
0.0
  0
LINE
  5
3D2
330
1F
100
AcDbEntity
  8
LAYER0048
  6
CONTINUOUS
 62
     3
100
AcDbLine
 10
-1303.707935775003
 20
-1628.900145864246
 30
0.0
 11
-1287.867967455004
 21
-1613.060177544246
 31
0.0
  0
LINE
  5
3D3
330
1F
100
AcDbEntity
  8
LAYER0048
  6
CONTINUOUS
 62
     3
100
AcDbLine
 10
-1323.04421834248
 20
-1648.236428431722
 30
0.0
 11
-1322.715897759003
 21
-1647.908107848246
 31
0.0
  0
LINE
  5
3D4
330
1F
100
AcDbEntity
  8
LAYER0048
  6
CONTINUOUS
 62
     3
100
AcDbLine
 10
-1301.218919905227
 20
-1628.900145864246
 30
0.0
 11
-1285.378951585226
 21
-1613.060177544246
 31
0.0
  0
LINE
  5
3D5
330
1F
100
AcDbEntity
  8
LAYER0048
  6
CONTINUOUS
 62
     3
100
AcDbLine
 10
-1323.577052565003
 20
-1651.258278524022
 30
0.0
 11
-1320.226881889227
 21
-1647.908107848246
 31
0.0
  0
LINE
  5
3D6
330
1F
100
AcDbEntity
  8
LAYER0048
  6
CONTINUOUS
 62
     3
100
AcDbLine
 10
-1298.72990403545
 20
-1628.900145864246
 30
0.0
 11
-1282.88993571545
 21
-1613.060177544246
 31
0.0
  0
LINE
  5
3D7
330
1F
100
AcDbEntity
  8
LAYER0048
  6
CONTINUOUS
 62
     3
100
AcDbLine
 10
-1324.109886787526
 20
-1654.280128616322
 30
0.0
 11
-1317.73786601945
 21
-1647.908107848246
 31
0.0
  0
LINE
  5
3D8
330
1F
100
AcDbEntity
  8
LAYER0048
  6
CONTINUOUS
 62
     3
100
AcDbLine
 10
-1296.240888165674
 20
-1628.900145864246
 30
0.0
 11
-1280.400919845673
 21
-1613.060177544246
 31
0.0
  0
LINE
  5
3D9
330
1F
100
AcDbEntity
  8
LAYER0048
  6
CONTINUOUS
 62
     3
100
AcDbLine
 10
-1324.64272101005
 20
-1657.301978708622
 30
0.0
 11
-1315.248850149673
 21
-1647.908107848246
 31
0.0
  0
LINE
  5
3DA
330
1F
100
AcDbEntity
  8
LAYER0048
  6
CONTINUOUS
 62
     3
100
AcDbLine
 10
-1293.751872295897
 20
-1628.900145864246
 30
0.0
 11
-1277.911903975896
 21
-1613.060177544246
 31
0.0
  0
LINE
  5
3DB
330
1F
100
AcDbEntity
  8
LAYER0048
  6
CONTINUOUS
 62
     3
100
AcDbLine
 10
-1325.175555232573
 20
-1660.323828800922
 30
0.0
 11
-1312.759834279897
 21
-1647.908107848246
 31
0.0
  0
LINE
  5
3DC
330
1F
100
AcDbEntity
  8
LAYER0048
  6
CONTINUOUS
 62
     3
100
AcDbLine
 10
-1293.728241746593
 20
-1631.365531184717
 30
0.0
 11
-1275.42288810612
 21
-1613.060177544246
 31
0.0
  0
LINE
  5
3DD
330
1F
100
AcDbEntity
  8
LAYER0048
  6
CONTINUOUS
 62
     3
100
AcDbLine
 10
-1322.94279306612
 20
-1660.580082504245
 30
0.0
 11
-1310.27081841012
 21
-1647.908107848246
 31
0.0
  0
LINE
  5
3DE
330
1F
100
AcDbEntity
  8
LAYER0048
  6
CONTINUOUS
 62
     3
100
AcDbLine
 10
-1294.261075969116
 20
-1634.387381277017
 30
0.0
 11
-1272.933872236343
 21
-1613.060177544246
 31
0.0
  0
LINE
  5
3DF
330
1F
100
AcDbEntity
  8
LAYER0048
  6
CONTINUOUS
 62
     3
100
AcDbLine
 10
-1320.453777196343
 20
-1660.580082504245
 30
0.0
 11
-1307.781802540344
 21
-1647.908107848246
 31
0.0
  0
LINE
  5
3E0
330
1F
100
AcDbEntity
  8
LAYER0048
  6
CONTINUOUS
 62
     3
100
AcDbLine
 10
-1294.793910191639
 20
-1637.409231369317
 30
0.0
 11
-1270.444856366566
 21
-1613.060177544246
 31
0.0
  0
LINE
  5
3E1
330
1F
100
AcDbEntity
  8
LAYER0048
  6
CONTINUOUS
 62
     3
100
AcDbLine
 10
-1317.964761326567
 20
-1660.580082504245
 30
0.0
 11
-1305.292786670567
 21
-1647.908107848246
 31
0.0
  0
LINE
  5
3E2
330
1F
100
AcDbEntity
  8
LAYER0048
  6
CONTINUOUS
 62
     3
100
AcDbLine
 10
-1365.484666286565
 20
-1708.099987464245
 30
0.0
 11
-1349.644697966566
 21
-1692.260019144245
 31
0.0
  0
LINE
  5
3E3
330
1F
100
AcDbEntity
  8
LAYER0048
  6
CONTINUOUS
 62
     3
100
AcDbLine
 10
-1295.326744414162
 20
-1640.431081461617
 30
0.0
 11
-1267.95584049679
 21
-1613.060177544246
 31
0.0
  0
LINE
  5
3E4
330
1F
100
AcDbEntity
  8
LAYER0048
  6
CONTINUOUS
 62
     3
100
AcDbLine
 10
-1315.47574545679
 20
-1660.580082504245
 30
0.0
 11
-1302.803770800791
 21
-1647.908107848246
 31
0.0
  0
LINE
  5
3E5
330
1F
100
AcDbEntity
  8
LAYER0048
  6
CONTINUOUS
 62
     3
100
AcDbLine
 10
-1362.995650416789
 20
-1708.099987464245
 30
0.0
 11
-1347.155682096789
 21
-1692.260019144245
 31
0.0
  0
LINE
  5
3E6
330
1F
100
AcDbEntity
  8
LAYER0048
  6
CONTINUOUS
 62
     3
100
AcDbLine
 10
-1295.859578636686
 20
-1643.452931553918
 30
0.0
 11
-1265.466824627013
 21
-1613.060177544246
 31
0.0
  0
LINE
  5
3E7
330
1F
100
AcDbEntity
  8
LAYER0048
  6
CONTINUOUS
 62
     3
100
AcDbLine
 10
-1312.986729587013
 20
-1660.580082504245
 30
0.0
 11
-1300.314754931014
 21
-1647.908107848246
 31
0.0
  0
LINE
  5
3E8
330
1F
100
AcDbEntity
  8
LAYER0048
  6
CONTINUOUS
 62
     3
100
AcDbLine
 10
-1360.506634547013
 20
-1708.099987464245
 30
0.0
 11
-1344.666666227013
 21
-1692.260019144245
 31
0.0
  0
LINE
  5
3E9
330
1F
100
AcDbEntity
  8
LAYER0048
  6
CONTINUOUS
 62
     3
100
AcDbLine
 10
-1296.392412859209
 20
-1646.474781646217
 30
0.0
 11
-1262.977808757237
 21
-1613.060177544246
 31
0.0
  0
LINE
  5
3EA
330
1F
100
AcDbEntity
  8
LAYER0048
  6
CONTINUOUS
 62
     3
100
AcDbLine
 10
-1310.497713717237
 20
-1660.580082504245
 30
0.0
 11
-1297.825739061237
 21
-1647.908107848246
 31
0.0
  0
LINE
  5
3EB
330
1F
100
AcDbEntity
  8
LAYER0048
  6
CONTINUOUS
 62
     3
100
AcDbLine
 10
-1358.017618677236
 20
-1708.099987464245
 30
0.0
 11
-1342.177650357236
 21
-1692.260019144245
 31
0.0
  0
LINE
  5
3EC
330
1F
100
AcDbEntity
  8
LAYER0048
  6
CONTINUOUS
 62
     3
100
AcDbLine
 10
-1308.00869784746
 20
-1660.580082504245
 30
0.0
 11
-1260.48879288746
 21
-1613.060177544246
 31
0.0
  0
LINE
  5
3ED
330
1F
100
AcDbEntity
  8
LAYER0048
  6
CONTINUOUS
 62
     3
100
AcDbLine
 10
-1355.52860280746
 20
-1708.099987464245
 30
0.0
 11
-1339.68863448746
 21
-1692.260019144245
 31
0.0
  0
LINE
  5
3EE
330
1F
100
AcDbEntity
  8
LAYER0048
  6
CONTINUOUS
 62
     3
100
AcDbLine
 10
-1305.519681977683
 20
-1660.580082504245
 30
0.0
 11
-1258.402995237704
 21
-1613.463395764267
 31
0.0
  0
LINE
  5
3EF
330
1F
100
AcDbEntity
  8
LAYER0048
  6
CONTINUOUS
 62
     3
100
AcDbLine
 10
-1353.039586937683
 20
-1708.099987464245
 30
0.0
 11
-1337.199618617683
 21
-1692.260019144245
 31
0.0
  0
LINE
  5
3F0
330
1F
100
AcDbEntity
  8
LAYER0048
  6
CONTINUOUS
 62
     3
100
AcDbLine
 10
-1303.030666107907
 20
-1660.580082504245
 30
0.0
 11
-1258.935829476899
 21
-1616.485245873238
 31
0.0
  0
LINE
  5
3F1
330
1F
100
AcDbEntity
  8
LAYER0048
  6
CONTINUOUS
 62
     3
100
AcDbLine
 10
-1350.550571067906
 20
-1708.099987464245
 30
0.0
 11
-1334.710602747907
 21
-1692.260019144245
 31
0.0
  0
LINE
  5
3F2
330
1F
100
AcDbEntity
  8
LAYER0048
  6
CONTINUOUS
 62
     3
100
AcDbLine
 10
-1300.54165023813
 20
-1660.580082504245
 30
0.0
 11
-1259.468663716094
 21
-1619.50709598221
 31
0.0
  0
LINE
  5
3F3
330
1F
100
AcDbEntity
  8
LAYER0048
  6
CONTINUOUS
 62
     3
100
AcDbLine
 10
-1348.06155519813
 20
-1708.099987464245
 30
0.0
 11
-1332.22158687813
 21
-1692.260019144245
 31
0.0
  0
LINE
  5
3F4
330
1F
100
AcDbEntity
  8
LAYER0048
  6
CONTINUOUS
 62
     3
100
AcDbLine
 10
-1299.05658167888
 20
-1661.584029814771
 30
0.0
 11
-1260.001497955289
 21
-1622.528946091182
 31
0.0
  0
LINE
  5
3F5
330
1F
100
AcDbEntity
  8
LAYER0048
  6
CONTINUOUS
 62
     3
100
AcDbLine
 10
-1345.572539328353
 20
-1708.099987464245
 30
0.0
 11
-1329.732571008353
 21
-1692.260019144245
 31
0.0
  0
LINE
  5
3F6
330
1F
100
AcDbEntity
  8
LAYER0048
  6
CONTINUOUS
 62
     3
100
AcDbLine
 10
-1299.589408999717
 20
-1664.605873005385
 30
0.0
 11
-1260.534332194484
 21
-1625.550796200154
 31
0.0
  0
LINE
  5
3F7
330
1F
100
AcDbEntity
  8
LAYER0048
  6
CONTINUOUS
 62
     3
100
AcDbLine
 10
-1343.083523458577
 20
-1708.099987464245
 30
0.0
 11
-1327.243555138577
 21
-1692.260019144245
 31
0.0
  0
LINE
  5
3F8
330
1F
100
AcDbEntity
  8
LAYER0048
  6
CONTINUOUS
 62
     3
100
AcDbLine
 10
-1300.122236320555
 20
-1667.627716195999
 30
0.0
 11
-1261.067166433679
 21
-1628.572646309126
 31
0.0
  0
LINE
  5
3F9
330
1F
100
AcDbEntity
  8
LAYER0048
  6
CONTINUOUS
 62
     3
100
AcDbLine
 10
-1340.5945075888
 20
-1708.099987464245
 30
0.0
 11
-1324.7545392688
 21
-1692.260019144245
 31
0.0
  0
LINE
  5
3FA
330
1F
100
AcDbEntity
  8
LAYER0048
  6
CONTINUOUS
 62
     3
100
AcDbLine
 10
-1300.655063641392
 20
-1670.649559386614
 30
0.0
 11
-1261.600000672874
 21
-1631.594496418097
 31
0.0
  0
LINE
  5
3FB
330
1F
100
AcDbEntity
  8
LAYER0048
  6
CONTINUOUS
 62
     3
100
AcDbLine
 10
-1338.105491719024
 20
-1708.099987464245
 30
0.0
 11
-1322.249848206689
 21
-1692.244343951911
 31
0.0
  0
LINE
  5
3FC
330
1F
100
AcDbEntity
  8
LAYER0048
  6
CONTINUOUS
 62
     3
100
AcDbLine
 10
-1301.18789096223
 20
-1673.671402577228
 30
0.0
 11
-1262.13283491207
 21
-1634.616346527069
 31
0.0
  0
LINE
  5
3FD
330
1F
100
AcDbEntity
  8
LAYER0048
  6
CONTINUOUS
 62
     3
100
AcDbLine
 10
-1335.616475849247
 20
-1708.099987464245
 30
0.0
 11
-1319.483221790483
 21
-1691.966733405481
 31
0.0
  0
LINE
  5
3FE
330
1F
100
AcDbEntity
  8
LAYER0048
  6
CONTINUOUS
 62
     3
100
AcDbLine
 10
-1301.992118447698
 20
-1676.964645932473
 30
0.0
 11
-1262.665669151265
 21
-1637.638196636041
 31
0.0
  0
LINE
  5
3FF
330
1F
100
AcDbEntity
  8
LAYER0048
  6
CONTINUOUS
 62
     3
100
AcDbLine
 10
-1333.12745997947
 20
-1708.099987464245
 30
0.0
 11
-1316.192809583012
 21
-1691.165337067787
 31
0.0
  0
LINE
  5
400
330
1F
100
AcDbEntity
  8
LAYER0048
  6
CONTINUOUS
 62
     3
100
AcDbLine
 10
-1304.097975373593
 20
-1681.559518728145
 30
0.0
 11
-1263.19850339046
 21
-1640.660046745013
 31
0.0
  0
LINE
  5
401
330
1F
100
AcDbEntity
  8
LAYER0048
  6
CONTINUOUS
 62
     3
100
AcDbLine
 10
-1330.638444109694
 20
-1708.099987464245
 30
0.0
 11
-1311.597936787339
 21
-1689.05948014189
 31
0.0
  0
LINE
  5
402
330
1F
100
AcDbEntity
  8
LAYER0048
  6
CONTINUOUS
 62
     3
100
AcDbLine
 10
-1328.149428239917
 20
-1708.099987464245
 30
0.0
 11
-1263.731337629656
 21
-1643.681896853984
 31
0.0
  0
LINE
  5
403
330
1F
100
AcDbEntity
  8
LAYER0048
  6
CONTINUOUS
 62
     3
100
AcDbLine
 10
-1325.66041237014
 20
-1708.099987464245
 30
0.0
 11
-1264.264171868851
 21
-1646.703746962956
 31
0.0
  0
LINE
  5
404
330
1F
100
AcDbEntity
  8
LAYER0048
  6
CONTINUOUS
 62
     3
100
AcDbLine
 10
-1323.171396500364
 20
-1708.099987464245
 30
0.0
 11
-1264.797006108046
 21
-1649.725597071928
 31
0.0
  0
LINE
  5
405
330
1F
100
AcDbEntity
  8
LAYER0048
  6
CONTINUOUS
 62
     3
100
AcDbLine
 10
-1320.682380630587
 20
-1708.099987464245
 30
0.0
 11
-1265.329840347241
 21
-1652.7474471809
 31
0.0
  0
LINE
  5
406
330
1F
100
AcDbEntity
  8
LAYER0048
  6
CONTINUOUS
 62
     3
100
AcDbLine
 10
-1318.193364760811
 20
-1708.099987464245
 30
0.0
 11
-1265.862674586436
 21
-1655.769297289871
 31
0.0
  0
LINE
  5
407
330
1F
100
AcDbEntity
  8
LAYER0048
  6
CONTINUOUS
 62
     3
100
AcDbLine
 10
-1315.704348891034
 20
-1708.099987464245
 30
0.0
 11
-1266.395508825631
 21
-1658.791147398843
 31
0.0
  0
LINE
  5
408
330
1F
100
AcDbEntity
  8
LAYER0048
  6
CONTINUOUS
 62
     3
100
AcDbLine
 10
-1313.180947682182
 20
-1708.06560212517
 30
0.0
 11
-1266.928343064826
 21
-1661.812997507815
 31
0.0
  0
LINE
  5
409
330
1F
100
AcDbEntity
  8
LAYER0048
  6
CONTINUOUS
 62
     3
100
AcDbLine
 10
-1310.515998494067
 20
-1707.889668806831
 30
0.0
 11
-1267.461177304022
 21
-1664.834847616787
 31
0.0
  0
LINE
  5
40A
330
1F
100
AcDbEntity
  8
LAYER0048
  6
CONTINUOUS
 62
     3
100
AcDbLine
 10
-1307.673705982011
 20
-1707.536392164553
 30
0.0
 11
-1267.994011543217
 21
-1667.856697725758
 31
0.0
  0
LINE
  5
40B
330
1F
100
AcDbEntity
  8
LAYER0048
  6
CONTINUOUS
 62
     3
100
AcDbLine
 10
-1304.60330112196
 20
-1706.955003174277
 30
0.0
 11
-1268.588986933207
 21
-1670.940688985525
 31
0.0
  0
LINE
  5
40C
330
1F
100
AcDbEntity
  8
LAYER0048
  6
CONTINUOUS
 62
     3
100
AcDbLine
 10
-1301.230201621739
 20
-1706.070919543834
 30
0.0
 11
-1269.47307056365
 21
-1674.313788485744
 31
0.0
  0
LINE
  5
40D
330
1F
100
AcDbEntity
  8
LAYER0048
  6
CONTINUOUS
 62
     3
100
AcDbLine
 10
-1297.405835416428
 20
-1704.735569208299
 30
0.0
 11
-1270.808420899184
 21
-1678.138154691056
 31
0.0
  0
LINE
  5
40E
330
1F
100
AcDbEntity
  8
LAYER0048
  6
CONTINUOUS
 62
     3
100
AcDbLine
 10
-1292.788686432041
 20
-1702.607436093688
 30
0.0
 11
-1272.936554013796
 21
-1682.755303675443
 31
0.0
  0
LINE
  5
40F
330
1F
100
AcDbEntity
  8
LAYER0048
  6
CONTINUOUS
 62
     3
100
AcDbLine
 10
-1285.75406514109
 20
-1698.061830672515
 30
0.0
 11
-1277.482159434968
 21
-1689.789924966393
 31
0.0
  0
LINE
  5
410
330
1F
100
AcDbEntity
  8
LAYER0048
  6
CONTINUOUS
 62
     3
100
AcDbLine
 10
-1187.710180704038
 20
-1666.916069832246
 30
0.0
 11
-1186.963525555238
 21
-1666.916069832246
 31
0.0
  0
LINE
  5
411
330
1F
100
AcDbEntity
  8
LAYER0048
  6
CONTINUOUS
 62
     3
100
AcDbLine
 10
-1296.645147187237
 20
-1647.908107848246
 30
0.0
 11
-1293.293527372838
 21
-1628.900145864246
 31
0.0
  0
LINE
  5
412
330
1F
100
AcDbEntity
  8
LAYER0048
  6
CONTINUOUS
 62
     3
100
AcDbLine
 10
-1301.234352537638
 20
-1673.934901819446
 30
0.0
 11
-1298.879560396839
 21
-1660.580082504245
 31
0.0
  0
LINE
  5
413
330
1F
100
AcDbEntity
  8
LAYER0048
  6
CONTINUOUS
 62
     3
100
AcDbLine
 10
-1258.331896915237
 20
-1666.916069832246
 30
0.0
 11
-1219.390117344037
 21
-1666.916069832246
 31
0.0
  0
LINE
  5
414
330
1F
100
AcDbEntity
  8
LAYER0048
  6
CONTINUOUS
 62
     3
100
AcDbLine
 10
-1085.350189132838
 20
-1628.173124712245
 30
0.0
 11
-1082.685356870437
 21
-1613.060177544246
 31
0.0
  0
LINE
  5
415
330
1F
100
AcDbEntity
  8
LAYER0048
  6
CONTINUOUS
 62
     3
100
AcDbLine
 10
-1099.443455942437
 20
-1708.099987464245
 30
0.0
 11
-1088.143205644838
 21
-1644.013093032245
 31
0.0
  0
LINE
  5
416
330
1F
100
AcDbEntity
  8
LAYER0048
  6
CONTINUOUS
 62
     3
100
AcDbLine
 10
-1120.311900057639
 20
-1644.013093032245
 30
0.0
 11
-1131.612150355238
 21
-1708.099987464245
 31
0.0
  0
LINE
  5
417
330
1F
100
AcDbEntity
  8
LAYER0048
  6
CONTINUOUS
 62
     3
100
AcDbLine
 10
-1114.854051283238
 20
-1613.060177544246
 30
0.0
 11
-1117.518883545637
 21
-1628.173124712245
 31
0.0
  0
LINE
  5
418
330
1F
100
AcDbEntity
  8
LAYER0048
  6
CONTINUOUS
 62
     3
100
AcDbLine
 10
-1088.143205644838
 20
-1644.013093032245
 30
0.0
 11
-1036.572340435238
 21
-1644.013093032245
 31
0.0
  0
LINE
  5
419
330
1F
100
AcDbEntity
  8
LAYER0048
  6
CONTINUOUS
 62
     3
100
AcDbLine
 10
-1136.028673094438
 20
-1644.013093032245
 30
0.0
 11
-1120.311900057639
 21
-1644.013093032245
 31
0.0
  0
LINE
  5
41A
330
1F
100
AcDbEntity
  8
LAYER0048
  6
CONTINUOUS
 62
     3
100
AcDbLine
 10
-1117.518883545637
 20
-1628.173124712245
 30
0.0
 11
-1133.235656582438
 21
-1628.173124712245
 31
0.0
  0
LINE
  5
41B
330
1F
100
AcDbEntity
  8
LAYER0048
  6
CONTINUOUS
 62
     3
100
AcDbLine
 10
-1004.892403795238
 20
-1628.173124712245
 30
0.0
 11
-1085.350189132838
 21
-1628.173124712245
 31
0.0
  0
LINE
  5
41C
330
1F
100
AcDbEntity
  8
LAYER0048
  6
CONTINUOUS
 62
     3
100
AcDbLine
 10
-1010.363127321637
 20
-1659.199345819446
 30
0.0
 11
-1004.892403795238
 21
-1628.173124712245
 31
0.0
  0
LINE
  5
41D
330
1F
100
AcDbEntity
  8
LAYER0048
  6
CONTINUOUS
 62
     3
100
AcDbLine
 10
-1081.257949209637
 20
-1690.613901633846
 30
0.0
 11
-1047.801538195238
 21
-1690.613901633846
 31
0.0
  0
LINE
  5
41E
330
1F
100
AcDbEntity
  8
LAYER0048
  6
CONTINUOUS
 62
     3
100
AcDbLine
 10
-1078.464932697637
 20
-1674.773933313846
 30
0.0
 11
-1081.257949209637
 21
-1690.613901633846
 31
0.0
  0
LINE
  5
41F
330
1F
100
AcDbEntity
  8
LAYER0048
  6
CONTINUOUS
 62
     3
100
AcDbLine
 10
-1068.578893440038
 20
-1674.773933313846
 30
0.0
 11
-1078.464932697637
 21
-1674.773933313846
 31
0.0
  0
LINE
  5
420
330
1F
100
AcDbEntity
  8
LAYER0048
  6
CONTINUOUS
 62
     3
100
AcDbLine
 10
-1036.572340435238
 20
-1644.013093032245
 30
0.0
 11
-1037.380231123238
 21
-1648.595136801846
 31
0.0
  0
LINE
  5
421
330
1F
100
AcDbEntity
  8
LAYER0048
  6
CONTINUOUS
 62
     3
100
AcDbLine
 10
-1133.235656582438
 20
-1628.173124712245
 30
0.0
 11
-1136.028673094438
 21
-1644.013093032245
 31
0.0
  0
LINE
  5
422
330
1F
100
AcDbEntity
  8
LAYER0048
  6
CONTINUOUS
 62
     3
100
AcDbLine
 10
-1082.685356870437
 20
-1613.060177544246
 30
0.0
 11
-1114.854051283238
 21
-1613.060177544246
 31
0.0
  0
LINE
  5
423
330
1F
100
AcDbEntity
  8
LAYER0048
  6
CONTINUOUS
 62
     3
100
AcDbLine
 10
-1131.612150355238
 20
-1708.099987464245
 30
0.0
 11
-1099.443455942437
 21
-1708.099987464245
 31
0.0
  0
LINE
  5
424
330
1F
100
AcDbEntity
  8
LAYER0048
  6
CONTINUOUS
 62
     3
100
AcDbLine
 10
-1161.358138310437
 20
-1653.890441832246
 30
0.0
 11
-1131.612150355238
 21
-1613.060177544246
 31
0.0
  0
LINE
  5
425
330
1F
100
AcDbEntity
  8
LAYER0048
  6
CONTINUOUS
 62
     3
100
AcDbLine
 10
-1194.972023635237
 20
-1708.099987464245
 30
0.0
 11
-1187.710180704038
 21
-1666.916069832246
 31
0.0
  0
LINE
  5
426
330
1F
100
AcDbEntity
  8
LAYER0048
  6
CONTINUOUS
 62
     3
100
AcDbLine
 10
-1219.390117344037
 20
-1666.916069832246
 30
0.0
 11
-1226.651960275238
 21
-1708.099987464245
 31
0.0
  0
LINE
  5
427
330
1F
100
AcDbEntity
  8
LAYER0048
  6
CONTINUOUS
 62
     3
100
AcDbLine
 10
-1176.648274252838
 20
-1613.060177544246
 30
0.0
 11
-1187.622471456037
 21
-1633.652136360245
 31
0.0
  0
LINE
  5
428
330
1F
100
AcDbEntity
  8
LAYER0048
  6
CONTINUOUS
 62
     3
100
AcDbLine
 10
-1220.545224000038
 20
-1652.660098344245
 30
0.0
 11
-1255.538880403238
 21
-1652.660098344245
 31
0.0
  0
LINE
  5
429
330
1F
100
AcDbEntity
  8
LAYER0048
  6
CONTINUOUS
 62
     3
100
AcDbLine
 10
-1194.972023635237
 20
-1708.099987464245
 30
0.0
 11
-1226.651960275238
 21
-1708.099987464245
 31
0.0
  0
LINE
  5
42A
330
1F
100
AcDbEntity
  8
LAYER0048
  6
CONTINUOUS
 62
     3
100
AcDbLine
 10
-1131.612150355238
 20
-1613.060177544246
 30
0.0
 11
-1176.648274252838
 21
-1613.060177544246
 31
0.0
  0
LINE
  5
42B
330
1F
100
AcDbEntity
  8
LAYER0048
  6
CONTINUOUS
 62
     3
100
AcDbLine
 10
-1255.538880403238
 20
-1652.660098344245
 30
0.0
 11
-1258.331896915237
 21
-1666.916069832246
 31
0.0
  0
LINE
  5
42C
330
1F
100
AcDbEntity
  8
LAYER0048
  6
CONTINUOUS
 62
     3
100
AcDbLine
 10
-1225.74653820164
 20
-1613.060177544246
 30
0.0
 11
-1232.180293177639
 21
-1613.060177544246
 31
0.0
  0
LINE
  5
42D
330
1F
100
AcDbEntity
  8
LAYER0048
  6
CONTINUOUS
 62
     3
100
AcDbLine
 10
-1228.539554713639
 20
-1628.900145864246
 30
0.0
 11
-1225.74653820164
 21
-1613.060177544246
 31
0.0
  0
LINE
  5
42E
330
1F
100
AcDbEntity
  8
LAYER0048
  6
CONTINUOUS
 62
     3
100
AcDbLine
 10
-1234.973309689638
 20
-1628.900145864246
 30
0.0
 11
-1228.539554713639
 21
-1628.900145864246
 31
0.0
  0
LINE
  5
42F
330
1F
100
AcDbEntity
  8
LAYER0048
  6
CONTINUOUS
 62
     3
100
AcDbLine
 10
-1232.180293177639
 20
-1613.060177544246
 30
0.0
 11
-1234.973309689638
 21
-1628.900145864246
 31
0.0
  0
LINE
  5
430
330
1F
100
AcDbEntity
  8
LAYER0048
  6
CONTINUOUS
 62
     3
100
AcDbLine
 10
-1242.070800934438
 20
-1613.060177544246
 30
0.0
 11
-1248.504555910439
 21
-1613.060177544246
 31
0.0
  0
LINE
  5
431
330
1F
100
AcDbEntity
  8
LAYER0048
  6
CONTINUOUS
 62
     3
100
AcDbLine
 10
-1244.863817446438
 20
-1628.900145864246
 30
0.0
 11
-1242.070800934438
 21
-1613.060177544246
 31
0.0
  0
LINE
  5
432
330
1F
100
AcDbEntity
  8
LAYER0048
  6
CONTINUOUS
 62
     3
100
AcDbLine
 10
-1251.297572422438
 20
-1628.900145864246
 30
0.0
 11
-1244.863817446438
 21
-1628.900145864246
 31
0.0
  0
LINE
  5
433
330
1F
100
AcDbEntity
  8
LAYER0048
  6
CONTINUOUS
 62
     3
100
AcDbLine
 10
-1248.504555910439
 20
-1613.060177544246
 30
0.0
 11
-1251.297572422438
 21
-1628.900145864246
 31
0.0
  0
LINE
  5
434
330
1F
100
AcDbEntity
  8
LAYER0048
  6
CONTINUOUS
 62
     3
100
AcDbLine
 10
-1343.867725843238
 20
-1614.462881774646
 30
0.0
 11
-1343.867725843238
 21
-1613.060177544246
 31
0.0
  0
LINE
  5
435
330
1F
100
AcDbEntity
  8
LAYER0048
  6
CONTINUOUS
 62
     3
100
AcDbLine
 10
-1325.220739718437
 20
-1660.580082504245
 30
0.0
 11
-1298.879560396839
 21
-1660.580082504245
 31
0.0
  0
LINE
  5
436
330
1F
100
AcDbEntity
  8
LAYER0048
  6
CONTINUOUS
 62
     3
100
AcDbLine
 10
-1322.986326508838
 20
-1647.908107848246
 30
0.0
 11
-1325.220739718437
 21
-1660.580082504245
 31
0.0
  0
LINE
  5
437
330
1F
100
AcDbEntity
  8
LAYER0048
  6
CONTINUOUS
 62
     3
100
AcDbLine
 10
-1296.645147187237
 20
-1647.908107848246
 30
0.0
 11
-1322.986326508838
 21
-1647.908107848246
 31
0.0
  0
LINE
  5
438
330
1F
100
AcDbEntity
  8
LAYER0048
  6
CONTINUOUS
 62
     3
100
AcDbLine
 10
-1293.293527372838
 20
-1628.900145864246
 30
0.0
 11
-1319.896707897638
 21
-1628.900145864246
 31
0.0
  0
LINE
  5
439
330
1F
100
AcDbEntity
  8
LAYER0048
  6
CONTINUOUS
 62
     3
100
AcDbLine
 10
-1258.331896915237
 20
-1613.060177544246
 30
0.0
 11
-1268.165954361638
 21
-1668.831832929845
 31
0.0
  0
LINE
  5
43A
330
1F
100
AcDbEntity
  8
LAYER0048
  6
CONTINUOUS
 62
     3
100
AcDbLine
 10
-1343.867725843238
 20
-1613.060177544246
 30
0.0
 11
-1258.331896915237
 21
-1613.060177544246
 31
0.0
  0
ARC
  5
43B
330
1F
100
AcDbEntity
  8
LAYER0048
  6
CONTINUOUS
 62
     3
100
AcDbCircle
 10
-1047.801538195238
 20
-1652.597977665846
 30
0.0
 40
38.01592396800036
100
AcDbArc
 50
270.0000000000006
 51
350.0000501652083
  0
ARC
  5
43C
330
1F
100
AcDbEntity
  8
LAYER0048
  6
CONTINUOUS
 62
     3
100
AcDbCircle
 10
-1068.578893440038
 20
-1643.093996673845
 30
0.0
 40
31.67993664000041
100
AcDbArc
 50
270.0000000000006
 51
350.0000459533484
  0
ARC
  5
43D
330
1F
100
AcDbEntity
  8
LAYER0048
  6
CONTINUOUS
 62
     3
100
AcDbCircle
 10
-1186.963525555238
 20
-1635.236133192245
 30
0.0
 40
31.67993664000032
100
AcDbArc
 50
270.0000000000006
 51
323.9255158738096
  0
ARC
  5
43E
330
1F
100
AcDbEntity
  8
LAYER0048
  6
CONTINUOUS
 62
     3
100
AcDbCircle
 10
-1220.545224000038
 20
-1614.644174376245
 30
0.0
 40
38.01592396800005
100
AcDbArc
 50
270.0000000000006
 51
329.9999974675138
  0
ARC
  5
43F
330
1F
100
AcDbEntity
  8
LAYER0048
  6
CONTINUOUS
 62
     3
100
AcDbCircle
 10
-1353.371706835238
 20
-1619.214872270645
 30
0.0
 40
34.84793030400002
100
AcDbArc
 50
270.0000000000006
 51
343.8633330758265
  0
ARC
  5
440
330
1F
100
AcDbEntity
  8
LAYER0048
  6
CONTINUOUS
 62
     3
100
AcDbCircle
 10
-1314.963907603238
 20
-1660.580082504245
 30
0.0
 40
47.51990496000001
100
AcDbArc
 50
270.0000000000006
 51
349.9999897560574
  0
ARC
  5
441
330
1F
100
AcDbEntity
  8
LAYER0048
  6
CONTINUOUS
 62
     3
100
AcDbCircle
 10
-1323.073392019238
 20
-1670.084063496246
 30
0.0
 40
22.17595564799892
100
AcDbArc
 50
270.0000000000006
 51
349.9999327509129
  0
LINE
  5
442
330
1F
100
AcDbEntity
  8
LAYER0048
  6
CONTINUOUS
 62
     3
100
AcDbLine
 10
-1373.672878141383
 20
-1654.062802574645
 30
0.0
 11
-1363.280623769107
 21
-1643.670548202369
 31
0.0
  0
LINE
  5
443
330
1F
100
AcDbEntity
  8
LAYER0048
  6
CONTINUOUS
 62
     3
100
AcDbLine
 10
-1371.183862271606
 20
-1654.062802574645
 30
0.0
 11
-1357.877910732594
 21
-1640.756851035633
 31
0.0
  0
LINE
  5
444
330
1F
100
AcDbEntity
  8
LAYER0048
  6
CONTINUOUS
 62
     3
100
AcDbLine
 10
-1368.69484640183
 20
-1654.062802574645
 30
0.0
 11
-1327.692221371428
 21
-1613.060177544246
 31
0.0
  0
LINE
  5
445
330
1F
100
AcDbEntity
  8
LAYER0048
  6
CONTINUOUS
 62
     3
100
AcDbLine
 10
-1366.205830532053
 20
-1654.062802574645
 30
0.0
 11
-1325.203205501652
 21
-1613.060177544246
 31
0.0
  0
LINE
  5
446
330
1F
100
AcDbEntity
  8
LAYER0048
  6
CONTINUOUS
 62
     3
100
AcDbLine
 10
-1380.418761505226
 20
-1708.099987464245
 30
0.0
 11
-1364.578793185226
 21
-1692.260019144245
 31
0.0
  0
LINE
  5
447
330
1F
100
AcDbEntity
  8
LAYER0048
  6
CONTINUOUS
 62
     3
100
AcDbLine
 10
-1377.929745635449
 20
-1708.099987464245
 30
0.0
 11
-1362.089777315449
 21
-1692.260019144245
 31
0.0
  0
LINE
  5
448
330
1F
100
AcDbEntity
  8
LAYER0048
  6
CONTINUOUS
 62
     3
100
AcDbLine
 10
-1375.440729765672
 20
-1708.099987464245
 30
0.0
 11
-1359.600761445673
 21
-1692.260019144245
 31
0.0
  0
LINE
  5
449
330
1F
100
AcDbEntity
  8
LAYER0048
  6
CONTINUOUS
 62
     3
100
AcDbLine
 10
-1372.951713895896
 20
-1708.099987464245
 30
0.0
 11
-1357.111745575896
 21
-1692.260019144245
 31
0.0
  0
LINE
  5
44A
330
1F
100
AcDbEntity
  8
LAYER0048
  6
CONTINUOUS
 62
     3
100
AcDbLine
 10
-1370.462698026119
 20
-1708.099987464245
 30
0.0
 11
-1354.622729706119
 21
-1692.260019144245
 31
0.0
  0
LINE
  5
44B
330
1F
100
AcDbEntity
  8
LAYER0048
  6
CONTINUOUS
 62
     3
100
AcDbLine
 10
-1367.973682156343
 20
-1708.099987464245
 30
0.0
 11
-1352.133713836343
 21
-1692.260019144245
 31
0.0
  0
LINE
  5
44C
330
1F
100
AcDbEntity
  8
LAYER0048
  6
CONTINUOUS
 62
     3
100
AcDbLine
 10
-1375.523441856037
 20
-1654.062802574645
 30
0.0
 11
-1353.371706835238
 21
-1654.062802574645
 31
0.0
  0
LINE
  5
44D
330
1F
100
AcDbEntity
  8
LAYER0048
  6
CONTINUOUS
 62
     3
100
AcDbLine
 10
-1382.258626963237
 20
-1692.260019144245
 30
0.0
 11
-1323.073392019238
 21
-1692.260019144245
 31
0.0
  0
LINE
  5
44E
330
1F
100
AcDbEntity
  8
LAYER0048
  6
CONTINUOUS
 62
     3
100
AcDbLine
 10
-1314.963907603238
 20
-1708.099987464245
 30
0.0
 11
-1385.051643475239
 21
-1708.099987464245
 31
0.0
  0
ARC
  5
44F
330
1F
100
AcDbEntity
  8
LAYER0048
  6
CONTINUOUS
 62
     3
100
AcDbCircle
 10
-1375.547662483237
 20
-1614.462881774646
 30
0.0
 40
31.67996396102462
100
AcDbArc
 50
272.5678887518231
 51
0.0
  0
LINE
  5
450
330
1F
100
AcDbEntity
  8
LAYER0032
  6
CENTER
 62
     6
100
AcDbLine
 10
1050.31114616018
 20
733.4022352859647
 30
0.0
 11
1050.31114616018
 21
-55.21540582635225
 31
0.0
  0
LINE
  5
451
330
1F
100
AcDbEntity
  8
LAYER0032
  6
CENTER
 62
     6
100
AcDbLine
 10
335.3111461601802
 20
333.4022352859647
 30
0.0
 11
1765.31114616018
 21
333.4022352859647
 31
0.0
  0
LINE
  5
452
330
1F
100
AcDbEntity
  8
LAYER0032
  6
CENTER
 62
     6
100
AcDbLine
 10
1050.31114616018
 20
-565.5684058255911
 30
0.0
 11
1050.31114616018
 21
-988.1294158907549
 31
0.0
  0
LINE
  5
453
330
1F
100
AcDbEntity
  8
LAYER0032
  6
CENTER
 62
     6
100
AcDbLine
 10
370.3111461601802
 20
638.9022352859647
 30
0.0
 11
370.3111461601802
 21
558.9022352859647
 31
0.0
  0
LINE
  5
454
330
1F
100
AcDbEntity
  8
LAYER0032
  6
CENTER
 62
     6
100
AcDbLine
 10
370.3111461601802
 20
107.9022352859647
 30
0.0
 11
370.3111461601802
 21
27.90223528596471
 31
0.0
  0
LINE
  5
455
330
1F
100
AcDbEntity
  8
LAYER0032
  6
CENTER
 62
     6
100
AcDbLine
 10
1730.31114616018
 20
638.9022352859647
 30
0.0
 11
1730.31114616018
 21
558.9022352859647
 31
0.0
  0
LINE
  5
456
330
1F
100
AcDbEntity
  8
LAYER0032
  6
CENTER
 62
     6
100
AcDbLine
 10
1730.31114616018
 20
107.9022352859647
 30
0.0
 11
1730.31114616018
 21
27.90223528596471
 31
0.0
  0
LINE
  5
457
330
1F
100
AcDbEntity
  8
LAYER0032
  6
CENTER
 62
     6
100
AcDbLine
 10
370.3111461601804
 20
-941.8192434493376
 30
0.0
 11
370.3111461601804
 21
-1008.643918560189
 31
0.0
  0
LINE
  5
458
330
1F
100
AcDbEntity
  8
LAYER0032
  6
CENTER
 62
     6
100
AcDbLine
 10
1677.31114616018
 20
360.9022352859647
 30
0.0
 11
1677.31114616018
 21
305.9022352859647
 31
0.0
  0
LINE
  5
459
330
1F
100
AcDbEntity
  8
LAYER0032
  6
CENTER
 62
     6
100
AcDbLine
 10
1677.31114616018
 20
-903.4181664508087
 30
0.0
 11
1677.31114616018
 21
-955.3407595574308
 31
0.0
  0
LINE
  5
45A
330
1F
100
AcDbEntity
  8
LAYER0032
  6
CENTER
 62
     6
100
AcDbLine
 10
521.8728254946461
 20
598.9022352859647
 30
0.0
 11
460.4321434920706
 21
598.9022352859647
 31
0.0
  0
LINE
  5
45B
330
1F
100
AcDbEntity
  8
LAYER0032
  6
CENTER
 62
     6
100
AcDbLine
 10
490.31114616018
 20
567.1123256626088
 30
0.0
 11
490.31114616018
 21
628.9022352859647
 31
0.0
  0
LINE
  5
45C
330
1F
100
AcDbEntity
  8
LAYER0032
  6
CENTER
 62
     6
100
AcDbLine
 10
1641.872825494646
 20
598.9022352859647
 30
0.0
 11
1580.432143492071
 21
598.9022352859647
 31
0.0
  0
LINE
  5
45D
330
1F
100
AcDbEntity
  8
LAYER0032
  6
CENTER
 62
     6
100
AcDbLine
 10
1610.31114616018
 20
567.1123256626088
 30
0.0
 11
1610.31114616018
 21
628.9022352859647
 31
0.0
  0
LINE
  5
45E
330
1F
100
AcDbEntity
  8
LAYER0032
  6
CENTER
 62
     6
100
AcDbLine
 10
1641.872825494646
 20
67.90223528596471
 30
0.0
 11
1580.432143492071
 21
67.90223528596471
 31
0.0
  0
LINE
  5
45F
330
1F
100
AcDbEntity
  8
LAYER0032
  6
CENTER
 62
     6
100
AcDbLine
 10
1610.31114616018
 20
36.11232566260878
 30
0.0
 11
1610.31114616018
 21
97.90223528596471
 31
0.0
  0
LINE
  5
460
330
1F
100
AcDbEntity
  8
LAYER0032
  6
CENTER
 62
     6
100
AcDbLine
 10
521.8728254946461
 20
67.90223528596471
 30
0.0
 11
460.4321434920706
 21
67.90223528596471
 31
0.0
  0
LINE
  5
461
330
1F
100
AcDbEntity
  8
LAYER0032
  6
CENTER
 62
     6
100
AcDbLine
 10
490.31114616018
 20
36.11232566260878
 30
0.0
 11
490.31114616018
 21
97.90223528596471
 31
0.0
  0
LINE
  5
462
330
1F
100
AcDbEntity
  8
LAYER0032
  6
CENTER
 62
     6
100
AcDbLine
 10
345.31114616018
 20
598.9022352859647
 30
0.0
 11
396.0111461601801
 21
598.9022352859647
 31
0.0
  0
LINE
  5
463
330
1F
100
AcDbEntity
  8
LAYER0032
  6
CENTER
 62
     6
100
AcDbLine
 10
345.31114616018
 20
67.90223528596471
 30
0.0
 11
396.0111461601801
 21
67.90223528596471
 31
0.0
  0
LINE
  5
464
330
1F
100
AcDbEntity
  8
LAYER0032
  6
CENTER
 62
     6
100
AcDbLine
 10
1755.31114616018
 20
67.90223528596471
 30
0.0
 11
1704.61114616018
 21
67.90223528596471
 31
0.0
  0
LINE
  5
465
330
1F
100
AcDbEntity
  8
LAYER0032
  6
CENTER
 62
     6
100
AcDbLine
 10
1755.31114616018
 20
598.9022352859647
 30
0.0
 11
1704.61114616018
 21
598.9022352859647
 31
0.0
  0
LINE
  5
466
330
1F
100
AcDbEntity
  8
LAYER0032
  6
CONTINUOUS
 62
     3
100
AcDbLine
 10
393.3111461601802
 20
-587.0192434493374
 30
0.0
 11
1707.31114616018
 21
-587.0192434493374
 31
0.0
  0
LINE
  5
467
330
1F
100
AcDbEntity
  8
LAYER0032
  6
CONTINUOUS
 62
     3
100
AcDbLine
 10
1755.31114616018
 20
639.1022352859645
 30
0.0
 11
1755.31114616018
 21
558.7022352859649
 31
0.0
  0
LINE
  5
468
330
1F
100
AcDbEntity
  8
LAYER0032
  6
CONTINUOUS
 62
     3
100
AcDbLine
 10
1755.31114616018
 20
108.1022352859645
 30
0.0
 11
1755.31114616018
 21
27.70223528596489
 31
0.0
  0
LINE
  5
469
330
1F
100
AcDbEntity
  8
LAYER0032
  6
CONTINUOUS
 62
     3
100
AcDbLine
 10
345.3111461601802
 20
639.1022352859645
 30
0.0
 11
345.3111461601802
 21
558.7022352859649
 31
0.0
  0
LINE
  5
46A
330
1F
100
AcDbEntity
  8
LAYER0032
  6
CONTINUOUS
 62
     3
100
AcDbLine
 10
345.3111461601802
 20
108.1022352859645
 30
0.0
 11
345.3111461601802
 21
27.70223528596489
 31
0.0
  0
LINE
  5
46B
330
1F
100
AcDbEntity
  8
LAYER0032
  6
CONTINUOUS
 62
     3
100
AcDbLine
 10
345.3111461601802
 20
639.1022352859645
 30
0.0
 11
393.3111461601802
 21
639.1022352859645
 31
0.0
  0
LINE
  5
46C
330
1F
100
AcDbEntity
  8
LAYER0032
  6
CONTINUOUS
 62
     3
100
AcDbLine
 10
345.3111461601802
 20
558.7022352859649
 30
0.0
 11
393.3111461601802
 21
558.7022352859649
 31
0.0
  0
LINE
  5
46D
330
1F
100
AcDbEntity
  8
LAYER0032
  6
CONTINUOUS
 62
     3
100
AcDbLine
 10
345.3111461601802
 20
108.1022352859645
 30
0.0
 11
393.3111461601802
 21
108.1022352859645
 31
0.0
  0
LINE
  5
46E
330
1F
100
AcDbEntity
  8
LAYER0032
  6
CONTINUOUS
 62
     3
100
AcDbLine
 10
345.3111461601802
 20
27.70223528596489
 30
0.0
 11
393.3111461601802
 21
27.70223528596489
 31
0.0
  0
LINE
  5
46F
330
1F
100
AcDbEntity
  8
LAYER0032
  6
CONTINUOUS
 62
     3
100
AcDbLine
 10
393.3111461601802
 20
635.9022352859647
 30
0.0
 11
345.3111461601802
 21
635.9022352859647
 31
0.0
  0
LINE
  5
470
330
1F
100
AcDbEntity
  8
LAYER0032
  6
CONTINUOUS
 62
     3
100
AcDbLine
 10
393.3111461601802
 20
561.9022352859647
 30
0.0
 11
345.3111461601802
 21
561.9022352859647
 31
0.0
  0
LINE
  5
471
330
1F
100
AcDbEntity
  8
LAYER0032
  6
CONTINUOUS
 62
     3
100
AcDbLine
 10
393.3111461601802
 20
30.90223528596471
 30
0.0
 11
345.3111461601802
 21
30.90223528596471
 31
0.0
  0
LINE
  5
472
330
1F
100
AcDbEntity
  8
LAYER0032
  6
CONTINUOUS
 62
     3
100
AcDbLine
 10
393.3111461601802
 20
104.9022352859647
 30
0.0
 11
345.3111461601802
 21
104.9022352859647
 31
0.0
  0
LINE
  5
473
330
1F
100
AcDbEntity
  8
LAYER0032
  6
CONTINUOUS
 62
     3
100
AcDbLine
 10
1707.31114616018
 20
635.9022352859647
 30
0.0
 11
1755.31114616018
 21
635.9022352859647
 31
0.0
  0
LINE
  5
474
330
1F
100
AcDbEntity
  8
LAYER0032
  6
CONTINUOUS
 62
     3
100
AcDbLine
 10
1707.31114616018
 20
561.9022352859647
 30
0.0
 11
1755.31114616018
 21
561.9022352859647
 31
0.0
  0
LINE
  5
475
330
1F
100
AcDbEntity
  8
LAYER0032
  6
CONTINUOUS
 62
     3
100
AcDbLine
 10
1707.31114616018
 20
104.9022352859647
 30
0.0
 11
1755.31114616018
 21
104.9022352859647
 31
0.0
  0
LINE
  5
476
330
1F
100
AcDbEntity
  8
LAYER0032
  6
CONTINUOUS
 62
     3
100
AcDbLine
 10
1707.31114616018
 20
30.90223528596471
 30
0.0
 11
1755.31114616018
 21
30.90223528596471
 31
0.0
  0
LINE
  5
477
330
1F
100
AcDbEntity
  8
LAYER0032
  6
CONTINUOUS
 62
     3
100
AcDbLine
 10
345.3111461601802
 20
-977.0192434493374
 30
0.0
 11
345.3111461601802
 21
-942.0192434493374
 31
0.0
  0
LINE
  5
478
330
1F
100
AcDbEntity
  8
LAYER0032
  6
CONTINUOUS
 62
     3
100
AcDbLine
 10
370.3111461601802
 20
-917.019243449337
 30
0.0
 11
1707.31114616018
 21
-917.019243449337
 31
0.0
  0
LINE
  5
479
330
1F
100
AcDbEntity
  8
LAYER0032
  6
CONTINUOUS
 62
     3
100
AcDbLine
 10
370.3111461601802
 20
-917.0192434493374
 30
0.0
 11
345.3111461601802
 21
-942.0192434493374
 31
0.0
  0
LINE
  5
47A
330
1F
100
AcDbEntity
  8
LAYER0032
  6
CONTINUOUS
 62
     3
100
AcDbLine
 10
1705.01114616018
 20
-591.8192434493376
 30
0.0
 11
1705.01114616018
 21
-917.0192434493374
 31
0.0
  0
LINE
  5
47B
330
1F
100
AcDbEntity
  8
LAYER0032
  6
CONTINUOUS
 62
     3
100
AcDbLine
 10
1677.31114616018
 20
-591.8192434493376
 30
0.0
 11
1677.31114616018
 21
-602.0192434493374
 31
0.0
  0
LINE
  5
47C
330
1F
100
AcDbEntity
  8
LAYER0032
  6
CONTINUOUS
 62
     3
100
AcDbLine
 10
1679.61114616018
 20
-591.8192434493376
 30
0.0
 11
1679.61114616018
 21
-602.0192434493374
 31
0.0
  0
LINE
  5
47D
330
1F
100
AcDbEntity
  8
LAYER0032
  6
CONTINUOUS
 62
     3
100
AcDbLine
 10
1705.01114616018
 20
-602.0192434493374
 30
0.0
 11
1587.054840341431
 21
-602.0192434493374
 31
0.0
  0
LINE
  5
47E
330
1F
100
AcDbEntity
  8
LAYER0032
  6
CONTINUOUS
 62
     3
100
AcDbLine
 10
1702.51114616018
 20
-589.3192434493376
 30
0.0
 11
1682.01114616018
 21
-589.3192434493376
 31
0.0
  0
LINE
  5
47F
330
1F
100
AcDbEntity
  8
LAYER0032
  6
CONTINUOUS
 62
     3
100
AcDbLine
 10
1705.01114616018
 20
-914.7192434493381
 30
0.0
 11
1501.540341718846
 21
-914.7192434493381
 31
0.0
  0
ARC
  5
480
330
1F
100
AcDbEntity
  8
LAYER0032
  6
CONTINUOUS
 62
     3
100
AcDbCircle
 10
1682.11114616018
 20
-591.8192434493376
 30
0.0
 40
2.5
100
AcDbArc
 50
90.0
 51
180.0
  0
ARC
  5
481
330
1F
100
AcDbEntity
  8
LAYER0032
  6
CONTINUOUS
 62
     3
100
AcDbCircle
 10
1702.51114616018
 20
-591.8192434493376
 30
0.0
 40
2.5
100
AcDbArc
 50
0.0
 51
90.0
  0
ARC
  5
482
330
1F
100
AcDbEntity
  8
LAYER0032
  6
CONTINUOUS
 62
     3
100
AcDbCircle
 10
1682.11114616018
 20
-591.8192434493376
 30
0.0
 40
4.8
100
AcDbArc
 50
90.0
 51
180.0
  0
ARC
  5
483
330
1F
100
AcDbEntity
  8
LAYER0032
  6
CONTINUOUS
 62
     3
100
AcDbCircle
 10
1702.51114616018
 20
-591.8192434493376
 30
0.0
 40
4.8
100
AcDbArc
 50
0.0
 51
90.0
  0
LINE
  5
484
330
1F
100
AcDbEntity
  8
LAYER0032
  6
CONTINUOUS
 62
     3
100
AcDbLine
 10
1707.31114616018
 20
-16.59776471403529
 30
0.0
 11
393.3111461601802
 21
-16.59776471403529
 31
0.0
  0
LINE
  5
485
330
1F
100
AcDbEntity
  8
LAYER0032
  6
CONTINUOUS
 62
     3
100
AcDbLine
 10
393.3111461601802
 20
-16.59776471403529
 30
0.0
 11
393.3111461601802
 21
683.4022352859647
 31
0.0
  0
LINE
  5
486
330
1F
100
AcDbEntity
  8
LAYER0032
  6
CONTINUOUS
 62
     3
100
AcDbLine
 10
393.3111461601802
 20
683.4022352859647
 30
0.0
 11
1707.31114616018
 21
683.4022352859647
 31
0.0
  0
LINE
  5
487
330
1F
100
AcDbEntity
  8
LAYER0032
  6
CONTINUOUS
 62
     3
100
AcDbLine
 10
1705.01114616018
 20
13.40223528596471
 30
0.0
 11
395.6111461601801
 21
13.40223528596471
 31
0.0
  0
LINE
  5
488
330
1F
100
AcDbEntity
  8
LAYER0032
  6
CONTINUOUS
 62
     3
100
AcDbLine
 10
423.3111461601802
 20
13.40223528596471
 30
0.0
 11
423.3111461601802
 21
653.4022352859647
 31
0.0
  0
LINE
  5
489
330
1F
100
AcDbEntity
  8
LAYER0032
  6
CONTINUOUS
 62
     3
100
AcDbLine
 10
395.6111461601801
 20
653.4022352859647
 30
0.0
 11
1705.01114616018
 21
653.4022352859647
 31
0.0
  0
LINE
  5
48A
330
1F
100
AcDbEntity
  8
LAYER0032
  6
CONTINUOUS
 62
     3
100
AcDbLine
 10
1677.31114616018
 20
653.4022352859647
 30
0.0
 11
1677.31114616018
 21
13.10223528596453
 31
0.0
  0
LINE
  5
48B
330
1F
100
AcDbEntity
  8
LAYER0032
  6
CONTINUOUS
 62
     3
100
AcDbLine
 10
1707.31114616018
 20
108.1022352859645
 30
0.0
 11
1755.31114616018
 21
108.1022352859645
 31
0.0
  0
LINE
  5
48C
330
1F
100
AcDbEntity
  8
LAYER0032
  6
CONTINUOUS
 62
     3
100
AcDbLine
 10
1707.31114616018
 20
27.70223528596489
 30
0.0
 11
1755.31114616018
 21
27.70223528596489
 31
0.0
  0
LINE
  5
48D
330
1F
100
AcDbEntity
  8
LAYER0032
  6
CONTINUOUS
 62
     3
100
AcDbLine
 10
1755.31114616018
 20
558.7022352859649
 30
0.0
 11
1707.31114616018
 21
558.7022352859649
 31
0.0
  0
LINE
  5
48E
330
1F
100
AcDbEntity
  8
LAYER0032
  6
CONTINUOUS
 62
     3
100
AcDbLine
 10
1755.31114616018
 20
639.1022352859645
 30
0.0
 11
1707.31114616018
 21
639.1022352859645
 31
0.0
  0
LINE
  5
48F
330
1F
100
AcDbEntity
  8
LAYER0032
  6
CONTINUOUS
 62
     3
100
AcDbLine
 10
345.3111461601802
 20
-977.019243449337
 30
0.0
 11
1593.963571260514
 21
-977.0192434493383
 31
0.0
  0
ARC
  5
490
330
1F
100
AcDbEntity
  8
LAYER0032
  6
CONTINUOUS
 62
     3
100
AcDbCircle
 10
1677.31114616018
 20
333.4022352859647
 30
0.0
 40
7.5
100
AcDbArc
 50
90.0
 51
270.0
  0
LINE
  5
491
330
1F
100
AcDbEntity
  8
LAYER0032
  6
CONTINUOUS
 62
     3
100
AcDbLine
 10
1707.31114616018
 20
683.4022352859647
 30
0.0
 11
1707.31114616018
 21
-16.59776471403529
 31
0.0
  0
LINE
  5
492
330
1F
100
AcDbEntity
  8
LAYER0032
  6
CONTINUOUS
 62
     3
100
AcDbLine
 10
393.3111461601802
 20
-587.0192434493374
 30
0.0
 11
393.3111461601802
 21
-917.0192434493374
 31
0.0
  0
LINE
  5
493
330
1F
100
AcDbEntity
  8
LAYER0032
  6
CONTINUOUS
 62
     3
100
AcDbLine
 10
1705.01114616018
 20
-16.59776471403529
 30
0.0
 11
1705.01114616018
 21
13.40223528596471
 31
0.0
  0
LINE
  5
494
330
1F
100
AcDbEntity
  8
LAYER0032
  6
CONTINUOUS
 62
     3
100
AcDbLine
 10
1705.01114616018
 20
653.4022352859647
 30
0.0
 11
1705.01114616018
 21
683.4022352859647
 31
0.0
  0
LINE
  5
495
330
1F
100
AcDbEntity
  8
LAYER0032
  6
CONTINUOUS
 62
     3
100
AcDbLine
 10
395.6111461601801
 20
13.40223528596471
 30
0.0
 11
395.6111461601801
 21
-16.59776471403529
 31
0.0
  0
LINE
  5
496
330
1F
100
AcDbEntity
  8
LAYER0032
  6
CONTINUOUS
 62
     3
100
AcDbLine
 10
395.6111461601801
 20
653.4022352859647
 30
0.0
 11
395.6111461601801
 21
683.4022352859647
 31
0.0
  0
LINE
  5
497
330
1F
100
AcDbEntity
  8
LAYER0032
  6
CONTINUOUS
 62
     3
100
AcDbLine
 10
1707.31114616018
 20
-917.0192434493374
 30
0.0
 11
1707.31114616018
 21
-587.0192434493374
 31
0.0
  0
LINE
  5
498
330
1F
100
AcDbEntity
  8
LAYER0032
  6
CONTINUOUS
 62
     3
100
AcDbLine
 10
1705.01114616018
 20
-587.7216831996275
 30
0.0
 11
1705.01114616018
 21
-587.0192434493374
 31
0.0
  0
ARC
  5
499
330
1F
100
AcDbEntity
  8
LAYER0032
  6
CONTINUOUS
 62
     3
100
AcDbCircle
 10
1739.65758316018
 20
338.3771202859662
 30
0.0
 40
20.257762
100
AcDbArc
 50
167.032449
 51
192.9675509999999
  0
LINE
  5
49A
330
1F
100
AcDbEntity
  8
LAYER0032
  6
CONTINUOUS
 62
     3
100
AcDbLine
 10
1719.11114616018
 20
345.9022352859647
 30
0.0
 11
1719.11114616018
 21
333.4022352859647
 31
0.0
  0
LINE
  5
49B
330
1F
100
AcDbEntity
  8
LAYER0032
  6
CONTINUOUS
 62
     3
100
AcDbLine
 10
1719.91952316018
 20
347.3022352859662
 30
0.0
 11
1733.61114616018
 21
347.3022352859662
 31
0.0
  0
LINE
  5
49C
330
1F
100
AcDbEntity
  8
LAYER0032
  6
CONTINUOUS
 62
     3
100
AcDbLine
 10
1719.91644816018
 20
343.5297262859658
 30
0.0
 11
1733.61114616018
 21
343.5297262859658
 31
0.0
  0
LINE
  5
49D
330
1F
100
AcDbEntity
  8
LAYER0032
  6
CONTINUOUS
 62
     3
100
AcDbLine
 10
1719.91644816018
 20
342.9229452859654
 30
0.0
 11
1733.61114616018
 21
342.9229452859654
 31
0.0
  0
LINE
  5
49E
330
1F
100
AcDbEntity
  8
LAYER0032
  6
CONTINUOUS
 62
     3
100
AcDbLine
 10
1719.11114616018
 20
345.9022352859647
 30
0.0
 11
1719.91644816018
 21
347.2970602859659
 31
0.0
  0
LINE
  5
49F
330
1F
100
AcDbEntity
  8
LAYER0032
  6
CONTINUOUS
 62
     3
100
AcDbLine
 10
1719.91644816018
 20
343.5297262859658
 30
0.0
 11
1719.91644816018
 21
342.9229452859654
 31
0.0
  0
ARC
  5
4A0
330
1F
100
AcDbEntity
  8
LAYER0032
  6
CONTINUOUS
 62
     3
100
AcDbCircle
 10
1723.09213716018
 20
345.4133932859659
 30
0.0
 40
3.692316
100
AcDbArc
 50
149.232196
 51
210.6743909999998
  0
LINE
  5
4A1
330
1F
100
AcDbEntity
  8
LAYER0032
  6
CONTINUOUS
 62
     3
100
AcDbLine
 10
1710.611146160181
 20
346.9022352859647
 30
0.0
 11
1719.111146160182
 21
345.4022352859647
 31
0.0
  0
LINE
  5
4A2
330
1F
100
AcDbEntity
  8
LAYER0032
  6
CONTINUOUS
 62
     3
100
AcDbLine
 10
1806.61114616018
 20
343.4022352859647
 30
0.0
 11
1834.75065816018
 21
341.4345282859649
 31
0.0
  0
CIRCLE
  5
4A3
330
1F
100
AcDbEntity
  8
LAYER0032
  6
CONTINUOUS
 62
     3
100
AcDbCircle
 10
1751.61114616018
 20
333.4022352859647
 30
0.0
 40
6.1
  0
LINE
  5
4A4
330
1F
100
AcDbEntity
  8
LAYER0032
  6
CONTINUOUS
 62
     3
100
AcDbLine
 10
1755.11114616018
 20
344.4022352859647
 30
0.0
 11
1765.61114616018
 21
344.4022352859647
 31
0.0
  0
ARC
  5
4A5
330
1F
100
AcDbEntity
  8
LAYER0032
  6
CONTINUOUS
 62
     3
100
AcDbCircle
 10
1751.61114616018
 20
333.4022352859647
 30
0.0
 40
8.75
100
AcDbArc
 50
109.4276419999999
 51
199.9156889999999
  0
ARC
  5
4A6
330
1F
100
AcDbEntity
  8
LAYER0032
  6
CONTINUOUS
 62
     3
100
AcDbCircle
 10
1751.61114616018
 20
333.4022352859647
 30
0.0
 40
8.0
100
AcDbArc
 50
74.67060800000003
 51
195.329392
  0
LINE
  5
4A7
330
1F
100
AcDbEntity
  8
LAYER0032
  6
CONTINUOUS
 62
     3
100
AcDbLine
 10
1742.11114616018
 20
349.0816112859648
 30
0.0
 11
1742.11114616018
 21
333.4022352859647
 31
0.0
  0
LINE
  5
4A8
330
1F
100
AcDbEntity
  8
LAYER0032
  6
CONTINUOUS
 62
     3
100
AcDbLine
 10
1738.11114616018
 20
349.9022352859647
 30
0.0
 11
1738.11114616018
 21
333.4022352859647
 31
0.0
  0
LINE
  5
4A9
330
1F
100
AcDbEntity
  8
LAYER0032
  6
CONTINUOUS
 62
     3
100
AcDbLine
 10
1735.11114616018
 20
348.9022352859647
 30
0.0
 11
1735.11114616018
 21
333.4022352859647
 31
0.0
  0
CIRCLE
  5
4AA
330
1F
100
AcDbEntity
  8
LAYER0032
  6
CONTINUOUS
 62
     3
100
AcDbCircle
 10
1751.61114616018
 20
333.4022352859647
 30
0.0
 40
3.0
  0
CIRCLE
  5
4AB
330
1F
100
AcDbEntity
  8
LAYER0032
  6
CONTINUOUS
 62
     3
100
AcDbCircle
 10
1751.61114616018
 20
333.4022352859647
 30
0.0
 40
5.0
  0
ARC
  5
4AC
330
1F
100
AcDbEntity
  8
LAYER0032
  6
CONTINUOUS
 62
     3
100
AcDbCircle
 10
1741.14290016018
 20
347.9022352859647
 30
0.0
 40
2.0
100
AcDbArc
 50
61.044976
 51
90.0
  0
ARC
  5
4AD
330
1F
100
AcDbEntity
  8
LAYER0032
  6
CONTINUOUS
 62
     3
100
AcDbCircle
 10
1736.11114616018
 20
348.9022352859647
 30
0.0
 40
1.0
100
AcDbArc
 50
90.0
 51
180.0
  0
LINE
  5
4AE
330
1F
100
AcDbEntity
  8
LAYER0032
  6
CONTINUOUS
 62
     3
100
AcDbLine
 10
1738.11114616018
 20
349.6022352859654
 30
0.0
 11
1737.81114616018
 21
349.9022352859647
 31
0.0
  0
ARC
  5
4AF
330
1F
100
AcDbEntity
  8
LAYER0032
  6
CONTINUOUS
 62
     3
100
AcDbCircle
 10
1733.61114616018
 20
348.8022352859662
 30
0.0
 40
1.5
100
AcDbArc
 50
270.0
 51
0.0
  0
ARC
  5
4B0
330
1F
100
AcDbEntity
  8
LAYER0032
  6
CONTINUOUS
 62
     3
100
AcDbCircle
 10
1751.61114616018
 20
333.4022352859647
 30
0.0
 40
8.7
100
AcDbArc
 50
70.87766699999996
 51
109.1223330000001
  0
ARC
  5
4B1
330
1F
100
AcDbEntity
  8
LAYER0032
  6
CONTINUOUS
 62
     3
100
AcDbCircle
 10
1749.76114616018
 20
344.4022352859647
 30
0.0
 40
1.0
100
AcDbArc
 50
90.0
 51
180.0
  0
ARC
  5
4B2
330
1F
100
AcDbEntity
  8
LAYER0032
  6
CONTINUOUS
 62
     3
100
AcDbCircle
 10
1745.94522316018
 20
347.4022352859647
 30
0.0
 40
2.0
100
AcDbArc
 50
54.3409119999997
 51
90.0
  0
ARC
  5
4B3
330
1F
100
AcDbEntity
  8
LAYER0032
  6
CONTINUOUS
 62
     3
100
AcDbCircle
 10
1748.27706816018
 20
350.6522352859647
 30
0.0
 40
2.0
100
AcDbArc
 50
234.3409119999997
 51
270.0
  0
ARC
  5
4B4
330
1F
100
AcDbEntity
  8
LAYER0032
  6
CONTINUOUS
 62
     3
100
AcDbCircle
 10
1743.07939116018
 20
351.4022352859647
 30
0.0
 40
2.0
100
AcDbArc
 50
241.044976
 51
270.0
  0
LINE
  5
4B5
330
1F
100
AcDbEntity
  8
LAYER0032
  6
CONTINUOUS
 62
     3
100
AcDbLine
 10
1748.76114616018
 20
341.2142452859662
 30
0.0
 11
1748.76114616018
 21
344.4022352859647
 31
0.0
  0
ARC
  5
4B6
330
1F
100
AcDbEntity
  8
LAYER0032
  6
CONTINUOUS
 62
     3
100
AcDbCircle
 10
1746.76114616018
 20
342.1417982859657
 30
0.0
 40
2.0
100
AcDbArc
 50
302.6080329999999
 51
0.0
  0
LINE
  5
4B7
330
1F
100
AcDbEntity
  8
LAYER0032
  6
CONTINUOUS
 62
     3
100
AcDbLine
 10
1747.11114616018
 20
348.1280322859657
 30
0.0
 11
1747.11114616018
 21
341.3942552859644
 31
0.0
  0
LINE
  5
4B8
330
1F
100
AcDbEntity
  8
LAYER0032
  6
CONTINUOUS
 62
     3
100
AcDbLine
 10
1749.76114616018
 20
345.4022352859647
 30
0.0
 11
1753.46114616018
 21
345.4022352859647
 31
0.0
  0
ARC
  5
4B9
330
1F
100
AcDbEntity
  8
LAYER0032
  6
CONTINUOUS
 62
     3
100
AcDbCircle
 10
1751.61114616018
 20
333.4022352859647
 30
0.0
 40
8.75
100
AcDbArc
 50
70.08431100000004
 51
70.57235800000005
  0
ARC
  5
4BA
330
1F
100
AcDbEntity
  8
LAYER0032
  6
CONTINUOUS
 62
     3
100
AcDbCircle
 10
1756.46114616018
 20
342.1417982859657
 30
0.0
 40
2.0
100
AcDbArc
 50
180.0
 51
197.934231
  0
LINE
  5
4BB
330
1F
100
AcDbEntity
  8
LAYER0032
  6
CONTINUOUS
 62
     3
100
AcDbLine
 10
1754.61114616018
 20
343.9022352859647
 30
0.0
 11
1754.61114616018
 21
341.7927062859653
 31
0.0
  0
ARC
  5
4BC
330
1F
100
AcDbEntity
  8
LAYER0032
  6
CONTINUOUS
 62
     3
100
AcDbCircle
 10
1753.91114616018
 20
341.7927062859653
 30
0.0
 40
0.7
100
AcDbArc
 50
254.670608
 51
0.0
  0
ARC
  5
4BD
330
1F
100
AcDbEntity
  8
LAYER0032
  6
CONTINUOUS
 62
     3
100
AcDbCircle
 10
1755.11114616018
 20
343.9022352859647
 30
0.0
 40
0.5
100
AcDbArc
 50
90.0
 51
180.0
  0
LINE
  5
4BE
330
1F
100
AcDbEntity
  8
LAYER0032
  6
CONTINUOUS
 62
     3
100
AcDbLine
 10
1754.46114616018
 20
341.6221802859654
 30
0.0
 11
1754.46114616018
 21
344.4022352859647
 31
0.0
  0
ARC
  5
4BF
330
1F
100
AcDbEntity
  8
LAYER0032
  6
CONTINUOUS
 62
     3
100
AcDbCircle
 10
1753.46114616018
 20
344.4022352859647
 30
0.0
 40
1.0
100
AcDbArc
 50
0.0
 51
90.0
  0
LINE
  5
4C0
330
1F
100
AcDbEntity
  8
LAYER0032
  6
CONTINUOUS
 62
     3
100
AcDbLine
 10
1777.15815116018
 20
327.4022352859647
 30
0.0
 11
1777.15815116018
 21
343.4022352859647
 31
0.0
  0
LINE
  5
4C1
330
1F
100
AcDbEntity
  8
LAYER0032
  6
CONTINUOUS
 62
     3
100
AcDbLine
 10
1765.61114616018
 20
344.4022352859647
 30
0.0
 11
1765.61114616018
 21
326.4022352859647
 31
0.0
  0
LINE
  5
4C2
330
1F
100
AcDbEntity
  8
LAYER0032
  6
CONTINUOUS
 62
     3
100
AcDbLine
 10
1765.61114616018
 20
345.8787372859661
 30
0.0
 11
1765.61114616018
 21
333.4022352859647
 31
0.0
  0
LINE
  5
4C3
330
1F
100
AcDbEntity
  8
LAYER0032
  6
CONTINUOUS
 62
     3
100
AcDbLine
 10
1777.15815116018
 20
343.4022352859647
 30
0.0
 11
1806.61114616018
 21
343.4022352859647
 31
0.0
  0
LINE
  5
4C4
330
1F
100
AcDbEntity
  8
LAYER0032
  6
CONTINUOUS
 62
     3
100
AcDbLine
 10
1783.302855160181
 20
347.3022352859662
 30
0.0
 11
1772.26114616018
 21
347.3022352859662
 31
0.0
  0
LINE
  5
4C5
330
1F
100
AcDbEntity
  8
LAYER0032
  6
CONTINUOUS
 62
     3
100
AcDbLine
 10
1765.61114616018
 20
344.4022352859647
 30
0.0
 11
1777.15815116018
 21
343.4022352859647
 31
0.0
  0
ARC
  5
4C6
330
1F
100
AcDbEntity
  8
LAYER0032
  6
CONTINUOUS
 62
     3
100
AcDbCircle
 10
1766.43957316018
 20
348.1522352859647
 30
0.0
 40
2.0
100
AcDbArc
 50
225.0
 51
270.0
  0
LINE
  5
4C7
330
1F
100
AcDbEntity
  8
LAYER0032
  6
CONTINUOUS
 62
     3
100
AcDbLine
 10
1765.02535916018
 20
346.7380212859662
 30
0.0
 11
1764.94693216018
 21
346.8164482859647
 31
0.0
  0
ARC
  5
4C8
330
1F
100
AcDbEntity
  8
LAYER0032
  6
CONTINUOUS
 62
     3
100
AcDbCircle
 10
1760.52535916018
 20
348.4022352859647
 30
0.0
 40
1.0
100
AcDbArc
 50
225.0
 51
270.0
  0
LINE
  5
4C9
330
1F
100
AcDbEntity
  8
LAYER0032
  6
CONTINUOUS
 62
     3
100
AcDbLine
 10
1759.81825216018
 20
347.6951282859645
 30
0.0
 11
1759.44693216018
 21
348.0664482859647
 31
0.0
  0
ARC
  5
4CA
330
1F
100
AcDbEntity
  8
LAYER0032
  6
CONTINUOUS
 62
     3
100
AcDbCircle
 10
1758.03271816018
 20
346.6522352859647
 30
0.0
 40
2.0
100
AcDbArc
 50
45.0
 51
90.0
  0
ARC
  5
4CB
330
1F
100
AcDbEntity
  8
LAYER0032
  6
CONTINUOUS
 62
     3
100
AcDbCircle
 10
1763.53271816018
 20
345.4022352859647
 30
0.0
 40
2.0
100
AcDbArc
 50
45.0
 51
90.0
  0
LINE
  5
4CC
330
1F
100
AcDbEntity
  8
LAYER0032
  6
CONTINUOUS
 62
     3
100
AcDbLine
 10
1764.36114616018
 20
346.2455052859659
 30
0.0
 11
1764.36114616018
 21
344.4022352859647
 31
0.0
  0
LINE
  5
4CD
330
1F
100
AcDbEntity
  8
LAYER0032
  6
CONTINUOUS
 62
     3
100
AcDbLine
 10
1760.11114616018
 20
346.8848132859657
 30
0.0
 11
1760.11114616018
 21
344.4022352859647
 31
0.0
  0
LINE
  5
4CE
330
1F
100
AcDbEntity
  8
LAYER0032
  6
CONTINUOUS
 62
     3
100
AcDbLine
 10
1759.01114616018
 20
347.6252482859654
 30
0.0
 11
1759.01114616018
 21
344.4022352859647
 31
0.0
  0
ARC
  5
4CF
330
1F
100
AcDbEntity
  8
LAYER0032
  6
CONTINUOUS
 62
     3
100
AcDbCircle
 10
1770.28271816018
 20
348.1522352859647
 30
0.0
 40
2.0
100
AcDbArc
 50
270.0
 51
315.0
  0
LINE
  5
4D0
330
1F
100
AcDbEntity
  8
LAYER0032
  6
CONTINUOUS
 62
     3
100
AcDbLine
 10
1772.26114616018
 20
347.3022352859662
 30
0.0
 11
1771.69693216018
 21
346.7380212859662
 31
0.0
  0
ARC
  5
4D1
330
1F
100
AcDbEntity
  8
LAYER0032
  6
CONTINUOUS
 62
     3
100
AcDbCircle
 10
1773.78778716018
 20
345.4159812859652
 30
0.0
 40
2.426642
100
AcDbArc
 50
141.0149879999999
 51
220.0352950000002
  0
LINE
  5
4D2
330
1F
100
AcDbEntity
  8
LAYER0032
  6
CONTINUOUS
 62
     3
100
AcDbLine
 10
1771.11114616018
 20
345.7076312859645
 30
0.0
 11
1771.11114616018
 21
343.9259212859652
 31
0.0
  0
LINE
  5
4D3
330
1F
100
AcDbEntity
  8
LAYER0032
  6
CONTINUOUS
 62
     3
100
AcDbLine
 10
1783.302855160181
 20
343.5297262859658
 30
0.0
 11
1775.68600716018
 21
343.5297262859658
 31
0.0
  0
LINE
  5
4D4
330
1F
100
AcDbEntity
  8
LAYER0032
  6
CONTINUOUS
 62
     3
100
AcDbLine
 10
1783.302855160181
 20
347.3022352859662
 30
0.0
 11
1784.11114616018
 21
345.9022352859647
 31
0.0
  0
ARC
  5
4D5
330
1F
100
AcDbEntity
  8
LAYER0032
  6
CONTINUOUS
 62
     3
100
AcDbCircle
 10
1780.13902916018
 20
345.4159812859652
 30
0.0
 40
3.683443
100
AcDbArc
 50
329.1968529999999
 51
30.80314700000012
  0
LINE
  5
4D6
330
1F
100
AcDbEntity
  8
LAYER0032
  6
CONTINUOUS
 62
     3
100
AcDbLine
 10
1836.61114616018
 20
339.4394002859644
 30
0.0
 11
1836.61114616018
 21
331.3650692859646
 31
0.0
  0
ARC
  5
4D7
330
1F
100
AcDbEntity
  8
LAYER0032
  6
CONTINUOUS
 62
     3
100
AcDbCircle
 10
1834.61114616018
 20
339.4394002859644
 30
0.0
 40
2.0
100
AcDbArc
 50
0.0
 51
86.00000000000023
  0
ARC
  5
4D8
330
1F
100
AcDbEntity
  8
LAYER0032
  6
CONTINUOUS
 62
     3
100
AcDbCircle
 10
1748.26114616018
 20
341.2142452859662
 30
0.0
 40
0.5
100
AcDbArc
 50
293.210955
 51
0.0
  0
LINE
  5
4D9
330
1F
100
AcDbEntity
  8
LAYER0032
  6
CONTINUOUS
 62
     3
100
AcDbLine
 10
1748.27706816018
 20
348.6522352859647
 30
0.0
 11
1758.03271816018
 21
348.6522352859647
 31
0.0
  0
LINE
  5
4DA
330
1F
100
AcDbEntity
  8
LAYER0032
  6
CONTINUOUS
 62
     3
100
AcDbLine
 10
1737.81114616018
 20
349.9022352859647
 30
0.0
 11
1736.11114616018
 21
349.9022352859647
 31
0.0
  0
LINE
  5
4DB
330
1F
100
AcDbEntity
  8
LAYER0032
  6
CONTINUOUS
 62
     3
100
AcDbLine
 10
1738.11114616018
 20
349.9022352859647
 30
0.0
 11
1741.14290016018
 21
349.9022352859647
 31
0.0
  0
LINE
  5
4DC
330
1F
100
AcDbEntity
  8
LAYER0032
  6
CONTINUOUS
 62
     3
100
AcDbLine
 10
1743.07939116018
 20
349.4022352859647
 30
0.0
 11
1745.94522316018
 21
349.4022352859647
 31
0.0
  0
LINE
  5
4DD
330
1F
100
AcDbEntity
  8
LAYER0032
  6
CONTINUOUS
 62
     3
100
AcDbLine
 10
1760.52535916018
 20
347.4022352859647
 30
0.0
 11
1763.53271816018
 21
347.4022352859647
 31
0.0
  0
LINE
  5
4DE
330
1F
100
AcDbEntity
  8
LAYER0032
  6
CONTINUOUS
 62
     3
100
AcDbLine
 10
1766.43957316018
 20
346.1522352859647
 30
0.0
 11
1770.28271816018
 21
346.1522352859647
 31
0.0
  0
CIRCLE
  5
4DF
330
1F
100
AcDbEntity
  8
LAYER0032
  6
CONTINUOUS
 62
     3
100
AcDbCircle
 10
1751.61114616018
 20
333.4022352859647
 30
0.0
 40
2.0
  0
LINE
  5
4E0
330
1F
100
AcDbEntity
  8
LAYER0032
  6
CONTINUOUS
 62
     3
100
AcDbLine
 10
1806.61114616018
 20
327.4022352859647
 30
0.0
 11
1834.75065816018
 21
329.369941285966
 31
0.0
  0
LINE
  5
4E1
330
1F
100
AcDbEntity
  8
LAYER0032
  6
CONTINUOUS
 62
     3
100
AcDbLine
 10
1742.61114616018
 20
326.4022352859647
 30
0.0
 11
1765.61114616018
 21
326.4022352859647
 31
0.0
  0
LINE
  5
4E2
330
1F
100
AcDbEntity
  8
LAYER0032
  6
CONTINUOUS
 62
     3
100
AcDbLine
 10
1719.91644816018
 20
323.8815252859658
 30
0.0
 11
1733.61114616018
 21
323.8815252859658
 31
0.0
  0
LINE
  5
4E3
330
1F
100
AcDbEntity
  8
LAYER0032
  6
CONTINUOUS
 62
     3
100
AcDbLine
 10
1719.91644816018
 20
323.2747432859651
 30
0.0
 11
1733.61114616018
 21
323.2747432859651
 31
0.0
  0
LINE
  5
4E4
330
1F
100
AcDbEntity
  8
LAYER0032
  6
CONTINUOUS
 62
     3
100
AcDbLine
 10
1719.91952316018
 20
319.5022352859651
 30
0.0
 11
1733.61114616018
 21
319.5022352859651
 31
0.0
  0
ARC
  5
4E5
330
1F
100
AcDbEntity
  8
LAYER0032
  6
CONTINUOUS
 62
     3
100
AcDbCircle
 10
1739.65758316018
 20
328.4273502859651
 30
0.0
 40
20.257762
100
AcDbArc
 50
167.032449
 51
192.9675509999999
  0
LINE
  5
4E6
330
1F
100
AcDbEntity
  8
LAYER0032
  6
CONTINUOUS
 62
     3
100
AcDbLine
 10
1719.11114616018
 20
320.9022352859647
 30
0.0
 11
1719.11114616018
 21
333.4022352859647
 31
0.0
  0
LINE
  5
4E7
330
1F
100
AcDbEntity
  8
LAYER0032
  6
CONTINUOUS
 62
     3
100
AcDbLine
 10
1719.91644816018
 20
323.2747432859651
 30
0.0
 11
1719.91644816018
 21
323.8815252859658
 31
0.0
  0
LINE
  5
4E8
330
1F
100
AcDbEntity
  8
LAYER0032
  6
CONTINUOUS
 62
     3
100
AcDbLine
 10
1719.11114616018
 20
320.9022352859647
 30
0.0
 11
1719.91644816018
 21
319.5074102859653
 31
0.0
  0
ARC
  5
4E9
330
1F
100
AcDbEntity
  8
LAYER0032
  6
CONTINUOUS
 62
     3
100
AcDbCircle
 10
1723.09213716018
 20
321.3910772859654
 30
0.0
 40
3.692316
100
AcDbArc
 50
149.3256090000002
 51
210.7678040000001
  0
ARC
  5
4EA
330
1F
100
AcDbEntity
  8
LAYER0032
  6
CONTINUOUS
 62
     3
100
AcDbCircle
 10
1741.14290016018
 20
318.9022352859647
 30
0.0
 40
2.0
100
AcDbArc
 50
270.0
 51
298.955024
  0
LINE
  5
4EB
330
1F
100
AcDbEntity
  8
LAYER0032
  6
CONTINUOUS
 62
     3
100
AcDbLine
 10
1738.11114616018
 20
317.2022352859658
 30
0.0
 11
1737.81114616018
 21
316.9022352859647
 31
0.0
  0
ARC
  5
4EC
330
1F
100
AcDbEntity
  8
LAYER0032
  6
CONTINUOUS
 62
     3
100
AcDbCircle
 10
1736.11114616018
 20
317.9022352859647
 30
0.0
 40
1.0
100
AcDbArc
 50
180.0
 51
270.0
  0
LINE
  5
4ED
330
1F
100
AcDbEntity
  8
LAYER0032
  6
CONTINUOUS
 62
     3
100
AcDbLine
 10
1738.11114616018
 20
316.9022352859647
 30
0.0
 11
1738.11114616018
 21
333.4022352859647
 31
0.0
  0
LINE
  5
4EE
330
1F
100
AcDbEntity
  8
LAYER0032
  6
CONTINUOUS
 62
     3
100
AcDbLine
 10
1743.22067516018
 20
330.4022352859647
 30
0.0
 11
1741.11114616018
 21
330.4022352859647
 31
0.0
  0
ARC
  5
4EF
330
1F
100
AcDbEntity
  8
LAYER0032
  6
CONTINUOUS
 62
     3
100
AcDbCircle
 10
1742.61114616018
 20
328.4022352859647
 30
0.0
 40
2.0
100
AcDbArc
 50
180.0
 51
270.0
  0
LINE
  5
4F0
330
1F
100
AcDbEntity
  8
LAYER0032
  6
CONTINUOUS
 62
     3
100
AcDbLine
 10
1735.11114616018
 20
317.9022352859647
 30
0.0
 11
1735.11114616018
 21
333.4022352859647
 31
0.0
  0
ARC
  5
4F1
330
1F
100
AcDbEntity
  8
LAYER0032
  6
CONTINUOUS
 62
     3
100
AcDbCircle
 10
1733.61114616018
 20
318.0022352859651
 30
0.0
 40
1.5
100
AcDbArc
 50
0.0
 51
90.0
  0
LINE
  5
4F2
330
1F
100
AcDbEntity
  8
LAYER0032
  6
CONTINUOUS
 62
     3
100
AcDbLine
 10
1740.61114616018
 20
329.9022352859647
 30
0.0
 11
1740.61114616018
 21
328.4022352859647
 31
0.0
  0
ARC
  5
4F3
330
1F
100
AcDbEntity
  8
LAYER0032
  6
CONTINUOUS
 62
     3
100
AcDbCircle
 10
1741.11114616018
 20
329.9022352859647
 30
0.0
 40
0.5
100
AcDbArc
 50
90.0
 51
180.0
  0
ARC
  5
4F4
330
1F
100
AcDbEntity
  8
LAYER0032
  6
CONTINUOUS
 62
     3
100
AcDbCircle
 10
1751.61114616018
 20
333.4022352859647
 30
0.0
 40
8.0
100
AcDbArc
 50
241.044976
 51
298.955024
  0
ARC
  5
4F5
330
1F
100
AcDbEntity
  8
LAYER0032
  6
CONTINUOUS
 62
     3
100
AcDbCircle
 10
1751.61114616018
 20
333.4022352859647
 30
0.0
 40
8.75
100
AcDbArc
 50
233.1301020000001
 51
306.8698979999999
  0
ARC
  5
4F6
330
1F
100
AcDbEntity
  8
LAYER0032
  6
CONTINUOUS
 62
     3
100
AcDbCircle
 10
1748.27706816018
 20
316.1522352859647
 30
0.0
 40
2.0
100
AcDbArc
 50
90.0
 51
125.6590880000003
  0
ARC
  5
4F7
330
1F
100
AcDbEntity
  8
LAYER0032
  6
CONTINUOUS
 62
     3
100
AcDbCircle
 10
1745.94522316018
 20
319.4022352859647
 30
0.0
 40
2.0
100
AcDbArc
 50
270.0
 51
305.6590880000003
  0
ARC
  5
4F8
330
1F
100
AcDbEntity
  8
LAYER0032
  6
CONTINUOUS
 62
     3
100
AcDbCircle
 10
1743.07939116018
 20
315.4022352859647
 30
0.0
 40
2.0
100
AcDbArc
 50
90.0
 51
118.955024
  0
LINE
  5
4F9
330
1F
100
AcDbEntity
  8
LAYER0032
  6
CONTINUOUS
 62
     3
100
AcDbLine
 10
1742.11114616018
 20
317.7228582859661
 30
0.0
 11
1742.11114616018
 21
326.4657432859658
 31
0.0
  0
LINE
  5
4FA
330
1F
100
AcDbEntity
  8
LAYER0032
  6
CONTINUOUS
 62
     3
100
AcDbLine
 10
1747.11114616018
 20
318.6764382859656
 30
0.0
 11
1747.11114616018
 21
325.410215285965
 31
0.0
  0
ARC
  5
4FB
330
1F
100
AcDbEntity
  8
LAYER0032
  6
CONTINUOUS
 62
     3
100
AcDbCircle
 10
1743.22067516018
 20
331.1022352859654
 30
0.0
 40
0.7
100
AcDbArc
 50
270.0
 51
15.3293919999997
  0
LINE
  5
4FC
330
1F
100
AcDbEntity
  8
LAYER0032
  6
CONTINUOUS
 62
     3
100
AcDbLine
 10
1742.11114616018
 20
330.4022352859647
 30
0.0
 11
1742.11114616018
 21
333.4022352859647
 31
0.0
  0
LINE
  5
4FD
330
1F
100
AcDbEntity
  8
LAYER0032
  6
CONTINUOUS
 62
     3
100
AcDbLine
 10
1777.15815116018
 20
327.4022352859647
 30
0.0
 11
1806.61114616018
 21
327.4022352859647
 31
0.0
  0
LINE
  5
4FE
330
1F
100
AcDbEntity
  8
LAYER0032
  6
CONTINUOUS
 62
     3
100
AcDbLine
 10
1783.302855160181
 20
319.5022352859651
 30
0.0
 11
1772.26114616018
 21
319.5022352859651
 31
0.0
  0
LINE
  5
4FF
330
1F
100
AcDbEntity
  8
LAYER0032
  6
CONTINUOUS
 62
     3
100
AcDbLine
 10
1783.302855160181
 20
323.2747432859651
 30
0.0
 11
1772.26114616018
 21
323.2747432859651
 31
0.0
  0
LINE
  5
500
330
1F
100
AcDbEntity
  8
LAYER0032
  6
CONTINUOUS
 62
     3
100
AcDbLine
 10
1783.302855160181
 20
323.8815252859658
 30
0.0
 11
1772.26114616018
 21
323.8815252859658
 31
0.0
  0
LINE
  5
501
330
1F
100
AcDbEntity
  8
LAYER0032
  6
CONTINUOUS
 62
     3
100
AcDbLine
 10
1765.61114616018
 20
326.4022352859647
 30
0.0
 11
1777.15815116018
 21
327.4022352859647
 31
0.0
  0
ARC
  5
502
330
1F
100
AcDbEntity
  8
LAYER0032
  6
CONTINUOUS
 62
     3
100
AcDbCircle
 10
1766.43957316018
 20
318.6522352859647
 30
0.0
 40
2.0
100
AcDbArc
 50
90.0
 51
135.0
  0
LINE
  5
503
330
1F
100
AcDbEntity
  8
LAYER0032
  6
CONTINUOUS
 62
     3
100
AcDbLine
 10
1765.02535916018
 20
320.0664482859647
 30
0.0
 11
1764.94693216018
 21
319.9880212859662
 31
0.0
  0
LINE
  5
504
330
1F
100
AcDbEntity
  8
LAYER0032
  6
CONTINUOUS
 62
     3
100
AcDbLine
 10
1759.81825216018
 20
319.1093422859649
 30
0.0
 11
1759.44693216018
 21
318.7380212859662
 31
0.0
  0
ARC
  5
505
330
1F
100
AcDbEntity
  8
LAYER0032
  6
CONTINUOUS
 62
     3
100
AcDbCircle
 10
1758.03271816018
 20
320.1522352859647
 30
0.0
 40
2.0
100
AcDbArc
 50
270.0
 51
315.0
  0
ARC
  5
506
330
1F
100
AcDbEntity
  8
LAYER0032
  6
CONTINUOUS
 62
     3
100
AcDbCircle
 10
1760.52535916018
 20
318.4022352859647
 30
0.0
 40
1.0
100
AcDbArc
 50
90.0
 51
135.0
  0
ARC
  5
507
330
1F
100
AcDbEntity
  8
LAYER0032
  6
CONTINUOUS
 62
     3
100
AcDbCircle
 10
1763.53271816018
 20
321.4022352859647
 30
0.0
 40
2.0
100
AcDbArc
 50
270.0
 51
315.0
  0
LINE
  5
508
330
1F
100
AcDbEntity
  8
LAYER0032
  6
CONTINUOUS
 62
     3
100
AcDbLine
 10
1765.61114616018
 20
321.1542742859656
 30
0.0
 11
1765.61114616018
 21
326.4022352859647
 31
0.0
  0
LINE
  5
509
330
1F
100
AcDbEntity
  8
LAYER0032
  6
CONTINUOUS
 62
     3
100
AcDbLine
 10
1764.36114616018
 20
320.5589652859653
 30
0.0
 11
1764.36114616018
 21
326.4022352859647
 31
0.0
  0
LINE
  5
50A
330
1F
100
AcDbEntity
  8
LAYER0032
  6
CONTINUOUS
 62
     3
100
AcDbLine
 10
1759.01114616018
 20
319.1792222859658
 30
0.0
 11
1759.01114616018
 21
326.4022352859647
 31
0.0
  0
LINE
  5
50B
330
1F
100
AcDbEntity
  8
LAYER0032
  6
CONTINUOUS
 62
     3
100
AcDbLine
 10
1760.11114616018
 20
319.9196572859655
 30
0.0
 11
1760.11114616018
 21
326.4022352859647
 31
0.0
  0
ARC
  5
50C
330
1F
100
AcDbEntity
  8
LAYER0032
  6
CONTINUOUS
 62
     3
100
AcDbCircle
 10
1783.29143916018
 20
328.4273502859651
 30
0.0
 40
11.930293
100
AcDbArc
 50
187.313687
 51
202.397631
  0
LINE
  5
50D
330
1F
100
AcDbEntity
  8
LAYER0032
  6
CONTINUOUS
 62
     3
100
AcDbLine
 10
1772.26114616018
 20
323.2747432859651
 30
0.0
 11
1772.26114616018
 21
323.8815252859658
 31
0.0
  0
ARC
  5
50E
330
1F
100
AcDbEntity
  8
LAYER0032
  6
CONTINUOUS
 62
     3
100
AcDbCircle
 10
1770.28271816018
 20
318.6522352859647
 30
0.0
 40
2.0
100
AcDbArc
 50
45.0
 51
90.0
  0
LINE
  5
50F
330
1F
100
AcDbEntity
  8
LAYER0032
  6
CONTINUOUS
 62
     3
100
AcDbLine
 10
1772.26114616018
 20
319.5022352859651
 30
0.0
 11
1771.69693216018
 21
320.0664482859647
 31
0.0
  0
LINE
  5
510
330
1F
100
AcDbEntity
  8
LAYER0032
  6
CONTINUOUS
 62
     3
100
AcDbLine
 10
1771.11114616018
 20
320.9022352859647
 30
0.0
 11
1771.11114616018
 21
326.8785492859661
 31
0.0
  0
ARC
  5
511
330
1F
100
AcDbEntity
  8
LAYER0032
  6
CONTINUOUS
 62
     3
100
AcDbCircle
 10
1773.78778716018
 20
321.388489285966
 30
0.0
 40
2.426642
100
AcDbArc
 50
128.9850120000001
 51
218.9850120000001
  0
ARC
  5
512
330
1F
100
AcDbEntity
  8
LAYER0032
  6
CONTINUOUS
 62
     3
100
AcDbCircle
 10
1763.67821216018
 20
328.4273502859651
 30
0.0
 40
20.144259
100
AcDbArc
 50
346.9580990000001
 51
357.083032
  0
LINE
  5
513
330
1F
100
AcDbEntity
  8
LAYER0032
  6
CONTINUOUS
 62
     3
100
AcDbLine
 10
1783.302855160181
 20
323.2747432859651
 30
0.0
 11
1783.302855160181
 21
323.8815252859658
 31
0.0
  0
LINE
  5
514
330
1F
100
AcDbEntity
  8
LAYER0032
  6
CONTINUOUS
 62
     3
100
AcDbLine
 10
1783.302855160181
 20
319.5022352859651
 30
0.0
 11
1784.11114616018
 21
320.9022352859647
 31
0.0
  0
LINE
  5
515
330
1F
100
AcDbEntity
  8
LAYER0032
  6
CONTINUOUS
 62
     3
100
AcDbLine
 10
1784.11114616018
 20
320.9022352859647
 30
0.0
 11
1784.11114616018
 21
327.4022352859647
 31
0.0
  0
ARC
  5
516
330
1F
100
AcDbEntity
  8
LAYER0032
  6
CONTINUOUS
 62
     3
100
AcDbCircle
 10
1780.13902916018
 20
321.388489285966
 30
0.0
 40
3.683443
100
AcDbArc
 50
329.1968529999999
 51
30.80314700000012
  0
ARC
  5
517
330
1F
100
AcDbEntity
  8
LAYER0032
  6
CONTINUOUS
 62
     3
100
AcDbCircle
 10
1834.61114616018
 20
331.3650692859646
 30
0.0
 40
2.0
100
AcDbArc
 50
273.9999999999998
 51
0.0
  0
LINE
  5
518
330
1F
100
AcDbEntity
  8
LAYER0032
  6
CONTINUOUS
 62
     3
100
AcDbLine
 10
1748.27706816018
 20
318.1522352859647
 30
0.0
 11
1758.03271816018
 21
318.1522352859647
 31
0.0
  0
LINE
  5
519
330
1F
100
AcDbEntity
  8
LAYER0032
  6
CONTINUOUS
 62
     3
100
AcDbLine
 10
1737.81114616018
 20
316.9022352859647
 30
0.0
 11
1736.11114616018
 21
316.9022352859647
 31
0.0
  0
LINE
  5
51A
330
1F
100
AcDbEntity
  8
LAYER0032
  6
CONTINUOUS
 62
     3
100
AcDbLine
 10
1738.11114616018
 20
316.9022352859647
 30
0.0
 11
1741.14290016018
 21
316.9022352859647
 31
0.0
  0
LINE
  5
51B
330
1F
100
AcDbEntity
  8
LAYER0032
  6
CONTINUOUS
 62
     3
100
AcDbLine
 10
1743.07939116018
 20
317.4022352859647
 30
0.0
 11
1745.94522316018
 21
317.4022352859647
 31
0.0
  0
LINE
  5
51C
330
1F
100
AcDbEntity
  8
LAYER0032
  6
CONTINUOUS
 62
     3
100
AcDbLine
 10
1760.52535916018
 20
319.4022352859647
 30
0.0
 11
1763.53271816018
 21
319.4022352859647
 31
0.0
  0
LINE
  5
51D
330
1F
100
AcDbEntity
  8
LAYER0032
  6
CONTINUOUS
 62
     3
100
AcDbLine
 10
1766.43957316018
 20
320.6522352859647
 30
0.0
 11
1770.28271816018
 21
320.6522352859647
 31
0.0
  0
LINE
  5
51E
330
1F
100
AcDbEntity
  8
LAYER0032
  6
CONTINUOUS
 62
     3
100
AcDbLine
 10
1710.611146160181
 20
319.9022352859647
 30
0.0
 11
1719.111146160182
 21
321.4022352859647
 31
0.0
  0
LINE
  5
51F
330
1F
100
AcDbEntity
  8
LAYER0032
  6
CONTINUOUS
 62
     3
100
AcDbLine
 10
1719.91644816018
 20
332.9731762859647
 30
0.0
 11
1733.61114616018
 21
332.9731762859647
 31
0.0
  0
LINE
  5
520
330
1F
100
AcDbEntity
  8
LAYER0032
  6
CONTINUOUS
 62
     3
100
AcDbLine
 10
1719.91644816018
 20
333.8312942859648
 30
0.0
 11
1733.61114616018
 21
333.8312942859648
 31
0.0
  0
LINE
  5
521
330
1F
100
AcDbEntity
  8
LAYER0032
  6
CONTINUOUS
 62
     3
100
AcDbLine
 10
1710.611146160181
 20
346.87429395449
 30
0.0
 11
1710.611146160181
 21
319.9022352859647
 31
0.0
  0
LINE
  5
522
330
1F
100
AcDbEntity
  8
LAYER0032
  6
CONTINUOUS
 62
     3
100
AcDbLine
 10
1710.611146160181
 20
346.9022352859647
 30
0.0
 11
1707.31114616018
 21
346.3198823447883
 31
0.0
  0
LINE
  5
523
330
1F
100
AcDbEntity
  8
LAYER0032
  6
CONTINUOUS
 62
     3
100
AcDbLine
 10
1710.611146160181
 20
319.9022352859647
 30
0.0
 11
1707.31114616018
 21
320.4845882271411
 31
0.0
  0
LINE
  5
524
330
1F
100
AcDbEntity
  8
LAYER0032
  6
CONTINUOUS
 62
     3
100
AcDbLine
 10
1688.16114616018
 20
-917.019243449337
 30
0.0
 11
1688.16114616018
 21
-922.8592434493371
 31
0.0
  0
LINE
  5
525
330
1F
100
AcDbEntity
  8
LAYER0032
  6
CONTINUOUS
 62
     3
100
AcDbLine
 10
1666.46114616018
 20
-917.019243449337
 30
0.0
 11
1666.46114616018
 21
-922.8592434493371
 31
0.0
  0
LINE
  5
526
330
1F
100
AcDbEntity
  8
LAYER0032
  6
CONTINUOUS
 62
     3
100
AcDbLine
 10
1667.815462428215
 20
-923.8592434493371
 30
0.0
 11
1677.311146160181
 21
-923.8592434493371
 31
0.0
  0
LINE
  5
527
330
1F
100
AcDbEntity
  8
LAYER0032
  6
CONTINUOUS
 62
     3
100
AcDbLine
 10
1666.801522747917
 20
-928.5512942569057
 30
0.0
 11
1666.623646160181
 21
-922.8592434493366
 31
0.0
  0
LINE
  5
528
330
1F
100
AcDbEntity
  8
LAYER0032
  6
CONTINUOUS
 62
     3
100
AcDbLine
 10
1667.815462428215
 20
-923.8592434493371
 30
0.0
 11
1667.962089015952
 21
-928.5512942569057
 31
0.0
  0
LINE
  5
529
330
1F
100
AcDbEntity
  8
LAYER0032
  6
CONTINUOUS
 62
     3
100
AcDbLine
 10
1677.311146160181
 20
-922.8592434493371
 30
0.0
 11
1666.46114616018
 21
-922.8592434493371
 31
0.0
  0
LINE
  5
52A
330
1F
100
AcDbEntity
  8
LAYER0032
  6
CONTINUOUS
 62
     3
100
AcDbLine
 10
1667.815462428215
 20
-923.8592434493371
 30
0.0
 11
1666.623646160181
 21
-922.8592434493371
 31
0.0
  0
LINE
  5
52B
330
1F
100
AcDbEntity
  8
LAYER0032
  6
CONTINUOUS
 62
     3
100
AcDbLine
 10
1687.820769572445
 20
-928.5512942569057
 30
0.0
 11
1687.998646160181
 21
-922.8592434493362
 31
0.0
  0
LINE
  5
52C
330
1F
100
AcDbEntity
  8
LAYER0032
  6
CONTINUOUS
 62
     3
100
AcDbLine
 10
1686.806829892146
 20
-923.8592434493371
 30
0.0
 11
1677.31114616018
 21
-923.8592434493371
 31
0.0
  0
LINE
  5
52D
330
1F
100
AcDbEntity
  8
LAYER0032
  6
CONTINUOUS
 62
     3
100
AcDbLine
 10
1677.31114616018
 20
-922.8592434493371
 30
0.0
 11
1688.16114616018
 21
-922.8592434493371
 31
0.0
  0
LINE
  5
52E
330
1F
100
AcDbEntity
  8
LAYER0032
  6
CONTINUOUS
 62
     3
100
AcDbLine
 10
1686.806829892146
 20
-923.8592434493371
 30
0.0
 11
1686.66020330441
 21
-928.5512942569057
 31
0.0
  0
LINE
  5
52F
330
1F
100
AcDbEntity
  8
LAYER0032
  6
CONTINUOUS
 62
     3
100
AcDbLine
 10
1686.806829892146
 20
-923.8592434493371
 30
0.0
 11
1687.99864616018
 21
-922.8592434493371
 31
0.0
  0
LINE
  5
530
330
1F
100
AcDbEntity
  8
LAYER0032
  6
CONTINUOUS
 62
     3
100
AcDbLine
 10
1688.811146160181
 20
-969.0512942569044
 30
0.0
 11
1704.31114616018
 21
-969.0512942569044
 31
0.0
  0
LINE
  5
531
330
1F
100
AcDbEntity
  8
LAYER0032
  6
CONTINUOUS
 62
     3
100
AcDbLine
 10
1695.811146160179
 20
-942.0512942569044
 30
0.0
 11
1704.31114616018
 21
-942.0512942569044
 31
0.0
  0
LINE
  5
532
330
1F
100
AcDbEntity
  8
LAYER0032
  6
CONTINUOUS
 62
     3
100
AcDbLine
 10
1712.811146160181
 20
-942.0512942569044
 30
0.0
 11
1721.311146160181
 21
-943.5512942569044
 31
0.0
  0
LINE
  5
533
330
1F
100
AcDbEntity
  8
LAYER0032
  6
CONTINUOUS
 62
     3
100
AcDbLine
 10
1712.81114616018
 20
-942.0512942569044
 30
0.0
 11
1704.31114616018
 21
-943.5512942569044
 31
0.0
  0
LINE
  5
534
330
1F
100
AcDbEntity
  8
LAYER0032
  6
CONTINUOUS
 62
     3
100
AcDbLine
 10
1704.31114616018
 20
-969.0512942569044
 30
0.0
 11
1704.31114616018
 21
-942.0512942569044
 31
0.0
  0
LINE
  5
535
330
1F
100
AcDbEntity
  8
LAYER0032
  6
CONTINUOUS
 62
     3
100
AcDbLine
 10
1712.81114616018
 20
-942.0512942569044
 30
0.0
 11
1712.81114616018
 21
-969.0512942569044
 31
0.0
  0
LINE
  5
536
330
1F
100
AcDbEntity
  8
LAYER0032
  6
CONTINUOUS
 62
     3
100
AcDbLine
 10
1712.811146160181
 20
-969.0512942569053
 30
0.0
 11
1721.311146160181
 21
-967.5512942569053
 31
0.0
  0
LINE
  5
537
330
1F
100
AcDbEntity
  8
LAYER0032
  6
CONTINUOUS
 62
     3
100
AcDbLine
 10
1712.81114616018
 20
-969.0512942569053
 30
0.0
 11
1704.31114616018
 21
-967.5512942569053
 31
0.0
  0
ARC
  5
538
330
1F
100
AcDbEntity
  8
LAYER0032
  6
CONTINUOUS
 62
     3
100
AcDbCircle
 10
1695.811146160179
 20
-937.0512942569044
 30
0.0
 40
5.0
100
AcDbArc
 50
180.0
 51
270.0
  0
ARC
  5
539
330
1F
100
AcDbEntity
  8
LAYER0032
  6
CONTINUOUS
 62
     3
100
AcDbCircle
 10
1688.811146160181
 20
-944.0512942569044
 30
0.0
 40
25.0
100
AcDbArc
 50
180.0
 51
270.0
  0
LINE
  5
53A
330
1F
100
AcDbEntity
  8
LAYER0032
  6
CONTINUOUS
 62
     3
100
AcDbLine
 10
1663.811146160181
 20
-928.5512942569044
 30
0.0
 11
1690.811146160179
 21
-928.5512942569044
 31
0.0
  0
LINE
  5
53B
330
1F
100
AcDbEntity
  8
LAYER0032
  6
CONTINUOUS
 62
     3
100
AcDbLine
 10
1663.811146160181
 20
-928.5512942569044
 30
0.0
 11
1663.811146160181
 21
-944.0512942569044
 31
0.0
  0
LINE
  5
53C
330
1F
100
AcDbEntity
  8
LAYER0032
  6
CONTINUOUS
 62
     3
100
AcDbLine
 10
1690.811146160179
 20
-928.5512942569044
 30
0.0
 11
1690.811146160179
 21
-937.0512942569044
 31
0.0
  0
LINE
  5
53D
330
1F
100
AcDbEntity
  8
LAYER0032
  6
CONTINUOUS
 62
     3
100
AcDbLine
 10
1786.31114616018
 20
-943.0512942569044
 30
0.0
 11
1786.31114616018
 21
-955.5512942569044
 31
0.0
  0
LINE
  5
53E
330
1F
100
AcDbEntity
  8
LAYER0032
  6
CONTINUOUS
 62
     3
100
AcDbLine
 10
1721.31114616018
 20
-943.0512942569044
 30
0.0
 11
1721.31114616018
 21
-955.5512942569044
 31
0.0
  0
LINE
  5
53F
330
1F
100
AcDbEntity
  8
LAYER0032
  6
CONTINUOUS
 62
     3
100
AcDbLine
 10
1722.11952316018
 20
-969.451294256904
 30
0.0
 11
1735.81114616018
 21
-969.451294256904
 31
0.0
  0
LINE
  5
540
330
1F
100
AcDbEntity
  8
LAYER0032
  6
CONTINUOUS
 62
     3
100
AcDbLine
 10
1721.31114616018
 20
-968.0512942569044
 30
0.0
 11
1721.31114616018
 21
-955.5512942569044
 31
0.0
  0
LINE
  5
541
330
1F
100
AcDbEntity
  8
LAYER0032
  6
CONTINUOUS
 62
     3
100
AcDbLine
 10
1721.31114616018
 20
-968.0512942569044
 30
0.0
 11
1722.11644816018
 21
-969.4461192569047
 31
0.0
  0
ARC
  5
542
330
1F
100
AcDbEntity
  8
LAYER0032
  6
CONTINUOUS
 62
     3
100
AcDbCircle
 10
1743.342900160179
 20
-970.0512942569044
 30
0.0
 40
2.0
100
AcDbArc
 50
270.0
 51
298.9550240000002
  0
LINE
  5
543
330
1F
100
AcDbEntity
  8
LAYER0032
  6
CONTINUOUS
 62
     3
100
AcDbLine
 10
1740.31114616018
 20
-971.7512942569042
 30
0.0
 11
1740.01114616018
 21
-972.0512942569044
 31
0.0
  0
ARC
  5
544
330
1F
100
AcDbEntity
  8
LAYER0032
  6
CONTINUOUS
 62
     3
100
AcDbCircle
 10
1738.31114616018
 20
-971.0512942569044
 30
0.0
 40
1.0
100
AcDbArc
 50
180.0
 51
270.0
  0
ARC
  5
545
330
1F
100
AcDbEntity
  8
LAYER0032
  6
CONTINUOUS
 62
     3
100
AcDbCircle
 10
1735.81114616018
 20
-970.951294256904
 30
0.0
 40
1.5
100
AcDbArc
 50
0.0
 51
90.0
  0
ARC
  5
546
330
1F
100
AcDbEntity
  8
LAYER0032
  6
CONTINUOUS
 62
     3
100
AcDbCircle
 10
1748.14522316018
 20
-969.5512942569044
 30
0.0
 40
2.0
100
AcDbArc
 50
270.0
 51
305.6590880000001
  0
ARC
  5
547
330
1F
100
AcDbEntity
  8
LAYER0032
  6
CONTINUOUS
 62
     3
100
AcDbCircle
 10
1750.47706816018
 20
-972.8012942569044
 30
0.0
 40
2.0
100
AcDbArc
 50
90.0
 51
125.6590880000001
  0
ARC
  5
548
330
1F
100
AcDbEntity
  8
LAYER0032
  6
CONTINUOUS
 62
     3
100
AcDbCircle
 10
1745.27939116018
 20
-973.5512942569044
 30
0.0
 40
2.0
100
AcDbArc
 50
90.0
 51
118.9550240000002
  0
LINE
  5
549
330
1F
100
AcDbEntity
  8
LAYER0032
  6
CONTINUOUS
 62
     3
100
AcDbLine
 10
1774.46114616018
 20
-969.451294256904
 30
0.0
 11
1785.502855160179
 21
-969.451294256904
 31
0.0
  0
ARC
  5
54A
330
1F
100
AcDbEntity
  8
LAYER0032
  6
CONTINUOUS
 62
     3
100
AcDbCircle
 10
1768.63957316018
 20
-970.3012942569044
 30
0.0
 40
2.0
100
AcDbArc
 50
90.0
 51
135.0000000000003
  0
LINE
  5
54B
330
1F
100
AcDbEntity
  8
LAYER0032
  6
CONTINUOUS
 62
     3
100
AcDbLine
 10
1767.22535916018
 20
-968.8870812569044
 30
0.0
 11
1767.14693216018
 21
-968.9655082569038
 31
0.0
  0
ARC
  5
54C
330
1F
100
AcDbEntity
  8
LAYER0032
  6
CONTINUOUS
 62
     3
100
AcDbCircle
 10
1760.23271816018
 20
-968.8012942569044
 30
0.0
 40
2.0
100
AcDbArc
 50
270.0
 51
315.0000000000003
  0
LINE
  5
54D
330
1F
100
AcDbEntity
  8
LAYER0032
  6
CONTINUOUS
 62
     3
100
AcDbLine
 10
1762.01825216018
 20
-969.8441882569045
 30
0.0
 11
1761.646932160179
 21
-970.2155082569038
 31
0.0
  0
ARC
  5
54E
330
1F
100
AcDbEntity
  8
LAYER0032
  6
CONTINUOUS
 62
     3
100
AcDbCircle
 10
1762.72535916018
 20
-970.5512942569044
 30
0.0
 40
1.0
100
AcDbArc
 50
90.0
 51
135.0
  0
ARC
  5
54F
330
1F
100
AcDbEntity
  8
LAYER0032
  6
CONTINUOUS
 62
     3
100
AcDbCircle
 10
1765.73271816018
 20
-967.5512942569044
 30
0.0
 40
2.0
100
AcDbArc
 50
270.0
 51
315.0000000000003
  0
LINE
  5
550
330
1F
100
AcDbEntity
  8
LAYER0032
  6
CONTINUOUS
 62
     3
100
AcDbLine
 10
1774.46114616018
 20
-969.451294256904
 30
0.0
 11
1773.89693216018
 21
-968.8870812569044
 31
0.0
  0
ARC
  5
551
330
1F
100
AcDbEntity
  8
LAYER0032
  6
CONTINUOUS
 62
     3
100
AcDbCircle
 10
1772.48271816018
 20
-970.3012942569044
 30
0.0
 40
2.0
100
AcDbArc
 50
44.99999999999972
 51
90.0
  0
LINE
  5
552
330
1F
100
AcDbEntity
  8
LAYER0032
  6
CONTINUOUS
 62
     3
100
AcDbLine
 10
1786.31114616018
 20
-968.0512942569044
 30
0.0
 11
1786.31114616018
 21
-955.5512942569044
 31
0.0
  0
LINE
  5
553
330
1F
100
AcDbEntity
  8
LAYER0032
  6
CONTINUOUS
 62
     3
100
AcDbLine
 10
1785.502855160179
 20
-969.451294256904
 30
0.0
 11
1786.31114616018
 21
-968.0512942569044
 31
0.0
  0
LINE
  5
554
330
1F
100
AcDbEntity
  8
LAYER0032
  6
CONTINUOUS
 62
     3
100
AcDbLine
 10
1759.91114616018
 20
-925.7512942569042
 30
0.0
 11
1747.711146160179
 21
-925.7512942569042
 31
0.0
  0
LINE
  5
555
330
1F
100
AcDbEntity
  8
LAYER0032
  6
CONTINUOUS
 62
     3
100
AcDbLine
 10
1742.81114616018
 20
-927.2512942569042
 30
0.0
 11
1766.65644516018
 21
-927.2512942569042
 31
0.0
  0
LINE
  5
556
330
1F
100
AcDbEntity
  8
LAYER0032
  6
CONTINUOUS
 62
     3
100
AcDbLine
 10
1759.26114616018
 20
-930.7512942569042
 30
0.0
 11
1761.81114616018
 21
-930.7512942569042
 31
0.0
  0
LINE
  5
557
330
1F
100
AcDbEntity
  8
LAYER0032
  6
CONTINUOUS
 62
     3
100
AcDbLine
 10
1742.81114616018
 20
-930.2512942569042
 30
0.0
 11
1766.65644516018
 21
-930.2512942569042
 31
0.0
  0
LINE
  5
558
330
1F
100
AcDbEntity
  8
LAYER0032
  6
CONTINUOUS
 62
     3
100
AcDbLine
 10
1722.11952316018
 20
-941.6512942569038
 30
0.0
 11
1735.81114616018
 21
-941.6512942569038
 31
0.0
  0
LINE
  5
559
330
1F
100
AcDbEntity
  8
LAYER0032
  6
CONTINUOUS
 62
     3
100
AcDbLine
 10
1721.31114616018
 20
-943.0512942569044
 30
0.0
 11
1722.11644816018
 21
-941.6564692569041
 31
0.0
  0
LINE
  5
55A
330
1F
100
AcDbEntity
  8
LAYER0032
  6
CONTINUOUS
 62
     3
100
AcDbLine
 10
1742.81114616018
 20
-930.2512942569042
 30
0.0
 11
1742.81114616018
 21
-927.2512942569042
 31
0.0
  0
ARC
  5
55B
330
1F
100
AcDbEntity
  8
LAYER0032
  6
CONTINUOUS
 62
     3
100
AcDbCircle
 10
1743.342900160179
 20
-941.0512942569044
 30
0.0
 40
2.0
100
AcDbArc
 50
83.27745900000012
 51
90.0
  0
ARC
  5
55C
330
1F
100
AcDbEntity
  8
LAYER0032
  6
CONTINUOUS
 62
     3
100
AcDbCircle
 10
1738.31114616018
 20
-940.0512942569044
 30
0.0
 40
1.0
100
AcDbArc
 50
90.0
 51
180.0
  0
LINE
  5
55D
330
1F
100
AcDbEntity
  8
LAYER0032
  6
CONTINUOUS
 62
     3
100
AcDbLine
 10
1740.31114616018
 20
-939.3512942569046
 30
0.0
 11
1740.01114616018
 21
-939.0512942569044
 31
0.0
  0
LINE
  5
55E
330
1F
100
AcDbEntity
  8
LAYER0032
  6
CONTINUOUS
 62
     3
100
AcDbLine
 10
1737.31114616018
 20
-940.0512942569044
 30
0.0
 11
1737.31114616018
 21
-940.1512942569038
 31
0.0
  0
ARC
  5
55F
330
1F
100
AcDbEntity
  8
LAYER0032
  6
CONTINUOUS
 62
     3
100
AcDbCircle
 10
1735.81114616018
 20
-940.1512942569038
 30
0.0
 40
1.5
100
AcDbArc
 50
270.0
 51
0.0
  0
LINE
  5
560
330
1F
100
AcDbEntity
  8
LAYER0032
  6
CONTINUOUS
 62
     3
100
AcDbLine
 10
1740.31114616018
 20
-939.0512942569044
 30
0.0
 11
1740.31114616018
 21
-940.8512942569046
 31
0.0
  0
ARC
  5
561
330
1F
100
AcDbEntity
  8
LAYER0032
  6
CONTINUOUS
 62
     3
100
AcDbCircle
 10
1743.81114616018
 20
-937.0787962569043
 30
0.0
 40
2.0
100
AcDbArc
 50
263.2774590000001
 51
0.0
  0
LINE
  5
562
330
1F
100
AcDbEntity
  8
LAYER0032
  6
CONTINUOUS
 62
     3
100
AcDbLine
 10
1748.36114616018
 20
-930.5012942569042
 30
0.0
 11
1753.81114616018
 21
-930.5012942569042
 31
0.0
  0
LINE
  5
563
330
1F
100
AcDbEntity
  8
LAYER0032
  6
CONTINUOUS
 62
     3
100
AcDbLine
 10
1748.36114616018
 20
-930.5012942569042
 30
0.0
 11
1748.61114616018
 21
-930.2512942569042
 31
0.0
  0
LINE
  5
564
330
1F
100
AcDbEntity
  8
LAYER0032
  6
CONTINUOUS
 62
     3
100
AcDbLine
 10
1748.31114616018
 20
-930.7512942569042
 30
0.0
 11
1748.31114616018
 21
-930.2512942569042
 31
0.0
  0
LINE
  5
565
330
1F
100
AcDbEntity
  8
LAYER0032
  6
CONTINUOUS
 62
     3
100
AcDbLine
 10
1745.81114616018
 20
-930.7512942569042
 30
0.0
 11
1745.81114616018
 21
-930.2512942569042
 31
0.0
  0
LINE
  5
566
330
1F
100
AcDbEntity
  8
LAYER0032
  6
CONTINUOUS
 62
     3
100
AcDbLine
 10
1745.81114616018
 20
-937.0787962569043
 30
0.0
 11
1745.81114616018
 21
-930.7512942569042
 31
0.0
  0
LINE
  5
567
330
1F
100
AcDbEntity
  8
LAYER0032
  6
CONTINUOUS
 62
     3
100
AcDbLine
 10
1759.26114616018
 20
-930.5012942569042
 30
0.0
 11
1759.01114616018
 21
-930.2512942569042
 31
0.0
  0
LINE
  5
568
330
1F
100
AcDbEntity
  8
LAYER0032
  6
CONTINUOUS
 62
     3
100
AcDbLine
 10
1759.31114616018
 20
-930.7512942569042
 30
0.0
 11
1759.31114616018
 21
-930.2512942569042
 31
0.0
  0
LINE
  5
569
330
1F
100
AcDbEntity
  8
LAYER0032
  6
CONTINUOUS
 62
     3
100
AcDbLine
 10
1759.26114616018
 20
-930.5012942569042
 30
0.0
 11
1753.81114616018
 21
-930.5012942569042
 31
0.0
  0
LINE
  5
56A
330
1F
100
AcDbEntity
  8
LAYER0032
  6
CONTINUOUS
 62
     3
100
AcDbLine
 10
1750.81114616018
 20
-920.951294256904
 30
0.0
 11
1753.81114616018
 21
-920.951294256904
 31
0.0
  0
LINE
  5
56B
330
1F
100
AcDbEntity
  8
LAYER0032
  6
CONTINUOUS
 62
     3
100
AcDbLine
 10
1751.41162616018
 20
-925.7512942569042
 30
0.0
 11
1754.009703160179
 21
-927.2512942569042
 31
0.0
  0
ARC
  5
56C
330
1F
100
AcDbEntity
  8
LAYER0032
  6
CONTINUOUS
 62
     3
100
AcDbCircle
 10
1753.81114616018
 20
-931.7047122569043
 30
0.0
 40
9.553418
100
AcDbArc
 50
72.41204599999999
 51
107.587954
  0
ARC
  5
56D
330
1F
100
AcDbEntity
  8
LAYER0032
  6
CONTINUOUS
 62
     3
100
AcDbCircle
 10
1753.81114616018
 20
-916.1978762569047
 30
0.0
 40
9.553418
100
AcDbArc
 50
252.412046
 51
287.587954
  0
LINE
  5
56E
330
1F
100
AcDbEntity
  8
LAYER0032
  6
CONTINUOUS
 62
     3
100
AcDbLine
 10
1748.81114616018
 20
-922.1512942569038
 30
0.0
 11
1758.81114616018
 21
-922.1512942569038
 31
0.0
  0
LINE
  5
56F
330
1F
100
AcDbEntity
  8
LAYER0032
  6
CONTINUOUS
 62
     3
100
AcDbLine
 10
1750.924394160179
 20
-925.3047122569046
 30
0.0
 11
1750.924394160179
 21
-922.5978762569043
 31
0.0
  0
LINE
  5
570
330
1F
100
AcDbEntity
  8
LAYER0032
  6
CONTINUOUS
 62
     3
100
AcDbLine
 10
1750.81114616018
 20
-922.1512942569038
 30
0.0
 11
1750.81114616018
 21
-920.951294256904
 31
0.0
  0
LINE
  5
571
330
1F
100
AcDbEntity
  8
LAYER0032
  6
CONTINUOUS
 62
     3
100
AcDbLine
 10
1748.037643160179
 20
-922.5978762569043
 30
0.0
 11
1748.81114616018
 21
-922.1512942569038
 31
0.0
  0
LINE
  5
572
330
1F
100
AcDbEntity
  8
LAYER0032
  6
CONTINUOUS
 62
     3
100
AcDbLine
 10
1748.037643160179
 20
-925.3047122569046
 30
0.0
 11
1748.81114616018
 21
-925.7512942569042
 31
0.0
  0
LINE
  5
573
330
1F
100
AcDbEntity
  8
LAYER0032
  6
CONTINUOUS
 62
     3
100
AcDbLine
 10
1747.711146160179
 20
-925.7512942569042
 30
0.0
 11
1747.711146160179
 21
-927.2512942569042
 31
0.0
  0
LINE
  5
574
330
1F
100
AcDbEntity
  8
LAYER0032
  6
CONTINUOUS
 62
     3
100
AcDbLine
 10
1748.037643160179
 20
-925.3047122569046
 30
0.0
 11
1748.037643160179
 21
-922.5978762569043
 31
0.0
  0
ARC
  5
575
330
1F
100
AcDbEntity
  8
LAYER0032
  6
CONTINUOUS
 62
     3
100
AcDbCircle
 10
1749.48101916018
 20
-924.7071172569044
 30
0.0
 40
2.555823
100
AcDbArc
 50
55.61575300000003
 51
115.615753
  0
ARC
  5
576
330
1F
100
AcDbEntity
  8
LAYER0032
  6
CONTINUOUS
 62
     3
100
AcDbCircle
 10
1749.48101916018
 20
-923.1954722569039
 30
0.0
 40
2.555823
100
AcDbArc
 50
244.384247
 51
304.384247
  0
LINE
  5
577
330
1F
100
AcDbEntity
  8
LAYER0032
  6
CONTINUOUS
 62
     3
100
AcDbLine
 10
1759.58464816018
 20
-922.5978762569043
 30
0.0
 11
1758.81114616018
 21
-922.1512942569038
 31
0.0
  0
LINE
  5
578
330
1F
100
AcDbEntity
  8
LAYER0032
  6
CONTINUOUS
 62
     3
100
AcDbLine
 10
1759.58464816018
 20
-925.3047122569046
 30
0.0
 11
1758.81114616018
 21
-925.7512942569042
 31
0.0
  0
LINE
  5
579
330
1F
100
AcDbEntity
  8
LAYER0032
  6
CONTINUOUS
 62
     3
100
AcDbLine
 10
1759.58464816018
 20
-925.3047122569046
 30
0.0
 11
1759.58464816018
 21
-922.5978762569043
 31
0.0
  0
LINE
  5
57A
330
1F
100
AcDbEntity
  8
LAYER0032
  6
CONTINUOUS
 62
     3
100
AcDbLine
 10
1756.81114616018
 20
-920.951294256904
 30
0.0
 11
1753.81114616018
 21
-920.951294256904
 31
0.0
  0
LINE
  5
57B
330
1F
100
AcDbEntity
  8
LAYER0032
  6
CONTINUOUS
 62
     3
100
AcDbLine
 10
1756.69789716018
 20
-925.3047122569046
 30
0.0
 11
1756.69789716018
 21
-922.5978762569043
 31
0.0
  0
LINE
  5
57C
330
1F
100
AcDbEntity
  8
LAYER0032
  6
CONTINUOUS
 62
     3
100
AcDbLine
 10
1753.41162616018
 20
-925.7512942569042
 30
0.0
 11
1756.009703160179
 21
-927.2512942569042
 31
0.0
  0
LINE
  5
57D
330
1F
100
AcDbEntity
  8
LAYER0032
  6
CONTINUOUS
 62
     3
100
AcDbLine
 10
1756.81114616018
 20
-922.1512942569038
 30
0.0
 11
1756.81114616018
 21
-920.951294256904
 31
0.0
  0
ARC
  5
57E
330
1F
100
AcDbEntity
  8
LAYER0032
  6
CONTINUOUS
 62
     3
100
AcDbCircle
 10
1758.14127316018
 20
-924.7071172569044
 30
0.0
 40
2.555823
100
AcDbArc
 50
64.38424699999996
 51
124.384247
  0
ARC
  5
57F
330
1F
100
AcDbEntity
  8
LAYER0032
  6
CONTINUOUS
 62
     3
100
AcDbCircle
 10
1758.14127316018
 20
-923.1954722569039
 30
0.0
 40
2.555823
100
AcDbArc
 50
235.615753
 51
295.615753
  0
ARC
  5
580
330
1F
100
AcDbEntity
  8
LAYER0032
  6
CONTINUOUS
 62
     3
100
AcDbCircle
 10
1766.65644516018
 20
-925.2512942569042
 30
0.0
 40
5.0
100
AcDbArc
 50
270.0
 51
329.9999999999999
  0
LINE
  5
581
330
1F
100
AcDbEntity
  8
LAYER0032
  6
CONTINUOUS
 62
     3
100
AcDbLine
 10
1774.46114616018
 20
-941.6512942569038
 30
0.0
 11
1785.502855160179
 21
-941.6512942569038
 31
0.0
  0
ARC
  5
582
330
1F
100
AcDbEntity
  8
LAYER0032
  6
CONTINUOUS
 62
     3
100
AcDbCircle
 10
1761.56114616018
 20
-939.312544256904
 30
0.0
 40
1.0
100
AcDbArc
 50
0.0
 51
51.31781300000039
  0
ARC
  5
583
330
1F
100
AcDbEntity
  8
LAYER0032
  6
CONTINUOUS
 62
     3
100
AcDbCircle
 10
1768.63957316018
 20
-940.8012942569044
 30
0.0
 40
2.0
100
AcDbArc
 50
224.9999999999997
 51
270.0
  0
LINE
  5
584
330
1F
100
AcDbEntity
  8
LAYER0032
  6
CONTINUOUS
 62
     3
100
AcDbLine
 10
1767.22535916018
 20
-942.2155082569038
 30
0.0
 11
1767.14693216018
 21
-942.1370812569044
 31
0.0
  0
ARC
  5
585
330
1F
100
AcDbEntity
  8
LAYER0032
  6
CONTINUOUS
 62
     3
100
AcDbCircle
 10
1764.56114616018
 20
-939.5512942569044
 30
0.0
 40
2.0
100
AcDbArc
 50
180.0
 51
270.0
  0
ARC
  5
586
330
1F
100
AcDbEntity
  8
LAYER0032
  6
CONTINUOUS
 62
     3
100
AcDbCircle
 10
1765.73271816018
 20
-943.5512942569044
 30
0.0
 40
2.0
100
AcDbArc
 50
44.99999999999972
 51
90.0
  0
LINE
  5
587
330
1F
100
AcDbEntity
  8
LAYER0032
  6
CONTINUOUS
 62
     3
100
AcDbLine
 10
1762.56114616018
 20
-939.312544256904
 30
0.0
 11
1762.56114616018
 21
-939.5512942569044
 31
0.0
  0
ARC
  5
588
330
1F
100
AcDbEntity
  8
LAYER0032
  6
CONTINUOUS
 62
     3
100
AcDbCircle
 10
1772.48271816018
 20
-940.8012942569044
 30
0.0
 40
2.0
100
AcDbArc
 50
270.0
 51
315.0000000000003
  0
LINE
  5
589
330
1F
100
AcDbEntity
  8
LAYER0032
  6
CONTINUOUS
 62
     3
100
AcDbLine
 10
1774.46114616018
 20
-941.6512942569038
 30
0.0
 11
1773.89693216018
 21
-942.2155082569038
 31
0.0
  0
LINE
  5
58A
330
1F
100
AcDbEntity
  8
LAYER0032
  6
CONTINUOUS
 62
     3
100
AcDbLine
 10
1761.81114616018
 20
-930.7512942569042
 30
0.0
 11
1761.81114616018
 21
-930.2512942569042
 31
0.0
  0
ARC
  5
58B
330
1F
100
AcDbEntity
  8
LAYER0032
  6
CONTINUOUS
 62
     3
100
AcDbCircle
 10
1762.81114616018
 20
-937.7512942569042
 30
0.0
 40
1.0
100
AcDbArc
 50
180.0
 51
231.3178130000004
  0
LINE
  5
58C
330
1F
100
AcDbEntity
  8
LAYER0032
  6
CONTINUOUS
 62
     3
100
AcDbLine
 10
1761.81114616018
 20
-930.7512942569042
 30
0.0
 11
1761.81114616018
 21
-937.7512942569042
 31
0.0
  0
LINE
  5
58D
330
1F
100
AcDbEntity
  8
LAYER0032
  6
CONTINUOUS
 62
     3
100
AcDbLine
 10
1785.502855160179
 20
-941.6512942569038
 30
0.0
 11
1786.31114616018
 21
-943.0512942569044
 31
0.0
  0
ARC
  5
58E
330
1F
100
AcDbEntity
  8
LAYER0032
  6
CONTINUOUS
 62
     3
100
AcDbCircle
 10
1766.65644516018
 20
-925.2512942569042
 30
0.0
 40
2.0
100
AcDbArc
 50
270.0
 51
329.9999999999999
  0
LINE
  5
58F
330
1F
100
AcDbEntity
  8
LAYER0032
  6
CONTINUOUS
 62
     3
100
AcDbLine
 10
1759.91114616018
 20
-925.7512942569042
 30
0.0
 11
1759.91114616018
 21
-927.2512942569042
 31
0.0
  0
LINE
  5
590
330
1F
100
AcDbEntity
  8
LAYER0032
  6
CONTINUOUS
 62
     3
100
AcDbLine
 10
1750.47706816018
 20
-970.8012942569044
 30
0.0
 11
1760.23271816018
 21
-970.8012942569044
 31
0.0
  0
LINE
  5
591
330
1F
100
AcDbEntity
  8
LAYER0032
  6
CONTINUOUS
 62
     3
100
AcDbLine
 10
1740.01114616018
 20
-972.0512942569044
 30
0.0
 11
1738.31114616018
 21
-972.0512942569044
 31
0.0
  0
LINE
  5
592
330
1F
100
AcDbEntity
  8
LAYER0032
  6
CONTINUOUS
 62
     3
100
AcDbLine
 10
1740.31114616018
 20
-972.0512942569044
 30
0.0
 11
1743.342900160179
 21
-972.0512942569044
 31
0.0
  0
LINE
  5
593
330
1F
100
AcDbEntity
  8
LAYER0032
  6
CONTINUOUS
 62
     3
100
AcDbLine
 10
1745.27939116018
 20
-971.5512942569044
 30
0.0
 11
1748.14522316018
 21
-971.5512942569044
 31
0.0
  0
LINE
  5
594
330
1F
100
AcDbEntity
  8
LAYER0032
  6
CONTINUOUS
 62
     3
100
AcDbLine
 10
1762.72535916018
 20
-969.5512942569044
 30
0.0
 11
1765.73271816018
 21
-969.5512942569044
 31
0.0
  0
LINE
  5
595
330
1F
100
AcDbEntity
  8
LAYER0032
  6
CONTINUOUS
 62
     3
100
AcDbLine
 10
1740.01114616018
 20
-939.0512942569044
 30
0.0
 11
1738.31114616018
 21
-939.0512942569044
 31
0.0
  0
LINE
  5
596
330
1F
100
AcDbEntity
  8
LAYER0032
  6
CONTINUOUS
 62
     3
100
AcDbLine
 10
1740.31114616018
 20
-939.0512942569044
 30
0.0
 11
1743.342900160179
 21
-939.0512942569044
 31
0.0
  0
LINE
  5
597
330
1F
100
AcDbEntity
  8
LAYER0032
  6
CONTINUOUS
 62
     3
100
AcDbLine
 10
1748.36114616018
 20
-930.7512942569042
 30
0.0
 11
1745.81114616018
 21
-930.7512942569042
 31
0.0
  0
LINE
  5
598
330
1F
100
AcDbEntity
  8
LAYER0032
  6
CONTINUOUS
 62
     3
100
AcDbLine
 10
1764.56114616018
 20
-941.5512942569044
 30
0.0
 11
1765.73271816018
 21
-941.5512942569044
 31
0.0
  0
LINE
  5
599
330
1F
100
AcDbEntity
  8
LAYER0032
  6
CONTINUOUS
 62
     3
100
AcDbLine
 10
1768.63957316018
 20
-968.3012942569044
 30
0.0
 11
1772.48271816018
 21
-968.3012942569044
 31
0.0
  0
LINE
  5
59A
330
1F
100
AcDbEntity
  8
LAYER0032
  6
CONTINUOUS
 62
     3
100
AcDbLine
 10
1768.63957316018
 20
-942.8012942569044
 30
0.0
 11
1772.48271816018
 21
-942.8012942569044
 31
0.0
  0
LINE
  5
59B
330
1F
100
AcDbEntity
  8
LAYER0032
  6
CONTINUOUS
 62
     3
100
AcDbLine
 10
1722.11644816018
 20
-945.4238032569042
 30
0.0
 11
1722.11644816018
 21
-946.0305842569046
 31
0.0
  0
LINE
  5
59C
330
1F
100
AcDbEntity
  8
LAYER0032
  6
CONTINUOUS
 62
     3
100
AcDbLine
 10
1722.11644816018
 20
-955.9803532569044
 30
0.0
 11
1735.81114616018
 21
-955.9803532569044
 31
0.0
  0
LINE
  5
59D
330
1F
100
AcDbEntity
  8
LAYER0032
  6
CONTINUOUS
 62
     3
100
AcDbLine
 10
1722.11644816018
 20
-955.1222352569043
 30
0.0
 11
1735.81114616018
 21
-955.1222352569043
 31
0.0
  0
ARC
  5
59E
330
1F
100
AcDbEntity
  8
LAYER0032
  6
CONTINUOUS
 62
     3
100
AcDbCircle
 10
1741.85758316018
 20
-950.5764092569038
 30
0.0
 40
20.257762
100
AcDbArc
 50
167.032449
 51
192.9675509999999
  0
LINE
  5
59F
330
1F
100
AcDbEntity
  8
LAYER0032
  6
CONTINUOUS
 62
     3
100
AcDbLine
 10
1722.11644816018
 20
-945.4238032569042
 30
0.0
 11
1735.81114616018
 21
-945.4238032569042
 31
0.0
  0
LINE
  5
5A0
330
1F
100
AcDbEntity
  8
LAYER0032
  6
CONTINUOUS
 62
     3
100
AcDbLine
 10
1722.11644816018
 20
-946.0305842569046
 30
0.0
 11
1735.81114616018
 21
-946.0305842569046
 31
0.0
  0
ARC
  5
5A1
330
1F
100
AcDbEntity
  8
LAYER0032
  6
CONTINUOUS
 62
     3
100
AcDbCircle
 10
1725.29213716018
 20
-943.5401362569041
 30
0.0
 40
3.692316
100
AcDbArc
 50
149.232196
 51
210.6743909999998
  0
LINE
  5
5A2
330
1F
100
AcDbEntity
  8
LAYER0032
  6
CONTINUOUS
 62
     3
100
AcDbLine
 10
1722.11644816018
 20
-965.0720042569042
 30
0.0
 11
1735.81114616018
 21
-965.0720042569042
 31
0.0
  0
LINE
  5
5A3
330
1F
100
AcDbEntity
  8
LAYER0032
  6
CONTINUOUS
 62
     3
100
AcDbLine
 10
1722.11644816018
 20
-965.678786256904
 30
0.0
 11
1735.81114616018
 21
-965.678786256904
 31
0.0
  0
ARC
  5
5A4
330
1F
100
AcDbEntity
  8
LAYER0032
  6
CONTINUOUS
 62
     3
100
AcDbCircle
 10
1741.85758316018
 20
-960.526179256904
 30
0.0
 40
20.257762
100
AcDbArc
 50
167.032449
 51
192.9675509999999
  0
LINE
  5
5A5
330
1F
100
AcDbEntity
  8
LAYER0032
  6
CONTINUOUS
 62
     3
100
AcDbLine
 10
1722.11644816018
 20
-965.678786256904
 30
0.0
 11
1722.11644816018
 21
-965.0720042569042
 31
0.0
  0
ARC
  5
5A6
330
1F
100
AcDbEntity
  8
LAYER0032
  6
CONTINUOUS
 62
     3
100
AcDbCircle
 10
1725.29213716018
 20
-967.5624522569046
 30
0.0
 40
3.692316
100
AcDbArc
 50
149.3256090000002
 51
210.7678040000001
  0
LINE
  5
5A7
330
1F
100
AcDbEntity
  8
LAYER0032
  6
CONTINUOUS
 62
     3
100
AcDbLine
 10
1722.11644816018
 20
-955.1222352569043
 30
0.0
 11
1722.11644816018
 21
-955.5512942569044
 31
0.0
  0
LINE
  5
5A8
330
1F
100
AcDbEntity
  8
LAYER0032
  6
CONTINUOUS
 62
     3
100
AcDbLine
 10
1722.11644816018
 20
-955.9803532569044
 30
0.0
 11
1722.11644816018
 21
-955.5512942569044
 31
0.0
  0
LINE
  5
5A9
330
1F
100
AcDbEntity
  8
LAYER0032
  6
CONTINUOUS
 62
     3
100
AcDbLine
 10
1740.31114616018
 20
-972.0512942569044
 30
0.0
 11
1740.31114616018
 21
-940.8512942569046
 31
0.0
  0
LINE
  5
5AA
330
1F
100
AcDbEntity
  8
LAYER0032
  6
CONTINUOUS
 62
     3
100
AcDbLine
 10
1737.31114616018
 20
-971.0512942569044
 30
0.0
 11
1737.31114616018
 21
-940.1512942569038
 31
0.0
  0
LINE
  5
5AB
330
1F
100
AcDbEntity
  8
LAYER0032
  6
CONTINUOUS
 62
     3
100
AcDbLine
 10
1749.31114616018
 20
-971.1762942507207
 30
0.0
 11
1749.31114616018
 21
-939.0512942569044
 31
0.0
  0
LINE
  5
5AC
330
1F
100
AcDbEntity
  8
LAYER0032
  6
CONTINUOUS
 62
     3
100
AcDbLine
 10
1744.31114616018
 20
-971.8012942631881
 30
0.0
 11
1744.31114616018
 21
-939.0512942569044
 31
0.0
  0
ARC
  5
5AD
330
1F
100
AcDbEntity
  8
LAYER0032
  6
CONTINUOUS
 62
     3
100
AcDbCircle
 10
1782.33902916018
 20
-967.565040256904
 30
0.0
 40
3.683443
100
AcDbArc
 50
329.1968529999999
 51
30.80314700000012
  0
ARC
  5
5AE
330
1F
100
AcDbEntity
  8
LAYER0032
  6
CONTINUOUS
 62
     3
100
AcDbCircle
 10
1775.98778716018
 20
-967.565040256904
 30
0.0
 40
2.426642
100
AcDbArc
 50
128.9850120000001
 51
218.9850120000001
  0
ARC
  5
5AF
330
1F
100
AcDbEntity
  8
LAYER0032
  6
CONTINUOUS
 62
     3
100
AcDbCircle
 10
1765.87821216018
 20
-960.526179256904
 30
0.0
 40
20.144259
100
AcDbArc
 50
346.9580990000001
 51
14.2978658563414
  0
LINE
  5
5B0
330
1F
100
AcDbEntity
  8
LAYER0032
  6
CONTINUOUS
 62
     3
100
AcDbLine
 10
1785.502855160179
 20
-965.678786256904
 30
0.0
 11
1774.46114616018
 21
-965.678786256904
 31
0.0
  0
LINE
  5
5B1
330
1F
100
AcDbEntity
  8
LAYER0032
  6
CONTINUOUS
 62
     3
100
AcDbLine
 10
1785.502855160179
 20
-965.0720042569042
 30
0.0
 11
1774.46114616018
 21
-965.0720042569042
 31
0.0
  0
LINE
  5
5B2
330
1F
100
AcDbEntity
  8
LAYER0032
  6
CONTINUOUS
 62
     3
100
AcDbLine
 10
1785.502855160179
 20
-965.678786256904
 30
0.0
 11
1785.502855160179
 21
-965.0720042569042
 31
0.0
  0
ARC
  5
5B3
330
1F
100
AcDbEntity
  8
LAYER0032
  6
CONTINUOUS
 62
     3
100
AcDbCircle
 10
1785.49143916018
 20
-960.526179256904
 30
0.0
 40
11.930293
100
AcDbArc
 50
155.3549199977387
 51
202.397631
  0
LINE
  5
5B4
330
1F
100
AcDbEntity
  8
LAYER0032
  6
CONTINUOUS
 62
     3
100
AcDbLine
 10
1774.46114616018
 20
-965.678786256904
 30
0.0
 11
1774.46114616018
 21
-965.0720042569042
 31
0.0
  0
ARC
  5
5B5
330
1F
100
AcDbEntity
  8
LAYER0032
  6
CONTINUOUS
 62
     3
100
AcDbCircle
 10
1782.33902916018
 20
-943.5375482569048
 30
0.0
 40
3.683443
100
AcDbArc
 50
329.1968529999999
 51
30.80314700000012
  0
ARC
  5
5B6
330
1F
100
AcDbEntity
  8
LAYER0032
  6
CONTINUOUS
 62
     3
100
AcDbCircle
 10
1765.87821216018
 20
-950.5764092569038
 30
0.0
 40
20.144259
100
AcDbArc
 50
345.7021341436586
 51
13.04190099999996
  0
LINE
  5
5B7
330
1F
100
AcDbEntity
  8
LAYER0032
  6
CONTINUOUS
 62
     3
100
AcDbLine
 10
1785.502855160179
 20
-945.4238022569039
 30
0.0
 11
1774.46114616018
 21
-945.4238022569039
 31
0.0
  0
LINE
  5
5B8
330
1F
100
AcDbEntity
  8
LAYER0032
  6
CONTINUOUS
 62
     3
100
AcDbLine
 10
1785.502855160179
 20
-946.0305842569046
 30
0.0
 11
1774.46114616018
 21
-946.0305842569046
 31
0.0
  0
LINE
  5
5B9
330
1F
100
AcDbEntity
  8
LAYER0032
  6
CONTINUOUS
 62
     3
100
AcDbLine
 10
1785.502855160179
 20
-945.4238022569039
 30
0.0
 11
1785.502855160179
 21
-946.0305842569046
 31
0.0
  0
ARC
  5
5BA
330
1F
100
AcDbEntity
  8
LAYER0032
  6
CONTINUOUS
 62
     3
100
AcDbCircle
 10
1785.49143916018
 20
-950.5764092569038
 30
0.0
 40
11.930293
100
AcDbArc
 50
157.602369
 51
204.6450800022612
  0
LINE
  5
5BB
330
1F
100
AcDbEntity
  8
LAYER0032
  6
CONTINUOUS
 62
     3
100
AcDbLine
 10
1774.46114616018
 20
-945.4238022569039
 30
0.0
 11
1774.46114616018
 21
-946.0305842569046
 31
0.0
  0
ARC
  5
5BC
330
1F
100
AcDbEntity
  8
LAYER0032
  6
CONTINUOUS
 62
     3
100
AcDbCircle
 10
1775.98778716018
 20
-943.5375482569048
 30
0.0
 40
2.426642
100
AcDbArc
 50
141.0149879999999
 51
231.0149879999999
  0
LINE
  5
5BD
330
1F
100
AcDbEntity
  8
LAYER0032
  6
CONTINUOUS
 62
     3
100
AcDbLine
 10
1774.64789682833
 20
-955.5512942569044
 30
0.0
 11
1785.398501345943
 21
-955.5512942569044
 31
0.0
  0
LINE
  5
5BE
330
1F
100
AcDbEntity
  8
LAYER0032
  6
CONTINUOUS
 62
     3
100
AcDbLine
 10
1767.81114616018
 20
-942.6216537559235
 30
0.0
 11
1767.81114616018
 21
-968.4809347578826
 31
0.0
  0
LINE
  5
5BF
330
1F
100
AcDbEntity
  8
LAYER0032
  6
CONTINUOUS
 62
     3
100
AcDbLine
 10
1766.56114616018
 20
-941.7309352129737
 30
0.0
 11
1766.56114616018
 21
-969.3716533008314
 31
0.0
  0
LINE
  5
5C0
330
1F
100
AcDbEntity
  8
LAYER0032
  6
CONTINUOUS
 62
     3
100
AcDbLine
 10
1762.31114616018
 20
-939.0512942569044
 30
0.0
 11
1762.31114616018
 21
-969.5512942569044
 31
0.0
  0
LINE
  5
5C1
330
1F
100
AcDbEntity
  8
LAYER0032
  6
CONTINUOUS
 62
     3
100
AcDbLine
 10
1761.211146160179
 20
-939.0512942569044
 30
0.0
 11
1761.211146160179
 21
-970.5456218204104
 31
0.0
  0
LINE
  5
5C2
330
1F
100
AcDbEntity
  8
LAYER0032
  6
CONTINUOUS
 62
     3
100
AcDbLine
 10
1744.31114616018
 20
-939.0512942569044
 30
0.0
 11
1762.56114616018
 21
-939.0512942569044
 31
0.0
  0
LINE
  5
5C3
330
1F
100
AcDbEntity
  8
LAYER0032
  6
CONTINUOUS
 62
     3
100
AcDbLine
 10
1782.24490216018
 20
-907.2512942569042
 30
0.0
 11
1838.81114616018
 21
-907.2512942569042
 31
0.0
  0
LINE
  5
5C4
330
1F
100
AcDbEntity
  8
LAYER0032
  6
CONTINUOUS
 62
     3
100
AcDbLine
 10
1782.24490216018
 20
-910.2512942569042
 30
0.0
 11
1838.81114616018
 21
-910.2512942569042
 31
0.0
  0
LINE
  5
5C5
330
1F
100
AcDbEntity
  8
LAYER0032
  6
CONTINUOUS
 62
     3
100
AcDbLine
 10
1751.81114616018
 20
-919.951294256904
 30
0.0
 11
1753.81114616018
 21
-919.951294256904
 31
0.0
  0
LINE
  5
5C6
330
1F
100
AcDbEntity
  8
LAYER0032
  6
CONTINUOUS
 62
     3
100
AcDbLine
 10
1755.81114616018
 20
-919.951294256904
 30
0.0
 11
1753.81114616018
 21
-919.951294256904
 31
0.0
  0
ARC
  5
5C7
330
1F
100
AcDbEntity
  8
LAYER0032
  6
CONTINUOUS
 62
     3
100
AcDbCircle
 10
1782.24490216018
 20
-912.2512942569042
 30
0.0
 40
5.0
100
AcDbArc
 50
90.0
 51
150.0
  0
ARC
  5
5C8
330
1F
100
AcDbEntity
  8
LAYER0032
  6
CONTINUOUS
 62
     3
100
AcDbCircle
 10
1782.24490216018
 20
-912.2512942569042
 30
0.0
 40
2.0
100
AcDbArc
 50
90.0
 51
149.9999999999999
  0
LINE
  5
5C9
330
1F
100
AcDbEntity
  8
LAYER0032
  6
CONTINUOUS
 62
     3
100
AcDbLine
 10
1808.81114616018
 20
-910.2512942569042
 30
0.0
 11
1808.81114616018
 21
-907.2512942569042
 31
0.0
  0
LINE
  5
5CA
330
1F
100
AcDbEntity
  8
LAYER0032
  6
CONTINUOUS
 62
     3
100
AcDbLine
 10
1838.81114616018
 20
-910.2512942569042
 30
0.0
 11
1838.81114616018
 21
-907.2512942569042
 31
0.0
  0
LINE
  5
5CB
330
1F
100
AcDbEntity
  8
LAYER0032
  6
CONTINUOUS
 62
     3
100
AcDbLine
 10
1750.81114616018
 20
-920.951294256904
 30
0.0
 11
1751.81114616018
 21
-919.951294256904
 31
0.0
  0
LINE
  5
5CC
330
1F
100
AcDbEntity
  8
LAYER0032
  6
CONTINUOUS
 62
     3
100
AcDbLine
 10
1756.81114616018
 20
-920.951294256904
 30
0.0
 11
1755.81114616018
 21
-919.951294256904
 31
0.0
  0
LINE
  5
5CD
330
1F
100
AcDbEntity
  8
LAYER0032
  6
CONTINUOUS
 62
     3
100
AcDbLine
 10
1770.98657216018
 20
-927.7512942569042
 30
0.0
 11
1780.51285116018
 21
-911.2512942569042
 31
0.0
  0
LINE
  5
5CE
330
1F
100
AcDbEntity
  8
LAYER0032
  6
CONTINUOUS
 62
     3
100
AcDbLine
 10
1768.38849616018
 20
-926.2512942569042
 30
0.0
 11
1777.91477516018
 21
-909.7512942569042
 31
0.0
  0
LINE
  5
5CF
330
1F
100
AcDbEntity
  8
LAYER0032
  6
CONTINUOUS
 62
     3
100
AcDbLine
 10
1751.35114616018
 20
-922.1512942569038
 30
0.0
 11
1751.35114616018
 21
-920.4112942569041
 31
0.0
  0
LINE
  5
5D0
330
1F
100
AcDbEntity
  8
LAYER0032
  6
CONTINUOUS
 62
     3
100
AcDbLine
 10
1756.27114616018
 20
-922.1512942569038
 30
0.0
 11
1756.27114616018
 21
-920.4112942569041
 31
0.0
  0
INSERT
  5
5D1
330
1F
100
AcDbEntity
  8
LAYER0032
  6
CONTINUOUS
100
AcDbBlockReference
  2
DC_GROUP_2
 10
0.0
 20
0.0
 30
0.0
  0
INSERT
  5
5D2
330
1F
100
AcDbEntity
  8
LAYER0032
  6
CONTINUOUS
100
AcDbBlockReference
  2
DC_GROUP_3
 10
0.0
 20
0.0
 30
0.0
  0
INSERT
  5
5D3
330
1F
100
AcDbEntity
  8
LAYER0032
  6
CONTINUOUS
100
AcDbBlockReference
  2
DC_GROUP_4
 10
0.0
 20
0.0
 30
0.0
  0
INSERT
  5
5D4
330
1F
100
AcDbEntity
  8
LAYER0032
  6
CONTINUOUS
100
AcDbBlockReference
  2
DC_GROUP_5
 10
0.0
 20
0.0
 30
0.0
  0
INSERT
  5
5D5
330
1F
100
AcDbEntity
  8
LAYER0032
  6
CONTINUOUS
100
AcDbBlockReference
  2
DC_GROUP_6
 10
0.0
 20
0.0
 30
0.0
  0
INSERT
  5
5D6
330
1F
100
AcDbEntity
  8
LAYER0032
  6
CONTINUOUS
100
AcDbBlockReference
  2
DC_GROUP_7
 10
0.0
 20
0.0
 30
0.0
  0
INSERT
  5
5D7
330
1F
100
AcDbEntity
  8
LAYER0032
  6
CONTINUOUS
100
AcDbBlockReference
  2
DC_GROUP_8
 10
0.0
 20
0.0
 30
0.0
  0
INSERT
  5
5D8
330
1F
100
AcDbEntity
  8
LAYER0032
  6
CONTINUOUS
100
AcDbBlockReference
  2
DC_GROUP_9
 10
0.0
 20
0.0
 30
0.0
  0
INSERT
  5
5D9
330
1F
100
AcDbEntity
  8
LAYER0032
  6
CONTINUOUS
100
AcDbBlockReference
  2
DC_GROUP_10
 10
0.0
 20
0.0
 30
0.0
  0
INSERT
  5
5DA
330
1F
100
AcDbEntity
  8
LAYER0032
  6
CONTINUOUS
100
AcDbBlockReference
  2
DC_GROUP_11
 10
0.0
 20
0.0
 30
0.0
  0
DIMENSION
  5
5DB
330
1F
100
AcDbEntity
  8
LAYER0032
  6
CONTINUOUS
100
AcDbDimension
  2
*D12
 10
267.7289237305329
 20
598.9022352859647
 30
0.0
 11
267.7289237305329
 21
333.4022352859647
 31
0.0
 70
   160
  3
DC_ROTATED
100
AcDbAlignedDimension
 13
345.3111461601802
 23
67.90223528596471
 33
0.0
 14
345.3111461601802
 24
598.9022352859647
 34
0.0
 50
90.0
100
AcDbRotatedDimension
1001
ACAD
1000
DSTYLE
1002
{
1070
     7
1000
OPEN30
1070
     6
1000
OPEN30
1070
   144
1040
1.0
1070
   274
1070
     4
1070
    41
1040
60.00003814697266
1070
    79
1070
     2
1070
   176
1070
     4
1070
   177
1070
     4
1070
   178
1070
     4
1070
   271
1070
     1
1070
    44
1040
20.0
1070
    42
1040
20.0
1070
   147
1040
20.00000000000006
1070
   173
1070
     1
1070
    77
1070
     3
1070
    73
1070
     0
1070
   172
1070
     1
1070
    74
1070
     0
1070
   283
1070
     0
1070
   340
1005
FF
1070
   140
1040
60.0
1070
   284
1070
     8
1070
   288
1070
     1
1070
    78
1070
     8
1070
    90
1070
     1
1002
}
  0
DIMENSION
  5
5DD
330
1F
100
AcDbEntity
  8
LAYER0032
  6
CONTINUOUS
100
AcDbDimension
  2
*D13
 10
138.1114790998567
 20
683.4022352859647
 30
0.0
 11
138.1114790998567
 21
333.4022352859647
 31
0.0
 70
   160
  3
DC_ROTATED
100
AcDbAlignedDimension
 13
393.3111461601802
 23
-16.59776471403529
 33
0.0
 14
393.3111461601802
 24
683.4022352859647
 34
0.0
 50
90.0
100
AcDbRotatedDimension
1001
ACAD
1000
DSTYLE
1002
{
1070
     7
1000
OPEN30
1070
     6
1000
OPEN30
1070
   144
1040
1.0
1070
   274
1070
     4
1070
    41
1040
60.00003814697266
1070
    79
1070
     2
1070
   176
1070
     4
1070
   177
1070
     4
1070
   178
1070
     4
1070
   271
1070
     1
1070
    44
1040
20.0
1070
    42
1040
20.0
1070
   147
1040
20.00000000000011
1070
   173
1070
     1
1070
    77
1070
     3
1070
    73
1070
     0
1070
   172
1070
     1
1070
    74
1070
     0
1070
   283
1070
     0
1070
   340
1005
FF
1070
   140
1040
60.0
1070
   284
1070
     8
1070
   288
1070
     1
1070
    78
1070
     8
1070
    90
1070
     1
1002
}
  0
DIMENSION
  5
5DE
330
1F
100
AcDbEntity
  8
LAYER0032
  6
CONTINUOUS
100
AcDbDimension
  2
*D14
 10
619.063131547869
 20
598.9022352859647
 30
0.0
 11
619.063131547869
 21
333.4022352859647
 31
0.0
 70
   160
  3
DC_ROTATED
100
AcDbAlignedDimension
 13
521.8728254946461
 23
67.90223528596471
 33
0.0
 14
521.8728254946461
 24
598.9022352859647
 34
0.0
 50
90.0
100
AcDbRotatedDimension
1001
ACAD
1000
DSTYLE
1002
{
1070
     7
1000
OPEN30
1070
     6
1000
OPEN30
1070
   144
1040
1.0
1070
   274
1070
     4
1070
    41
1040
60.00003814697266
1070
    79
1070
     2
1070
   176
1070
     4
1070
   177
1070
     4
1070
   178
1070
     4
1070
   271
1070
     1
1070
    44
1040
20.0
1070
    42
1040
20.0
1070
   147
1040
20.0
1070
   173
1070
     1
1070
    77
1070
     3
1070
    73
1070
     0
1070
   172
1070
     1
1070
    74
1070
     0
1070
   283
1070
     0
1070
   340
1005
FF
1070
   140
1040
60.0
1070
   284
1070
     8
1070
   288
1070
     1
1070
    78
1070
     8
1070
    90
1070
     1
1002
}
  0
DIMENSION
  5
5DF
330
1F
100
AcDbEntity
  8
LAYER0032
  6
CONTINUOUS
100
AcDbDimension
  2
*D15
 10
1610.31114616018
 20
775.3367057043606
 30
0.0
 11
1050.31114616018
 21
775.3367057043606
 31
0.0
 70
   160
  3
DC_ROTATED
100
AcDbAlignedDimension
 13
490.3111461601802
 23
628.9022352859647
 33
0.0
 14
1610.31114616018
 24
628.9022352859647
 34
0.0
100
AcDbRotatedDimension
1001
ACAD
1000
DSTYLE
1002
{
1070
     7
1000
OPEN30
1070
     6
1000
OPEN30
1070
   144
1040
1.0
1070
   274
1070
     4
1070
    41
1040
60.00003814697266
1070
    79
1070
     2
1070
   176
1070
     4
1070
   177
1070
     4
1070
   178
1070
     4
1070
   271
1070
     1
1070
    44
1040
20.0
1070
    42
1040
20.0
1070
   147
1040
19.99999999999909
1070
   173
1070
     1
1070
    77
1070
     3
1070
    73
1070
     0
1070
   172
1070
     1
1070
    74
1070
     0
1070
   283
1070
     0
1070
   340
1005
FF
1070
   140
1040
60.0
1070
   284
1070
     8
1070
   288
1070
     1
1070
    78
1070
     8
1070
    90
1070
     1
1002
}
  0
DIMENSION
  5
5E0
330
1F
100
AcDbEntity
  8
LAYER0032
  6
CONTINUOUS
100
AcDbDimension
  2
*D16
 10
1707.31114616018
 20
908.2739735271371
 30
0.0
 11
1050.31114616018
 21
908.2739735271371
 31
0.0
 70
   160
  3
DC_ROTATED
100
AcDbAlignedDimension
 13
393.3111461601802
 23
683.4022352859647
 33
0.0
 14
1707.31114616018
 24
683.4022352859647
 34
0.0
100
AcDbRotatedDimension
1001
ACAD
1000
DSTYLE
1002
{
1070
     7
1000
OPEN30
1070
     6
1000
OPEN30
1070
   144
1040
1.0
1070
   274
1070
     4
1070
    41
1040
60.00003814697266
1070
    79
1070
     2
1070
   176
1070
     4
1070
   177
1070
     4
1070
   178
1070
     4
1070
   271
1070
     1
1070
    44
1040
20.0
1070
    42
1040
20.0
1070
   147
1040
20.0
1070
   173
1070
     1
1070
    77
1070
     3
1070
    73
1070
     0
1070
   172
1070
     1
1070
    74
1070
     0
1070
   283
1070
     0
1070
   340
1005
FF
1070
   140
1040
60.0
1070
   284
1070
     8
1070
   288
1070
     1
1070
    78
1070
     8
1070
    90
1070
     1
1002
}
  0
DIMENSION
  5
5E1
330
1F
100
AcDbEntity
  8
LAYER0032
  6
CONTINUOUS
100
AcDbDimension
  2
*D17
 10
1730.31114616018
 20
1033.375633815764
 30
0.0
 11
1050.31114616018
 21
1033.375633815764
 31
0.0
 70
   160
  3
DC_ROTATED
100
AcDbAlignedDimension
 13
370.3111461601802
 23
638.9022352859647
 33
0.0
 14
1730.31114616018
 24
638.9022352859647
 34
0.0
100
AcDbRotatedDimension
1001
ACAD
1000
DSTYLE
1002
{
1070
     7
1000
OPEN30
1070
     6
1000
OPEN30
1070
   144
1040
1.0
1070
   274
1070
     4
1070
    41
1040
60.00003814697266
1070
    79
1070
     2
1070
   176
1070
     4
1070
   177
1070
     4
1070
   178
1070
     4
1070
   271
1070
     1
1070
    44
1040
20.0
1070
    42
1040
20.0
1070
   147
1040
20.0
1070
   173
1070
     1
1070
    77
1070
     3
1070
    73
1070
     0
1070
   172
1070
     1
1070
    74
1070
     0
1070
   283
1070
     0
1070
   340
1005
FF
1070
   140
1040
60.0
1070
   284
1070
     8
1070
   288
1070
     1
1070
    78
1070
     8
1070
    90
1070
     1
1002
}
  0
DIMENSION
  5
5E2
330
1F
100
AcDbEntity
  8
LAYER0032
  6
CONTINUOUS
100
AcDbDimension
  2
*D18
 10
1755.31114616018
 20
1153.497559316241
 30
0.0
 11
1050.31114616018
 21
1153.497559316241
 31
0.0
 70
   160
  3
DC_ROTATED
100
AcDbAlignedDimension
 13
345.3111461601802
 23
639.1022352859654
 33
0.0
 14
1755.31114616018
 24
639.1022352859654
 34
0.0
100
AcDbRotatedDimension
1001
ACAD
1000
DSTYLE
1002
{
1070
     7
1000
OPEN30
1070
     6
1000
OPEN30
1070
   144
1040
1.0
1070
   274
1070
     4
1070
    41
1040
60.00003814697266
1070
    79
1070
     2
1070
   176
1070
     4
1070
   177
1070
     4
1070
   178
1070
     4
1070
   271
1070
     1
1070
    44
1040
20.0
1070
    42
1040
20.0
1070
   147
1040
19.99999999999909
1070
   173
1070
     1
1070
    77
1070
     3
1070
    73
1070
     0
1070
   172
1070
     1
1070
    74
1070
     0
1070
   283
1070
     0
1070
   340
1005
FF
1070
   140
1040
60.0
1070
   284
1070
     8
1070
   288
1070
     1
1070
    78
1070
     8
1070
    90
1070
     1
1002
}
  0
INSERT
  5
5E3
330
1F
100
AcDbEntity
  8
LAYER0032
  6
CONTINUOUS
100
AcDbBlockReference
  2
DC_GROUP_12
 10
0.0
 20
0.0
 30
0.0
  0
INSERT
  5
5E4
330
1F
100
AcDbEntity
  8
LAYER0032
  6
CONTINUOUS
100
AcDbBlockReference
  2
DC_GROUP_13
 10
0.0
 20
0.0
 30
0.0
  0
INSERT
  5
5E5
330
1F
100
AcDbEntity
  8
LAYER0032
  6
CONTINUOUS
100
AcDbBlockReference
  2
DC_GROUP_14
 10
0.0
 20
0.0
 30
0.0
  0
DIMENSION
  5
5E6
330
1F
100
AcDbEntity
  8
LAYER0032
  6
CONTINUOUS
100
AcDbDimension
  2
*D22
 10
267.7289237305329
 20
-917.0192434493365
 30
0.0
 11
267.7289237305329
 21
-1102.974843449337
 31
0.0
 70
   160
  3
DC_ROTATED
100
AcDbAlignedDimension
 13
345.3111461601802
 23
-977.0192434493365
 33
0.0
 14
370.3111461601802
 24
-917.0192434493365
 34
0.0
 50
90.0
100
AcDbRotatedDimension
1001
ACAD
1000
DSTYLE
1002
{
1070
     7
1000
OPEN30
1070
     6
1000
OPEN30
1070
   144
1040
1.0
1070
   274
1070
     4
1070
    41
1040
60.00003814697266
1070
    79
1070
     2
1070
   176
1070
     4
1070
   177
1070
     4
1070
   178
1070
     4
1070
   271
1070
     1
1070
    44
1040
20.0
1070
    42
1040
20.0
1070
   147
1040
20.0
1070
   173
1070
     1
1070
    77
1070
     3
1070
    73
1070
     0
1070
   172
1070
     1
1070
    74
1070
     0
1070
   283
1070
     0
1070
   340
1005
FF
1070
   140
1040
60.0
1070
   284
1070
     8
1070
   288
1070
     1
1070
    78
1070
     8
1070
    90
1070
     1
1002
}
  0
DIMENSION
  5
5E7
330
1F
100
AcDbEntity
  8
LAYER0032
  6
CONTINUOUS
100
AcDbDimension
  2
*D23
 10
267.7289237305329
 20
-587.0192434493365
 30
0.0
 11
267.7289237305329
 21
-752.0192434493365
 31
0.0
 70
   160
  3
DC_ROTATED
100
AcDbAlignedDimension
 13
370.3111461601802
 23
-917.0192434493365
 33
0.0
 14
393.3111461601802
 24
-587.0192434493365
 34
0.0
 50
90.0
100
AcDbRotatedDimension
1001
ACAD
1000
DSTYLE
1002
{
1070
     7
1000
OPEN30
1070
     6
1000
OPEN30
1070
   144
1040
1.0
1070
   274
1070
     4
1070
    41
1040
60.00003814697266
1070
    79
1070
     2
1070
   176
1070
     4
1070
   177
1070
     4
1070
   178
1070
     4
1070
   271
1070
     1
1070
    44
1040
20.0
1070
    42
1040
20.0
1070
   147
1040
20.0
1070
   173
1070
     1
1070
    77
1070
     3
1070
    73
1070
     0
1070
   172
1070
     1
1070
    74
1070
     0
1070
   283
1070
     0
1070
   340
1005
FF
1070
   140
1040
60.0
1070
   284
1070
     8
1070
   288
1070
     1
1070
    78
1070
     8
1070
    90
1070
     1
1002
}
  0
DIMENSION
  5
5E8
330
1F
100
AcDbEntity
  8
LAYER0032
  6
CONTINUOUS
100
AcDbDimension
  2
*D24
 10
138.1114790998567
 20
-587.019243449337
 30
0.0
 11
138.1114790998567
 21
-782.0192434493365
 31
0.0
 70
   160
  3
DC_ROTATED
100
AcDbAlignedDimension
 13
345.3111461601802
 23
-977.0192434493365
 33
0.0
 14
393.3111461601802
 24
-587.019243449337
 34
0.0
 50
90.0
100
AcDbRotatedDimension
1001
ACAD
1000
DSTYLE
1002
{
1070
     7
1000
OPEN30
1070
     6
1000
OPEN30
1070
   144
1040
1.0
1070
   274
1070
     4
1070
    41
1040
60.00003814697266
1070
    79
1070
     2
1070
   176
1070
     4
1070
   177
1070
     4
1070
   178
1070
     4
1070
   271
1070
     1
1070
    44
1040
20.0
1070
    42
1040
20.0
1070
   147
1040
20.00000000000011
1070
   173
1070
     1
1070
    77
1070
     3
1070
    73
1070
     0
1070
   172
1070
     1
1070
    74
1070
     0
1070
   283
1070
     0
1070
   340
1005
FF
1070
   140
1040
60.0
1070
   284
1070
     8
1070
   288
1070
     1
1070
    78
1070
     8
1070
    90
1070
     1
1002
}
  0
INSERT
  5
5E9
330
1F
100
AcDbEntity
  8
LAYER0032
  6
CONTINUOUS
100
AcDbBlockReference
  2
DC_GROUP_15
 10
0.0
 20
0.0
 30
0.0
  0
LINE
  5
5EA
330
1F
100
AcDbEntity
  8
LAYER0048
  6
CONTINUOUS
 62
     2
100
AcDbLine
 10
-1662.089909083483
 20
1866.800609437159
 30
0.0
 11
-1662.089909083483
 21
1578.801185437159
 31
0.0
  0
LINE
  5
5EB
330
1F
100
AcDbEntity
  8
LAYER0048
  6
CONTINUOUS
 62
     2
100
AcDbLine
 10
1659.034338436518
 20
1866.800609437159
 30
0.0
 11
-1662.089909083484
 21
1866.800609437159
 31
0.0
  0
LINE
  5
5EC
330
1F
100
AcDbEntity
  8
LAYER0048
  6
CONTINUOUS
 62
     2
100
AcDbLine
 10
1659.034338436518
 20
1578.801185437159
 30
0.0
 11
1659.034338436518
 21
1866.800609437159
 31
0.0
  0
LINE
  5
5ED
330
1F
100
AcDbEntity
  8
LAYER0048
  6
CONTINUOUS
 62
     2
100
AcDbLine
 10
-1662.089909083484
 20
1578.801185437159
 30
0.0
 11
1659.034338436518
 21
1578.801185437159
 31
0.0
  0
CIRCLE
  5
5EE
330
1F
100
AcDbEntity
  8
LAYER0032
  6
CONTINUOUS
 62
     3
100
AcDbCircle
 10
1729.96114616018
 20
598.9022352859647
 30
0.0
 40
7.000000000000001
  0
CIRCLE
  5
5EF
330
1F
100
AcDbEntity
  8
LAYER0032
  6
CONTINUOUS
 62
     3
100
AcDbCircle
 10
1729.96114616018
 20
67.90223528596471
 30
0.0
 40
7.000000000000001
  0
CIRCLE
  5
5F0
330
1F
100
AcDbEntity
  8
LAYER0032
  6
CONTINUOUS
 62
     3
100
AcDbCircle
 10
370.6611461601799
 20
67.90223528596471
 30
0.0
 40
7.000000000000001
  0
CIRCLE
  5
5F1
330
1F
100
AcDbEntity
  8
LAYER0032
  6
CONTINUOUS
 62
     3
100
AcDbCircle
 10
370.6611461601799
 20
598.9022352859647
 30
0.0
 40
7.000000000000001
  0
VIEWPORT
  5
B3
330
1B
100
AcDbEntity
 67
     1
  8
0
100
AcDbViewport
 68
     1
 10
-0.0000000000027285
 20
1.999999999999545
 30
0.0
 40
15420.0
 41
11772.0
 68
     1
 69
     1
1001
ACAD
1000
MVIEW
1002
{
1070
    16
1010
0.0
1020
0.0
1030
0.0
1010
0.0
1020
0.0
1030
1.0
1040
0.0
1040
11772.0
1040
-0.0000000000027285
1040
1.999999999999545
1040
50.0
1040
0.0
1040
0.0
1070
     0
1070
   100
1070
     0
1070
     3
1070
     0
1070
     0
1070
     0
1070
     0
1040
0.0
1040
0.0
1040
0.0
1040
0.5
1040
0.5
1040
0.0
1040
0.0
1070
     0
1002
{
1002
}
1002
}
  0
ENDSEC
  0
SECTION
  2
OBJECTS
  0
DICTIONARY
  5
C
330
0
100
AcDbDictionary
  3
ACAD_GROUP
350
D
  3
ACAD_LAYOUT
350
1A
  3
ACAD_MATERIAL
350
43
  3
ACAD_MLEADERSTYLE
350
6B
  3
ACAD_MLINESTYLE
350
17
  3
ACAD_PLOTSETTINGS
350
19
  3
ACAD_SCALELIST
350
47
  3
ACAD_VISUALSTYLE
350
2A
  3
ACDBVARIABLEDICTIONARY
350
5F2
1001
ACAD
1000
TREAT_AS_HARD
1070
     0
  0
DICTIONARY
  5
D
102
{ACAD_REACTORS
330
C
102
}
330
C
100
AcDbDictionary
1001
ACAD
1000
TREAT_AS_HARD
1070
     0
  0
DICTIONARY
  5
1A
102
{ACAD_REACTORS
330
C
102
}
330
C
100
AcDbDictionary
1001
ACAD
1000
TREAT_AS_HARD
1070
     0
  0
DICTIONARY
  5
43
102
{ACAD_REACTORS
330
C
102
}
330
C
100
AcDbDictionary
  3
BYBLOCK
350
45
  3
BYLAYER
350
44
  3
GLOBAL
350
46
1001
ACAD
1000
TREAT_AS_HARD
1070
     0
  0
DICTIONARY
  5
6B
102
{ACAD_REACTORS
330
C
102
}
330
C
100
AcDbDictionary
  3
STANDARD
350
6C
1001
ACAD
1000
TREAT_AS_HARD
1070
     0
  0
DICTIONARY
  5
17
102
{ACAD_REACTORS
330
C
102
}
330
C
100
AcDbDictionary
  3
STANDARD
350
18
1001
ACAD
1000
TREAT_AS_HARD
1070
     0
  0
DICTIONARY
  5
19
102
{ACAD_REACTORS
330
C
102
}
330
C
100
AcDbDictionary
1001
ACAD
1000
TREAT_AS_HARD
1070
     0
  0
DICTIONARY
  5
47
102
{ACAD_REACTORS
330
C
102
}
330
C
100
AcDbDictionary
  3
A0
350
48
  3
A1
350
49
  3
A2
350
4A
  3
A3
350
4B
  3
A4
350
4C
  3
A5
350
4D
  3
A6
350
4E
  3
A7
350
4F
  3
A8
350
50
  3
A9
350
51
  3
B0
350
52
  3
B1
350
53
  3
B2
350
54
  3
B3
350
55
  3
B4
350
56
  3
B5
350
57
  3
B6
350
58
  3
B7
350
59
  3
B8
350
5A
  3
B9
350
5B
  3
C0
350
5C
  3
C1
350
5D
  3
C2
350
5E
  3
C3
350
5F
  3
C4
350
60
  3
C5
350
61
  3
C6
350
62
  3
C7
350
63
  3
C8
350
64
  3
C9
350
65
  3
D0
350
66
  3
D1
350
67
  3
D2
350
68
1001
ACAD
1000
TREAT_AS_HARD
1070
     0
  0
DICTIONARY
  5
2A
102
{ACAD_REACTORS
330
C
102
}
330
C
100
AcDbDictionary
  3
2DWIREFRAME
350
2F
  3
BASIC
350
32
  3
BRIGHTEN
350
36
  3
COLORCHANGE
350
3A
  3
CONCEPTUAL
350
34
  3
DIM
350
35
  3
EDGECOLOROFF
350
3D
  3
FACEPATTERN
350
39
  3
FLAT
350
2B
  3
FLATWITHEDGES
350
2C
  3
GOURAUD
350
2D
  3
GOURAUDWITHEDGES
350
2E
  3
HIDDEN
350
31
  3
JITTEROFF
350
3B
  3
LINEPATTERN
350
38
  3
OVERHANGOFF
350
3C
  3
REALISTIC
350
33
  3
SHADED
350
42
  3
SHADED_WITH_EDGES
350
41
  3
SHADES_OF_GRAY
350
3E
  3
SKETCHY
350
3F
  3
THICKEN
350
37
  3
WIREFRAME
350
30
  3
X-RAY
350
40
1001
ACAD
1000
TREAT_AS_HARD
1070
     0
  0
DICTIONARY
  5
5F2
102
{ACAD_REACTORS
330
C
102
}
330
C
100
AcDbDictionary
  3
CANNOSCALE
350
5F9
  3
CMLEADERSTYLE
350
5F4
  3
CTABLESTYLE
350
5F3
  3
DIMASSOC
350
5F7
  3
HIDETEXT
350
5F8
  3
MSLTSCALE
350
5FA
1001
ACAD
1000
TREAT_AS_HARD
1070
     0
  0
MATERIAL
  5
45
102
{ACAD_REACTORS
330
43
102
}
102
{ACAD_XDICTIONARY
360
5FD
102
}
330
43
100
AcDbMaterial
  1
BYBLOCK
  0
MATERIAL
  5
44
102
{ACAD_REACTORS
330
43
102
}
102
{ACAD_XDICTIONARY
360
5FB
102
}
330
43
100
AcDbMaterial
  1
BYLAYER
  0
MATERIAL
  5
46
102
{ACAD_REACTORS
330
43
102
}
102
{ACAD_XDICTIONARY
360
5FF
102
}
330
43
100
AcDbMaterial
  1
GLOBAL
  0
ACAD_PROXY_OBJECT
  5
6C
102
{ACAD_REACTORS
330
6B
102
}
330
6B
100
AcDbZombieObject
 90
      499
 91
      505
 93
      610
310
40901902A4063FBFFFFFE056BD1B81E855B9FC0AD7A3703D0AD73F4214DD185B99185C9900AD7A3703D0AC73F90141901A02B5E8DC0F42B1CFC02B5E8DC0F42B1CFE5764000000000000300FC0
340
14
340
0
340
11
340
0
 94
        0
1001
ACAD_MLEADERVER
1070
     2
  0
MLINESTYLE
  5
18
102
{ACAD_REACTORS
330
17
102
}
330
17
100
AcDbMlineStyle
  2
Standard
 70
     0
  3

 62
   256
 51
90.0
 52
90.0
 71
     2
 49
0.5
 62
   256
  6
BYLAYER
 49
-0.5
 62
   256
  6
BYLAYER
  0
ACAD_PROXY_OBJECT
  5
48
102
{ACAD_REACTORS
330
47
102
}
330
47
100
AcDbZombieObject
 90
      499
 91
      503
 93
       41
310
903313A31580
  0
ACAD_PROXY_OBJECT
  5
49
102
{ACAD_REACTORS
330
47
102
}
330
47
100
AcDbZombieObject
 90
      499
 91
      503
 93
      105
310
903313A324000000000000004000
  0
ACAD_PROXY_OBJECT
  5
4A
102
{ACAD_REACTORS
330
47
102
}
330
47
100
AcDbZombieObject
 90
      499
 91
      503
 93
      105
310
903313A344000000000000104000
  0
ACAD_PROXY_OBJECT
  5
4B
102
{ACAD_REACTORS
330
47
102
}
330
47
100
AcDbZombieObject
 90
      499
 91
      503
 93
      105
310
903313A354000000000000144000
  0
ACAD_PROXY_OBJECT
  5
4C
102
{ACAD_REACTORS
330
47
102
}
330
47
100
AcDbZombieObject
 90
      499
 91
      503
 93
      105
310
903313A384000000000000204000
  0
ACAD_PROXY_OBJECT
  5
4D
102
{ACAD_REACTORS
330
47
102
}
330
47
100
AcDbZombieObject
 90
      499
 91
      503
 93
      113
310
904313A31304000000000000244000
  0
ACAD_PROXY_OBJECT
  5
4E
102
{ACAD_REACTORS
330
47
102
}
330
47
100
AcDbZombieObject
 90
      499
 91
      503
 93
      113
310
904313A31364000000000000304000
  0
ACAD_PROXY_OBJECT
  5
4F
102
{ACAD_REACTORS
330
47
102
}
330
47
100
AcDbZombieObject
 90
      499
 91
      503
 93
      113
310
904313A32304000000000000344000
  0
ACAD_PROXY_OBJECT
  5
50
102
{ACAD_REACTORS
330
47
102
}
330
47
100
AcDbZombieObject
 90
      499
 91
      503
 93
      113
310
904313A333040000000000003E4000
  0
ACAD_PROXY_OBJECT
  5
51
102
{ACAD_REACTORS
330
47
102
}
330
47
100
AcDbZombieObject
 90
      499
 91
      503
 93
      113
310
904313A34304000000000000444000
  0
ACAD_PROXY_OBJECT
  5
52
102
{ACAD_REACTORS
330
47
102
}
330
47
100
AcDbZombieObject
 90
      499
 91
      503
 93
      113
310
904313A35304000000000000494000
  0
ACAD_PROXY_OBJECT
  5
53
102
{ACAD_REACTORS
330
47
102
}
330
47
100
AcDbZombieObject
 90
      499
 91
      503
 93
      121
310
905313A3130304000000000000594000
  0
ACAD_PROXY_OBJECT
  5
54
102
{ACAD_REACTORS
330
47
102
}
330
47
100
AcDbZombieObject
 90
      499
 91
      503
 93
      105
310
903323A310000000000000010100
  0
ACAD_PROXY_OBJECT
  5
55
102
{ACAD_REACTORS
330
47
102
}
330
47
100
AcDbZombieObject
 90
      499
 91
      503
 93
      105
310
903343A310000000000000410100
  0
ACAD_PROXY_OBJECT
  5
56
102
{ACAD_REACTORS
330
47
102
}
330
47
100
AcDbZombieObject
 90
      499
 91
      503
 93
      105
310
903383A310000000000000810100
  0
ACAD_PROXY_OBJECT
  5
57
102
{ACAD_REACTORS
330
47
102
}
330
47
100
AcDbZombieObject
 90
      499
 91
      503
 93
      113
310
90431303A310000000000000910100
  0
ACAD_PROXY_OBJECT
  5
58
102
{ACAD_REACTORS
330
47
102
}
330
47
100
AcDbZombieObject
 90
      499
 91
      503
 93
      121
310
9053130303A310000000000001650100
  0
ACAD_PROXY_OBJECT
  5
59
102
{ACAD_REACTORS
330
47
102
}
330
47
100
AcDbZombieObject
 90
      499
 91
      503
 93
      257
310
90E312F31323822203D2031272D3022000000000000200FC000000000000284000
  0
ACAD_PROXY_OBJECT
  5
5A
102
{ACAD_REACTORS
330
47
102
}
330
47
100
AcDbZombieObject
 90
      499
 91
      503
 93
      249
310
90D312F363422203D2031272D3022000000000000240FC000000000000284000
  0
ACAD_PROXY_OBJECT
  5
5B
102
{ACAD_REACTORS
330
47
102
}
330
47
100
AcDbZombieObject
 90
      499
 91
      503
 93
      249
310
90D312F333222203D2031272D3022000000000000280FC000000000000284000
  0
ACAD_PROXY_OBJECT
  5
5C
102
{ACAD_REACTORS
330
47
102
}
330
47
100
AcDbZombieObject
 90
      499
 91
      503
 93
      249
310
90D312F313622203D2031272D30220000000000002C0FC000000000000284000
  0
ACAD_PROXY_OBJECT
  5
5D
102
{ACAD_REACTORS
330
47
102
}
330
47
100
AcDbZombieObject
 90
      499
 91
      503
 93
      249
310
90D332F333222203D2031272D30220000000000002E0FC000000000000284000
  0
ACAD_PROXY_OBJECT
  5
5E
102
{ACAD_REACTORS
330
47
102
}
330
47
100
AcDbZombieObject
 90
      499
 91
      503
 93
      241
310
90C312F3822203D2031272D3022000000000000300FC000000000000284000
  0
ACAD_PROXY_OBJECT
  5
5F
102
{ACAD_REACTORS
330
47
102
}
330
47
100
AcDbZombieObject
 90
      499
 91
      503
 93
      249
310
90D332F313622203D2031272D3022000000000000320FC000000000000284000
  0
ACAD_PROXY_OBJECT
  5
60
102
{ACAD_REACTORS
330
47
102
}
330
47
100
AcDbZombieObject
 90
      499
 91
      503
 93
      241
310
90C312F3422203D2031272D3022000000000000340FC000000000000284000
  0
ACAD_PROXY_OBJECT
  5
61
102
{ACAD_REACTORS
330
47
102
}
330
47
100
AcDbZombieObject
 90
      499
 91
      503
 93
      241
310
90C332F3822203D2031272D3022000000000000360FC000000000000284000
  0
ACAD_PROXY_OBJECT
  5
62
102
{ACAD_REACTORS
330
47
102
}
330
47
100
AcDbZombieObject
 90
      499
 91
      503
 93
      241
310
90C312F3222203D2031272D3022000000000000380FC000000000000284000
  0
ACAD_PROXY_OBJECT
  5
63
102
{ACAD_REACTORS
330
47
102
}
330
47
100
AcDbZombieObject
 90
      499
 91
      503
 93
      241
310
90C332F3422203D2031272D30220000000000003A0FC000000000000284000
  0
ACAD_PROXY_OBJECT
  5
64
102
{ACAD_REACTORS
330
47
102
}
330
47
100
AcDbZombieObject
 90
      499
 91
      503
 93
      161
310
90A3122203D2031272D30224000000000000284000
  0
ACAD_PROXY_OBJECT
  5
65
102
{ACAD_REACTORS
330
47
102
}
330
47
100
AcDbZombieObject
 90
      499
 91
      503
 93
      257
310
90E312D312F3222203D2031272D30220000000000003E0FC000000000000284000
  0
ACAD_PROXY_OBJECT
  5
66
102
{ACAD_REACTORS
330
47
102
}
330
47
100
AcDbZombieObject
 90
      499
 91
      503
 93
      225
310
90A3322203D2031272D302200000000000002100000000000000284000
  0
ACAD_PROXY_OBJECT
  5
67
102
{ACAD_REACTORS
330
47
102
}
330
47
100
AcDbZombieObject
 90
      499
 91
      503
 93
      225
310
90A3622203D2031272D302200000000000006100000000000000284000
  0
ACAD_PROXY_OBJECT
  5
68
102
{ACAD_REACTORS
330
47
102
}
330
47
100
AcDbZombieObject
 90
      499
 91
      503
 93
      249
310
90D31272D3022203D2031272D30220000000000000A100000000000000284000
  0
ACAD_PROXY_OBJECT
  5
2F
102
{ACAD_REACTORS
330
2A
102
}
330
2A
100
AcDbZombieObject
 90
      499
 91
      501
 93
      436
310
42CC9915DA5C99599C985B595049028333333333333E33F0000000000000F90107901411070040501600405405064090741402480A0340
1001
ACAD
1000
AcDbSavedByObjectVersion
1070
     0
  0
ACAD_PROXY_OBJECT
  5
32
102
{ACAD_REACTORS
330
2A
102
}
330
2A
100
AcDbZombieObject
 90
      499
 91
      501
 93
      388
310
4150985CDA58D07406404333333333333E33F0000000000000F90107A41107004050150841D405064090741402480A0350
1001
ACAD
1000
AcDbSavedByObjectVersion
1070
     0
  0
ACAD_PROXY_OBJECT
  5
36
102
{ACAD_REACTORS
330
2A
102
}
330
2A
100
AcDbZombieObject
 90
      499
 91
      501
 93
      428
310
42109C9A59DA1D195B90C409028333333333333E33F0000000000000F9010790141107004050150841D405064090741402480A029950
1001
ACAD
1000
AcDbSavedByObjectVersion
1070
     0
  0
ACAD_PROXY_OBJECT
  5
3A
102
{ACAD_REACTORS
330
2A
102
}
330
2A
100
AcDbZombieObject
 90
      499
 91
      501
 93
      452
310
42D0DBDB1BDC90DA185B99D95104090240C333333333333E33F0000000000000F90108901411070040501508421405064090741402480A0350
1001
ACAD
1000
AcDbSavedByObjectVersion
1070
     0
  0
ACAD_PROXY_OBJECT
  5
34
102
{ACAD_REACTORS
330
2A
102
}
330
2A
100
AcDbZombieObject
 90
      499
 91
      501
 93
      500
310
4290DBDB98D95C1D1D585B10940D028333333333333E33F0000000000000F90107902409070040501000000000018199010841D405064090740C02480A0340
1001
ACAD
1000
AcDbSavedByObjectVersion
1070
     0
  0
ACAD_PROXY_OBJECT
  5
35
102
{ACAD_REACTORS
330
2A
102
}
330
2A
100
AcDbZombieObject
 90
      499
 91
      501
 93
      412
310
40D11A5B50B409028333333333333E33F0000000000000F9010790141107004050150841D405064090741402480A02677FFFFFD0
1001
ACAD
1000
AcDbSavedByObjectVersion
1070
     0
  0
ACAD_PROXY_OBJECT
  5
3D
102
{ACAD_REACTORS
330
2A
102
}
330
2A
100
AcDbZombieObject
 90
      499
 91
      501
 93
      452
310
43115919D950DBDB1BDC93D999916409028333333333333E33F0000000000000F9010790141107004050150841D405064090741402480A0350
1001
ACAD
1000
AcDbSavedByObjectVersion
1070
     0
  0
ACAD_PROXY_OBJECT
  5
39
102
{ACAD_REACTORS
330
2A
102
}
330
2A
100
AcDbZombieObject
 90
      499
 91
      501
 93
      444
310
42D19858D95C185D1D195C9B90F409028333333333333E33F0000000000000F9010790141107004050150841D405064090741402480A0350
1001
ACAD
1000
AcDbSavedByObjectVersion
1070
     0
  0
ACAD_PROXY_OBJECT
  5
2B
102
{ACAD_REACTORS
330
2A
102
}
330
2A
100
AcDbZombieObject
 90
      499
 91
      501
 93
      380
310
41119B185D240901404333333333333E33F0000000000000F9010740A907004050150841D405064090741402480A1B50
1001
ACAD
1000
AcDbSavedByObjectVersion
1070
     0
  0
ACAD_PROXY_OBJECT
  5
2C
102
{ACAD_REACTORS
330
2A
102
}
330
2A
100
AcDbZombieObject
 90
      499
 91
      501
 93
      468
310
43519B185D15DA5D1A115919D95CD0140901404333333333333E33F0000000000000F90107409019070040501600405405064090741402480A1B50
1001
ACAD
1000
AcDbSavedByObjectVersion
1070
     0
  0
ACAD_PROXY_OBJECT
  5
2D
102
{ACAD_REACTORS
330
2A
102
}
330
2A
100
AcDbZombieObject
 90
      499
 91
      501
 93
      404
310
41D1DBDD5C985D5910240902404333333333333E33F0000000000000F9010740A9070040501641D405064090741402480A1B50
1001
ACAD
1000
AcDbSavedByObjectVersion
1070
     0
  0
ACAD_PROXY_OBJECT
  5
2E
102
{ACAD_REACTORS
330
2A
102
}
330
2A
100
AcDbZombieObject
 90
      499
 91
      501
 93
      492
310
4411DBDD5C985D5915DA5D1A115919D95CD0340902404333333333333E33F0000000000000F90107409019070040501600405405064090741402480A1B50
1001
ACAD
1000
AcDbSavedByObjectVersion
1070
     0
  0
ACAD_PROXY_OBJECT
  5
31
102
{ACAD_REACTORS
330
2A
102
}
330
2A
100
AcDbZombieObject
 90
      499
 91
      501
 93
      476
310
41921A5919195B90640502408333333333333E33F0000000000000F901079024090700405020000000000001110200405405064090740C02480A0340
1001
ACAD
1000
AcDbSavedByObjectVersion
1070
     0
  0
ACAD_PROXY_OBJECT
  5
3B
102
{ACAD_REACTORS
330
2A
102
}
330
2A
100
AcDbZombieObject
 90
      499
 91
      501
 93
      428
310
42529A5D1D195C93D999914409028333333333333E33F0000000000000F9010790141107004050150A41D405064090741402480A0350
1001
ACAD
1000
AcDbSavedByObjectVersion
1070
     0
  0
ACAD_PROXY_OBJECT
  5
38
102
{ACAD_REACTORS
330
2A
102
}
330
2A
100
AcDbZombieObject
 90
      499
 91
      501
 93
      444
310
42D31A5B995C185D1D195C9B90E409028333333333333E33F0000000000000F9010790141107004050750841D405064090741402483A0350
1001
ACAD
1000
AcDbSavedByObjectVersion
1070
     0
  0
ACAD_PROXY_OBJECT
  5
3C
102
{ACAD_REACTORS
330
2A
102
}
330
2A
100
AcDbZombieObject
 90
      499
 91
      501
 93
      444
310
42D3DD995C9A185B99D3D999915409028333333333333E33F0000000000000F9010790141107004050150941D405064090741402480A0350
1001
ACAD
1000
AcDbSavedByObjectVersion
1070
     0
  0
ACAD_PROXY_OBJECT
  5
33
102
{ACAD_REACTORS
330
2A
102
}
330
2A
100
AcDbZombieObject
 90
      499
 91
      501
 93
      428
310
425499585B1A5CDD1A58D08409038333333333333E33F0000000000000F9010740A907004050150800405405064090740C02480A1B40
1001
ACAD
1000
AcDbSavedByObjectVersion
1070
     0
  0
ACAD_PROXY_OBJECT
  5
42
102
{ACAD_REACTORS
330
2A
102
}
330
2A
100
AcDbZombieObject
 90
      499
 91
      501
 93
      420
310
4194DA1859195911B40902404333333333333E33F0000000000000F9010740A41107004050150800405405064090840C02480A0B40
1001
ACAD
1000
AcDbSavedByObjectVersion
1070
     0
  0
ACAD_PROXY_OBJECT
  5
41
102
{ACAD_REACTORS
330
2A
102
}
330
2A
100
AcDbZombieObject
 90
      499
 91
      501
 93
      516
310
4454DA18591959081DDA5D1A08195919D95CD1A40902404333333333333E33F0000000000000F901074090142907004050250800405405064090740C02480A0B40
1001
ACAD
1000
AcDbSavedByObjectVersion
1070
     0
  0
ACAD_PROXY_OBJECT
  5
3E
102
{ACAD_REACTORS
330
2A
102
}
330
2A
100
AcDbZombieObject
 90
      499
 91
      501
 93
      532
310
4394DA1859195CC81BD98811DC985E5174090240C333333333333E33F0000000000000F901079024090741D01000000000000111010841D405064090740C02480A0340
1001
ACAD
1000
AcDbSavedByObjectVersion
1070
     0
  0
ACAD_PROXY_OBJECT
  5
3F
102
{ACAD_REACTORS
330
2A
102
}
330
2A
100
AcDbZombieObject
 90
      499
 91
      501
 93
      476
310
41D4DAD95D18DA1E51840502408333333333333E33F0000000000000F901079024090741D01000000000000111010B41D405064090741802480A0340
1001
ACAD
1000
AcDbSavedByObjectVersion
1070
     0
  0
ACAD_PROXY_OBJECT
  5
37
102
{ACAD_REACTORS
330
2A
102
}
330
2A
100
AcDbZombieObject
 90
      499
 91
      501
 93
      412
310
41D51A1A58DAD95B90D409028333333333333E33F0000000000000F9010790141107004050150C41D405064090741402480A0350
1001
ACAD
1000
AcDbSavedByObjectVersion
1070
     0
  0
ACAD_PROXY_OBJECT
  5
30
102
{ACAD_REACTORS
330
2A
102
}
330
2A
100
AcDbZombieObject
 90
      499
 91
      501
 93
      420
310
4255DA5C99599C985B595059028333333333333E33F0000000000000F90107901411070040501600405405064090740C02480A0340
1001
ACAD
1000
AcDbSavedByObjectVersion
1070
     0
  0
ACAD_PROXY_OBJECT
  5
40
102
{ACAD_REACTORS
330
2A
102
}
330
2A
100
AcDbZombieObject
 90
      499
 91
      501
 93
      404
310
41560B54985E51940902404000000000000E03F0000000000000F9010740501907004050150841D405064090740C02480A1B40
1001
ACAD
1000
AcDbSavedByObjectVersion
1070
     0
  0
DICTIONARYVAR
  5
5F9
102
{ACAD_REACTORS
330
5F2
102
}
330
5F2
100
DictionaryVariables
280
     0
  1
1:1
  0
DICTIONARYVAR
  5
5F4
102
{ACAD_REACTORS
330
5F2
102
}
330
5F2
100
DictionaryVariables
280
     0
  1
Standard
  0
DICTIONARYVAR
  5
5F3
102
{ACAD_REACTORS
330
5F2
102
}
330
5F2
100
DictionaryVariables
280
     0
  1
Standard
  0
DICTIONARYVAR
  5
5F7
102
{ACAD_REACTORS
330
5F2
102
}
330
5F2
100
DictionaryVariables
280
     0
  1
2
  0
DICTIONARYVAR
  5
5F8
102
{ACAD_REACTORS
330
5F2
102
}
330
5F2
100
DictionaryVariables
280
     0
  1
1
  0
DICTIONARYVAR
  5
5FA
102
{ACAD_REACTORS
330
5F2
102
}
330
5F2
100
DictionaryVariables
280
     0
  1
1
  0
DICTIONARY
  5
5FD
330
45
100
AcDbDictionary
  3
ACAD_XREC_ROUNDTRIP
360
5FE
1001
ACAD
1000
TREAT_AS_HARD
1070
     1
  0
DICTIONARY
  5
5FB
330
44
100
AcDbDictionary
  3
ACAD_XREC_ROUNDTRIP
360
5FC
1001
ACAD
1000
TREAT_AS_HARD
1070
     1
  0
DICTIONARY
  5
5FF
330
46
100
AcDbDictionary
  3
ACAD_XREC_ROUNDTRIP
360
600
1001
ACAD
1000
TREAT_AS_HARD
1070
     1
  0
XRECORD
  5
5FE
102
{ACAD_REACTORS
330
5FD
102
}
330
5FD
100
AcDbXrecord
102
MATERIAL
148
0.0
149
0.0
149
0.0
 93
        0
 94
      127
282
     0
 72
     1
 77
     1
171
     1
175
     1
179
     1
273
     0
  0
XRECORD
  5
5FC
102
{ACAD_REACTORS
330
5FB
102
}
330
5FB
100
AcDbXrecord
102
MATERIAL
148
0.0
149
0.0
149
0.0
 93
        0
 94
      127
282
     0
 72
     1
 77
     1
171
     1
175
     1
179
     1
273
     0
  0
XRECORD
  5
600
102
{ACAD_REACTORS
330
5FF
102
}
330
5FF
100
AcDbXrecord
102
MATERIAL
148
0.0
149
0.0
149
0.0
 93
        0
 94
      127
282
     0
 72
     1
 77
     1
171
     1
175
     1
179
     1
273
     0
  0
ENDSEC
  0
EOF
