  0
SECTION
  2
HEADER
  9
$ACADVER
  1
AC1012
  9
$DWGCODEPAGE
  3
ansi_932
  9
$INSBASE
 10
0.0
 20
0.0
 30
0.0
  9
$EXTMIN
 10
-7710.000000000003
 20
-5884.000000000003
 30
0.0
  9
$EXTMAX
 10
7709.999999999997
 20
5888.000000000002
 30
0.0
  9
$LIMMIN
 10
-2970.0
 20
-2100.0
  9
$LIMMAX
 10
2970.0
 20
2100.0
  9
$ORTHOMODE
 70
     0
  9
$REGENMODE
 70
     1
  9
$FILLMODE
 70
     1
  9
$QTEXTMODE
 70
     0
  9
$MIRRTEXT
 70
     1
  9
$DRAGMODE
 70
     2
  9
$LTSCALE
 40
5.0
  9
$OSMODE
 70
    37
  9
$ATTMODE
 70
     1
  9
$TEXTSIZE
 40
0.2
  9
$TRACEWID
 40
0.05
  9
$TEXTSTYLE
  7
STANDARD
  9
$CLAYER
  8
0
  9
$CELTYPE
  6
BYLAYER
  9
$CECOLOR
 62
   256
  9
$CELTSCALE
 40
1.0
  9
$DELOBJ
 70
     1
  9
$DISPSILH
 70
     0
  9
$DIMSCALE
 40
1.0
  9
$DIMASZ
 40
60.00003814697266
  9
$DIMEXO
 40
1.0
  9
$DIMDLI
 40
10.0
  9
$DIMRND
 40
0.0
  9
$DIMDLE
 40
0.0
  9
$DIMEXE
 40
1.0
  9
$DIMTP
 40
0.0
  9
$DIMTM
 40
0.0
  9
$DIMTXT
 40
70.0
  9
$DIMCEN
 40
0.0
  9
$DIMTSZ
 40
0.0
  9
$DIMTOL
 70
     0
  9
$DIMLIM
 70
     0
  9
$DIMTIH
 70
     0
  9
$DIMTOH
 70
     0
  9
$DIMSE1
 70
     0
  9
$DIMSE2
 70
     0
  9
$DIMTAD
 70
     1
  9
$DIMZIN
 70
     8
  9
$DIMBLK
  1

  9
$DIMASO
 70
     1
  9
$DIMSHO
 70
     1
  9
$DIMPOST
  1

  9
$DIMAPOST
  1

  9
$DIMALT
 70
     0
  9
$DIMALTD
 70
     2
  9
$DIMALTF
 40
0.0393700787401575
  9
$DIMLFAC
 40
1.0
  9
$DIMTOFL
 70
     0
  9
$DIMTVP
 40
0.0
  9
$DIMTIX
 70
     0
  9
$DIMSOXD
 70
     0
  9
$DIMSAH
 70
     0
  9
$DIMBLK1
  1

  9
$DIMBLK2
  1

  9
$DIMSTYLE
  2
STANDARD
  9
$DIMCLRD
 70
     0
  9
$DIMCLRE
 70
     0
  9
$DIMCLRT
 70
     0
  9
$DIMTFAC
 40
0.65
  9
$DIMGAP
 40
0.09
  9
$DIMJUST
 70
     0
  9
$DIMSD1
 70
     0
  9
$DIMSD2
 70
     0
  9
$DIMTOLJ
 70
     0
  9
$DIMTZIN
 70
     0
  9
$DIMALTZ
 70
     0
  9
$DIMALTTZ
 70
     0
  9
$DIMFIT
 70
     3
  9
$DIMUPT
 70
     0
  9
$DIMUNIT
 70
     2
  9
$DIMDEC
 70
     2
  9
$DIMTDEC
 70
     2
  9
$DIMALTU
 70
     2
  9
$DIMALTTD
 70
     2
  9
$DIMTXSTY
  7
STANDARD
  9
$DIMAUNIT
 70
     0
  9
$LUNITS
 70
     2
  9
$LUPREC
 70
     4
  9
$SKETCHINC
 40
0.1
  9
$FILLETRAD
 40
0.5
  9
$AUNITS
 70
     0
  9
$AUPREC
 70
     0
  9
$MENU
  1
.
  9
$ELEVATION
 40
0.0
  9
$PELEVATION
 40
0.0
  9
$THICKNESS
 40
0.0
  9
$LIMCHECK
 70
     0
  9
$CHAMFERA
 40
0.0
  9
$CHAMFERB
 40
0.0
  9
$CHAMFERC
 40
0.0
  9
$CHAMFERD
 40
0.0
  9
$SKPOLY
 70
     0
  9
$TDCREATE
 40
2459688.467403947
  9
$TDUPDATE
 40
2459688.467404491
  9
$TDINDWG
 40
0.0000000116
  9
$TDUSRTIMER
 40
0.0000000116
  9
$USRTIMER
 70
     1
  9
$ANGBASE
 50
0.0
  9
$ANGDIR
 70
     0
  9
$PDMODE
 70
     0
  9
$PDSIZE
 40
1.0
  9
$PLINEWID
 40
0.0
  9
$COORDS
 70
     1
  9
$SPLFRAME
 70
     0
  9
$SPLINETYPE
 70
     6
  9
$SPLINESEGS
 70
     8
  9
$ATTDIA
 70
     0
  9
$ATTREQ
 70
     1
  9
$HANDLING
 70
     1
  9
$HANDSEED
  5
659
  9
$SURFTAB1
 70
     6
  9
$SURFTAB2
 70
     6
  9
$SURFTYPE
 70
     6
  9
$SURFU
 70
     6
  9
$SURFV
 70
     6
  9
$UCSNAME
  2

  9
$UCSORG
 10
0.0
 20
0.0
 30
0.0
  9
$UCSXDIR
 10
1.0
 20
0.0
 30
0.0
  9
$UCSYDIR
 10
0.0
 20
1.0
 30
0.0
  9
$PUCSNAME
  2

  9
$PUCSORG
 10
0.0
 20
0.0
 30
0.0
  9
$PUCSXDIR
 10
1.0
 20
0.0
 30
0.0
  9
$PUCSYDIR
 10
0.0
 20
1.0
 30
0.0
  9
$USERI1
 70
     0
  9
$USERI2
 70
     0
  9
$USERI3
 70
     0
  9
$USERI4
 70
     0
  9
$USERI5
 70
     0
  9
$USERR1
 40
0.0
  9
$USERR2
 40
0.0
  9
$USERR3
 40
0.0
  9
$USERR4
 40
0.0
  9
$USERR5
 40
0.0
  9
$WORLDVIEW
 70
     1
  9
$SHADEDGE
 70
     3
  9
$SHADEDIF
 70
    70
  9
$TILEMODE
 70
     1
  9
$MAXACTVP
 70
    64
  9
$PINSBASE
 10
0.0
 20
0.0
 30
0.0
  9
$PLIMCHECK
 70
     0
  9
$PEXTMIN
 10
1.000000000000000E+20
 20
1.000000000000000E+20
 30
1.000000000000000E+20
  9
$PEXTMAX
 10
-1.000000000000000E+20
 20
-1.000000000000000E+20
 30
-1.000000000000000E+20
  9
$PLIMMIN
 10
0.0
 20
0.0
  9
$PLIMMAX
 10
12.0
 20
9.0
  9
$UNITMODE
 70
     0
  9
$VISRETAIN
 70
     0
  9
$PLINEGEN
 70
     1
  9
$PSLTSCALE
 70
     0
  9
$TREEDEPTH
 70
  3020
  9
$PICKSTYLE
 70
     1
  9
$CMLSTYLE
  2
STANDARD
  9
$CMLJUST
 70
     0
  9
$CMLSCALE
 40
1.0
  9
$SAVEIMAGES
 70
     0
  0
ENDSEC
  0
SECTION
  2
CLASSES
  0
CLASS
  1
ACDBDICTIONARYWDFLT
  2
AcDbDictionaryWithDefault
  3
ObjectDBX Classes
 90
    32768
280
     0
281
     0
  0
CLASS
  1
VISUALSTYLE
  2
AcDbVisualStyle
  3
ObjectDBX Classes
 90
     4095
280
     0
281
     0
  0
CLASS
  1
MATERIAL
  2
AcDbMaterial
  3
ObjectDBX Classes
 90
     1153
280
     0
281
     0
  0
CLASS
  1
SCALE
  2
AcDbScale
  3
ObjectDBX Classes
 90
     1153
280
     0
281
     0
  0
CLASS
  1
TABLESTYLE
  2
AcDbTableStyle
  3
ObjectDBX Classes
 90
     4095
280
     0
281
     0
  0
CLASS
  1
MLEADERSTYLE
  2
AcDbMLeaderStyle
  3
ACDB_MLEADERSTYLE_CLASS
 90
     4095
280
     0
281
     0
  0
CLASS
  1
SUN
  2
AcDbSun
  3
SCENEOE
 90
     1153
280
     0
281
     0
  0
CLASS
  1
DICTIONARYVAR
  2
AcDbDictionaryVar
  3
ObjectDBX Classes
 90
        0
280
     0
281
     0
  0
CLASS
  1
XRECORD
  2
AcDbXrecord
  3
ObjectDBX Classes
 90
    32768
280
     0
281
     0
  0
CLASS
  1
LWPOLYLINE
  2
AcDbPolyline
  3
ObjectDBX Classes
 90
    32768
280
     0
281
     1
  0
CLASS
  1
HATCH
  2
AcDbHatch
  3
ObjectDBX Classes
 90
    32768
280
     0
281
     1
  0
CLASS
  1
ACDBPLACEHOLDER
  2
AcDbPlaceHolder
  3
ObjectDBX Classes
 90
        0
280
     0
281
     0
  0
CLASS
  1
LAYOUT
  2
AcDbLayout
  3
ObjectDBX Classes
 90
        0
280
     0
281
     0
  0
ENDSEC
  0
SECTION
  2
TABLES
  0
TABLE
  2
VPORT
  5
8
330
0
100
AcDbSymbolTable
 70
     1
  0
VPORT
  5
29
330
8
100
AcDbSymbolTableRecord
100
AcDbViewportTableRecord
  2
*ACTIVE
 70
     0
 10
0.0
 20
0.0
 11
1.0
 21
1.0
 12
-0.0000000000026183
 22
-5.309616106040494
 13
0.0
 23
0.0
 14
0.5
 24
0.5
 15
0.5
 25
0.5
 16
0.0
 26
0.0
 36
1.0
 17
0.0
 27
0.0
 37
0.0
 40
4017.391616856323
 41
1.305025872509432
 42
50.0
 43
0.0
 44
0.0
 50
0.0
 51
0.0
 71
     0
 72
  1000
 73
     1
 74
     1
 75
     0
 76
     0
 77
     0
 78
     0
  0
ENDTAB
  0
TABLE
  2
LTYPE
  5
5
330
0
100
AcDbSymbolTable
 70
    67
  0
LTYPE
  5
14
330
5
100
AcDbSymbolTableRecord
100
AcDbLinetypeTableRecord
  2
BYBLOCK
 70
     0
  3

 72
    65
 73
     0
 40
0.0
  0
LTYPE
  5
15
330
5
100
AcDbSymbolTableRecord
100
AcDbLinetypeTableRecord
  2
BYLAYER
 70
     0
  3

 72
    65
 73
     0
 40
0.0
  0
LTYPE
  5
16
330
5
100
AcDbSymbolTableRecord
100
AcDbLinetypeTableRecord
  2
CONTINUOUS
 70
     0
  3
Solid line
 72
    65
 73
     0
 40
0.0
  0
LTYPE
  5
6F
330
5
100
AcDbSymbolTableRecord
100
AcDbLinetypeTableRecord
  2
HIDDENX2
 70
     0
  3
Hidden (2x) ____ ____ ____ ____ ____ ____ ____ 
 72
    65
 73
     2
 40
19.05
 49
12.7
 74
     0
 49
-6.35
 74
     0
  0
LTYPE
  5
70
330
5
100
AcDbSymbolTableRecord
100
AcDbLinetypeTableRecord
  2
HIDDEN
 70
     0
  3
Hidden __ __ __ __ __ __ __ __ __ __ __ __ __ __
 72
    65
 73
     2
 40
9.524999999999999
 49
6.35
 74
     0
 49
-3.175
 74
     0
  0
LTYPE
  5
71
330
5
100
AcDbSymbolTableRecord
100
AcDbLinetypeTableRecord
  2
HIDDEN2
 70
     0
  3
Hidden (.5x) _ _ _ _ _ _ _ _ _ _ _ _ _ _ _ _ _ 
 72
    65
 73
     2
 40
4.762499999999999
 49
3.175
 74
     0
 49
-1.5875
 74
     0
  0
LTYPE
  5
72
330
5
100
AcDbSymbolTableRecord
100
AcDbLinetypeTableRecord
  2
DASHED
 70
     0
  3
Dashed __ __ __ __ __ __ __ __ __ __ __ __ __ _
 72
    65
 73
     2
 40
19.05
 49
12.7
 74
     0
 49
-6.35
 74
     0
  0
LTYPE
  5
73
330
5
100
AcDbSymbolTableRecord
100
AcDbLinetypeTableRecord
  2
DASHED2
 70
     0
  3
Dashed (.5x) _ _ _ _ _ _ _ _ _ _ _ _ _ _ _ _ _ 
 72
    65
 73
     2
 40
9.524999999999999
 49
6.35
 74
     0
 49
-3.175
 74
     0
  0
LTYPE
  5
74
330
5
100
AcDbSymbolTableRecord
100
AcDbLinetypeTableRecord
  2
DASHEDX2
 70
     0
  3
Dashed (2x) ____  ____  ____  ____  ____  ___
 72
    65
 73
     2
 40
38.09999999999999
 49
25.4
 74
     0
 49
-12.7
 74
     0
  0
LTYPE
  5
75
330
5
100
AcDbSymbolTableRecord
100
AcDbLinetypeTableRecord
  2
DOTX2
 70
     0
  3
Dot (2x) .  .  .  .  .  .  .  .  .  .  .  .  .  .
 72
    65
 73
     2
 40
12.7
 49
0.0
 74
     0
 49
-12.7
 74
     0
  0
LTYPE
  5
76
330
5
100
AcDbSymbolTableRecord
100
AcDbLinetypeTableRecord
  2
DOT
 70
     0
  3
Dot . . . . . . . . . . . . . . . . . . . . . . . .
 72
    65
 73
     2
 40
6.35
 49
0.0
 74
     0
 49
-6.35
 74
     0
  0
LTYPE
  5
77
330
5
100
AcDbSymbolTableRecord
100
AcDbLinetypeTableRecord
  2
DOT2
 70
     0
  3
Dot (.5x) ........................................
 72
    65
 73
     2
 40
3.175
 49
0.0
 74
     0
 49
-3.175
 74
     0
  0
LTYPE
  5
78
330
5
100
AcDbSymbolTableRecord
100
AcDbLinetypeTableRecord
  2
CENTERX2
 70
     0
  3
Center (2x) ________  __  ________  __  _____
 72
    65
 73
     4
 40
101.6
 49
63.5
 74
     0
 49
-12.7
 74
     0
 49
12.7
 74
     0
 49
-12.7
 74
     0
  0
LTYPE
  5
79
330
5
100
AcDbSymbolTableRecord
100
AcDbLinetypeTableRecord
  2
CENTER
 70
     0
  3
Center ____ _ ____ _ ____ _ ____ _ ____ _ ____
 72
    65
 73
     4
 40
50.8
 49
31.75
 74
     0
 49
-6.35
 74
     0
 49
6.35
 74
     0
 49
-6.35
 74
     0
  0
LTYPE
  5
7A
330
5
100
AcDbSymbolTableRecord
100
AcDbLinetypeTableRecord
  2
CENTER2
 70
     0
  3
Center (.5x) ___ _ ___ _ ___ _ ___ _ ___ _ ___
 72
    65
 73
     4
 40
28.575
 49
19.05
 74
     0
 49
-3.175
 74
     0
 49
3.175
 74
     0
 49
-3.175
 74
     0
  0
LTYPE
  5
7B
330
5
100
AcDbSymbolTableRecord
100
AcDbLinetypeTableRecord
  2
DASHDOTX2
 70
     0
  3
Dash dot (2x) ____  .  ____  .  ____  .  ___
 72
    65
 73
     4
 40
50.8
 49
25.4
 74
     0
 49
-12.7
 74
     0
 49
0.0
 74
     0
 49
-12.7
 74
     0
  0
LTYPE
  5
7C
330
5
100
AcDbSymbolTableRecord
100
AcDbLinetypeTableRecord
  2
DASHDOT
 70
     0
  3
Dash dot __ . __ . __ . __ . __ . __ . __ . __
 72
    65
 73
     4
 40
25.4
 49
12.7
 74
     0
 49
-6.35
 74
     0
 49
0.0
 74
     0
 49
-6.35
 74
     0
  0
LTYPE
  5
7D
330
5
100
AcDbSymbolTableRecord
100
AcDbLinetypeTableRecord
  2
DASHDOT2
 70
     0
  3
Dash dot (.5x) _._._._._._._._._._._._._._._.
 72
    65
 73
     4
 40
12.7
 49
6.35
 74
     0
 49
-3.175
 74
     0
 49
0.0
 74
     0
 49
-3.175
 74
     0
  0
LTYPE
  5
7E
330
5
100
AcDbSymbolTableRecord
100
AcDbLinetypeTableRecord
  2
DIVIDEX2
 70
     0
  3
Divide (2x) ________  .  .  ________  .  .  _
 72
    65
 73
     6
 40
63.5
 49
25.4
 74
     0
 49
-12.7
 74
     0
 49
0.0
 74
     0
 49
-12.7
 74
     0
 49
0.0
 74
     0
 49
-12.7
 74
     0
  0
LTYPE
  5
7F
330
5
100
AcDbSymbolTableRecord
100
AcDbLinetypeTableRecord
  2
DIVIDE
 70
     0
  3
Divide ____ . . ____ . . ____ . . ____ . . ____
 72
    65
 73
     6
 40
31.75
 49
12.7
 74
     0
 49
-6.35
 74
     0
 49
0.0
 74
     0
 49
-6.35
 74
     0
 49
0.0
 74
     0
 49
-6.35
 74
     0
  0
LTYPE
  5
80
330
5
100
AcDbSymbolTableRecord
100
AcDbLinetypeTableRecord
  2
DIVIDE2
 70
     0
  3
Divide (.5x) __..__..__..__..__..__..__..__.._
 72
    65
 73
     6
 40
15.875
 49
6.35
 74
     0
 49
-3.175
 74
     0
 49
0.0
 74
     0
 49
-3.175
 74
     0
 49
0.0
 74
     0
 49
-3.175
 74
     0
  0
LTYPE
  5
81
330
5
100
AcDbSymbolTableRecord
100
AcDbLinetypeTableRecord
  2
BORDERX2
 70
     0
  3
Border (2x) ____  ____  .  ____  ____  .  ___
 72
    65
 73
     6
 40
88.89999999999999
 49
25.4
 74
     0
 49
-12.7
 74
     0
 49
25.4
 74
     0
 49
-12.7
 74
     0
 49
0.0
 74
     0
 49
-12.7
 74
     0
  0
LTYPE
  5
82
330
5
100
AcDbSymbolTableRecord
100
AcDbLinetypeTableRecord
  2
BORDER
 70
     0
  3
Border __ __ . __ __ . __ __ . __ __ . __ __ .
 72
    65
 73
     6
 40
44.45
 49
12.7
 74
     0
 49
-6.35
 74
     0
 49
12.7
 74
     0
 49
-6.35
 74
     0
 49
0.0
 74
     0
 49
-6.35
 74
     0
  0
LTYPE
  5
83
330
5
100
AcDbSymbolTableRecord
100
AcDbLinetypeTableRecord
  2
BORDER2
 70
     0
  3
Border (.5x) __.__.__.__.__.__.__.__.__.__.__.
 72
    65
 73
     6
 40
22.225
 49
6.35
 74
     0
 49
-3.175
 74
     0
 49
6.35
 74
     0
 49
-3.175
 74
     0
 49
0.0
 74
     0
 49
-3.175
 74
     0
  0
LTYPE
  5
84
330
5
100
AcDbSymbolTableRecord
100
AcDbLinetypeTableRecord
  2
PHANTOMX2
 70
     0
  3
Phantom (2x) ____________    ____    ____   _
 72
    65
 73
     6
 40
127.0
 49
63.5
 74
     0
 49
-12.7
 74
     0
 49
12.7
 74
     0
 49
-12.7
 74
     0
 49
12.7
 74
     0
 49
-12.7
 74
     0
  0
LTYPE
  5
85
330
5
100
AcDbSymbolTableRecord
100
AcDbLinetypeTableRecord
  2
PHANTOM
 70
     0
  3
Phantom ______  __  __  ______  __  __  ______ 
 72
    65
 73
     6
 40
63.5
 49
31.75
 74
     0
 49
-6.35
 74
     0
 49
6.35
 74
     0
 49
-6.35
 74
     0
 49
6.35
 74
     0
 49
-6.35
 74
     0
  0
LTYPE
  5
86
330
5
100
AcDbSymbolTableRecord
100
AcDbLinetypeTableRecord
  2
PHANTOM2
 70
     0
  3
Phantom (.5x) ___ _ _ ___ _ _ ___ _ _ ___ _ _
 72
    65
 73
     6
 40
31.75
 49
15.875
 74
     0
 49
-3.175
 74
     0
 49
3.175
 74
     0
 49
-3.175
 74
     0
 49
3.175
 74
     0
 49
-3.175
 74
     0
  0
LTYPE
  5
87
330
5
100
AcDbSymbolTableRecord
100
AcDbLinetypeTableRecord
  2
ACAD_ISO06W100
 70
     0
  3
ISO long-dash triple-dot ____ ... ____ ... ____
 72
    65
 73
     8
 40
36.0
 49
24.0
 74
     0
 49
-3.0
 74
     0
 49
0.0
 74
     0
 49
-3.0
 74
     0
 49
0.0
 74
     0
 49
-3.0
 74
     0
 49
0.0
 74
     0
 49
-3.0
 74
     0
  0
LTYPE
  5
88
330
5
100
AcDbSymbolTableRecord
100
AcDbLinetypeTableRecord
  2
ACAD_ISO13W100
 70
     0
  3
ISO double-dash double-dot __ __ . . __ __ . . _
 72
    65
 73
     8
 40
36.0
 49
12.0
 74
     0
 49
-3.0
 74
     0
 49
12.0
 74
     0
 49
-3.0
 74
     0
 49
0.0
 74
     0
 49
-3.0
 74
     0
 49
0.0
 74
     0
 49
-3.0
 74
     0
  0
LTYPE
  5
89
330
5
100
AcDbSymbolTableRecord
100
AcDbLinetypeTableRecord
  2
ACAD_ISO14W100
 70
     0
  3
ISO dash triple-dot __ . . . __ . . . __ . . . _
 72
    65
 73
     8
 40
24.0
 49
12.0
 74
     0
 49
-3.0
 74
     0
 49
0.0
 74
     0
 49
-3.0
 74
     0
 49
0.0
 74
     0
 49
-3.0
 74
     0
 49
0.0
 74
     0
 49
-3.0
 74
     0
  0
LTYPE
  5
8A
330
5
100
AcDbSymbolTableRecord
100
AcDbLinetypeTableRecord
  2
ACAD_ISO02W100
 70
     0
  3
ISO dash __ __ __ __ __ __ __ __ __ __ __ __ __
 72
    65
 73
     2
 40
15.0
 49
12.0
 74
     0
 49
-3.0
 74
     0
  0
LTYPE
  5
8B
330
5
100
AcDbSymbolTableRecord
100
AcDbLinetypeTableRecord
  2
ACAD_ISO03W100
 70
     0
  3
ISO dash space __    __    __    __    __    __
 72
    65
 73
     2
 40
30.0
 49
12.0
 74
     0
 49
-18.0
 74
     0
  0
LTYPE
  5
8C
330
5
100
AcDbSymbolTableRecord
100
AcDbLinetypeTableRecord
  2
ACAD_ISO04W100
 70
     0
  3
ISO long-dash dot ____ . ____ . ____ . ____ . _
 72
    65
 73
     4
 40
30.0
 49
24.0
 74
     0
 49
-3.0
 74
     0
 49
0.0
 74
     0
 49
-3.0
 74
     0
  0
LTYPE
  5
8D
330
5
100
AcDbSymbolTableRecord
100
AcDbLinetypeTableRecord
  2
ACAD_ISO05W100
 70
     0
  3
ISO long-dash double-dot ____ .. ____ .. ____ . 
 72
    65
 73
     6
 40
33.0
 49
24.0
 74
     0
 49
-3.0
 74
     0
 49
0.0
 74
     0
 49
-3.0
 74
     0
 49
0.0
 74
     0
 49
-3.0
 74
     0
  0
LTYPE
  5
8E
330
5
100
AcDbSymbolTableRecord
100
AcDbLinetypeTableRecord
  2
ACAD_ISO07W100
 70
     0
  3
ISO dot . . . . . . . . . . . . . . . . . . . . 
 72
    65
 73
     2
 40
3.0
 49
0.0
 74
     0
 49
-3.0
 74
     0
  0
LTYPE
  5
8F
330
5
100
AcDbSymbolTableRecord
100
AcDbLinetypeTableRecord
  2
ACAD_ISO08W100
 70
     0
  3
ISO long-dash short-dash ____ __ ____ __ ____ _
 72
    65
 73
     4
 40
36.0
 49
24.0
 74
     0
 49
-3.0
 74
     0
 49
6.0
 74
     0
 49
-3.0
 74
     0
  0
LTYPE
  5
90
330
5
100
AcDbSymbolTableRecord
100
AcDbLinetypeTableRecord
  2
ACAD_ISO09W100
 70
     0
  3
ISO long-dash double-short-dash ____ __ __ ____
 72
    65
 73
     6
 40
45.0
 49
24.0
 74
     0
 49
-3.0
 74
     0
 49
6.0
 74
     0
 49
-3.0
 74
     0
 49
6.0
 74
     0
 49
-3.0
 74
     0
  0
LTYPE
  5
91
330
5
100
AcDbSymbolTableRecord
100
AcDbLinetypeTableRecord
  2
ACAD_ISO10W100
 70
     0
  3
ISO dash dot __ . __ . __ . __ . __ . __ . __ . 
 72
    65
 73
     4
 40
18.0
 49
12.0
 74
     0
 49
-3.0
 74
     0
 49
0.0
 74
     0
 49
-3.0
 74
     0
  0
LTYPE
  5
92
330
5
100
AcDbSymbolTableRecord
100
AcDbLinetypeTableRecord
  2
ACAD_ISO11W100
 70
     0
  3
ISO double-dash dot __ __ . __ __ . __ __ . __ _
 72
    65
 73
     6
 40
33.0
 49
12.0
 74
     0
 49
-3.0
 74
     0
 49
12.0
 74
     0
 49
-3.0
 74
     0
 49
0.0
 74
     0
 49
-3.0
 74
     0
  0
LTYPE
  5
93
330
5
100
AcDbSymbolTableRecord
100
AcDbLinetypeTableRecord
  2
ACAD_ISO12W100
 70
     0
  3
ISO dash double-dot __ . . __ . . __ . . __ . . 
 72
    65
 73
     6
 40
21.0
 49
12.0
 74
     0
 49
-3.0
 74
     0
 49
0.0
 74
     0
 49
-3.0
 74
     0
 49
0.0
 74
     0
 49
-3.0
 74
     0
  0
LTYPE
  5
94
330
5
100
AcDbSymbolTableRecord
100
AcDbLinetypeTableRecord
  2
ACAD_ISO15W100
 70
     0
  3
ISO double-dash triple-dot __ __ . . . __ __ . .
 72
    65
 73
    10
 40
39.0
 49
12.0
 74
     0
 49
-3.0
 74
     0
 49
12.0
 74
     0
 49
-3.0
 74
     0
 49
0.0
 74
     0
 49
-3.0
 74
     0
 49
0.0
 74
     0
 49
-3.0
 74
     0
 49
0.0
 74
     0
 49
-3.0
 74
     0
  0
LTYPE
  5
95
330
5
100
AcDbSymbolTableRecord
100
AcDbLinetypeTableRecord
  2
JIS_02_0_7
 70
     0
  3
HIDDEN0.75 _ _ _ _ _ _ _ _ _ _ _ _ _ _ _ _ _ 
 72
    65
 73
     2
 40
1.35
 49
0.75
 74
     0
 49
-0.6
 74
     0
  0
LTYPE
  5
96
330
5
100
AcDbSymbolTableRecord
100
AcDbLinetypeTableRecord
  2
JIS_02_1_0
 70
     0
  3
HIDDEN01 _ _ _ _ _ _ _ _ _ _ _ _ _ _ _ _ _ 
 72
    65
 73
     2
 40
2.0
 49
1.0
 74
     0
 49
-1.0
 74
     0
  0
LTYPE
  5
97
330
5
100
AcDbSymbolTableRecord
100
AcDbLinetypeTableRecord
  2
JIS_02_1_2
 70
     0
  3
HIDDEN01.25  _ _ _ _ _ _ _ _ _ _ _ _ _ _ _ _ _ 
 72
    65
 73
     2
 40
2.5
 49
1.25
 74
     0
 49
-1.25
 74
     0
  0
LTYPE
  5
98
330
5
100
AcDbSymbolTableRecord
100
AcDbLinetypeTableRecord
  2
JIS_02_2_0
 70
     0
  3
HIDDEN02 __ __ __ __ __ __ __ __ __ __ __ 
 72
    65
 73
     2
 40
3.0
 49
2.0
 74
     0
 49
-1.0
 74
     0
  0
LTYPE
  5
99
330
5
100
AcDbSymbolTableRecord
100
AcDbLinetypeTableRecord
  2
JIS_02_4_0
 70
     0
  3
HIDDEN04 ____ ____ ____ ____ ____ ____ ____ 
 72
    65
 73
     2
 40
5.5
 49
4.0
 74
     0
 49
-1.5
 74
     0
  0
LTYPE
  5
9A
330
5
100
AcDbSymbolTableRecord
100
AcDbLinetypeTableRecord
  2
JIS_08_11
 70
     0
  3
1SASEN11 ___ _ ___ _ ___ _ ___ _ ___ _ ___
 72
    65
 73
     4
 40
12.8
 49
11.0
 74
     0
 49
-0.6
 74
     0
 49
0.6
 74
     0
 49
-0.6
 74
     0
  0
LTYPE
  5
9B
330
5
100
AcDbSymbolTableRecord
100
AcDbLinetypeTableRecord
  2
JIS_08_15
 70
     0
  3
1SASEN15 ____ _ ____ _ ____ _ ____ _ ____ 
 72
    65
 73
     4
 40
17.25
 49
15.0
 74
     0
 49
-0.75
 74
     0
 49
0.75
 74
     0
 49
-0.75
 74
     0
  0
LTYPE
  5
9C
330
5
100
AcDbSymbolTableRecord
100
AcDbLinetypeTableRecord
  2
JIS_08_25
 70
     0
  3
1SASEN25 ________  __  ________  __  _____
 72
    65
 73
     4
 40
28.0
 49
25.0
 74
     0
 49
-1.125
 74
     0
 49
0.75
 74
     0
 49
-1.125
 74
     0
  0
LTYPE
  5
9D
330
5
100
AcDbSymbolTableRecord
100
AcDbLinetypeTableRecord
  2
JIS_08_37
 70
     0
  3
1SASEN37 ________  __  ________  __  _____
 72
    65
 73
     4
 40
40.5
 49
37.5
 74
     0
 49
-1.125
 74
     0
 49
0.75
 74
     0
 49
-1.125
 74
     0
  0
LTYPE
  5
9E
330
5
100
AcDbSymbolTableRecord
100
AcDbLinetypeTableRecord
  2
JIS_08_50
 70
     0
  3
1SASEN50 _______________  __  ____________
 72
    65
 73
     4
 40
53.0
 49
50.0
 74
     0
 49
-1.125
 74
     0
 49
0.75
 74
     0
 49
-1.125
 74
     0
  0
LTYPE
  5
9F
330
5
100
AcDbSymbolTableRecord
100
AcDbLinetypeTableRecord
  2
JIS_09_08
 70
     0
  3
2SASEN8 __ _ _ __ _ _ __ _ _ __ _ _ __ _ _ 
 72
    65
 73
     6
 40
10.75
 49
8.0
 74
     0
 49
-0.55
 74
     0
 49
0.55
 74
     0
 49
-0.55
 74
     0
 49
0.55
 74
     0
 49
-0.55
 74
     0
  0
LTYPE
  5
A0
330
5
100
AcDbSymbolTableRecord
100
AcDbLinetypeTableRecord
  2
JIS_09_15
 70
     0
  3
2SASEN15 ___ _ _ ___ _ _ ___ _ _ ___ _ _ ___ 
 72
    65
 73
     6
 40
18.9
 49
15.0
 74
     0
 49
-0.9
 74
     0
 49
0.6
 74
     0
 49
-0.9
 74
     0
 49
0.6
 74
     0
 49
-0.9
 74
     0
  0
LTYPE
  5
A1
330
5
100
AcDbSymbolTableRecord
100
AcDbLinetypeTableRecord
  2
JIS_09_29
 70
     0
  3
2SASEN29 ______　__  __  ______　__  __  ___
 72
    65
 73
     6
 40
34.0
 49
29.0
 74
     0
 49
-1.2
 74
     0
 49
0.7
 74
     0
 49
-1.2
 74
     0
 49
0.7
 74
     0
 49
-1.2
 74
     0
  0
LTYPE
  5
A2
330
5
100
AcDbSymbolTableRecord
100
AcDbLinetypeTableRecord
  2
JIS_09_50
 70
     0
  3
2SASEN50 ____________　__  __  _____________
 72
    65
 73
     6
 40
55.0
 49
50.0
 74
     0
 49
-1.2
 74
     0
 49
0.7
 74
     0
 49
-1.2
 74
     0
 49
0.7
 74
     0
 49
-1.2
 74
     0
  0
LTYPE
  5
A3
330
5
100
AcDbSymbolTableRecord
100
AcDbLinetypeTableRecord
  2
SXF_破線
 70
     0
  3
02 dashed -- -- -- -- -- --
 72
    65
 73
     2
 40
7.5
 49
6.0
 74
     0
 49
-1.5
 74
     0
  0
LTYPE
  5
A4
330
5
100
AcDbSymbolTableRecord
100
AcDbLinetypeTableRecord
  2
SXF_跳び破線
 70
     0
  3
03 dashed_spaced --  --  --  --
 72
    65
 73
     2
 40
12.0
 49
6.0
 74
     0
 49
-6.0
 74
     0
  0
LTYPE
  5
A5
330
5
100
AcDbSymbolTableRecord
100
AcDbLinetypeTableRecord
  2
SXF_一点長鎖線
 70
     0
  3
04 long_dashed_dotted ---- . ---- . ----
 72
    65
 73
     4
 40
15.25
 49
12.0
 74
     0
 49
-1.5
 74
     0
 49
0.25
 74
     0
 49
-1.5
 74
     0
  0
LTYPE
  5
A6
330
5
100
AcDbSymbolTableRecord
100
AcDbLinetypeTableRecord
  2
SXF_二点長鎖線
 70
     0
  3
05 long_dashed_double-dotted ---- . . ---- 
 72
    65
 73
     6
 40
17.0
 49
12.0
 74
     0
 49
-1.5
 74
     0
 49
0.25
 74
     0
 49
-1.5
 74
     0
 49
0.25
 74
     0
 49
-1.5
 74
     0
  0
LTYPE
  5
A7
330
5
100
AcDbSymbolTableRecord
100
AcDbLinetypeTableRecord
  2
SXF_三点長鎖線
 70
     0
  3
06 long_dashed_triplicate-dotted ---- ... ---- 
 72
    65
 73
     8
 40
18.75
 49
12.0
 74
     0
 49
-1.5
 74
     0
 49
0.25
 74
     0
 49
-1.5
 74
     0
 49
0.25
 74
     0
 49
-1.5
 74
     0
 49
0.25
 74
     0
 49
-1.5
 74
     0
  0
LTYPE
  5
A8
330
5
100
AcDbSymbolTableRecord
100
AcDbLinetypeTableRecord
  2
SXF_点線
 70
     0
  3
07 dotted . . . . . . . . . . . . 
 72
    65
 73
     2
 40
1.75
 49
0.25
 74
     0
 49
-1.5
 74
     0
  0
LTYPE
  5
A9
330
5
100
AcDbSymbolTableRecord
100
AcDbLinetypeTableRecord
  2
SXF_一点鎖線
 70
     0
  3
08 chain ---- - --- - --- - ---
 72
    65
 73
     4
 40
18.5
 49
12.0
 74
     0
 49
-1.5
 74
     0
 49
3.5
 74
     0
 49
-1.5
 74
     0
  0
LTYPE
  5
AA
330
5
100
AcDbSymbolTableRecord
100
AcDbLinetypeTableRecord
  2
SXF_二点鎖線
 70
     0
  3
09 chain_double_dash ---- - - ---- - - ----
 72
    65
 73
     6
 40
23.5
 49
12.0
 74
     0
 49
-1.5
 74
     0
 49
3.5
 74
     0
 49
-1.5
 74
     0
 49
3.5
 74
     0
 49
-1.5
 74
     0
  0
LTYPE
  5
AB
330
5
100
AcDbSymbolTableRecord
100
AcDbLinetypeTableRecord
  2
SXF_一点短鎖線
 70
     0
  3
10 dashed_dotted -- . -- . -- . --
 72
    65
 73
     4
 40
9.25
 49
6.0
 74
     0
 49
-1.5
 74
     0
 49
0.25
 74
     0
 49
-1.5
 74
     0
  0
LTYPE
  5
AC
330
5
100
AcDbSymbolTableRecord
100
AcDbLinetypeTableRecord
  2
SXF_一点二短鎖線
 70
     0
  3
11 double-dashed_dotted -- -- . -- --
 72
    65
 73
     6
 40
16.75
 49
6.0
 74
     0
 49
-1.5
 74
     0
 49
6.0
 74
     0
 49
-1.5
 74
     0
 49
0.25
 74
     0
 49
-1.5
 74
     0
  0
LTYPE
  5
AD
330
5
100
AcDbSymbolTableRecord
100
AcDbLinetypeTableRecord
  2
SXF_二点短鎖線
 70
     0
  3
12 dashed_double_dotted -- . . -- . . --
 72
    65
 73
     6
 40
11.0
 49
6.0
 74
     0
 49
-1.5
 74
     0
 49
0.25
 74
     0
 49
-1.5
 74
     0
 49
0.25
 74
     0
 49
-1.5
 74
     0
  0
LTYPE
  5
AE
330
5
100
AcDbSymbolTableRecord
100
AcDbLinetypeTableRecord
  2
SXF_二点二短鎖線
 70
     0
  3
13 double-dashed_double-dotted -- -- . . -- --
 72
    65
 73
     8
 40
18.5
 49
6.0
 74
     0
 49
-1.5
 74
     0
 49
6.0
 74
     0
 49
-1.5
 74
     0
 49
0.25
 74
     0
 49
-1.5
 74
     0
 49
0.25
 74
     0
 49
-1.5
 74
     0
  0
LTYPE
  5
AF
330
5
100
AcDbSymbolTableRecord
100
AcDbLinetypeTableRecord
  2
SXF_三点短鎖線
 70
     0
  3
14 dashed triplicate-dotted -- . . . -- . . . --
 72
    65
 73
     8
 40
12.75
 49
6.0
 74
     0
 49
-1.5
 74
     0
 49
0.25
 74
     0
 49
-1.5
 74
     0
 49
0.25
 74
     0
 49
-1.5
 74
     0
 49
0.25
 74
     0
 49
-1.5
 74
     0
  0
LTYPE
  5
B0
330
5
100
AcDbSymbolTableRecord
100
AcDbLinetypeTableRecord
  2
SXF_三点二短鎖線
 70
     0
  3
15 double-dashed triplicate-dotted -- -- . . . -- -- 
 72
    65
 73
    10
 40
20.25
 49
6.0
 74
     0
 49
-1.5
 74
     0
 49
6.0
 74
     0
 49
-1.5
 74
     0
 49
0.25
 74
     0
 49
-1.5
 74
     0
 49
0.25
 74
     0
 49
-1.5
 74
     0
 49
0.25
 74
     0
 49
-1.5
 74
     0
  0
ENDTAB
  0
TABLE
  2
LAYER
  5
2
330
0
100
AcDbSymbolTable
 70
     3
  0
LAYER
  5
10
330
2
100
AcDbSymbolTableRecord
100
AcDbLayerTableRecord
  2
0
 70
     0
 62
     7
  6
CONTINUOUS
  0
LAYER
  5
B1
330
2
100
AcDbSymbolTableRecord
100
AcDbLayerTableRecord
  2
LAYER0032
 70
     0
 62
     7
  6
CONTINUOUS
  0
LAYER
  5
B2
330
2
100
AcDbSymbolTableRecord
100
AcDbLayerTableRecord
  2
LAYER0048
 70
     0
 62
     7
  6
CONTINUOUS
  0
ENDTAB
  0
TABLE
  2
STYLE
  5
3
330
0
100
AcDbSymbolTable
 70
     4
  0
STYLE
  5
11
330
3
100
AcDbSymbolTableRecord
100
AcDbTextStyleTableRecord
  2
STANDARD
 70
     0
 40
0.0
 41
1.0
 50
0.0
 71
     0
 42
0.2
  3
txt.shx
  4
bigfont.shx
  0
STYLE
  5
111
330
3
100
AcDbSymbolTableRecord
100
AcDbTextStyleTableRecord
  2
DCSTYLE0
 70
     0
 40
0.0
 41
0.8
 50
0.0
 71
     0
 42
0.2
  3
ＭＳ Ｐゴシック
  4

1001
ACAD
1000
ＭＳ Ｐゴシック
1071
    32802
  0
STYLE
  5
213
330
3
100
AcDbSymbolTableRecord
100
AcDbTextStyleTableRecord
  2
DCSTYLE1
 70
     0
 40
0.0
 41
0.8
 50
0.0
 71
     0
 42
0.2
  3
ＭＳ ゴシック
  4

1001
ACAD
1000
ＭＳ ゴシック
1071
    32802
  0
STYLE
  5
215
330
3
100
AcDbSymbolTableRecord
100
AcDbTextStyleTableRecord
  2
DCSTYLE2
 70
     0
 40
0.0
 41
0.8
 50
0.0
 71
     0
 42
0.2
  3
HGRSGU.TTC
  4

1001
ACAD
1000
HGP創英角ｺﾞｼｯｸUB
1071
    32802
  0
ENDTAB
  0
TABLE
  2
VIEW
  5
6
330
0
100
AcDbSymbolTable
 70
     0
  0
ENDTAB
  0
TABLE
  2
UCS
  5
7
330
0
100
AcDbSymbolTable
 70
     0
  0
ENDTAB
  0
TABLE
  2
APPID
  5
9
330
0
100
AcDbSymbolTable
 70
     3
  0
APPID
  5
12
330
9
100
AcDbSymbolTableRecord
100
AcDbRegAppTableRecord
  2
ACAD
 70
     0
  0
APPID
  5
6E
330
9
100
AcDbSymbolTableRecord
100
AcDbRegAppTableRecord
  2
DAFUSIONOUT
 70
     0
  0
APPID
  5
658
330
9
100
AcDbSymbolTableRecord
100
AcDbRegAppTableRecord
  2
ACAD_MLEADERVER
 70
     0
  0
ENDTAB
  0
TABLE
  2
DIMSTYLE
  5
A
330
0
100
AcDbSymbolTable
 70
     2
  0
DIMSTYLE
105
27
330
A
100
AcDbSymbolTableRecord
100
AcDbDimStyleTableRecord
  2
STANDARD
 70
     0
  3

  4

  5

  6

  7

 40
1.0
 41
0.18
 42
0.0625
 43
0.38
 44
0.18
 45
0.0
 46
0.0
 47
0.0
 48
0.0
140
0.18
141
0.09
142
0.0
143
25.4
144
1.0
145
0.0
146
1.0
147
0.09
 71
     0
 72
     0
 73
     1
 74
     1
 75
     0
 76
     0
 77
     0
 78
     0
170
     0
171
     2
172
     0
173
     0
174
     0
175
     0
176
     0
177
     0
178
     0
270
     2
271
     4
272
     4
273
     2
274
     2
340
11
275
     0
280
     0
281
     0
282
     0
283
     1
284
     0
285
     0
286
     0
287
     3
288
     0
  0
DIMSTYLE
105
61D
102
{ACAD_REACTORS
330
61C
330
61E
330
61F
330
620
330
621
330
622
330
623
330
624
330
625
330
62A
330
62B
330
62C
102
}
330
A
100
AcDbSymbolTableRecord
100
AcDbDimStyleTableRecord
  2
DC_ROTATED
 70
     0
  3

  4

  5

  6
OPEN30
  7
OPEN30
 40
1.0
 41
60.00003814697266
 42
20.0
 43
0.38
 44
20.0
 45
0.0
 46
0.0
 47
0.0
 48
0.0
140
60.0
141
0.09
142
0.0
143
25.4
144
1.0
145
0.0
146
1.0
147
20.0
 71
     0
 72
     0
 73
     0
 74
     0
 75
     0
 76
     0
 77
     3
 78
     8
170
     0
171
     2
172
     1
173
     1
174
     0
175
     0
176
     4
177
     4
178
     4
270
     2
271
     1
272
     4
273
     2
274
     4
340
111
275
     0
280
     0
281
     0
282
     0
283
     0
284
     8
285
     0
286
     0
287
     3
288
     1
  0
ENDTAB
  0
TABLE
  2
BLOCK_RECORD
  5
1
330
0
100
AcDbSymbolTable
 70
    32
  0
BLOCK_RECORD
  5
1F
330
1
100
AcDbSymbolTableRecord
100
AcDbBlockTableRecord
  2
*MODEL_SPACE
  0
BLOCK_RECORD
  5
1B
330
1
100
AcDbSymbolTableRecord
100
AcDbBlockTableRecord
  2
*PAPER_SPACE
  0
BLOCK_RECORD
  5
B4
330
1
100
AcDbSymbolTableRecord
100
AcDbBlockTableRecord
  2
DC_GROUP_1
  0
BLOCK_RECORD
  5
B7
330
1
100
AcDbSymbolTableRecord
100
AcDbBlockTableRecord
  2
DC_GROUP_2
  0
BLOCK_RECORD
  5
BA
330
1
100
AcDbSymbolTableRecord
100
AcDbBlockTableRecord
  2
DC_GROUP_3
  0
BLOCK_RECORD
  5
BD
330
1
100
AcDbSymbolTableRecord
100
AcDbBlockTableRecord
  2
DC_GROUP_4
  0
BLOCK_RECORD
  5
C0
330
1
100
AcDbSymbolTableRecord
100
AcDbBlockTableRecord
  2
DC_GROUP_5
  0
BLOCK_RECORD
  5
C3
330
1
100
AcDbSymbolTableRecord
100
AcDbBlockTableRecord
  2
DC_GROUP_6
  0
BLOCK_RECORD
  5
C6
330
1
100
AcDbSymbolTableRecord
100
AcDbBlockTableRecord
  2
DC_GROUP_7
  0
BLOCK_RECORD
  5
C9
330
1
100
AcDbSymbolTableRecord
100
AcDbBlockTableRecord
  2
DC_GROUP_8
  0
BLOCK_RECORD
  5
CC
330
1
100
AcDbSymbolTableRecord
100
AcDbBlockTableRecord
  2
DC_GROUP_9
  0
BLOCK_RECORD
  5
CF
330
1
100
AcDbSymbolTableRecord
100
AcDbBlockTableRecord
  2
DC_GROUP_10
  0
BLOCK_RECORD
  5
D2
330
1
100
AcDbSymbolTableRecord
100
AcDbBlockTableRecord
  2
DC_GROUP_11
  0
BLOCK_RECORD
  5
D5
330
1
100
AcDbSymbolTableRecord
100
AcDbBlockTableRecord
  2
*D12
  0
BLOCK_RECORD
  5
D8
330
1
100
AcDbSymbolTableRecord
100
AcDbBlockTableRecord
  2
*D13
  0
BLOCK_RECORD
  5
DB
330
1
100
AcDbSymbolTableRecord
100
AcDbBlockTableRecord
  2
*D14
  0
BLOCK_RECORD
  5
DE
330
1
100
AcDbSymbolTableRecord
100
AcDbBlockTableRecord
  2
*D15
  0
BLOCK_RECORD
  5
E1
330
1
100
AcDbSymbolTableRecord
100
AcDbBlockTableRecord
  2
*D16
  0
BLOCK_RECORD
  5
E4
330
1
100
AcDbSymbolTableRecord
100
AcDbBlockTableRecord
  2
*D17
  0
BLOCK_RECORD
  5
E7
330
1
100
AcDbSymbolTableRecord
100
AcDbBlockTableRecord
  2
*D18
  0
BLOCK_RECORD
  5
EA
330
1
100
AcDbSymbolTableRecord
100
AcDbBlockTableRecord
  2
*D19
  0
BLOCK_RECORD
  5
ED
330
1
100
AcDbSymbolTableRecord
100
AcDbBlockTableRecord
  2
*D20
  0
BLOCK_RECORD
  5
F0
330
1
100
AcDbSymbolTableRecord
100
AcDbBlockTableRecord
  2
DC_GROUP_12
  0
BLOCK_RECORD
  5
F3
330
1
100
AcDbSymbolTableRecord
100
AcDbBlockTableRecord
  2
DC_GROUP_13
  0
BLOCK_RECORD
  5
F6
330
1
100
AcDbSymbolTableRecord
100
AcDbBlockTableRecord
  2
DC_GROUP_14
  0
BLOCK_RECORD
  5
F9
330
1
100
AcDbSymbolTableRecord
100
AcDbBlockTableRecord
  2
DC_GROUP_15
  0
BLOCK_RECORD
  5
FC
330
1
100
AcDbSymbolTableRecord
100
AcDbBlockTableRecord
  2
*D25
  0
BLOCK_RECORD
  5
FF
330
1
100
AcDbSymbolTableRecord
100
AcDbBlockTableRecord
  2
*D26
  0
BLOCK_RECORD
  5
102
330
1
100
AcDbSymbolTableRecord
100
AcDbBlockTableRecord
  2
*D27
  0
BLOCK_RECORD
  5
105
330
1
100
AcDbSymbolTableRecord
100
AcDbBlockTableRecord
  2
DC_GROUP_16
  0
BLOCK_RECORD
  5
108
330
1
100
AcDbSymbolTableRecord
100
AcDbBlockTableRecord
  2
DC_GROUP_17
  0
BLOCK_RECORD
  5
10B
330
1
100
AcDbSymbolTableRecord
100
AcDbBlockTableRecord
  2
DC_GROUP_18
  0
BLOCK_RECORD
  5
10E
330
1
100
AcDbSymbolTableRecord
100
AcDbBlockTableRecord
  2
DC_GROUP_19
  0
BLOCK_RECORD
  5
145
330
1
100
AcDbSymbolTableRecord
100
AcDbBlockTableRecord
  2
_OPEN30
  0
ENDTAB
  0
ENDSEC
  0
SECTION
  2
BLOCKS
  0
BLOCK
  5
20
330
1F
100
AcDbEntity
  8
0
100
AcDbBlockBegin
  2
*MODEL_SPACE
 70
     0
 10
0.0
 20
0.0
 30
0.0
  3
*MODEL_SPACE
  1

  0
ENDBLK
  5
21
330
1F
100
AcDbEntity
  8
0
100
AcDbBlockEnd
  0
BLOCK
  5
1C
330
1B
100
AcDbEntity
 67
     1
  8
0
100
AcDbBlockBegin
  2
*PAPER_SPACE
 70
     0
 10
0.0
 20
0.0
 30
0.0
  3
*PAPER_SPACE
  1

  0
ENDBLK
  5
1D
330
1B
100
AcDbEntity
 67
     1
  8
0
100
AcDbBlockEnd
  0
BLOCK
  5
B5
330
B4
100
AcDbEntity
  8
0
100
AcDbBlockBegin
  2
DC_GROUP_1
 70
     0
 10
0.0
 20
0.0
 30
0.0
  3
DC_GROUP_1
  1

  0
TEXT
  5
112
330
B4
100
AcDbEntity
  8
LAYER0048
 62
     2
100
AcDbText
 10
-2244.926773139204
 20
-622.4705505793082
 30
0.0
 40
100.0
  1
注   意
 41
1.038081189520887
  7
DCSTYLE0
 72
     5
 11
-1804.926773139204
 21
-622.4705505793082
 31
0.0
100
AcDbText
  0
LINE
  5
113
330
B4
100
AcDbEntity
  8
LAYER0048
  6
CONTINUOUS
 62
     7
100
AcDbLine
 10
-2254.926773139204
 20
-620.4705505793082
 30
0.0
 11
-1794.926773139204
 21
-620.4705505793082
 31
0.0
  0
ENDBLK
  5
B6
330
B4
100
AcDbEntity
  8
0
100
AcDbBlockEnd
  0
BLOCK
  5
B8
330
B7
100
AcDbEntity
  8
0
100
AcDbBlockBegin
  2
DC_GROUP_2
 70
     0
 10
0.0
 20
0.0
 30
0.0
  3
DC_GROUP_2
  1

  0
LINE
  5
114
330
B7
100
AcDbEntity
  8
LAYER0032
  6
CONTINUOUS
 62
     3
100
AcDbLine
 10
1791.104017288352
 20
-642.0057626389789
 30
0.0
 11
1789.563044125572
 21
-645.0825786360483
 31
0.0
  0
LINE
  5
115
330
B7
100
AcDbEntity
  8
LAYER0032
  6
CONTINUOUS
 62
     3
100
AcDbLine
 10
1789.563044125572
 20
-645.0825786360483
 30
0.0
 11
1784.94885628922
 21
-657.9460836566968
 31
0.0
  0
LINE
  5
116
330
B7
100
AcDbEntity
  8
LAYER0032
  6
CONTINUOUS
 62
     3
100
AcDbLine
 10
1784.94885628922
 20
-657.9460836566968
 30
0.0
 11
1782.411135632481
 21
-671.389826694216
 31
0.0
  0
LINE
  5
117
330
B7
100
AcDbEntity
  8
LAYER0032
  6
CONTINUOUS
 62
     3
100
AcDbLine
 10
1782.411135632481
 20
-671.389826694216
 30
0.0
 11
1781.218490143525
 21
-685.2299210174915
 31
0.0
  0
LINE
  5
118
330
B7
100
AcDbEntity
  8
LAYER0032
  6
CONTINUOUS
 62
     3
100
AcDbLine
 10
1781.218490143525
 20
-685.2299210174915
 30
0.0
 11
1780.581995871894
 21
-699.2670695910501
 31
0.0
  0
LINE
  5
119
330
B7
100
AcDbEntity
  8
LAYER0032
  6
CONTINUOUS
 62
     3
100
AcDbLine
 10
1780.581995871894
 20
-699.2670695910501
 30
0.0
 11
1779.725060719147
 21
-713.304779791597
 31
0.0
  0
LINE
  5
11A
330
B7
100
AcDbEntity
  8
LAYER0032
  6
CONTINUOUS
 62
     3
100
AcDbLine
 10
1779.725060719147
 20
-713.304779791597
 30
0.0
 11
1778.225261600095
 21
-727.2271013094987
 31
0.0
  0
LINE
  5
11B
330
B7
100
AcDbEntity
  8
LAYER0032
  6
CONTINUOUS
 62
     3
100
AcDbLine
 10
1778.225261600095
 20
-727.2271013094987
 30
0.0
 11
1776.0586225704
 21
-741.0086955300949
 31
0.0
  0
LINE
  5
11C
330
B7
100
AcDbEntity
  8
LAYER0032
  6
CONTINUOUS
 62
     3
100
AcDbLine
 10
1776.0586225704
 20
-741.0086955300949
 30
0.0
 11
1773.222393704328
 21
-754.6290508918637
 31
0.0
  0
LINE
  5
11D
330
B7
100
AcDbEntity
  8
LAYER0032
  6
CONTINUOUS
 62
     3
100
AcDbLine
 10
1773.222393704328
 20
-754.6290508918637
 30
0.0
 11
1769.713825076146
 21
-768.0676558332852
 31
0.0
  0
LINE
  5
11E
330
B7
100
AcDbEntity
  8
LAYER0032
  6
CONTINUOUS
 62
     3
100
AcDbLine
 10
1769.713825076146
 20
-768.0676558332852
 30
0.0
 11
1765.530166760122
 21
-781.3039987928387
 31
0.0
  0
LINE
  5
11F
330
B7
100
AcDbEntity
  8
LAYER0032
  6
CONTINUOUS
 62
     3
100
AcDbLine
 10
1765.530166760122
 20
-781.3039987928387
 30
0.0
 11
1760.668668830522
 21
-794.317568209005
 31
0.0
  0
LINE
  5
120
330
B7
100
AcDbEntity
  8
LAYER0032
  6
CONTINUOUS
 62
     3
100
AcDbLine
 10
1760.668668830522
 20
-794.317568209005
 30
0.0
 11
1755.126581361612
 21
-807.0878525202625
 31
0.0
  0
LINE
  5
121
330
B7
100
AcDbEntity
  8
LAYER0032
  6
CONTINUOUS
 62
     3
100
AcDbLine
 10
1755.126581361612
 20
-807.0878525202625
 30
0.0
 11
1748.90115442766
 21
-819.594340165092
 31
0.0
  0
LINE
  5
122
330
B7
100
AcDbEntity
  8
LAYER0032
  6
CONTINUOUS
 62
     3
100
AcDbLine
 10
1748.90115442766
 20
-819.594340165092
 30
0.0
 11
1742.00871966062
 21
-831.8245274643386
 31
0.0
  0
LINE
  5
123
330
B7
100
AcDbEntity
  8
LAYER0032
  6
CONTINUOUS
 62
     3
100
AcDbLine
 10
1742.00871966062
 20
-831.8245274643386
 30
0.0
 11
1734.676824776064
 21
-843.8545509630485
 31
0.0
  0
LINE
  5
124
330
B7
100
AcDbEntity
  8
LAYER0032
  6
CONTINUOUS
 62
     3
100
AcDbLine
 10
1734.676824776064
 20
-843.8545509630485
 30
0.0
 11
1727.264412745687
 21
-855.8156893373116
 31
0.0
  0
LINE
  5
125
330
B7
100
AcDbEntity
  8
LAYER0032
  6
CONTINUOUS
 62
     3
100
AcDbLine
 10
1727.264412745687
 20
-855.8156893373116
 30
0.0
 11
1720.132407575738
 21
-867.8400526362075
 31
0.0
  0
LINE
  5
126
330
B7
100
AcDbEntity
  8
LAYER0032
  6
CONTINUOUS
 62
     3
100
AcDbLine
 10
1720.132407575738
 20
-867.8400526362075
 30
0.0
 11
1713.641733272467
 21
-880.0597509088166
 31
0.0
  0
LINE
  5
127
330
B7
100
AcDbEntity
  8
LAYER0032
  6
CONTINUOUS
 62
     3
100
AcDbLine
 10
1713.641733272467
 20
-880.0597509088166
 30
0.0
 11
1708.153313842121
 21
-892.6068942042193
 31
0.0
  0
LINE
  5
128
330
B7
100
AcDbEntity
  8
LAYER0032
  6
CONTINUOUS
 62
     3
100
AcDbLine
 10
1708.153313842121
 20
-892.6068942042193
 30
0.0
 11
1704.028073290953
 21
-905.6135925714952
 31
0.0
  0
LINE
  5
129
330
B7
100
AcDbEntity
  8
LAYER0032
  6
CONTINUOUS
 62
     3
100
AcDbLine
 10
1704.028073290953
 20
-905.6135925714952
 30
0.0
 11
1701.582209316524
 21
-919.1956428089134
 31
0.0
  0
LINE
  5
12A
330
B7
100
AcDbEntity
  8
LAYER0032
  6
CONTINUOUS
 62
     3
100
AcDbLine
 10
1701.582209316524
 20
-919.1956428089134
 30
0.0
 11
1700.558988673526
 21
-933.2598737394383
 31
0.0
  0
LINE
  5
12B
330
B7
100
AcDbEntity
  8
LAYER0032
  6
CONTINUOUS
 62
     3
100
AcDbLine
 10
1700.558988673526
 20
-933.2598737394383
 30
0.0
 11
1700.305222491786
 21
-947.5685129382682
 31
0.0
  0
LINE
  5
12C
330
B7
100
AcDbEntity
  8
LAYER0032
  6
CONTINUOUS
 62
     3
100
AcDbLine
 10
1700.305222491786
 20
-947.5685129382682
 30
0.0
 11
1700.159797545782
 21
-961.8808976907412
 31
0.0
  0
LINE
  5
12D
330
B7
100
AcDbEntity
  8
LAYER0032
  6
CONTINUOUS
 62
     3
100
AcDbLine
 10
1700.159797545782
 20
-961.8808976907412
 30
0.0
 11
1699.461600609993
 21
-975.9563652821962
 31
0.0
  0
LINE
  5
12E
330
B7
100
AcDbEntity
  8
LAYER0032
  6
CONTINUOUS
 62
     3
100
AcDbLine
 10
1699.461600609993
 20
-975.9563652821962
 30
0.0
 11
1697.549518458899
 21
-989.5542529979748
 31
0.0
  0
LINE
  5
12F
330
B7
100
AcDbEntity
  8
LAYER0032
  6
CONTINUOUS
 62
     3
100
AcDbLine
 10
1697.549518458899
 20
-989.5542529979748
 30
0.0
 11
1693.762437866977
 21
-1002.433898123415
 31
0.0
  0
LINE
  5
130
330
B7
100
AcDbEntity
  8
LAYER0032
  6
CONTINUOUS
 62
     3
100
AcDbLine
 10
1693.762437866977
 20
-1002.433898123415
 30
0.0
 11
1688.713605687267
 21
-1012.00576263898
 31
0.0
  0
ENDBLK
  5
B9
330
B7
100
AcDbEntity
  8
0
100
AcDbBlockEnd
  0
BLOCK
  5
BB
330
BA
100
AcDbEntity
  8
0
100
AcDbBlockBegin
  2
DC_GROUP_3
 70
     0
 10
0.0
 20
0.0
 30
0.0
  3
DC_GROUP_3
  1

  0
CIRCLE
  5
131
330
BA
100
AcDbEntity
  8
LAYER0032
  6
CONTINUOUS
 62
     3
100
AcDbCircle
 10
1808.542458808616
 20
-91.5842839036768
 30
0.0
 40
4.188
  0
CIRCLE
  5
132
330
BA
100
AcDbEntity
  8
LAYER0032
  6
CONTINUOUS
 62
     3
100
AcDbCircle
 10
1808.542458808616
 20
-91.5842839036768
 30
0.0
 40
5.0
  0
ENDBLK
  5
BC
330
BA
100
AcDbEntity
  8
0
100
AcDbBlockEnd
  0
BLOCK
  5
BE
330
BD
100
AcDbEntity
  8
0
100
AcDbBlockBegin
  2
DC_GROUP_4
 70
     0
 10
0.0
 20
0.0
 30
0.0
  3
DC_GROUP_4
  1

  0
CIRCLE
  5
133
330
BD
100
AcDbEntity
  8
LAYER0032
  6
CONTINUOUS
 62
     3
100
AcDbCircle
 10
1808.542458808616
 20
648.4157160963236
 30
0.0
 40
4.188
  0
CIRCLE
  5
134
330
BD
100
AcDbEntity
  8
LAYER0032
  6
CONTINUOUS
 62
     3
100
AcDbCircle
 10
1808.542458808616
 20
648.4157160963236
 30
0.0
 40
5.0
  0
ENDBLK
  5
BF
330
BD
100
AcDbEntity
  8
0
100
AcDbBlockEnd
  0
BLOCK
  5
C1
330
C0
100
AcDbEntity
  8
0
100
AcDbBlockBegin
  2
DC_GROUP_5
 70
     0
 10
0.0
 20
0.0
 30
0.0
  3
DC_GROUP_5
  1

  0
CIRCLE
  5
135
330
C0
100
AcDbEntity
  8
LAYER0032
  6
CONTINUOUS
 62
     3
100
AcDbCircle
 10
468.542458808616
 20
648.4157160963236
 30
0.0
 40
4.188
  0
CIRCLE
  5
136
330
C0
100
AcDbEntity
  8
LAYER0032
  6
CONTINUOUS
 62
     3
100
AcDbCircle
 10
468.542458808616
 20
648.4157160963236
 30
0.0
 40
5.0
  0
ENDBLK
  5
C2
330
C0
100
AcDbEntity
  8
0
100
AcDbBlockEnd
  0
BLOCK
  5
C4
330
C3
100
AcDbEntity
  8
0
100
AcDbBlockBegin
  2
DC_GROUP_6
 70
     0
 10
0.0
 20
0.0
 30
0.0
  3
DC_GROUP_6
  1

  0
CIRCLE
  5
137
330
C3
100
AcDbEntity
  8
LAYER0032
  6
CONTINUOUS
 62
     3
100
AcDbCircle
 10
468.542458808616
 20
-91.5842839036768
 30
0.0
 40
4.188
  0
CIRCLE
  5
138
330
C3
100
AcDbEntity
  8
LAYER0032
  6
CONTINUOUS
 62
     3
100
AcDbCircle
 10
468.542458808616
 20
-91.5842839036768
 30
0.0
 40
5.0
  0
ENDBLK
  5
C5
330
C3
100
AcDbEntity
  8
0
100
AcDbBlockEnd
  0
BLOCK
  5
C7
330
C6
100
AcDbEntity
  8
0
100
AcDbBlockBegin
  2
DC_GROUP_7
 70
     0
 10
0.0
 20
0.0
 30
0.0
  3
DC_GROUP_7
  1

  0
LINE
  5
139
330
C6
100
AcDbEntity
  8
LAYER0032
  6
CONTINUOUS
 62
     3
100
AcDbLine
 10
1818.330210299578
 20
-1013.644270126318
 30
0.0
 11
1815.430981589397
 21
-1019.722561988358
 31
0.0
  0
LINE
  5
13A
330
C6
100
AcDbEntity
  8
LAYER0032
  6
CONTINUOUS
 62
     3
100
AcDbLine
 10
1815.430981589397
 20
-1019.722561988358
 30
0.0
 11
1811.853983316964
 21
-1025.505396125167
 31
0.0
  0
LINE
  5
13B
330
C6
100
AcDbEntity
  8
LAYER0032
  6
CONTINUOUS
 62
     3
100
AcDbLine
 10
1811.853983316964
 20
-1025.505396125167
 30
0.0
 11
1807.88825428283
 21
-1031.125996855068
 31
0.0
  0
LINE
  5
13C
330
C6
100
AcDbEntity
  8
LAYER0032
  6
CONTINUOUS
 62
     3
100
AcDbLine
 10
1807.88825428283
 20
-1031.125996855068
 30
0.0
 11
1803.828824576061
 21
-1036.720302202463
 31
0.0
  0
LINE
  5
13D
330
C6
100
AcDbEntity
  8
LAYER0032
  6
CONTINUOUS
 62
     3
100
AcDbLine
 10
1803.828824576061
 20
-1036.720302202463
 30
0.0
 11
1799.97072428573
 21
-1042.424250191752
 31
0.0
  0
LINE
  5
13E
330
C6
100
AcDbEntity
  8
LAYER0032
  6
CONTINUOUS
 62
     3
100
AcDbLine
 10
1799.97072428573
 20
-1042.424250191752
 30
0.0
 11
1796.570418741901
 21
-1048.35572257593
 31
0.0
  0
LINE
  5
13F
330
C6
100
AcDbEntity
  8
LAYER0032
  6
CONTINUOUS
 62
     3
100
AcDbLine
 10
1796.570418741901
 20
-1048.35572257593
 30
0.0
 11
1793.634662218809
 21
-1054.515684764837
 31
0.0
  0
LINE
  5
140
330
C6
100
AcDbEntity
  8
LAYER0032
  6
CONTINUOUS
 62
     3
100
AcDbLine
 10
1793.634662218809
 20
-1054.515684764837
 30
0.0
 11
1791.070750003863
 21
-1060.858534822731
 31
0.0
  0
LINE
  5
141
330
C6
100
AcDbEntity
  8
LAYER0032
  6
CONTINUOUS
 62
     3
100
AcDbLine
 10
1791.070750003863
 20
-1060.858534822731
 30
0.0
 11
1788.78572102003
 21
-1067.338550782366
 31
0.0
  0
LINE
  5
142
330
C6
100
AcDbEntity
  8
LAYER0032
  6
CONTINUOUS
 62
     3
100
AcDbLine
 10
1818.877310436162
 20
-1012.005762638979
 30
0.0
 11
1818.330210299578
 21
-1013.644270126318
 31
0.0
  0
LINE
  5
143
330
C6
100
AcDbEntity
  8
LAYER0032
  6
CONTINUOUS
 62
     3
100
AcDbLine
 10
1787.29488390895
 20
-1072.00576263898
 30
0.0
 11
1788.78572102003
 21
-1067.338550782366
 31
0.0
  0
ENDBLK
  5
C8
330
C6
100
AcDbEntity
  8
0
100
AcDbBlockEnd
  0
BLOCK
  5
CA
330
C9
100
AcDbEntity
  8
0
100
AcDbBlockBegin
  2
DC_GROUP_8
 70
     0
 10
0.0
 20
0.0
 30
0.0
  3
DC_GROUP_8
  1

  0
LINE
  5
144
330
C9
100
AcDbEntity
  8
LAYER0032
  6
CONTINUOUS
 62
     4
100
AcDbLine
 10
1872.036960990314
 20
-1061.904359181404
 30
0.0
 11
1715.751052815745
 21
-1317.025250286758
 31
0.0
  0
INSERT
  5
14B
330
C9
100
AcDbEntity
  8
LAYER0032
 62
     4
100
AcDbBlockReference
  2
_OPEN30
 10
1872.036960990314
 20
-1061.904359181404
 30
0.0
 41
60.00005615230571
 42
59.99978736447287
 50
58.50855207800305
  0
LINE
  5
14C
330
C9
100
AcDbEntity
  8
LAYER0032
  6
CONTINUOUS
 62
     4
100
AcDbLine
 10
1715.751052815745
 20
-1317.025250286758
 30
0.0
 11
1571.751052815745
 21
-1317.025250286758
 31
0.0
  0
TEXT
  5
14D
330
C9
100
AcDbEntity
  8
LAYER0032
 62
     4
100
AcDbText
 10
1571.751052815745
 20
-1317.025250286758
 30
0.0
 40
60.0
  1
エルボ
 41
0.5793528133301135
  7
DCSTYLE0
 72
     5
 11
1715.751052815745
 21
-1317.025250286758
 31
0.0
100
AcDbText
  0
ENDBLK
  5
CB
330
C9
100
AcDbEntity
  8
0
100
AcDbBlockEnd
  0
BLOCK
  5
CD
330
CC
100
AcDbEntity
  8
0
100
AcDbBlockBegin
  2
DC_GROUP_9
 70
     0
 10
0.0
 20
0.0
 30
0.0
  3
DC_GROUP_9
  1

  0
LINE
  5
14E
330
CC
100
AcDbEntity
  8
LAYER0032
  6
CONTINUOUS
 62
     4
100
AcDbLine
 10
1906.142458808617
 20
-1064.037813446548
 30
0.0
 11
1755.545966212105
 21
-1426.050666750839
 31
0.0
  0
INSERT
  5
14F
330
CC
100
AcDbEntity
  8
LAYER0032
 62
     4
100
AcDbBlockReference
  2
_OPEN30
 10
1906.142458808617
 20
-1064.037813446548
 30
0.0
 41
60.00005615230571
 42
59.99978736447287
 50
67.41280474236648
  0
LINE
  5
150
330
CC
100
AcDbEntity
  8
LAYER0032
  6
CONTINUOUS
 62
     4
100
AcDbLine
 10
1755.545966212105
 20
-1426.050666750839
 30
0.0
 11
1563.545966212105
 21
-1426.050666750839
 31
0.0
  0
TEXT
  5
151
330
CC
100
AcDbEntity
  8
LAYER0032
 62
     4
100
AcDbText
 10
1563.545966213858
 20
-1426.050666750839
 30
0.0
 40
60.0
  1
ニップル
 41
0.6236693312536558
  7
DCSTYLE0
 72
     5
 11
1755.545966213858
 21
-1426.050666750839
 31
0.0
100
AcDbText
  0
ENDBLK
  5
CE
330
CC
100
AcDbEntity
  8
0
100
AcDbBlockEnd
  0
BLOCK
  5
D0
330
CF
100
AcDbEntity
  8
0
100
AcDbBlockBegin
  2
DC_GROUP_10
 70
     0
 10
0.0
 20
0.0
 30
0.0
  3
DC_GROUP_10
  1

  0
LINE
  5
152
330
CF
100
AcDbEntity
  8
LAYER0032
  6
CONTINUOUS
 62
     4
100
AcDbLine
 10
1955.827061773953
 20
-1064.497085517483
 30
0.0
 11
2012.342579983184
 21
-1320.658704551901
 31
0.0
  0
INSERT
  5
153
330
CF
100
AcDbEntity
  8
LAYER0032
 62
     4
100
AcDbBlockReference
  2
_OPEN30
 10
1955.827061773953
 20
-1064.497085517483
 30
0.0
 41
60.00005615230571
 42
59.99978736447287
 50
102.4415410781275
  0
LINE
  5
154
330
CF
100
AcDbEntity
  8
LAYER0032
  6
CONTINUOUS
 62
     4
100
AcDbLine
 10
2012.342579983184
 20
-1320.658704551901
 30
0.0
 11
2300.342579983184
 21
-1320.658704551901
 31
0.0
  0
TEXT
  5
155
330
CF
100
AcDbEntity
  8
LAYER0032
 62
     4
100
AcDbText
 10
2012.342579983184
 20
-1320.658704551901
 30
0.0
 40
60.0
  1
ボールバルブ
 41
0.5692490212362084
  7
DCSTYLE0
 72
     5
 11
2300.342579983184
 21
-1320.658704551901
 31
0.0
100
AcDbText
  0
ENDBLK
  5
D1
330
CF
100
AcDbEntity
  8
0
100
AcDbBlockEnd
  0
BLOCK
  5
D3
330
D2
100
AcDbEntity
  8
0
100
AcDbBlockBegin
  2
DC_GROUP_11
 70
     0
 10
0.0
 20
0.0
 30
0.0
  3
DC_GROUP_11
  1

  0
LINE
  5
156
330
D2
100
AcDbEntity
  8
LAYER0032
  6
CONTINUOUS
 62
     4
100
AcDbLine
 10
821.8627296577188
 20
-1072.00576263898
 30
0.0
 11
671.3768444905918
 21
-1317.658704551901
 31
0.0
  0
INSERT
  5
157
330
D2
100
AcDbEntity
  8
LAYER0032
 62
     4
100
AcDbBlockReference
  2
_OPEN30
 10
821.8627296577188
 20
-1072.00576263898
 30
0.0
 41
60.00005615230571
 42
59.99978736447287
 50
58.50855207800298
  0
LINE
  5
158
330
D2
100
AcDbEntity
  8
LAYER0032
  6
CONTINUOUS
 62
     4
100
AcDbLine
 10
671.3768444905918
 20
-1317.658704551901
 30
0.0
 11
575.3768444905913
 21
-1317.658704551901
 31
0.0
  0
TEXT
  5
159
330
D2
100
AcDbEntity
  8
LAYER0032
 62
     4
100
AcDbText
 10
575.3768444905918
 20
-1317.658704551901
 30
0.0
 40
60.0
  1
架台
 41
0.55
  7
DCSTYLE0
 72
     5
 11
671.3768444905918
 21
-1317.658704551901
 31
0.0
100
AcDbText
  0
ENDBLK
  5
D4
330
D2
100
AcDbEntity
  8
0
100
AcDbBlockEnd
  0
BLOCK
  5
D6
330
D5
100
AcDbEntity
  8
0
100
AcDbBlockBegin
  2
*D12
 70
     1
 10
0.0
 20
0.0
 30
0.0
  3
*D12
  1

  0
LINE
  5
15A
330
D5
100
AcDbEntity
  8
LAYER0032
  6
CONTINUOUS
 62
     4
100
AcDbLine
 10
227.3059319198799
 20
-1072.00576263898
 30
0.0
 11
227.3059319198799
 21
-1012.00576263898
 31
0.0
  0
LINE
  5
15B
330
D5
100
AcDbEntity
  8
LAYER0032
  6
CONTINUOUS
 62
     4
100
AcDbLine
 10
303.542458808616
 20
-1072.00576263898
 30
0.0
 11
207.3059319198799
 21
-1072.00576263898
 31
0.0
  0
LINE
  5
15C
330
D5
100
AcDbEntity
  8
LAYER0032
  6
CONTINUOUS
 62
     4
100
AcDbLine
 10
328.542458808616
 20
-1012.00576263898
 30
0.0
 11
207.3059319198799
 21
-1012.00576263898
 31
0.0
  0
LINE
  5
15D
330
D5
100
AcDbEntity
  8
LAYER0032
  6
CONTINUOUS
 62
     4
100
AcDbLine
 10
227.3059319198799
 20
-1265.961362638981
 30
0.0
 11
227.3059319198799
 21
-1072.00576263898
 31
0.0
  0
INSERT
  5
15E
330
D5
100
AcDbEntity
  8
LAYER0032
 62
     4
100
AcDbBlockReference
  2
_OPEN30
 10
227.3059319198799
 20
-1072.00576263898
 30
0.0
 41
60.00005615230571
 42
59.99978736447287
 50
90.0
  0
TEXT
  5
15F
330
D5
100
AcDbEntity
  8
LAYER0032
 62
     4
100
AcDbText
 10
207.3059319198799
 20
-1245.961362638981
 30
0.0
 40
60.0
  1
60
 50
90.0
 41
1.1
  7
DCSTYLE0
 72
     5
 11
207.3059319198799
 21
-1149.961362638981
 31
0.0
100
AcDbText
  0
ENDBLK
  5
D7
330
D5
100
AcDbEntity
  8
0
100
AcDbBlockEnd
  0
BLOCK
  5
D9
330
D8
100
AcDbEntity
  8
0
100
AcDbBlockBegin
  2
*D13
 70
     1
 10
0.0
 20
0.0
 30
0.0
  3
*D13
  1

  0
LINE
  5
160
330
D8
100
AcDbEntity
  8
LAYER0032
  6
CONTINUOUS
 62
     4
100
AcDbLine
 10
227.3059319198799
 20
-1012.00576263898
 30
0.0
 11
227.3059319198799
 21
-642.0057626389785
 31
0.0
  0
INSERT
  5
161
330
D8
100
AcDbEntity
  8
LAYER0032
 62
     4
100
AcDbBlockReference
  2
_OPEN30
 10
227.3059319198799
 20
-1012.00576263898
 30
0.0
 41
60.00005615230571
 42
59.99978736447287
 50
270.0
  0
INSERT
  5
162
330
D8
100
AcDbEntity
  8
LAYER0032
 62
     4
100
AcDbBlockReference
  2
_OPEN30
 10
227.3059319198799
 20
-642.0057626389785
 30
0.0
 41
60.00005615230571
 42
59.99978736447287
 50
90.0
  0
LINE
  5
163
330
D8
100
AcDbEntity
  8
LAYER0032
  6
CONTINUOUS
 62
     4
100
AcDbLine
 10
328.542458808616
 20
-1012.00576263898
 30
0.0
 11
207.3059319198799
 21
-1012.00576263898
 31
0.0
  0
LINE
  5
164
330
D8
100
AcDbEntity
  8
LAYER0032
  6
CONTINUOUS
 62
     4
100
AcDbLine
 10
354.2424588086159
 20
-642.0057626389785
 30
0.0
 11
207.3059319198799
 21
-642.0057626389785
 31
0.0
  0
TEXT
  5
165
330
D8
100
AcDbEntity
  8
LAYER0032
 62
     4
100
AcDbText
 10
207.3059319198799
 20
-899.0057626389794
 30
0.0
 40
60.0
  1
370
 50
90.0
 41
1.1
  7
DCSTYLE0
 72
     5
 11
207.3059319198799
 21
-755.0057626389794
 31
0.0
100
AcDbText
  0
ENDBLK
  5
DA
330
D8
100
AcDbEntity
  8
0
100
AcDbBlockEnd
  0
BLOCK
  5
DC
330
DB
100
AcDbEntity
  8
0
100
AcDbBlockBegin
  2
*D14
 70
     1
 10
0.0
 20
0.0
 30
0.0
  3
*D14
  1

  0
LINE
  5
166
330
DB
100
AcDbEntity
  8
LAYER0032
  6
CONTINUOUS
 62
     4
100
AcDbLine
 10
93.93901176778854
 20
-1072.00576263898
 30
0.0
 11
93.93901176778854
 21
-642.0057626389785
 31
0.0
  0
INSERT
  5
167
330
DB
100
AcDbEntity
  8
LAYER0032
 62
     4
100
AcDbBlockReference
  2
_OPEN30
 10
93.93901176778854
 20
-1072.00576263898
 30
0.0
 41
60.00005615230571
 42
59.99978736447287
 50
270.0
  0
INSERT
  5
168
330
DB
100
AcDbEntity
  8
LAYER0032
 62
     4
100
AcDbBlockReference
  2
_OPEN30
 10
93.93901176778854
 20
-642.0057626389785
 30
0.0
 41
60.00005615230571
 42
59.99978736447287
 50
90.0
  0
LINE
  5
169
330
DB
100
AcDbEntity
  8
LAYER0032
  6
CONTINUOUS
 62
     4
100
AcDbLine
 10
303.542458808616
 20
-1072.00576263898
 30
0.0
 11
73.93901176778854
 21
-1072.00576263898
 31
0.0
  0
LINE
  5
16A
330
DB
100
AcDbEntity
  8
LAYER0032
  6
CONTINUOUS
 62
     4
100
AcDbLine
 10
354.2424588086159
 20
-642.0057626389785
 30
0.0
 11
73.93901176778854
 21
-642.0057626389785
 31
0.0
  0
TEXT
  5
16B
330
DB
100
AcDbEntity
  8
LAYER0032
 62
     4
100
AcDbText
 10
73.93901176778854
 20
-929.0057626389794
 30
0.0
 40
60.0
  1
430
 50
90.0
 41
1.1
  7
DCSTYLE0
 72
     5
 11
73.93901176778854
 21
-785.0057626389794
 31
0.0
100
AcDbText
  0
ENDBLK
  5
DD
330
DB
100
AcDbEntity
  8
0
100
AcDbBlockEnd
  0
BLOCK
  5
DF
330
DE
100
AcDbEntity
  8
0
100
AcDbBlockBegin
  2
*D15
 70
     1
 10
0.0
 20
0.0
 30
0.0
  3
*D15
  1

  0
LINE
  5
16C
330
DE
100
AcDbEntity
  8
LAYER0032
  6
CONTINUOUS
 62
     4
100
AcDbLine
 10
245.7013691822372
 20
-38.58428390367635
 30
0.0
 11
245.7013691822372
 21
595.4157160963236
 31
0.0
  0
INSERT
  5
16D
330
DE
100
AcDbEntity
  8
LAYER0032
 62
     4
100
AcDbBlockReference
  2
_OPEN30
 10
245.7013691822372
 20
-38.58428390367635
 30
0.0
 41
60.00005615230571
 42
59.99978736447287
 50
270.0
  0
INSERT
  5
16E
330
DE
100
AcDbEntity
  8
LAYER0032
 62
     4
100
AcDbBlockReference
  2
_OPEN30
 10
245.7013691822372
 20
595.4157160963236
 30
0.0
 41
60.00005615230571
 42
59.99978736447287
 50
90.0
  0
LINE
  5
16F
330
DE
100
AcDbEntity
  8
LAYER0032
  6
CONTINUOUS
 62
     4
100
AcDbLine
 10
303.542458808616
 20
-38.58428390367635
 30
0.0
 11
225.7013691822372
 21
-38.58428390367635
 31
0.0
  0
LINE
  5
170
330
DE
100
AcDbEntity
  8
LAYER0032
  6
CONTINUOUS
 62
     4
100
AcDbLine
 10
303.542458808616
 20
595.4157160963236
 30
0.0
 11
225.7013691822372
 21
595.4157160963236
 31
0.0
  0
TEXT
  5
171
330
DE
100
AcDbEntity
  8
LAYER0032
 62
     4
100
AcDbText
 10
225.7013691822372
 20
206.4157160963236
 30
0.0
 40
60.0
  1
634
 50
90.0
 41
1.1
  7
DCSTYLE0
 72
     5
 11
225.7013691822372
 21
350.4157160963236
 31
0.0
100
AcDbText
  0
ENDBLK
  5
E0
330
DE
100
AcDbEntity
  8
0
100
AcDbBlockEnd
  0
BLOCK
  5
E2
330
E1
100
AcDbEntity
  8
0
100
AcDbBlockBegin
  2
*D16
 70
     1
 10
0.0
 20
0.0
 30
0.0
  3
*D16
  1

  0
LINE
  5
172
330
E1
100
AcDbEntity
  8
LAYER0032
  6
CONTINUOUS
 62
     4
100
AcDbLine
 10
116.9683770113598
 20
-179.5842839036764
 30
0.0
 11
116.9683770113598
 21
736.4157160963236
 31
0.0
  0
INSERT
  5
173
330
E1
100
AcDbEntity
  8
LAYER0032
 62
     4
100
AcDbBlockReference
  2
_OPEN30
 10
116.9683770113598
 20
-179.5842839036764
 30
0.0
 41
60.00005615230571
 42
59.99978736447287
 50
270.0
  0
INSERT
  5
174
330
E1
100
AcDbEntity
  8
LAYER0032
 62
     4
100
AcDbBlockReference
  2
_OPEN30
 10
116.9683770113598
 20
736.4157160963236
 30
0.0
 41
60.00005615230571
 42
59.99978736447287
 50
90.0
  0
LINE
  5
175
330
E1
100
AcDbEntity
  8
LAYER0032
  6
CONTINUOUS
 62
     4
100
AcDbLine
 10
354.2424588086158
 20
-179.5842839036767
 30
0.0
 11
96.96837701135976
 21
-179.5842839036763
 31
0.0
  0
TEXT
  5
176
330
E1
100
AcDbEntity
  8
LAYER0032
 62
     4
100
AcDbText
 10
96.96837701135976
 20
206.4157160963227
 30
0.0
 40
60.0
  1
916
 50
90.0
 41
1.1
  7
DCSTYLE0
 72
     5
 11
96.96837701135976
 21
350.4157160963227
 31
0.0
100
AcDbText
  0
LINE
  5
177
330
E1
100
AcDbEntity
  8
LAYER0032
  6
CONTINUOUS
 62
     4
100
AcDbLine
 10
354.2424588086158
 20
736.4157160963236
 30
0.0
 11
96.96837701135976
 21
736.4157160963236
 31
0.0
  0
ENDBLK
  5
E3
330
E1
100
AcDbEntity
  8
0
100
AcDbBlockEnd
  0
BLOCK
  5
E5
330
E4
100
AcDbEntity
  8
0
100
AcDbBlockBegin
  2
*D17
 70
     1
 10
0.0
 20
0.0
 30
0.0
  3
*D17
  1

  0
LINE
  5
178
330
E4
100
AcDbEntity
  8
LAYER0032
  6
CONTINUOUS
 62
     4
100
AcDbLine
 10
468.5424588086161
 20
827.2204767582812
 30
0.0
 11
1808.542458808616
 21
827.2204767582812
 31
0.0
  0
INSERT
  5
179
330
E4
100
AcDbEntity
  8
LAYER0032
 62
     4
100
AcDbBlockReference
  2
_OPEN30
 10
468.5424588086161
 20
827.2204767582812
 30
0.0
 41
60.00005615230571
 42
59.99978736447287
 50
180.0
  0
INSERT
  5
17A
330
E4
100
AcDbEntity
  8
LAYER0032
 62
     4
100
AcDbBlockReference
  2
_OPEN30
 10
1808.542458808616
 20
827.2204767582812
 30
0.0
 41
60.00005615230571
 42
59.99978736447287
 50
360.0
  0
LINE
  5
17B
330
E4
100
AcDbEntity
  8
LAYER0032
  6
CONTINUOUS
 62
     4
100
AcDbLine
 10
468.5424588086161
 20
698.4157160963236
 30
0.0
 11
468.5424588086161
 21
847.2204767582812
 31
0.0
  0
LINE
  5
17C
330
E4
100
AcDbEntity
  8
LAYER0032
  6
CONTINUOUS
 62
     4
100
AcDbLine
 10
1808.542458808616
 20
698.4157160963236
 30
0.0
 11
1808.542458808616
 21
847.2204767582812
 31
0.0
  0
TEXT
  5
17D
330
E4
100
AcDbEntity
  8
LAYER0032
 62
     4
100
AcDbText
 10
1042.542458808616
 20
847.2204767582803
 30
0.0
 40
60.0
  1
1340
 41
1.1
  7
DCSTYLE0
 72
     5
 11
1234.542458808616
 21
847.2204767582803
 31
0.0
100
AcDbText
  0
ENDBLK
  5
E6
330
E4
100
AcDbEntity
  8
0
100
AcDbBlockEnd
  0
BLOCK
  5
E8
330
E7
100
AcDbEntity
  8
0
100
AcDbBlockBegin
  2
*D18
 70
     1
 10
0.0
 20
0.0
 30
0.0
  3
*D18
  1

  0
LINE
  5
17E
330
E7
100
AcDbEntity
  8
LAYER0032
  6
CONTINUOUS
 62
     4
100
AcDbLine
 10
374.242458808616
 20
955.9885375947829
 30
0.0
 11
1902.842458808616
 21
955.9885375947829
 31
0.0
  0
INSERT
  5
17F
330
E7
100
AcDbEntity
  8
LAYER0032
 62
     4
100
AcDbBlockReference
  2
_OPEN30
 10
374.242458808616
 20
955.9885375947829
 30
0.0
 41
60.00005615230571
 42
59.99978736447287
 50
180.0
  0
INSERT
  5
180
330
E7
100
AcDbEntity
  8
LAYER0032
 62
     4
100
AcDbBlockReference
  2
_OPEN30
 10
1902.842458808616
 20
955.9885375947829
 30
0.0
 41
60.00005615230571
 42
59.99978736447287
 50
360.0
  0
LINE
  5
181
330
E7
100
AcDbEntity
  8
LAYER0032
  6
CONTINUOUS
 62
     4
100
AcDbLine
 10
374.242458808616
 20
756.4157160963236
 30
0.0
 11
374.242458808616
 21
975.9885375947829
 31
0.0
  0
LINE
  5
182
330
E7
100
AcDbEntity
  8
LAYER0032
  6
CONTINUOUS
 62
     4
100
AcDbLine
 10
1902.842458808616
 20
756.4157160963236
 30
0.0
 11
1902.842458808616
 21
975.9885375947829
 31
0.0
  0
TEXT
  5
183
330
E7
100
AcDbEntity
  8
LAYER0032
 62
     4
100
AcDbText
 10
1042.542458808616
 20
975.9885375947829
 30
0.0
 40
60.0
  1
1528
 41
1.1
  7
DCSTYLE0
 72
     5
 11
1234.542458808616
 21
975.9885375947829
 31
0.0
100
AcDbText
  0
ENDBLK
  5
E9
330
E7
100
AcDbEntity
  8
0
100
AcDbBlockEnd
  0
BLOCK
  5
EB
330
EA
100
AcDbEntity
  8
0
100
AcDbBlockBegin
  2
*D19
 70
     1
 10
0.0
 20
0.0
 30
0.0
  3
*D19
  1

  0
LINE
  5
184
330
EA
100
AcDbEntity
  8
LAYER0032
  6
CONTINUOUS
 62
     4
100
AcDbLine
 10
348.542458808616
 20
1093.954317062463
 30
0.0
 11
1928.542458808616
 21
1093.954317062463
 31
0.0
  0
INSERT
  5
185
330
EA
100
AcDbEntity
  8
LAYER0032
 62
     4
100
AcDbBlockReference
  2
_OPEN30
 10
348.542458808616
 20
1093.954317062463
 30
0.0
 41
60.00005615230571
 42
59.99978736447287
 50
180.0
  0
INSERT
  5
186
330
EA
100
AcDbEntity
  8
LAYER0032
 62
     4
100
AcDbBlockReference
  2
_OPEN30
 10
1928.542458808616
 20
1093.954317062463
 30
0.0
 41
60.00005615230571
 42
59.99978736447287
 50
360.0
  0
LINE
  5
187
330
EA
100
AcDbEntity
  8
LAYER0032
  6
CONTINUOUS
 62
     4
100
AcDbLine
 10
348.542458808616
 20
645.4157160963236
 30
0.0
 11
348.542458808616
 21
1113.954317062463
 31
0.0
  0
LINE
  5
188
330
EA
100
AcDbEntity
  8
LAYER0032
  6
CONTINUOUS
 62
     4
100
AcDbLine
 10
1928.542458808616
 20
645.4157160963236
 30
0.0
 11
1928.542458808616
 21
1113.954317062463
 31
0.0
  0
TEXT
  5
189
330
EA
100
AcDbEntity
  8
LAYER0032
 62
     4
100
AcDbText
 10
1042.542458808616
 20
1113.954317062462
 30
0.0
 40
60.0
  1
1580
 41
1.1
  7
DCSTYLE0
 72
     5
 11
1234.542458808616
 21
1113.954317062462
 31
0.0
100
AcDbText
  0
ENDBLK
  5
EC
330
EA
100
AcDbEntity
  8
0
100
AcDbBlockEnd
  0
BLOCK
  5
EE
330
ED
100
AcDbEntity
  8
0
100
AcDbBlockBegin
  2
*D20
 70
     1
 10
0.0
 20
0.0
 30
0.0
  3
*D20
  1

  0
LINE
  5
18A
330
ED
100
AcDbEntity
  8
LAYER0032
  6
CONTINUOUS
 62
     4
100
AcDbLine
 10
323.542458808616
 20
1227.321237214555
 30
0.0
 11
1953.542458808616
 21
1227.321237214555
 31
0.0
  0
INSERT
  5
18B
330
ED
100
AcDbEntity
  8
LAYER0032
 62
     4
100
AcDbBlockReference
  2
_OPEN30
 10
323.542458808616
 20
1227.321237214555
 30
0.0
 41
60.00005615230571
 42
59.99978736447287
 50
180.0
  0
INSERT
  5
18C
330
ED
100
AcDbEntity
  8
LAYER0032
 62
     4
100
AcDbBlockReference
  2
_OPEN30
 10
1953.542458808616
 20
1227.321237214555
 30
0.0
 41
60.00005615230571
 42
59.99978736447287
 50
360.0
  0
LINE
  5
18D
330
ED
100
AcDbEntity
  8
LAYER0032
  6
CONTINUOUS
 62
     4
100
AcDbLine
 10
323.542458808616
 20
655.4157160963236
 30
0.0
 11
323.542458808616
 21
1247.321237214555
 31
0.0
  0
LINE
  5
18E
330
ED
100
AcDbEntity
  8
LAYER0032
  6
CONTINUOUS
 62
     4
100
AcDbLine
 10
1953.542458808616
 20
655.4157160963236
 30
0.0
 11
1953.542458808616
 21
1247.321237214555
 31
0.0
  0
TEXT
  5
18F
330
ED
100
AcDbEntity
  8
LAYER0032
 62
     4
100
AcDbText
 10
1042.542458808616
 20
1247.321237214555
 30
0.0
 40
60.0
  1
1630
 41
1.1
  7
DCSTYLE0
 72
     5
 11
1234.542458808616
 21
1247.321237214555
 31
0.0
100
AcDbText
  0
ENDBLK
  5
EF
330
ED
100
AcDbEntity
  8
0
100
AcDbBlockEnd
  0
BLOCK
  5
F1
330
F0
100
AcDbEntity
  8
0
100
AcDbBlockBegin
  2
DC_GROUP_12
 70
     0
 10
0.0
 20
0.0
 30
0.0
  3
DC_GROUP_12
  1

  0
LINE
  5
190
330
F0
100
AcDbEntity
  8
LAYER0032
  6
CONTINUOUS
 62
     3
100
AcDbLine
 10
1941.368955808616
 20
278.4157160963236
 30
0.0
 11
1944.255706808616
 21
273.4157160963236
 31
0.0
  0
LINE
  5
191
330
F0
100
AcDbEntity
  8
LAYER0032
  6
CONTINUOUS
 62
     3
100
AcDbLine
 10
1944.255706808616
 20
273.4157160963236
 30
0.0
 11
1950.029209808616
 21
273.4157160963236
 31
0.0
  0
LINE
  5
192
330
F0
100
AcDbEntity
  8
LAYER0032
  6
CONTINUOUS
 62
     3
100
AcDbLine
 10
1950.029209808616
 20
273.4157160963236
 30
0.0
 11
1952.915960808616
 21
278.4157160963236
 31
0.0
  0
LINE
  5
193
330
F0
100
AcDbEntity
  8
LAYER0032
  6
CONTINUOUS
 62
     3
100
AcDbLine
 10
1952.915960808616
 20
278.4157160963236
 30
0.0
 11
1950.029209808616
 21
283.4157160963236
 31
0.0
  0
LINE
  5
194
330
F0
100
AcDbEntity
  8
LAYER0032
  6
CONTINUOUS
 62
     3
100
AcDbLine
 10
1950.029209808616
 20
283.4157160963236
 30
0.0
 11
1944.255706808616
 21
283.4157160963236
 31
0.0
  0
LINE
  5
195
330
F0
100
AcDbEntity
  8
LAYER0032
  6
CONTINUOUS
 62
     3
100
AcDbLine
 10
1944.255706808616
 20
283.4157160963236
 30
0.0
 11
1941.368955808616
 21
278.4157160963236
 31
0.0
  0
ENDBLK
  5
F2
330
F0
100
AcDbEntity
  8
0
100
AcDbBlockEnd
  0
BLOCK
  5
F4
330
F3
100
AcDbEntity
  8
0
100
AcDbBlockBegin
  2
DC_GROUP_13
 70
     0
 10
0.0
 20
0.0
 30
0.0
  3
DC_GROUP_13
  1

  0
LINE
  5
196
330
F3
100
AcDbEntity
  8
LAYER0032
  6
CONTINUOUS
 62
     4
100
AcDbLine
 10
717.4424588086158
 20
-642.0057626389794
 30
0.0
 11
566.9565736414888
 21
-512.6587045519004
 31
0.0
  0
INSERT
  5
197
330
F3
100
AcDbEntity
  8
LAYER0032
 62
     4
100
AcDbBlockReference
  2
_OPEN30
 10
717.4424588086158
 20
-642.0057626389794
 30
0.0
 41
60.00005615230571
 42
59.99978736447287
 50
319.3199689392983
  0
LINE
  5
198
330
F3
100
AcDbEntity
  8
LAYER0032
  6
CONTINUOUS
 62
     4
100
AcDbLine
 10
566.9565736414888
 20
-512.6587045519004
 30
0.0
 11
470.9565736414884
 21
-512.6587045519004
 31
0.0
  0
TEXT
  5
199
330
F3
100
AcDbEntity
  8
LAYER0032
 62
     4
100
AcDbText
 10
470.9565736414888
 20
-512.6587045519004
 30
0.0
 40
60.0
  1
本体
 41
0.55
  7
DCSTYLE0
 72
     5
 11
566.9565736414888
 21
-512.6587045519004
 31
0.0
100
AcDbText
  0
ENDBLK
  5
F5
330
F3
100
AcDbEntity
  8
0
100
AcDbBlockEnd
  0
BLOCK
  5
F7
330
F6
100
AcDbEntity
  8
0
100
AcDbBlockBegin
  2
DC_GROUP_14
 70
     0
 10
0.0
 20
0.0
 30
0.0
  3
DC_GROUP_14
  1

  0
CIRCLE
  5
19A
330
F6
100
AcDbEntity
  8
LAYER0032
  6
CONTINUOUS
 62
     3
100
AcDbCircle
 10
468.542458808616
 20
466.4157160963236
 30
0.0
 40
4.188
  0
CIRCLE
  5
19B
330
F6
100
AcDbEntity
  8
LAYER0032
  6
CONTINUOUS
 62
     3
100
AcDbCircle
 10
468.542458808616
 20
466.4157160963236
 30
0.0
 40
5.0
  0
ENDBLK
  5
F8
330
F6
100
AcDbEntity
  8
0
100
AcDbBlockEnd
  0
BLOCK
  5
FA
330
F9
100
AcDbEntity
  8
0
100
AcDbBlockBegin
  2
DC_GROUP_15
 70
     0
 10
0.0
 20
0.0
 30
0.0
  3
DC_GROUP_15
  1

  0
CIRCLE
  5
19C
330
F9
100
AcDbEntity
  8
LAYER0032
  6
CONTINUOUS
 62
     3
100
AcDbCircle
 10
468.542458808616
 20
90.41571609632376
 30
0.0
 40
4.188
  0
CIRCLE
  5
19D
330
F9
100
AcDbEntity
  8
LAYER0032
  6
CONTINUOUS
 62
     3
100
AcDbCircle
 10
468.542458808616
 20
90.41571609632376
 30
0.0
 40
5.0
  0
ENDBLK
  5
FB
330
F9
100
AcDbEntity
  8
0
100
AcDbBlockEnd
  0
BLOCK
  5
FD
330
FC
100
AcDbEntity
  8
0
100
AcDbBlockBegin
  2
*D25
 70
     1
 10
0.0
 20
0.0
 30
0.0
  3
*D25
  1

  0
LINE
  5
19E
330
FC
100
AcDbEntity
  8
LAYER0032
  6
CONTINUOUS
 62
     4
100
AcDbLine
 10
644.5654269789158
 20
90.41571609632376
 30
0.0
 11
644.5654269789158
 21
466.4157160963236
 31
0.0
  0
INSERT
  5
19F
330
FC
100
AcDbEntity
  8
LAYER0032
 62
     4
100
AcDbBlockReference
  2
_OPEN30
 10
644.5654269789158
 20
90.41571609632376
 30
0.0
 41
60.00005615230571
 42
59.99978736447287
 50
270.0
  0
INSERT
  5
1A0
330
FC
100
AcDbEntity
  8
LAYER0032
 62
     4
100
AcDbBlockReference
  2
_OPEN30
 10
644.5654269789158
 20
466.4157160963236
 30
0.0
 41
60.00005615230571
 42
59.99978736447287
 50
90.0
  0
LINE
  5
1A1
330
FC
100
AcDbEntity
  8
LAYER0032
  6
CONTINUOUS
 62
     4
100
AcDbLine
 10
520.1041381430822
 20
90.41571609632376
 30
0.0
 11
664.5654269789158
 21
90.41571609632376
 31
0.0
  0
LINE
  5
1A2
330
FC
100
AcDbEntity
  8
LAYER0032
  6
CONTINUOUS
 62
     4
100
AcDbLine
 10
520.1041381430822
 20
466.4157160963236
 30
0.0
 11
664.5654269789158
 21
466.4157160963236
 31
0.0
  0
TEXT
  5
1A3
330
FC
100
AcDbEntity
  8
LAYER0032
 62
     4
100
AcDbText
 10
624.5654269789156
 20
102.9157160963236
 30
0.0
 40
60.0
  1
376（スリム脚）
 50
90.0
 41
0.6566142207500562
  7
DCSTYLE0
 72
     5
 11
624.5654269789156
 21
453.9157160963236
 31
0.0
100
AcDbText
  0
ENDBLK
  5
FE
330
FC
100
AcDbEntity
  8
0
100
AcDbBlockEnd
  0
BLOCK
  5
100
330
FF
100
AcDbEntity
  8
0
100
AcDbBlockBegin
  2
*D26
 70
     1
 10
0.0
 20
0.0
 30
0.0
  3
*D26
  1

  0
LINE
  5
1A4
330
FF
100
AcDbEntity
  8
LAYER0032
  6
CONTINUOUS
 62
     4
100
AcDbLine
 10
803.265218396966
 20
-91.5842839036768
 30
0.0
 11
803.265218396966
 21
466.4157160963236
 31
0.0
  0
INSERT
  5
1A5
330
FF
100
AcDbEntity
  8
LAYER0032
 62
     4
100
AcDbBlockReference
  2
_OPEN30
 10
803.265218396966
 20
-91.5842839036768
 30
0.0
 41
60.00005615230571
 42
59.99978736447287
 50
270.0
  0
INSERT
  5
1A6
330
FF
100
AcDbEntity
  8
LAYER0032
 62
     4
100
AcDbBlockReference
  2
_OPEN30
 10
803.265218396966
 20
466.4157160963236
 30
0.0
 41
60.00005615230571
 42
59.99978736447287
 50
90.0
  0
LINE
  5
1A7
330
FF
100
AcDbEntity
  8
LAYER0032
  6
CONTINUOUS
 62
     4
100
AcDbLine
 10
520.1041381430822
 20
-91.5842839036768
 30
0.0
 11
823.265218396966
 21
-91.5842839036768
 31
0.0
  0
LINE
  5
1A8
330
FF
100
AcDbEntity
  8
LAYER0032
  6
CONTINUOUS
 62
     4
100
AcDbLine
 10
520.1041381430822
 20
466.4157160963236
 30
0.0
 11
823.265218396966
 21
466.4157160963236
 31
0.0
  0
TEXT
  5
1A9
330
FF
100
AcDbEntity
  8
LAYER0032
 62
     4
100
AcDbText
 10
783.265218396966
 20
-28.58428390367658
 30
0.0
 40
60.0
  1
558（壁寄り脚）
 50
90.0
 41
0.7924796300374368
  7
DCSTYLE0
 72
     5
 11
783.265218396966
 21
403.4157160963234
 31
0.0
100
AcDbText
  0
ENDBLK
  5
101
330
FF
100
AcDbEntity
  8
0
100
AcDbBlockEnd
  0
BLOCK
  5
103
330
102
100
AcDbEntity
  8
0
100
AcDbBlockBegin
  2
*D27
 70
     1
 10
0.0
 20
0.0
 30
0.0
  3
*D27
  1

  0
LINE
  5
1AA
330
102
100
AcDbEntity
  8
LAYER0032
  6
CONTINUOUS
 62
     4
100
AcDbLine
 10
970.0344907345782
 20
-91.5842839036768
 30
0.0
 11
970.0344907345782
 21
648.4157160963236
 31
0.0
  0
INSERT
  5
1AB
330
102
100
AcDbEntity
  8
LAYER0032
 62
     4
100
AcDbBlockReference
  2
_OPEN30
 10
970.0344907345782
 20
-91.5842839036768
 30
0.0
 41
60.00005615230571
 42
59.99978736447287
 50
270.0
  0
INSERT
  5
1AC
330
102
100
AcDbEntity
  8
LAYER0032
 62
     4
100
AcDbBlockReference
  2
_OPEN30
 10
970.0344907345782
 20
648.4157160963236
 30
0.0
 41
60.00005615230571
 42
59.99978736447287
 50
90.0
  0
LINE
  5
1AD
330
102
100
AcDbEntity
  8
LAYER0032
  6
CONTINUOUS
 62
     4
100
AcDbLine
 10
520.1041381430822
 20
-91.5842839036768
 30
0.0
 11
990.0344907345782
 21
-91.5842839036768
 31
0.0
  0
LINE
  5
1AE
330
102
100
AcDbEntity
  8
LAYER0032
  6
CONTINUOUS
 62
     4
100
AcDbLine
 10
520.1041381430822
 20
648.4157160963236
 30
0.0
 11
990.0344907345782
 21
648.4157160963236
 31
0.0
  0
TEXT
  5
1AF
330
102
100
AcDbEntity
  8
LAYER0032
 62
     4
100
AcDbText
 10
950.0344907345778
 20
86.41571609632331
 30
0.0
 40
60.0
  1
740（標準脚）
 50
90.0
 41
0.8000000000000004
  7
DCSTYLE0
 72
     5
 11
950.0344907345778
 21
470.4157160963234
 31
0.0
100
AcDbText
  0
ENDBLK
  5
104
330
102
100
AcDbEntity
  8
0
100
AcDbBlockEnd
  0
BLOCK
  5
106
330
105
100
AcDbEntity
  8
0
100
AcDbBlockBegin
  2
DC_GROUP_16
 70
     0
 10
0.0
 20
0.0
 30
0.0
  3
DC_GROUP_16
  1

  0
LINE
  5
1B0
330
105
100
AcDbEntity
  8
LAYER0032
  6
CONTINUOUS
 62
     4
100
AcDbLine
 10
1928.542458808615
 20
-45.58428390367624
 30
0.0
 11
1984.828366983183
 21
-304.7051750090304
 31
0.0
  0
INSERT
  5
1B1
330
105
100
AcDbEntity
  8
LAYER0032
 62
     4
100
AcDbBlockReference
  2
_OPEN30
 10
1928.542458808615
 20
-45.58428390367624
 30
0.0
 41
60.00005615230571
 42
59.99978736447287
 50
102.2553312357333
  0
LINE
  5
1B2
330
105
100
AcDbEntity
  8
LAYER0032
  6
CONTINUOUS
 62
     4
100
AcDbLine
 10
1984.828366983183
 20
-304.7051750090304
 30
0.0
 11
2224.828366983183
 21
-304.7051750090304
 31
0.0
  0
TEXT
  5
1B3
330
105
100
AcDbEntity
  8
LAYER0032
 62
     4
100
AcDbText
 10
1984.828366983183
 20
-304.7051750090304
 30
0.0
 40
60.0
  1
４－φ１４
 41
0.6788624787775892
  7
DCSTYLE0
 72
     5
 11
2224.828366983183
 21
-304.7051750090304
 31
0.0
100
AcDbText
  0
ENDBLK
  5
107
330
105
100
AcDbEntity
  8
0
100
AcDbBlockEnd
  0
BLOCK
  5
109
330
108
100
AcDbEntity
  8
0
100
AcDbBlockBegin
  2
DC_GROUP_17
 70
     0
 10
0.0
 20
0.0
 30
0.0
  3
DC_GROUP_17
  1

  0
CIRCLE
  5
1B4
330
108
100
AcDbEntity
  8
LAYER0032
  6
CONTINUOUS
 62
     3
100
AcDbCircle
 10
1808.542458808615
 20
466.4157160963236
 30
0.0
 40
4.188
  0
CIRCLE
  5
1B5
330
108
100
AcDbEntity
  8
LAYER0032
  6
CONTINUOUS
 62
     3
100
AcDbCircle
 10
1808.542458808615
 20
466.4157160963236
 30
0.0
 40
5.0
  0
ENDBLK
  5
10A
330
108
100
AcDbEntity
  8
0
100
AcDbBlockEnd
  0
BLOCK
  5
10C
330
10B
100
AcDbEntity
  8
0
100
AcDbBlockBegin
  2
DC_GROUP_18
 70
     0
 10
0.0
 20
0.0
 30
0.0
  3
DC_GROUP_18
  1

  0
CIRCLE
  5
1B6
330
10B
100
AcDbEntity
  8
LAYER0032
  6
CONTINUOUS
 62
     3
100
AcDbCircle
 10
1808.542458808615
 20
90.41571609632376
 30
0.0
 40
4.188
  0
CIRCLE
  5
1B7
330
10B
100
AcDbEntity
  8
LAYER0032
  6
CONTINUOUS
 62
     3
100
AcDbCircle
 10
1808.542458808615
 20
90.41571609632376
 30
0.0
 40
5.0
  0
ENDBLK
  5
10D
330
10B
100
AcDbEntity
  8
0
100
AcDbBlockEnd
  0
BLOCK
  5
10F
330
10E
100
AcDbEntity
  8
0
100
AcDbBlockBegin
  2
DC_GROUP_19
 70
     0
 10
0.0
 20
0.0
 30
0.0
  3
DC_GROUP_19
  1

  0
LINE
  5
1B8
330
10E
100
AcDbEntity
  8
LAYER0032
  6
CONTINUOUS
 62
     4
100
AcDbLine
 10
468.5424588086162
 20
-96.5842839036759
 30
0.0
 11
524.8283669831844
 21
-355.70517500903
 31
0.0
  0
INSERT
  5
1B9
330
10E
100
AcDbEntity
  8
LAYER0032
 62
     4
100
AcDbBlockReference
  2
_OPEN30
 10
468.5424588086162
 20
-96.5842839036759
 30
0.0
 41
60.00005615230571
 42
59.99978736447287
 50
102.2553312357333
  0
LINE
  5
1BA
330
10E
100
AcDbEntity
  8
LAYER0032
  6
CONTINUOUS
 62
     4
100
AcDbLine
 10
524.8283669831844
 20
-355.70517500903
 30
0.0
 11
1004.828366983184
 21
-355.70517500903
 31
0.0
  0
TEXT
  5
1BB
330
10E
100
AcDbEntity
  8
LAYER0032
 62
     4
100
AcDbText
 10
524.8283669831844
 20
-355.70517500903
 30
0.0
 40
60.0
  1
8－Ｍ１2×１．7５
 41
0.7693861843371177
  7
DCSTYLE0
 72
     5
 11
1004.828366983184
 21
-355.70517500903
 31
0.0
100
AcDbText
  0
ENDBLK
  5
110
330
10E
100
AcDbEntity
  8
0
100
AcDbBlockEnd
  0
BLOCK
  5
146
330
145
100
AcDbEntity
  8
0
100
AcDbBlockBegin
  2
_OPEN30
 70
     0
 10
0.0
 20
0.0
 30
0.0
  3
_OPEN30
  1

  0
LINE
  5
148
330
145
100
AcDbEntity
  8
0
  6
BYBLOCK
 62
     0
100
AcDbLine
 10
-1.0
 20
0.267949
 30
0.0
 11
0.0
 21
0.0
 31
0.0
  0
LINE
  5
149
330
145
100
AcDbEntity
  8
0
  6
BYBLOCK
 62
     0
100
AcDbLine
 10
0.0
 20
0.0
 30
0.0
 11
-1.0
 21
-0.267949
 31
0.0
  0
LINE
  5
14A
330
145
100
AcDbEntity
  8
0
  6
BYBLOCK
 62
     0
100
AcDbLine
 10
0.0
 20
0.0
 30
0.0
 11
-1.0
 21
0.0
 31
0.0
  0
ENDBLK
  5
147
330
145
100
AcDbEntity
  8
0
100
AcDbBlockEnd
  0
ENDSEC
  0
SECTION
  2
ENTITIES
  0
LINE
  5
1BC
330
1F
100
AcDbEntity
  8
LAYER0048
  6
CONTINUOUS
 62
     7
100
AcDbLine
 10
-2570.000000000003
 20
1963.999999999999
 30
0.0
 11
2569.999999999997
 21
1964.0
 31
0.0
  0
LINE
  5
1BD
330
1F
100
AcDbEntity
  8
LAYER0048
  6
CONTINUOUS
 62
     7
100
AcDbLine
 10
2569.999999999997
 20
1964.0
 30
0.0
 11
2569.999999999997
 21
-1856.000000000001
 31
0.0
  0
LINE
  5
1BE
330
1F
100
AcDbEntity
  8
LAYER0048
  6
CONTINUOUS
 62
     7
100
AcDbLine
 10
-2570.000000000003
 20
-1856.000000000001
 30
0.0
 11
-2570.000000000003
 21
1964.0
 31
0.0
  0
LINE
  5
1BF
330
1F
100
AcDbEntity
  8
LAYER0048
  6
CONTINUOUS
 62
     7
100
AcDbLine
 10
-2253.770102348987
 20
1170.329753864358
 30
0.0
 11
-253.7701023489869
 21
1170.329753864359
 31
0.0
  0
LINE
  5
1C0
330
1F
100
AcDbEntity
  8
LAYER0048
  6
CONTINUOUS
 62
     7
100
AcDbLine
 10
-253.7701023489869
 20
1458.329753864359
 30
0.0
 11
-253.7701023489869
 21
-445.6702461356425
 31
0.0
  0
LINE
  5
1C1
330
1F
100
AcDbEntity
  8
LAYER0048
  6
CONTINUOUS
 62
     7
100
AcDbLine
 10
-253.7701023489869
 20
-237.6702461356425
 30
0.0
 11
-2253.770102348987
 21
-237.6702461356425
 31
0.0
  0
LINE
  5
1C2
330
1F
100
AcDbEntity
  8
LAYER0048
  6
CONTINUOUS
 62
     7
100
AcDbLine
 10
-2253.770102348987
 20
-445.6702461356425
 30
0.0
 11
-2253.770102348987
 21
1458.329753864358
 31
0.0
  0
LINE
  5
1C3
330
1F
100
AcDbEntity
  8
LAYER0048
  6
CONTINUOUS
 62
     7
100
AcDbLine
 10
-2253.770102348987
 20
1042.329753864358
 30
0.0
 11
-253.7701023489869
 21
1042.329753864359
 31
0.0
  0
LINE
  5
1C4
330
1F
100
AcDbEntity
  8
LAYER0048
  6
CONTINUOUS
 62
     7
100
AcDbLine
 10
-2253.770102348987
 20
354.3297538643576
 30
0.0
 11
-253.7701023489866
 21
354.3297538643583
 31
0.0
  0
LINE
  5
1C5
330
1F
100
AcDbEntity
  8
LAYER0048
  6
CONTINUOUS
 62
     7
100
AcDbLine
 10
-1813.770102348987
 20
-445.6702461356425
 30
0.0
 11
-1813.770102348987
 21
1042.329753864358
 31
0.0
  0
LINE
  5
1C6
330
1F
100
AcDbEntity
  8
LAYER0048
  6
CONTINUOUS
 62
     7
100
AcDbLine
 10
-2253.770102348987
 20
1330.329753864358
 30
0.0
 11
-253.7701023489869
 21
1330.329753864359
 31
0.0
  0
LINE
  5
1C7
330
1F
100
AcDbEntity
  8
LAYER0048
  6
CONTINUOUS
 62
     7
100
AcDbLine
 10
-2253.770102348987
 20
1458.329753864358
 30
0.0
 11
-253.7701023489869
 21
1458.329753864359
 31
0.0
  0
LINE
  5
1C8
330
1F
100
AcDbEntity
  8
LAYER0048
  6
CONTINUOUS
 62
     7
100
AcDbLine
 10
2569.999999999997
 20
-1856.000000000001
 30
0.0
 11
-2570.000000000003
 21
-1856.000000000001
 31
0.0
  0
LINE
  5
1C9
330
1F
100
AcDbEntity
  8
LAYER0048
  6
CONTINUOUS
 62
     7
100
AcDbLine
 10
-253.7701023489869
 20
-445.6702461356426
 30
0.0
 11
-2253.770102348987
 21
-445.6702461356426
 31
0.0
  0
LINE
  5
1CA
330
1F
100
AcDbEntity
  8
LAYER0048
  6
CONTINUOUS
 62
     7
100
AcDbLine
 10
-2328.434537186966
 20
-1578.663994023792
 30
0.0
 11
-2323.948046263033
 21
-1574.177503099859
 31
0.0
  0
LINE
  5
1CB
330
1F
100
AcDbEntity
  8
LAYER0048
  6
CONTINUOUS
 62
     7
100
AcDbLine
 10
-2330.362916506676
 20
-1581.723744193401
 30
0.0
 11
-2320.888296093424
 21
-1572.24912378015
 31
0.0
  0
LINE
  5
1CC
330
1F
100
AcDbEntity
  8
LAYER0048
  6
CONTINUOUS
 62
     7
100
AcDbLine
 10
-2331.32280655162
 20
-1583.815005088243
 30
0.0
 11
-2318.797035198584
 21
-1571.289233735208
 31
0.0
  0
LINE
  5
1CD
330
1F
100
AcDbEntity
  8
LAYER0048
  6
CONTINUOUS
 62
     7
100
AcDbLine
 10
-2331.935799392684
 20
-1585.559368779206
 30
0.0
 11
-2317.05267150762
 21
-1570.676240894142
 31
0.0
  0
LINE
  5
1CE
330
1F
100
AcDbEntity
  8
LAYER0048
  6
CONTINUOUS
 62
     7
100
AcDbLine
 10
-2332.346999893683
 20
-1587.101940130104
 30
0.0
 11
-2315.510100156723
 21
-1570.265040393143
 31
0.0
  0
LINE
  5
1CF
330
1F
100
AcDbEntity
  8
LAYER0048
  6
CONTINUOUS
 62
     7
100
AcDbLine
 10
-2332.621545731683
 20
-1588.507856818002
 30
0.0
 11
-2314.104183468825
 21
-1569.990494555143
 31
0.0
  0
LINE
  5
1D0
330
1F
100
AcDbEntity
  8
LAYER0048
  6
CONTINUOUS
 62
     7
100
AcDbLine
 10
-2332.794508252416
 20
-1589.812190188633
 30
0.0
 11
-2312.799850098193
 21
-1569.81753203441
 31
0.0
  0
LINE
  5
1D1
330
1F
100
AcDbEntity
  8
LAYER0048
  6
CONTINUOUS
 62
     7
100
AcDbLine
 10
-2332.886045153575
 20
-1591.035097939692
 30
0.0
 11
-2311.576942347136
 21
-1569.725995133252
 31
0.0
  0
LINE
  5
1D2
330
1F
100
AcDbEntity
  8
LAYER0048
  6
CONTINUOUS
 62
     7
100
AcDbLine
 10
-2332.911252666215
 20
-1592.191676302228
 30
0.0
 11
-2310.420363984597
 21
-1569.700787620611
 31
0.0
  0
LINE
  5
1D3
330
1F
100
AcDbEntity
  8
LAYER0048
  6
CONTINUOUS
 62
     7
100
AcDbLine
 10
-2332.880153468723
 20
-1593.291947954636
 30
0.0
 11
-2309.320092332191
 21
-1569.731886818104
 31
0.0
  0
LINE
  5
1D4
330
1F
100
AcDbEntity
  8
LAYER0048
  6
CONTINUOUS
 62
     7
100
AcDbLine
 10
-2332.798909605419
 20
-1594.342074941229
 30
0.0
 11
-2308.269965345596
 21
-1569.813130681407
 31
0.0
  0
LINE
  5
1D5
330
1F
100
AcDbEntity
  8
LAYER0048
  6
CONTINUOUS
 62
     7
100
AcDbLine
 10
-2332.674407874146
 20
-1595.348944059855
 30
0.0
 11
-2307.263096226973
 21
-1569.937632412682
 31
0.0
  0
LINE
  5
1D6
330
1F
100
AcDbEntity
  8
LAYER0048
  6
CONTINUOUS
 62
     7
100
AcDbLine
 10
-2332.51108730158
 20
-1596.316994337188
 30
0.0
 11
-2306.29504594964
 21
-1570.100952985248
 31
0.0
  0
LINE
  5
1D7
330
1F
100
AcDbEntity
  8
LAYER0048
  6
CONTINUOUS
 62
     7
100
AcDbLine
 10
-2332.311549018046
 20
-1597.248826903552
 30
0.0
 11
-2305.363213383274
 21
-1570.300491268781
 31
0.0
  0
LINE
  5
1D8
330
1F
100
AcDbEntity
  8
LAYER0048
  6
CONTINUOUS
 62
     7
100
AcDbLine
 10
-2332.079335386313
 20
-1598.147984121719
 30
0.0
 11
-2304.464056165108
 21
-1570.532704900513
 31
0.0
  0
LINE
  5
1D9
330
1F
100
AcDbEntity
  8
LAYER0048
  6
CONTINUOUS
 62
     7
100
AcDbLine
 10
-2331.817212164981
 20
-1599.017231750284
 30
0.0
 11
-2303.594808536542
 21
-1570.794828121846
 31
0.0
  0
LINE
  5
1DA
330
1F
100
AcDbEntity
  8
LAYER0048
  6
CONTINUOUS
 62
     7
100
AcDbLine
 10
-2331.52543070771
 20
-1599.856821142912
 30
0.0
 11
-2302.755219143914
 21
-1571.086609579118
 31
0.0
  0
LINE
  5
1DB
330
1F
100
AcDbEntity
  8
LAYER0048
  6
CONTINUOUS
 62
     7
100
AcDbLine
 10
-2331.206998846333
 20
-1600.669760131434
 30
0.0
 11
-2301.942280155393
 21
-1571.405041440493
 31
0.0
  0
LINE
  5
1DC
330
1F
100
AcDbEntity
  8
LAYER0048
  6
CONTINUOUS
 62
     7
100
AcDbLine
 10
-2330.863172614076
 20
-1601.457304749075
 30
0.0
 11
-2301.154735537752
 21
-1571.748867672751
 31
0.0
  0
LINE
  5
1DD
330
1F
100
AcDbEntity
  8
LAYER0048
  6
CONTINUOUS
 62
     7
100
AcDbLine
 10
-2330.494976966199
 20
-1602.220479951097
 30
0.0
 11
-2300.39156033573
 21
-1572.117063320627
 31
0.0
  0
LINE
  5
1DE
330
1F
100
AcDbEntity
  8
LAYER0048
  6
CONTINUOUS
 62
     7
100
AcDbLine
 10
-2330.10328669574
 20
-1602.960160530537
 30
0.0
 11
-2299.651879756289
 21
-1572.508753591086
 31
0.0
  0
LINE
  5
1DF
330
1F
100
AcDbEntity
  8
LAYER0048
  6
CONTINUOUS
 62
     7
100
AcDbLine
 10
-2329.688281092492
 20
-1603.676525777185
 30
0.0
 11
-2298.935514509642
 21
-1572.923759194335
 31
0.0
  0
LINE
  5
1E0
330
1F
100
AcDbEntity
  8
LAYER0048
  6
CONTINUOUS
 62
     7
100
AcDbLine
 10
-2329.251282315955
 20
-1604.370897850547
 30
0.0
 11
-2298.241142436278
 21
-1573.360757970871
 31
0.0
  0
LINE
  5
1E1
330
1F
100
AcDbEntity
  8
LAYER0048
  6
CONTINUOUS
 62
     7
100
AcDbLine
 10
-2328.792803456535
 20
-1605.043789841026
 30
0.0
 11
-2297.568250445801
 21
-1573.819236830293
 31
0.0
  0
LINE
  5
1E2
330
1F
100
AcDbEntity
  8
LAYER0048
  6
CONTINUOUS
 62
     7
100
AcDbLine
 10
-2328.313263490491
 20
-1605.695620724881
 30
0.0
 11
-2296.916419561945
 21
-1574.298776796335
 31
0.0
  0
LINE
  5
1E3
330
1F
100
AcDbEntity
  8
LAYER0048
  6
CONTINUOUS
 62
     7
100
AcDbLine
 10
-2327.812993652565
 20
-1606.326721736854
 30
0.0
 11
-2296.285318549973
 21
-1574.799046634261
 31
0.0
  0
LINE
  5
1E4
330
1F
100
AcDbEntity
  8
LAYER0048
  6
CONTINUOUS
 62
     7
100
AcDbLine
 10
-2327.292242371672
 20
-1606.937341305858
 30
0.0
 11
-2295.674698980969
 21
-1575.319797915156
 31
0.0
  0
LINE
  5
1E5
330
1F
100
AcDbEntity
  8
LAYER0048
  6
CONTINUOUS
 62
     7
100
AcDbLine
 10
-2326.751178913801
 20
-1607.527648697886
 30
0.0
 11
-2295.084391588941
 21
-1575.860861373025
 31
0.0
  0
LINE
  5
1E6
330
1F
100
AcDbEntity
  8
LAYER0048
  6
CONTINUOUS
 62
     7
100
AcDbLine
 10
-2326.189895836349
 20
-1608.097736470333
 30
0.0
 11
-2294.514303816493
 21
-1576.422144450477
 31
0.0
  0
LINE
  5
1E7
330
1F
100
AcDbEntity
  8
LAYER0048
  6
CONTINUOUS
 62
     7
100
AcDbLine
 10
-2325.60841032303
 20
-1608.647621806912
 30
0.0
 11
-2293.964418479914
 21
-1577.003629963796
 31
0.0
  0
LINE
  5
1E8
330
1F
100
AcDbEntity
  8
LAYER0048
  6
CONTINUOUS
 62
     7
100
AcDbLine
 10
-2325.006664436689
 20
-1609.177246770468
 30
0.0
 11
-2293.434793516357
 21
-1577.605375850138
 31
0.0
  0
LINE
  5
1E9
330
1F
100
AcDbEntity
  8
LAYER0048
  6
CONTINUOUS
 62
     7
100
AcDbLine
 10
-2324.384524297149
 20
-1609.686477480828
 30
0.0
 11
-2292.925562805999
 21
-1578.227515989678
 31
0.0
  0
LINE
  5
1EA
330
1F
100
AcDbEntity
  8
LAYER0048
  6
CONTINUOUS
 62
     7
100
AcDbLine
 10
-2323.741778161332
 20
-1610.175102194908
 30
0.0
 11
-2292.436938091917
 21
-1578.870262125495
 31
0.0
  0
LINE
  5
1EB
330
1F
100
AcDbEntity
  8
LAYER0048
  6
CONTINUOUS
 62
     7
100
AcDbLine
 10
-2323.078133352039
 20
-1610.642828235515
 30
0.0
 11
-2291.969212051311
 21
-1579.533906934787
 31
0.0
  0
LINE
  5
1EC
330
1F
100
AcDbEntity
  8
LAYER0048
  6
CONTINUOUS
 62
     7
100
AcDbLine
 10
-2322.393211948476
 20
-1611.089277681851
 30
0.0
 11
-2291.522762604975
 21
-1580.21882833835
 31
0.0
  0
LINE
  5
1ED
330
1F
100
AcDbEntity
  8
LAYER0048
  6
CONTINUOUS
 62
     7
100
AcDbLine
 10
-2321.686165990595
 20
-1611.513602573867
 30
0.0
 11
-2291.09843771296
 21
-1580.925874296233
 31
0.0
  0
LINE
  5
1EE
330
1F
100
AcDbEntity
  8
LAYER0048
  6
CONTINUOUS
 62
     7
100
AcDbLine
 10
-2320.956525654039
 20
-1611.91533308721
 30
0.0
 11
-2290.696707199616
 21
-1581.655514632787
 31
0.0
  0
LINE
  5
1EF
330
1F
100
AcDbEntity
  8
LAYER0048
  6
CONTINUOUS
 62
     7
100
AcDbLine
 10
-2320.203757560405
 20
-1612.293935843475
 30
0.0
 11
-2290.318104443351
 21
-1582.40828272642
 31
0.0
  0
LINE
  5
1F0
330
1F
100
AcDbEntity
  8
LAYER0048
  6
CONTINUOUS
 62
     7
100
AcDbLine
 10
-2319.427041569628
 20
-1612.648590702597
 30
0.0
 11
-2289.96344958423
 21
-1583.184998717199
 31
0.0
  0
LINE
  5
1F1
330
1F
100
AcDbEntity
  8
LAYER0048
  6
CONTINUOUS
 62
     7
100
AcDbLine
 10
-2318.625421603339
 20
-1612.978341586206
 30
0.0
 11
-2289.63369870062
 21
-1583.986618683487
 31
0.0
  0
LINE
  5
1F2
330
1F
100
AcDbEntity
  8
LAYER0048
  6
CONTINUOUS
 62
     7
100
AcDbLine
 10
-2317.797686128069
 20
-1613.281976960835
 30
0.0
 11
-2289.330063325992
 21
-1584.814354158758
 31
0.0
  0
LINE
  5
1F3
330
1F
100
AcDbEntity
  8
LAYER0048
  6
CONTINUOUS
 62
     7
100
AcDbLine
 10
-2316.941116461713
 20
-1613.556778144376
 30
0.0
 11
-2289.055262142451
 21
-1585.670923825114
 31
0.0
  0
LINE
  5
1F4
330
1F
100
AcDbEntity
  8
LAYER0048
  6
CONTINUOUS
 62
     7
100
AcDbLine
 10
-2316.055426921468
 20
-1613.802459454031
 30
0.0
 11
-2288.809580832797
 21
-1586.556613365358
 31
0.0
  0
LINE
  5
1F5
330
1F
100
AcDbEntity
  8
LAYER0048
  6
CONTINUOUS
 62
     7
100
AcDbLine
 10
-2315.138376622504
 20
-1614.016780004965
 30
0.0
 11
-2288.595260281861
 21
-1587.473663664322
 31
0.0
  0
LINE
  5
1F6
330
1F
100
AcDbEntity
  8
LAYER0048
  6
CONTINUOUS
 62
     7
100
AcDbLine
 10
-2314.186012634846
 20
-1614.195786867204
 30
0.0
 11
-2288.416253419621
 21
-1588.42602765198
 31
0.0
  0
LINE
  5
1F7
330
1F
100
AcDbEntity
  8
LAYER0048
  6
CONTINUOUS
 62
     7
100
AcDbLine
 10
-2313.196995388402
 20
-1614.338140470659
 30
0.0
 11
-2288.273899816166
 21
-1589.415044898424
 31
0.0
  0
LINE
  5
1F8
330
1F
100
AcDbEntity
  8
LAYER0048
  6
CONTINUOUS
 62
     7
100
AcDbLine
 10
-2312.165733709026
 20
-1614.438249641182
 30
0.0
 11
-2288.173790645644
 21
-1590.4463065778
 31
0.0
  0
LINE
  5
1F9
330
1F
100
AcDbEntity
  8
LAYER0048
  6
CONTINUOUS
 62
     7
100
AcDbLine
 10
-2311.087848283468
 20
-1614.491735065522
 30
0.0
 11
-2288.120305221303
 21
-1591.524192003358
 31
0.0
  0
LINE
  5
1FA
330
1F
100
AcDbEntity
  8
LAYER0048
  6
CONTINUOUS
 62
     7
100
AcDbLine
 10
-2309.957021152568
 20
-1614.492278784522
 30
0.0
 11
-2288.119761502305
 21
-1592.655019134258
 31
0.0
  0
LINE
  5
1FB
330
1F
100
AcDbEntity
  8
LAYER0048
  6
CONTINUOUS
 62
     7
100
AcDbLine
 10
-2308.764210493042
 20
-1614.430838974893
 30
0.0
 11
-2288.181201311933
 21
-1593.847829793785
 31
0.0
  0
LINE
  5
1FC
330
1F
100
AcDbEntity
  8
LAYER0048
  6
CONTINUOUS
 62
     7
100
AcDbLine
 10
-2307.497549701396
 20
-1614.295549033146
 30
0.0
 11
-2288.316491253679
 21
-1595.11449058543
 31
0.0
  0
LINE
  5
1FD
330
1F
100
AcDbEntity
  8
LAYER0048
  6
CONTINUOUS
 62
     7
100
AcDbLine
 10
-2306.138922648743
 20
-1614.068292830391
 30
0.0
 11
-2288.543747456435
 21
-1596.473117638084
 31
0.0
  0
LINE
  5
1FE
330
1F
100
AcDbEntity
  8
LAYER0048
  6
CONTINUOUS
 62
     7
100
AcDbLine
 10
-2304.661202519187
 20
-1613.721943550734
 30
0.0
 11
-2288.890096736092
 21
-1597.950837767639
 31
0.0
  0
LINE
  5
1FF
330
1F
100
AcDbEntity
  8
LAYER0048
  6
CONTINUOUS
 62
     7
100
AcDbLine
 10
-2303.015210545058
 20
-1613.207322426504
 30
0.0
 11
-2289.404717860323
 21
-1599.596829741769
 31
0.0
  0
LINE
  5
200
330
1F
100
AcDbEntity
  8
LAYER0048
  6
CONTINUOUS
 62
     7
100
AcDbLine
 10
-2301.104924181549
 20
-1612.428406912891
 30
0.0
 11
-2290.183633373935
 21
-1601.507116105279
 31
0.0
  0
LINE
  5
201
330
1F
100
AcDbEntity
  8
LAYER0048
  6
CONTINUOUS
 62
     7
100
AcDbLine
 10
-2298.640621210143
 20
-1611.095474791385
 30
0.0
 11
-2291.516565495442
 21
-1603.971419076684
 31
0.0
  0
LINE
  5
202
330
1F
100
AcDbEntity
  8
LAYER0048
  6
CONTINUOUS
 62
     7
100
AcDbLine
 10
-2328.463395262278
 20
-1575.221631365004
 30
0.0
 11
-2344.112052822583
 21
-1530.099987464245
 31
0.0
  0
LINE
  5
203
330
1F
100
AcDbEntity
  8
LAYER0048
  6
CONTINUOUS
 62
     7
100
AcDbLine
 10
-2328.463395262278
 20
-1608.978343563484
 30
0.0
 11
-2344.112052822582
 21
-1648.099987464244
 31
0.0
  0
LINE
  5
204
330
1F
100
AcDbEntity
  8
LAYER0048
  6
CONTINUOUS
 62
     7
100
AcDbLine
 10
-2276.912052822582
 20
-1648.099987464244
 30
0.0
 11
-2292.560710382884
 21
-1608.978343563484
 31
0.0
  0
LINE
  5
205
330
1F
100
AcDbEntity
  8
LAYER0048
  6
CONTINUOUS
 62
     7
100
AcDbLine
 10
-2276.912052822583
 20
-1530.099987464245
 30
0.0
 11
-2292.560710382884
 21
-1575.221631365004
 31
0.0
  0
LINE
  5
206
330
1F
100
AcDbEntity
  8
LAYER0048
  6
CONTINUOUS
 62
     7
100
AcDbLine
 10
-2344.112052822582
 20
-1648.099987464244
 30
0.0
 11
-2366.512052822582
 21
-1592.099987464244
 31
0.0
  0
LINE
  5
207
330
1F
100
AcDbEntity
  8
LAYER0048
  6
CONTINUOUS
 62
     7
100
AcDbLine
 10
-2344.112052822583
 20
-1530.099987464245
 30
0.0
 11
-2366.512052822582
 21
-1592.099987464244
 31
0.0
  0
LINE
  5
208
330
1F
100
AcDbEntity
  8
LAYER0048
  6
CONTINUOUS
 62
     7
100
AcDbLine
 10
-2254.512052822582
 20
-1592.099987464244
 30
0.0
 11
-2276.912052822582
 21
-1648.099987464244
 31
0.0
  0
LINE
  5
209
330
1F
100
AcDbEntity
  8
LAYER0048
  6
CONTINUOUS
 62
     7
100
AcDbLine
 10
-2254.512052822582
 20
-1592.099987464244
 30
0.0
 11
-2276.912052822583
 21
-1530.099987464245
 31
0.0
  0
ARC
  5
20A
330
1F
100
AcDbEntity
  8
LAYER0048
  6
CONTINUOUS
 62
     7
100
AcDbCircle
 10
-2310.512052822582
 20
-1592.099987464244
 30
0.0
 40
24.63999999999909
100
AcDbArc
 50
223.2354670295922
 51
316.7645329704119
  0
ARC
  5
20B
330
1F
100
AcDbEntity
  8
LAYER0048
  6
CONTINUOUS
 62
     7
100
AcDbCircle
 10
-2310.512052822582
 20
-1592.099987464244
 30
0.0
 40
24.64000000000141
100
AcDbArc
 50
43.23546702959138
 51
136.7645329704061
  0
CIRCLE
  5
20C
330
1F
100
AcDbEntity
  8
LAYER0048
  6
CONTINUOUS
 62
     7
100
AcDbCircle
 10
-2310.512052822582
 20
-1592.099987464244
 30
0.0
 40
22.4
  0
TEXT
  5
20D
330
1F
100
AcDbEntity
  8
LAYER0048
 62
     2
100
AcDbText
 10
-2256.550318571046
 20
-767.6258660880786
 30
0.0
 40
100.0
  1
防油堤は、地震等の振動により容易に破損、移動
 41
0.6504793717381251
  7
DCSTYLE0
 72
     5
 11
-286.5503185710459
 21
-767.6258660880786
 31
0.0
100
AcDbText
  0
TEXT
  5
20E
330
1F
100
AcDbEntity
  8
LAYER0048
 62
     2
100
AcDbText
 10
-2256.550318571046
 20
-891.6258660880787
 30
0.0
 40
100.0
  1
しないように、水平で丈夫なコンクリート床面な
 41
0.7011540447197889
  7
DCSTYLE0
 72
     5
 11
-286.5503185710459
 21
-891.6258660880787
 31
0.0
100
AcDbText
  0
TEXT
  5
20F
330
1F
100
AcDbEntity
  8
LAYER0048
 62
     2
100
AcDbText
 10
-2256.550318571046
 20
-1015.625866088079
 30
0.0
 40
100.0
  1
どにアンカーボルトで、正しく固定して下さい。
 41
0.7151847648447429
  7
DCSTYLE0
 72
     5
 11
-286.5503185710459
 21
-1015.625866088079
 31
0.0
100
AcDbText
  0
TEXT
  5
210
330
1F
100
AcDbEntity
  8
LAYER0048
 62
     2
100
AcDbText
 10
-1701.770102348987
 20
1066.329753864359
 30
0.0
 40
80.0
  1
仕　様　明　細　書
 41
1.005550565834381
  7
DCSTYLE0
 72
     5
 11
-805.7701023489872
 21
1066.329753864359
 31
0.0
100
AcDbText
  0
TEXT
  5
211
330
1F
100
AcDbEntity
  8
LAYER0048
 62
     2
100
AcDbText
 10
-1428.736192437747
 20
1354.329753864358
 30
0.0
 40
80.0
  1
型　　式
 41
0.9707102272727273
  7
DCSTYLE0
 72
     5
 11
-1052.736192437747
 21
1354.329753864358
 31
0.0
100
AcDbText
  0
TEXT
  5
212
330
1F
100
AcDbEntity
  8
LAYER0048
 62
     2
100
AcDbText
 10
-1643.770102348987
 20
1200.329753864358
 30
0.0
 40
100.0
  1
SSBF-500G
 41
1.193096432930964
  7
DCSTYLE0
 72
     5
 11
-763.7701023489872
 21
1200.329753864358
 31
0.0
100
AcDbText
  0
TEXT
  5
214
330
1F
100
AcDbEntity
  8
LAYER0048
 62
     2
100
AcDbText
 10
1641.999999999997
 20
-1960.000000000001
 30
0.0
 40
80.0
  1
96481-58010-02
 41
1.230307692307692
  7
DCSTYLE1
 72
     5
 11
2537.999999999997
 21
-1960.000000000001
 31
0.0
100
AcDbText
  0
TEXT
  5
216
330
1F
100
AcDbEntity
  8
LAYER0048
 62
     2
100
AcDbText
 10
-1583.706204650561
 20
1582.800897437159
 30
0.0
 40
260.0
  1
サンダイヤ　防油堤　仕様書
 41
0.8142042925481567
  7
DCSTYLE2
 72
     5
 11
1600.293795349439
 21
1582.800897437159
 31
0.0
100
AcDbText
  0
INSERT
  5
217
330
1F
100
AcDbEntity
  8
LAYER0048
  6
CONTINUOUS
100
AcDbBlockReference
  2
DC_GROUP_1
 10
0.0
 20
0.0
 30
0.0
  0
TEXT
  5
218
330
1F
100
AcDbEntity
  8
LAYER0048
 62
     4
100
AcDbText
 10
-2205.770102348987
 20
951.3297538643585
 30
0.0
 40
70.0
  1
容　　　量
 41
0.8460976329905026
  7
DCSTYLE0
 72
     5
 11
-1861.770102348987
 21
951.3297538643585
 31
0.0
100
AcDbText
  0
TEXT
  5
219
330
1F
100
AcDbEntity
  8
LAYER0048
 62
     4
100
AcDbText
 10
-2205.770102348987
 20
855.3297538643587
 30
0.0
 40
70.0
  1
適用タンク
 41
0.7620916626036079
  7
DCSTYLE0
 72
     5
 11
-1861.770102348987
 21
855.3297538643587
 31
0.0
100
AcDbText
  0
TEXT
  5
21A
330
1F
100
AcDbEntity
  8
LAYER0048
 62
     4
100
AcDbText
 10
-2205.770102348987
 20
663.3297538643578
 30
0.0
 40
70.0
  1
本体材質
 41
0.8446428571428571
  7
DCSTYLE0
 72
     5
 11
-1861.770102348987
 21
663.3297538643578
 31
0.0
100
AcDbText
  0
TEXT
  5
21B
330
1F
100
AcDbEntity
  8
LAYER0048
 62
     4
100
AcDbText
 10
-2205.770102348987
 20
567.3297538643573
 30
0.0
 40
70.0
  1
本体板厚
 41
0.8446428571428571
  7
DCSTYLE0
 72
     5
 11
-1861.770102348987
 21
567.3297538643573
 31
0.0
100
AcDbText
  0
TEXT
  5
21C
330
1F
100
AcDbEntity
  8
LAYER0048
 62
     4
100
AcDbText
 10
-2205.770102348987
 20
167.3297538643578
 30
0.0
 40
70.0
  1
水　抜　口
 41
0.7804961641472605
  7
DCSTYLE0
 72
     5
 11
-1861.770102348987
 21
167.3297538643578
 31
0.0
100
AcDbText
  0
TEXT
  5
21D
330
1F
100
AcDbEntity
  8
LAYER0048
 62
     4
100
AcDbText
 10
-1734.534847563039
 20
951.3297538643578
 30
0.0
 40
70.0
  1
507　リットル
 41
1.013001818890477
  7
DCSTYLE0
 72
     5
 11
-1188.534847563039
 21
951.3297538643578
 31
0.0
100
AcDbText
  0
TEXT
  5
21E
330
1F
100
AcDbEntity
  8
LAYER0048
 62
     4
100
AcDbText
 10
-1732.659259155038
 20
855.3297538643583
 30
0.0
 40
70.0
  1
ＫＳ２－５００Ｓ、４９０Ｓ、ＫＭ２－４９０Ｓ
 41
0.8457422056770589
  7
DCSTYLE0
 72
     5
 11
-332.6592591550382
 21
855.3297538643583
 31
0.0
100
AcDbText
  0
TEXT
  5
21F
330
1F
100
AcDbEntity
  8
LAYER0048
 62
     4
100
AcDbText
 10
-1734.230914259038
 20
663.3297538643578
 30
0.0
 40
70.0
  1
溶融亜鉛メッキ鋼板
 41
0.7190371096942947
  7
DCSTYLE0
 72
     5
 11
-1118.230914259038
 21
663.3297538643578
 31
0.0
100
AcDbText
  0
TEXT
  5
220
330
1F
100
AcDbEntity
  8
LAYER0048
 62
     4
100
AcDbText
 10
-1732.659259155038
 20
567.3297538643573
 30
0.0
 40
70.0
  1
2.3ｍｍ
 41
1.072223463687151
  7
DCSTYLE0
 72
     5
 11
-1396.659259155038
 21
567.3297538643573
 31
0.0
100
AcDbText
  0
TEXT
  5
221
330
1F
100
AcDbEntity
  8
LAYER0048
 62
     4
100
AcDbText
 10
-1730.787669859038
 20
167.3297538643578
 30
0.0
 40
70.0
  1
Ｒ1/2　おねじ
 41
0.9520238095238096
  7
DCSTYLE0
 72
     5
 11
-1184.787669859038
 21
167.3297538643578
 31
0.0
100
AcDbText
  0
TEXT
  5
222
330
1F
100
AcDbEntity
  8
LAYER0048
 62
     4
100
AcDbText
 10
-1732.659259155038
 20
-120.6702461356424
 30
0.0
 40
70.0
  1
ライトベージュ２１
 41
0.8327842468995552
  7
DCSTYLE0
 72
     5
 11
-1116.659259155038
 21
-120.6702461356424
 31
0.0
100
AcDbText
  0
TEXT
  5
223
330
1F
100
AcDbEntity
  8
LAYER0048
 62
     4
100
AcDbText
 10
-1732.659259155038
 20
-216.6702461356423
 30
0.0
 40
70.0
  1
約82ｋｇ
 41
1.040372940156115
  7
DCSTYLE0
 72
     5
 11
-1396.659259155038
 21
-216.6702461356423
 31
0.0
100
AcDbText
  0
TEXT
  5
224
330
1F
100
AcDbEntity
  8
LAYER0048
 62
     4
100
AcDbText
 10
-2205.770102348987
 20
-216.6702461356423
 30
0.0
 40
70.0
  1
完成重量
 41
0.8446428571428571
  7
DCSTYLE0
 72
     5
 11
-1861.770102348987
 21
-216.6702461356423
 31
0.0
100
AcDbText
  0
TEXT
  5
225
330
1F
100
AcDbEntity
  8
LAYER0048
 62
     4
100
AcDbText
 10
-2205.770102348987
 20
71.32975386435817
 30
0.0
 40
70.0
  1
付　属　品
 41
0.7804961641472605
  7
DCSTYLE0
 72
     5
 11
-1861.770102348987
 21
71.32975386435817
 31
0.0
100
AcDbText
  0
TEXT
  5
226
330
1F
100
AcDbEntity
  8
LAYER0048
 62
     4
100
AcDbText
 10
-1732.659259155038
 20
71.32975386435831
 30
0.0
 40
70.0
  1
Ｒｃ１／２ボールバルブ、ニップル、エルボ
 41
0.7919247389268995
  7
DCSTYLE0
 72
     5
 11
-346.6592591550379
 21
71.32975386435831
 31
0.0
100
AcDbText
  0
TEXT
  5
227
330
1F
100
AcDbEntity
  8
LAYER0048
 62
     4
100
AcDbText
 10
-162.4533714994172
 20
-1613.251691672589
 30
0.0
 40
80.0
  1
（1528-4.6）×（916-4.6）×（370-4.6）/10　=507リットル
 41
1.031142357166978
  7
DCSTYLE0
 72
     5
 11
2525.546628500583
 21
-1613.251691672589
 31
0.0
100
AcDbText
  0
TEXT
  5
228
330
1F
100
AcDbEntity
  8
LAYER0048
 62
     4
100
AcDbText
 10
-221.9161254937116
 20
-1497.941095717025
 30
0.0
 40
100.0
  1
容量計算
 41
0.653125
  7
DCSTYLE0
 72
     5
 11
158.0838745062884
 21
-1497.941095717025
 31
0.0
100
AcDbText
  0
TEXT
  5
229
330
1F
100
AcDbEntity
  8
LAYER0048
 62
     4
100
AcDbText
 10
-1732.659259155038
 20
375.3297538643573
 30
0.0
 40
70.0
  1
3.2ｍｍ
 41
1.072223463687151
  7
DCSTYLE0
 72
     5
 11
-1396.659259155038
 21
375.3297538643573
 31
0.0
100
AcDbText
  0
TEXT
  5
22A
330
1F
100
AcDbEntity
  8
LAYER0048
 62
     4
100
AcDbText
 10
-2205.770102348987
 20
471.3297538643577
 30
0.0
 40
70.0
  1
架台材質
 41
0.8446428571428571
  7
DCSTYLE0
 72
     5
 11
-1861.770102348987
 21
471.3297538643577
 31
0.0
100
AcDbText
  0
TEXT
  5
22B
330
1F
100
AcDbEntity
  8
LAYER0048
 62
     4
100
AcDbText
 10
-2205.770102348987
 20
375.3297538643573
 30
0.0
 40
70.0
  1
架台板厚
 41
0.8446428571428571
  7
DCSTYLE0
 72
     5
 11
-1861.770102348987
 21
375.3297538643573
 31
0.0
100
AcDbText
  0
TEXT
  5
22C
330
1F
100
AcDbEntity
  8
LAYER0048
 62
     4
100
AcDbText
 10
-2205.770102348987
 20
-120.6702461356424
 30
0.0
 40
70.0
  1
塗　装　色
 41
0.7804961641472605
  7
DCSTYLE0
 72
     5
 11
-1861.770102348987
 21
-120.6702461356424
 31
0.0
100
AcDbText
  0
TEXT
  5
22D
330
1F
100
AcDbEntity
  8
LAYER0048
 62
     4
100
AcDbText
 10
1957.643405889882
 20
-1562.867157490396
 30
0.0
 40
50.0
  1
６
 41
0.8045271629778672
  7
DCSTYLE0
 72
     5
 11
1997.643405889882
 21
-1562.867157490396
 31
0.0
100
AcDbText
  0
TEXT
  5
22E
330
1F
100
AcDbEntity
  8
LAYER0048
 62
     4
100
AcDbText
 10
-1732.659259155038
 20
-24.67024613564192
 30
0.0
 40
70.0
  1
平ワッシャ－、六角ナット、補修塗料
 41
0.7056222589690129
  7
DCSTYLE0
 72
     5
 11
-652.659259155038
 21
-24.67024613564192
 31
0.0
100
AcDbText
  0
TEXT
  5
22F
330
1F
100
AcDbEntity
  8
LAYER0048
 62
     4
100
AcDbText
 10
-2205.770102348987
 20
-328.6702461356423
 30
0.0
 40
70.0
  1
耐震条件
 41
0.8446428571428571
  7
DCSTYLE0
 72
     5
 11
-1861.770102348987
 21
-328.6702461356423
 31
0.0
100
AcDbText
  0
TEXT
  5
230
330
1F
100
AcDbEntity
  8
LAYER0048
 62
     4
100
AcDbText
 10
-2205.770102348987
 20
-432.6702461356427
 30
0.0
 40
70.0
  1
防油堤固定
 41
0.6757142857142857
  7
DCSTYLE0
 72
     5
 11
-1861.770102348987
 21
-432.6702461356427
 31
0.0
100
AcDbText
  0
TEXT
  5
231
330
1F
100
AcDbEntity
  8
LAYER0048
 62
     4
100
AcDbText
 10
-1734.230914259038
 20
471.3297538643579
 30
0.0
 40
70.0
  1
溶融亜鉛メッキ鋼板
 41
0.7190371096942947
  7
DCSTYLE0
 72
     5
 11
-1118.230914259038
 21
471.3297538643579
 31
0.0
100
AcDbText
  0
TEXT
  5
232
330
1F
100
AcDbEntity
  8
LAYER0048
 62
     4
100
AcDbText
 10
-1732.659259155038
 20
759.3297538643583
 30
0.0
 40
70.0
  1
ＫＳ２－５００Ｒ、ＫＳ２－４９０Ｒ、４９０Ａ
 41
0.8555869388453801
  7
DCSTYLE0
 72
     5
 11
-332.6592591550382
 21
759.3297538643583
 31
0.0
100
AcDbText
  0
TEXT
  5
233
330
1F
100
AcDbEntity
  8
LAYER0048
 62
     4
100
AcDbText
 10
-1729.159259155038
 20
-432.6702461356427
 30
0.0
 40
70.0
  1
アンカーボルト（あと施工接着式　M12　深さ90mm以上）
 41
0.6025950259836673
  7
DCSTYLE0
 72
     5
 11
-308.1592591550379
 21
-432.6702461356427
 31
0.0
100
AcDbText
  0
TEXT
  5
234
330
1F
100
AcDbEntity
  8
LAYER0048
 62
     4
100
AcDbText
 10
-1730.787669859038
 20
-328.6702461356423
 30
0.0
 40
70.0
  1
耐震設計震度　1.0以下
 41
0.822163170000697
  7
DCSTYLE0
 72
     5
 11
-904.7876698590378
 21
-328.6702461356423
 31
0.0
100
AcDbText
  0
TEXT
  5
235
330
1F
100
AcDbEntity
  8
LAYER0048
 62
     4
100
AcDbText
 10
-2205.770102348987
 20
267.3297538643574
 30
0.0
 40
70.0
  1
塗　　　装
 41
0.846097632990502
  7
DCSTYLE0
 72
     5
 11
-1861.770102348987
 21
267.3297538643574
 31
0.0
100
AcDbText
  0
TEXT
  5
236
330
1F
100
AcDbEntity
  8
LAYER0048
 62
     4
100
AcDbText
 10
-1734.298899339038
 20
267.3297538643574
 30
0.0
 40
70.0
  1
ポリエステル樹脂静電粉体塗装
 41
0.7089174674957606
  7
DCSTYLE0
 72
     5
 11
-768.2988993390381
 21
267.3297538643574
 31
0.0
100
AcDbText
  0
TEXT
  5
237
330
1F
100
AcDbEntity
  8
LAYER0048
 62
     7
100
AcDbText
 10
-2243.608212839691
 20
-1667.57682069692
 30
0.0
 40
95.5691577595244
  1
　株式会社
 41
0.6694653891066917
  7
DCSTYLE0
 72
     5
 11
-1809.531423399264
 21
-1667.57682069692
 31
0.0
100
AcDbText
  0
LINE
  5
238
330
1F
100
AcDbEntity
  8
LAYER0048
  6
CONTINUOUS
 62
     3
100
AcDbLine
 10
-1434.328348488596
 20
-1587.251225312528
 30
0.0
 11
-1433.126141834031
 21
-1586.049018657963
 31
0.0
  0
LINE
  5
239
330
1F
100
AcDbEntity
  8
LAYER0048
  6
CONTINUOUS
 62
     3
100
AcDbLine
 10
-1434.857969228761
 20
-1590.26986192247
 30
0.0
 11
-1430.29049486757
 21
-1585.702387561279
 31
0.0
  0
LINE
  5
23A
330
1F
100
AcDbEntity
  8
LAYER0048
  6
CONTINUOUS
 62
     3
100
AcDbLine
 10
-1435.387589968927
 20
-1593.288498532413
 30
0.0
 11
-1427.091162287113
 21
-1584.992070850598
 31
0.0
  0
LINE
  5
23B
330
1F
100
AcDbEntity
  8
LAYER0048
  6
CONTINUOUS
 62
     3
100
AcDbLine
 10
-1442.313584682216
 20
-1632.571699552798
 30
0.0
 11
-1442.001904273662
 21
-1632.260019144245
 31
0.0
  0
LINE
  5
23C
330
1F
100
AcDbEntity
  8
LAYER0048
  6
CONTINUOUS
 62
     3
100
AcDbLine
 10
-1442.846418904739
 20
-1635.593549645098
 30
0.0
 11
-1439.512888403885
 21
-1632.260019144245
 31
0.0
  0
LINE
  5
23D
330
1F
100
AcDbEntity
  8
LAYER0048
  6
CONTINUOUS
 62
     3
100
AcDbLine
 10
-1443.379253127263
 20
-1638.615399737398
 30
0.0
 11
-1437.023872534109
 21
-1632.260019144245
 31
0.0
  0
LINE
  5
23E
330
1F
100
AcDbEntity
  8
LAYER0048
  6
CONTINUOUS
 62
     3
100
AcDbLine
 10
-1443.912087349787
 20
-1641.637249829698
 30
0.0
 11
-1434.534856664332
 21
-1632.260019144245
 31
0.0
  0
LINE
  5
23F
330
1F
100
AcDbEntity
  8
LAYER0048
  6
CONTINUOUS
 62
     3
100
AcDbLine
 10
-1444.44492157231
 20
-1644.659099921998
 30
0.0
 11
-1432.045840794555
 21
-1632.260019144245
 31
0.0
  0
LINE
  5
240
330
1F
100
AcDbEntity
  8
LAYER0048
  6
CONTINUOUS
 62
     3
100
AcDbLine
 10
-1444.977755794834
 20
-1647.680950014299
 30
0.0
 11
-1429.556824924779
 21
-1632.260019144245
 31
0.0
  0
LINE
  5
241
330
1F
100
AcDbEntity
  8
LAYER0048
  6
CONTINUOUS
 62
     3
100
AcDbLine
 10
-1442.907777375002
 20
-1648.099987464245
 30
0.0
 11
-1427.067809055002
 21
-1632.260019144245
 31
0.0
  0
LINE
  5
242
330
1F
100
AcDbEntity
  8
LAYER0048
  6
CONTINUOUS
 62
     3
100
AcDbLine
 10
-1561.838451487474
 20
-1555.464312645701
 30
0.0
 11
-1559.434316386018
 21
-1553.060177544246
 31
0.0
  0
LINE
  5
243
330
1F
100
AcDbEntity
  8
LAYER0048
  6
CONTINUOUS
 62
     3
100
AcDbLine
 10
-1562.371285709998
 20
-1558.486162738
 30
0.0
 11
-1556.945300516241
 21
-1553.060177544246
 31
0.0
  0
LINE
  5
244
330
1F
100
AcDbEntity
  8
LAYER0048
  6
CONTINUOUS
 62
     3
100
AcDbLine
 10
-1562.904119932521
 20
-1561.508012830301
 30
0.0
 11
-1554.456284646465
 21
-1553.060177544246
 31
0.0
  0
LINE
  5
245
330
1F
100
AcDbEntity
  8
LAYER0048
  6
CONTINUOUS
 62
     3
100
AcDbLine
 10
-1563.436954155044
 20
-1564.5298629226
 30
0.0
 11
-1551.967268776688
 21
-1553.060177544246
 31
0.0
  0
LINE
  5
246
330
1F
100
AcDbEntity
  8
LAYER0048
  6
CONTINUOUS
 62
     3
100
AcDbLine
 10
-1563.969788377567
 20
-1567.551713014901
 30
0.0
 11
-1549.478252906911
 21
-1553.060177544246
 31
0.0
  0
LINE
  5
247
330
1F
100
AcDbEntity
  8
LAYER0048
  6
CONTINUOUS
 62
     3
100
AcDbLine
 10
-1562.829205357134
 20
-1568.900145864246
 30
0.0
 11
-1546.989237037135
 21
-1553.060177544246
 31
0.0
  0
LINE
  5
248
330
1F
100
AcDbEntity
  8
LAYER0048
  6
CONTINUOUS
 62
     3
100
AcDbLine
 10
-1560.340189487358
 20
-1568.900145864246
 30
0.0
 11
-1544.500221167358
 21
-1553.060177544246
 31
0.0
  0
LINE
  5
249
330
1F
100
AcDbEntity
  8
LAYER0048
  6
CONTINUOUS
 62
     3
100
AcDbLine
 10
-1557.851173617581
 20
-1568.900145864246
 30
0.0
 11
-1542.011205297581
 21
-1553.060177544246
 31
0.0
  0
LINE
  5
24A
330
1F
100
AcDbEntity
  8
LAYER0048
  6
CONTINUOUS
 62
     3
100
AcDbLine
 10
-1555.362157747805
 20
-1568.900145864246
 30
0.0
 11
-1539.522189427805
 21
-1553.060177544246
 31
0.0
  0
LINE
  5
24B
330
1F
100
AcDbEntity
  8
LAYER0048
  6
CONTINUOUS
 62
     3
100
AcDbLine
 10
-1552.873141878028
 20
-1568.900145864246
 30
0.0
 11
-1537.033173558028
 21
-1553.060177544246
 31
0.0
  0
LINE
  5
24C
330
1F
100
AcDbEntity
  8
LAYER0048
  6
CONTINUOUS
 62
     3
100
AcDbLine
 10
-1550.384126008251
 20
-1568.900145864246
 30
0.0
 11
-1534.544157688252
 21
-1553.060177544246
 31
0.0
  0
LINE
  5
24D
330
1F
100
AcDbEntity
  8
LAYER0048
  6
CONTINUOUS
 62
     3
100
AcDbLine
 10
-1547.895110138475
 20
-1568.900145864246
 30
0.0
 11
-1532.055141818475
 21
-1553.060177544246
 31
0.0
  0
LINE
  5
24E
330
1F
100
AcDbEntity
  8
LAYER0048
  6
CONTINUOUS
 62
     3
100
AcDbLine
 10
-1545.406094268699
 20
-1568.900145864246
 30
0.0
 11
-1529.566125948699
 21
-1553.060177544246
 31
0.0
  0
LINE
  5
24F
330
1F
100
AcDbEntity
  8
LAYER0048
  6
CONTINUOUS
 62
     3
100
AcDbLine
 10
-1542.917078398922
 20
-1568.900145864246
 30
0.0
 11
-1527.077110078922
 21
-1553.060177544246
 31
0.0
  0
LINE
  5
250
330
1F
100
AcDbEntity
  8
LAYER0048
  6
CONTINUOUS
 62
     3
100
AcDbLine
 10
-1540.428062529145
 20
-1568.900145864246
 30
0.0
 11
-1524.588094209146
 21
-1553.060177544246
 31
0.0
  0
LINE
  5
251
330
1F
100
AcDbEntity
  8
LAYER0048
  6
CONTINUOUS
 62
     3
100
AcDbLine
 10
-1537.939046659369
 20
-1568.900145864246
 30
0.0
 11
-1522.099078339369
 21
-1553.060177544246
 31
0.0
  0
LINE
  5
252
330
1F
100
AcDbEntity
  8
LAYER0048
  6
CONTINUOUS
 62
     3
100
AcDbLine
 10
-1535.450030789591
 20
-1568.900145864246
 30
0.0
 11
-1519.610062469592
 21
-1553.060177544246
 31
0.0
  0
LINE
  5
253
330
1F
100
AcDbEntity
  8
LAYER0048
  6
CONTINUOUS
 62
     3
100
AcDbLine
 10
-1532.961014919815
 20
-1568.900145864246
 30
0.0
 11
-1517.121046599816
 21
-1553.060177544246
 31
0.0
  0
LINE
  5
254
330
1F
100
AcDbEntity
  8
LAYER0048
  6
CONTINUOUS
 62
     3
100
AcDbLine
 10
-1530.471999050039
 20
-1568.900145864246
 30
0.0
 11
-1514.632030730039
 21
-1553.060177544246
 31
0.0
  0
LINE
  5
255
330
1F
100
AcDbEntity
  8
LAYER0048
  6
CONTINUOUS
 62
     3
100
AcDbLine
 10
-1527.982983180262
 20
-1568.900145864246
 30
0.0
 11
-1512.143014860262
 21
-1553.060177544246
 31
0.0
  0
LINE
  5
256
330
1F
100
AcDbEntity
  8
LAYER0048
  6
CONTINUOUS
 62
     3
100
AcDbLine
 10
-1525.493967310485
 20
-1568.900145864246
 30
0.0
 11
-1509.653998990486
 21
-1553.060177544246
 31
0.0
  0
LINE
  5
257
330
1F
100
AcDbEntity
  8
LAYER0048
  6
CONTINUOUS
 62
     3
100
AcDbLine
 10
-1523.004951440709
 20
-1568.900145864246
 30
0.0
 11
-1507.164983120709
 21
-1553.060177544246
 31
0.0
  0
LINE
  5
258
330
1F
100
AcDbEntity
  8
LAYER0048
  6
CONTINUOUS
 62
     3
100
AcDbLine
 10
-1520.515935570932
 20
-1568.900145864246
 30
0.0
 11
-1504.675967250933
 21
-1553.060177544246
 31
0.0
  0
LINE
  5
259
330
1F
100
AcDbEntity
  8
LAYER0048
  6
CONTINUOUS
 62
     3
100
AcDbLine
 10
-1518.026919701156
 20
-1568.900145864246
 30
0.0
 11
-1502.186951381156
 21
-1553.060177544246
 31
0.0
  0
LINE
  5
25A
330
1F
100
AcDbEntity
  8
LAYER0048
  6
CONTINUOUS
 62
     3
100
AcDbLine
 10
-1515.537903831379
 20
-1568.900145864246
 30
0.0
 11
-1499.697935511379
 21
-1553.060177544246
 31
0.0
  0
LINE
  5
25B
330
1F
100
AcDbEntity
  8
LAYER0048
  6
CONTINUOUS
 62
     3
100
AcDbLine
 10
-1513.048887961603
 20
-1568.900145864246
 30
0.0
 11
-1497.208919641603
 21
-1553.060177544246
 31
0.0
  0
LINE
  5
25C
330
1F
100
AcDbEntity
  8
LAYER0048
  6
CONTINUOUS
 62
     3
100
AcDbLine
 10
-1510.559872091826
 20
-1568.900145864246
 30
0.0
 11
-1494.719903771826
 21
-1553.060177544246
 31
0.0
  0
LINE
  5
25D
330
1F
100
AcDbEntity
  8
LAYER0048
  6
CONTINUOUS
 62
     3
100
AcDbLine
 10
-1508.07085622205
 20
-1568.900145864246
 30
0.0
 11
-1494.209226365967
 21
-1555.038516008163
 31
0.0
  0
LINE
  5
25E
330
1F
100
AcDbEntity
  8
LAYER0048
  6
CONTINUOUS
 62
     3
100
AcDbLine
 10
-1505.581840352273
 20
-1568.900145864246
 30
0.0
 11
-1494.74206058849
 21
-1558.060366100463
 31
0.0
  0
LINE
  5
25F
330
1F
100
AcDbEntity
  8
LAYER0048
  6
CONTINUOUS
 62
     3
100
AcDbLine
 10
-1503.092824482497
 20
-1568.900145864246
 30
0.0
 11
-1495.274894811014
 21
-1561.082216192763
 31
0.0
  0
LINE
  5
260
330
1F
100
AcDbEntity
  8
LAYER0048
  6
CONTINUOUS
 62
     3
100
AcDbLine
 10
-1500.60380861272
 20
-1568.900145864246
 30
0.0
 11
-1495.807729033537
 21
-1564.104066285063
 31
0.0
  0
LINE
  5
261
330
1F
100
AcDbEntity
  8
LAYER0048
  6
CONTINUOUS
 62
     3
100
AcDbLine
 10
-1498.114792742943
 20
-1568.900145864246
 30
0.0
 11
-1496.34056325606
 21
-1567.125916377363
 31
0.0
  0
LINE
  5
262
330
1F
100
AcDbEntity
  8
LAYER0048
  6
CONTINUOUS
 62
     3
100
AcDbLine
 10
-1567.387718794582
 20
-1623.238976697225
 30
0.0
 11
-1566.9047802496
 21
-1622.756038152245
 31
0.0
  0
LINE
  5
263
330
1F
100
AcDbEntity
  8
LAYER0048
  6
CONTINUOUS
 62
     3
100
AcDbLine
 10
-1567.920553017105
 20
-1626.260826789524
 30
0.0
 11
-1564.415764379824
 21
-1622.756038152245
 31
0.0
  0
LINE
  5
264
330
1F
100
AcDbEntity
  8
LAYER0048
  6
CONTINUOUS
 62
     3
100
AcDbLine
 10
-1568.453387239628
 20
-1629.282676881824
 30
0.0
 11
-1561.926748510047
 21
-1622.756038152245
 31
0.0
  0
LINE
  5
265
330
1F
100
AcDbEntity
  8
LAYER0048
  6
CONTINUOUS
 62
     3
100
AcDbLine
 10
-1568.986221462151
 20
-1632.304526974124
 30
0.0
 11
-1559.437732640271
 21
-1622.756038152245
 31
0.0
  0
LINE
  5
266
330
1F
100
AcDbEntity
  8
LAYER0048
  6
CONTINUOUS
 62
     3
100
AcDbLine
 10
-1569.519055684675
 20
-1635.326377066424
 30
0.0
 11
-1556.948716770494
 21
-1622.756038152245
 31
0.0
  0
LINE
  5
267
330
1F
100
AcDbEntity
  8
LAYER0048
  6
CONTINUOUS
 62
     3
100
AcDbLine
 10
-1570.051889907198
 20
-1638.348227158724
 30
0.0
 11
-1554.459700900718
 21
-1622.756038152245
 31
0.0
  0
LINE
  5
268
330
1F
100
AcDbEntity
  8
LAYER0048
  6
CONTINUOUS
 62
     3
100
AcDbLine
 10
-1570.584724129722
 20
-1641.370077251024
 30
0.0
 11
-1551.970685030941
 21
-1622.756038152245
 31
0.0
  0
LINE
  5
269
330
1F
100
AcDbEntity
  8
LAYER0048
  6
CONTINUOUS
 62
     3
100
AcDbLine
 10
-1571.117558352245
 20
-1644.391927343324
 30
0.0
 11
-1549.481669161164
 21
-1622.756038152245
 31
0.0
  0
LINE
  5
26A
330
1F
100
AcDbEntity
  8
LAYER0048
  6
CONTINUOUS
 62
     3
100
AcDbLine
 10
-1571.650392574768
 20
-1647.413777435624
 30
0.0
 11
-1546.992653291388
 21
-1622.756038152245
 31
0.0
  0
LINE
  5
26B
330
1F
100
AcDbEntity
  8
LAYER0048
  6
CONTINUOUS
 62
     3
100
AcDbLine
 10
-1569.847586733611
 20
-1648.099987464245
 30
0.0
 11
-1544.503637421611
 21
-1622.756038152245
 31
0.0
  0
LINE
  5
26C
330
1F
100
AcDbEntity
  8
LAYER0048
  6
CONTINUOUS
 62
     3
100
AcDbLine
 10
-1567.358570863835
 20
-1648.099987464245
 30
0.0
 11
-1542.014621551835
 21
-1622.756038152245
 31
0.0
  0
LINE
  5
26D
330
1F
100
AcDbEntity
  8
LAYER0048
  6
CONTINUOUS
 62
     3
100
AcDbLine
 10
-1564.869554994058
 20
-1648.099987464245
 30
0.0
 11
-1539.525605682058
 21
-1622.756038152245
 31
0.0
  0
LINE
  5
26E
330
1F
100
AcDbEntity
  8
LAYER0048
  6
CONTINUOUS
 62
     3
100
AcDbLine
 10
-1562.380539124281
 20
-1648.099987464245
 30
0.0
 11
-1537.036589812281
 21
-1622.756038152245
 31
0.0
  0
LINE
  5
26F
330
1F
100
AcDbEntity
  8
LAYER0048
  6
CONTINUOUS
 62
     3
100
AcDbLine
 10
-1559.891523254505
 20
-1648.099987464245
 30
0.0
 11
-1534.547573942505
 21
-1622.756038152245
 31
0.0
  0
LINE
  5
270
330
1F
100
AcDbEntity
  8
LAYER0048
  6
CONTINUOUS
 62
     3
100
AcDbLine
 10
-1557.402507384728
 20
-1648.099987464245
 30
0.0
 11
-1532.058558072728
 21
-1622.756038152245
 31
0.0
  0
LINE
  5
271
330
1F
100
AcDbEntity
  8
LAYER0048
  6
CONTINUOUS
 62
     3
100
AcDbLine
 10
-1461.40612287248
 20
-1554.592618821773
 30
0.0
 11
-1459.873681594953
 21
-1553.060177544246
 31
0.0
  0
LINE
  5
272
330
1F
100
AcDbEntity
  8
LAYER0048
  6
CONTINUOUS
 62
     3
100
AcDbLine
 10
-1554.913491514951
 20
-1648.099987464245
 30
0.0
 11
-1529.569542202952
 21
-1622.756038152245
 31
0.0
  0
LINE
  5
273
330
1F
100
AcDbEntity
  8
LAYER0048
  6
CONTINUOUS
 62
     3
100
AcDbLine
 10
-1461.938961047513
 20
-1557.614472866582
 30
0.0
 11
-1457.384665725176
 21
-1553.060177544246
 31
0.0
  0
LINE
  5
274
330
1F
100
AcDbEntity
  8
LAYER0048
  6
CONTINUOUS
 62
     3
100
AcDbLine
 10
-1552.424475645175
 20
-1648.099987464245
 30
0.0
 11
-1527.080526333175
 21
-1622.756038152245
 31
0.0
  0
LINE
  5
275
330
1F
100
AcDbEntity
  8
LAYER0048
  6
CONTINUOUS
 62
     3
100
AcDbLine
 10
-1462.471799222546
 20
-1560.636326911392
 30
0.0
 11
-1454.8956498554
 21
-1553.060177544246
 31
0.0
  0
LINE
  5
276
330
1F
100
AcDbEntity
  8
LAYER0048
  6
CONTINUOUS
 62
     3
100
AcDbLine
 10
-1549.935459775399
 20
-1648.099987464245
 30
0.0
 11
-1524.591510463398
 21
-1622.756038152245
 31
0.0
  0
LINE
  5
277
330
1F
100
AcDbEntity
  8
LAYER0048
  6
CONTINUOUS
 62
     3
100
AcDbLine
 10
-1463.004637397579
 20
-1563.658180956202
 30
0.0
 11
-1452.406633985623
 21
-1553.060177544246
 31
0.0
  0
LINE
  5
278
330
1F
100
AcDbEntity
  8
LAYER0048
  6
CONTINUOUS
 62
     3
100
AcDbLine
 10
-1547.446443905622
 20
-1648.099987464245
 30
0.0
 11
-1522.102494593622
 21
-1622.756038152245
 31
0.0
  0
LINE
  5
279
330
1F
100
AcDbEntity
  8
LAYER0048
  6
CONTINUOUS
 62
     3
100
AcDbLine
 10
-1463.537475572613
 20
-1566.680035001011
 30
0.0
 11
-1449.917618115847
 21
-1553.060177544246
 31
0.0
  0
LINE
  5
27A
330
1F
100
AcDbEntity
  8
LAYER0048
  6
CONTINUOUS
 62
     3
100
AcDbLine
 10
-1544.957428035845
 20
-1648.099987464245
 30
0.0
 11
-1519.613478723845
 21
-1622.756038152245
 31
0.0
  0
LINE
  5
27B
330
1F
100
AcDbEntity
  8
LAYER0048
  6
CONTINUOUS
 62
     3
100
AcDbLine
 10
-1464.070313747646
 20
-1569.701889045822
 30
0.0
 11
-1447.42860224607
 21
-1553.060177544246
 31
0.0
  0
LINE
  5
27C
330
1F
100
AcDbEntity
  8
LAYER0048
  6
CONTINUOUS
 62
     3
100
AcDbLine
 10
-1542.468412166069
 20
-1648.099987464245
 30
0.0
 11
-1517.124462854069
 21
-1622.756038152245
 31
0.0
  0
LINE
  5
27D
330
1F
100
AcDbEntity
  8
LAYER0048
  6
CONTINUOUS
 62
     3
100
AcDbLine
 10
-1464.603151922679
 20
-1572.723743090631
 30
0.0
 11
-1445.075632016166
 21
-1553.19622318412
 31
0.0
  0
LINE
  5
27E
330
1F
100
AcDbEntity
  8
LAYER0048
  6
CONTINUOUS
 62
     3
100
AcDbLine
 10
-1539.979396296292
 20
-1648.099987464245
 30
0.0
 11
-1514.635446984292
 21
-1622.756038152245
 31
0.0
  0
LINE
  5
27F
330
1F
100
AcDbEntity
  8
LAYER0048
  6
CONTINUOUS
 62
     3
100
AcDbLine
 10
-1465.135990097712
 20
-1575.745597135441
 30
0.0
 11
-1445.608466255361
 21
-1556.218073293091
 31
0.0
  0
LINE
  5
280
330
1F
100
AcDbEntity
  8
LAYER0048
  6
CONTINUOUS
 62
     3
100
AcDbLine
 10
-1537.490380426516
 20
-1648.099987464245
 30
0.0
 11
-1512.146431114516
 21
-1622.756038152245
 31
0.0
  0
LINE
  5
281
330
1F
100
AcDbEntity
  8
LAYER0048
  6
CONTINUOUS
 62
     3
100
AcDbLine
 10
-1465.668828272745
 20
-1578.767451180251
 30
0.0
 11
-1446.141300494556
 21
-1559.239923402063
 31
0.0
  0
LINE
  5
282
330
1F
100
AcDbEntity
  8
LAYER0048
  6
CONTINUOUS
 62
     3
100
AcDbLine
 10
-1535.001364556739
 20
-1648.099987464245
 30
0.0
 11
-1509.657415244739
 21
-1622.756038152245
 31
0.0
  0
LINE
  5
283
330
1F
100
AcDbEntity
  8
LAYER0048
  6
CONTINUOUS
 62
     3
100
AcDbLine
 10
-1466.201666447778
 20
-1581.789305225061
 30
0.0
 11
-1446.674134733752
 21
-1562.261773511035
 31
0.0
  0
LINE
  5
284
330
1F
100
AcDbEntity
  8
LAYER0048
  6
CONTINUOUS
 62
     3
100
AcDbLine
 10
-1532.512348686962
 20
-1648.099987464245
 30
0.0
 11
-1507.168399374962
 21
-1622.756038152245
 31
0.0
  0
LINE
  5
285
330
1F
100
AcDbEntity
  8
LAYER0048
  6
CONTINUOUS
 62
     3
100
AcDbLine
 10
-1466.734504622812
 20
-1584.811159269871
 30
0.0
 11
-1447.206968972946
 21
-1565.283623620007
 31
0.0
  0
LINE
  5
286
330
1F
100
AcDbEntity
  8
LAYER0048
  6
CONTINUOUS
 62
     3
100
AcDbLine
 10
-1530.023332817186
 20
-1648.099987464245
 30
0.0
 11
-1504.679383505186
 21
-1622.756038152245
 31
0.0
  0
LINE
  5
287
330
1F
100
AcDbEntity
  8
LAYER0048
  6
CONTINUOUS
 62
     3
100
AcDbLine
 10
-1467.267342797845
 20
-1587.83301331468
 30
0.0
 11
-1447.739803212142
 21
-1568.305473728978
 31
0.0
  0
LINE
  5
288
330
1F
100
AcDbEntity
  8
LAYER0048
  6
CONTINUOUS
 62
     3
100
AcDbLine
 10
-1527.534316947409
 20
-1648.099987464245
 30
0.0
 11
-1502.19036763541
 21
-1622.756038152245
 31
0.0
  0
LINE
  5
289
330
1F
100
AcDbEntity
  8
LAYER0048
  6
CONTINUOUS
 62
     3
100
AcDbLine
 10
-1467.800180972878
 20
-1590.85486735949
 30
0.0
 11
-1448.272637451337
 21
-1571.32732383795
 31
0.0
  0
LINE
  5
28A
330
1F
100
AcDbEntity
  8
LAYER0048
  6
CONTINUOUS
 62
     3
100
AcDbLine
 10
-1525.045301077632
 20
-1648.099987464245
 30
0.0
 11
-1499.701351765633
 21
-1622.756038152245
 31
0.0
  0
LINE
  5
28B
330
1F
100
AcDbEntity
  8
LAYER0048
  6
CONTINUOUS
 62
     3
100
AcDbLine
 10
-1468.333019147911
 20
-1593.8767214043
 30
0.0
 11
-1448.805471690532
 21
-1574.349173946921
 31
0.0
  0
LINE
  5
28C
330
1F
100
AcDbEntity
  8
LAYER0048
  6
CONTINUOUS
 62
     3
100
AcDbLine
 10
-1522.556285207856
 20
-1648.099987464245
 30
0.0
 11
-1497.212335895856
 21
-1622.756038152245
 31
0.0
  0
LINE
  5
28D
330
1F
100
AcDbEntity
  8
LAYER0048
  6
CONTINUOUS
 62
     3
100
AcDbLine
 10
-1468.865857322944
 20
-1596.89857544911
 30
0.0
 11
-1449.338305929728
 21
-1577.371024055893
 31
0.0
  0
LINE
  5
28E
330
1F
100
AcDbEntity
  8
LAYER0048
  6
CONTINUOUS
 62
     3
100
AcDbLine
 10
-1520.067269338079
 20
-1648.099987464245
 30
0.0
 11
-1494.72332002608
 21
-1622.756038152245
 31
0.0
  0
LINE
  5
28F
330
1F
100
AcDbEntity
  8
LAYER0048
  6
CONTINUOUS
 62
     3
100
AcDbLine
 10
-1469.398695497977
 20
-1599.92042949392
 30
0.0
 11
-1449.871140168923
 21
-1580.392874164865
 31
0.0
  0
LINE
  5
290
330
1F
100
AcDbEntity
  8
LAYER0048
  6
CONTINUOUS
 62
     3
100
AcDbLine
 10
-1517.578253468303
 20
-1648.099987464245
 30
0.0
 11
-1492.234304156303
 21
-1622.756038152245
 31
0.0
  0
LINE
  5
291
330
1F
100
AcDbEntity
  8
LAYER0048
  6
CONTINUOUS
 62
     3
100
AcDbLine
 10
-1469.931533673011
 20
-1602.942283538729
 30
0.0
 11
-1450.403974408117
 21
-1583.414724273837
 31
0.0
  0
LINE
  5
292
330
1F
100
AcDbEntity
  8
LAYER0048
  6
CONTINUOUS
 62
     3
100
AcDbLine
 10
-1515.089237598526
 20
-1648.099987464245
 30
0.0
 11
-1489.612074229848
 21
-1622.622824095566
 31
0.0
  0
LINE
  5
293
330
1F
100
AcDbEntity
  8
LAYER0048
  6
CONTINUOUS
 62
     3
100
AcDbLine
 10
-1470.540475709377
 20
-1606.040241444873
 30
0.0
 11
-1450.936808647313
 21
-1586.436574382808
 31
0.0
  0
LINE
  5
294
330
1F
100
AcDbEntity
  8
LAYER0048
  6
CONTINUOUS
 62
     3
100
AcDbLine
 10
-1512.60022172875
 20
-1648.099987464245
 30
0.0
 11
-1486.572902992212
 21
-1622.072668727707
 31
0.0
  0
LINE
  5
295
330
1F
100
AcDbEntity
  8
LAYER0048
  6
CONTINUOUS
 62
     3
100
AcDbLine
 10
-1471.911004107449
 20
-1609.89978571272
 30
0.0
 11
-1451.469642886508
 21
-1589.458424491781
 31
0.0
  0
LINE
  5
296
330
1F
100
AcDbEntity
  8
LAYER0048
  6
CONTINUOUS
 62
     3
100
AcDbLine
 10
-1510.111205858973
 20
-1648.099987464245
 30
0.0
 11
-1482.713358724363
 21
-1620.702140329636
 31
0.0
  0
LINE
  5
297
330
1F
100
AcDbEntity
  8
LAYER0048
  6
CONTINUOUS
 62
     3
100
AcDbLine
 10
-1507.622189989196
 20
-1648.099987464245
 30
0.0
 11
-1452.002477125703
 21
-1592.480274600752
 31
0.0
  0
LINE
  5
298
330
1F
100
AcDbEntity
  8
LAYER0048
  6
CONTINUOUS
 62
     3
100
AcDbLine
 10
-1505.133174119419
 20
-1648.099987464245
 30
0.0
 11
-1452.535311364898
 21
-1595.502124709724
 31
0.0
  0
LINE
  5
299
330
1F
100
AcDbEntity
  8
LAYER0048
  6
CONTINUOUS
 62
     3
100
AcDbLine
 10
-1502.644158249643
 20
-1648.099987464245
 30
0.0
 11
-1453.068145604093
 21
-1598.523974818695
 31
0.0
  0
LINE
  5
29A
330
1F
100
AcDbEntity
  8
LAYER0048
  6
CONTINUOUS
 62
     3
100
AcDbLine
 10
-1500.128909389114
 20
-1648.073754473492
 30
0.0
 11
-1453.600979843289
 21
-1601.545824927668
 31
0.0
  0
LINE
  5
29B
330
1F
100
AcDbEntity
  8
LAYER0048
  6
CONTINUOUS
 62
     3
100
AcDbLine
 10
-1497.479255214224
 20
-1647.913116168379
 30
0.0
 11
-1454.133814082484
 21
-1604.567675036639
 31
0.0
  0
LINE
  5
29C
330
1F
100
AcDbEntity
  8
LAYER0048
  6
CONTINUOUS
 62
     3
100
AcDbLine
 10
-1494.652182843215
 20
-1647.575059667147
 30
0.0
 11
-1454.666648321679
 21
-1607.589525145611
 31
0.0
  0
LINE
  5
29D
330
1F
100
AcDbEntity
  8
LAYER0048
  6
CONTINUOUS
 62
     3
100
AcDbLine
 10
-1491.605793781782
 20
-1647.017686475491
 30
0.0
 11
-1455.246050191992
 21
-1610.6579428857
 31
0.0
  0
LINE
  5
29E
330
1F
100
AcDbEntity
  8
LAYER0048
  6
CONTINUOUS
 62
     3
100
AcDbLine
 10
-1488.262632208833
 20
-1646.163540772318
 30
0.0
 11
-1456.100195895164
 21
-1614.00110445865
 31
0.0
  0
LINE
  5
29F
330
1F
100
AcDbEntity
  8
LAYER0048
  6
CONTINUOUS
 62
     3
100
AcDbLine
 10
-1484.488668269386
 20
-1644.878592702648
 30
0.0
 11
-1457.385143964835
 21
-1617.775068398097
 31
0.0
  0
LINE
  5
2A0
330
1F
100
AcDbEntity
  8
LAYER0048
  6
CONTINUOUS
 62
     3
100
AcDbLine
 10
-1479.967439405478
 20
-1642.846379708516
 30
0.0
 11
-1459.417356958967
 21
-1622.296297262006
 31
0.0
  0
LINE
  5
2A1
330
1F
100
AcDbEntity
  8
LAYER0048
  6
CONTINUOUS
 62
     3
100
AcDbLine
 10
-1473.384449032336
 20
-1638.752405205151
 30
0.0
 11
-1463.511331462332
 21
-1628.879287635147
 31
0.0
  0
LINE
  5
2A2
330
1F
100
AcDbEntity
  8
LAYER0048
  6
CONTINUOUS
 62
     3
100
AcDbLine
 10
-1676.82599092801
 20
-1555.95712207651
 30
0.0
 11
-1673.929046395747
 21
-1553.060177544246
 31
0.0
  0
LINE
  5
2A3
330
1F
100
AcDbEntity
  8
LAYER0048
  6
CONTINUOUS
 62
     3
100
AcDbLine
 10
-1696.289203019148
 20
-1575.420334167648
 30
0.0
 11
-1696.105002043746
 21
-1575.236133192245
 31
0.0
  0
LINE
  5
2A4
330
1F
100
AcDbEntity
  8
LAYER0048
  6
CONTINUOUS
 62
     3
100
AcDbLine
 10
-1677.358825150533
 20
-1558.97897216881
 30
0.0
 11
-1671.44003052597
 21
-1553.060177544246
 31
0.0
  0
LINE
  5
2A5
330
1F
100
AcDbEntity
  8
LAYER0048
  6
CONTINUOUS
 62
     3
100
AcDbLine
 10
-1696.822037241671
 20
-1578.442184259948
 30
0.0
 11
-1693.615986173969
 21
-1575.236133192245
 31
0.0
  0
LINE
  5
2A6
330
1F
100
AcDbEntity
  8
LAYER0048
  6
CONTINUOUS
 62
     3
100
AcDbLine
 10
-1677.891659373056
 20
-1562.00082226111
 30
0.0
 11
-1668.951014656193
 21
-1553.060177544246
 31
0.0
  0
LINE
  5
2A7
330
1F
100
AcDbEntity
  8
LAYER0048
  6
CONTINUOUS
 62
     3
100
AcDbLine
 10
-1697.354871464195
 20
-1581.464034352248
 30
0.0
 11
-1691.126970304192
 21
-1575.236133192245
 31
0.0
  0
LINE
  5
2A8
330
1F
100
AcDbEntity
  8
LAYER0048
  6
CONTINUOUS
 62
     3
100
AcDbLine
 10
-1678.42449359558
 20
-1565.02267235341
 30
0.0
 11
-1666.461998786416
 21
-1553.060177544246
 31
0.0
  0
LINE
  5
2A9
330
1F
100
AcDbEntity
  8
LAYER0048
  6
CONTINUOUS
 62
     3
100
AcDbLine
 10
-1697.887705686718
 20
-1584.485884444548
 30
0.0
 11
-1688.637954434415
 21
-1575.236133192245
 31
0.0
  0
LINE
  5
2AA
330
1F
100
AcDbEntity
  8
LAYER0048
  6
CONTINUOUS
 62
     3
100
AcDbLine
 10
-1678.957327818104
 20
-1568.044522445711
 30
0.0
 11
-1663.972982916639
 21
-1553.060177544246
 31
0.0
  0
LINE
  5
2AB
330
1F
100
AcDbEntity
  8
LAYER0048
  6
CONTINUOUS
 62
     3
100
AcDbLine
 10
-1698.420539909241
 20
-1587.507734536848
 30
0.0
 11
-1686.148938564638
 21
-1575.236133192245
 31
0.0
  0
LINE
  5
2AC
330
1F
100
AcDbEntity
  8
LAYER0048
  6
CONTINUOUS
 62
     3
100
AcDbLine
 10
-1679.490162040627
 20
-1571.066372538011
 30
0.0
 11
-1661.483967046863
 21
-1553.060177544246
 31
0.0
  0
LINE
  5
2AD
330
1F
100
AcDbEntity
  8
LAYER0048
  6
CONTINUOUS
 62
     3
100
AcDbLine
 10
-1696.331897350862
 20
-1587.908107848246
 30
0.0
 11
-1683.659922694862
 21
-1575.236133192245
 31
0.0
  0
LINE
  5
2AE
330
1F
100
AcDbEntity
  8
LAYER0048
  6
CONTINUOUS
 62
     3
100
AcDbLine
 10
-1680.022996263151
 20
-1574.088222630311
 30
0.0
 11
-1658.994951177086
 21
-1553.060177544246
 31
0.0
  0
LINE
  5
2AF
330
1F
100
AcDbEntity
  8
LAYER0048
  6
CONTINUOUS
 62
     3
100
AcDbLine
 10
-1693.842881481086
 20
-1587.908107848246
 30
0.0
 11
-1681.170906825085
 21
-1575.236133192245
 31
0.0
  0
LINE
  5
2B0
330
1F
100
AcDbEntity
  8
LAYER0048
  6
CONTINUOUS
 62
     3
100
AcDbLine
 10
-1691.353865611309
 20
-1587.908107848246
 30
0.0
 11
-1656.505935307309
 21
-1553.060177544246
 31
0.0
  0
LINE
  5
2B1
330
1F
100
AcDbEntity
  8
LAYER0048
  6
CONTINUOUS
 62
     3
100
AcDbLine
 10
-1688.864849741532
 20
-1587.908107848246
 30
0.0
 11
-1654.016919437532
 21
-1553.060177544246
 31
0.0
  0
LINE
  5
2B2
330
1F
100
AcDbEntity
  8
LAYER0048
  6
CONTINUOUS
 62
     3
100
AcDbLine
 10
-1686.375833871755
 20
-1587.908107848246
 30
0.0
 11
-1651.527903567755
 21
-1553.060177544246
 31
0.0
  0
LINE
  5
2B3
330
1F
100
AcDbEntity
  8
LAYER0048
  6
CONTINUOUS
 62
     3
100
AcDbLine
 10
-1683.886818001979
 20
-1587.908107848246
 30
0.0
 11
-1649.038887697979
 21
-1553.060177544246
 31
0.0
  0
LINE
  5
2B4
330
1F
100
AcDbEntity
  8
LAYER0048
  6
CONTINUOUS
 62
     3
100
AcDbLine
 10
-1682.687167375767
 20
-1589.197473091811
 30
0.0
 11
-1646.549871828202
 21
-1553.060177544246
 31
0.0
  0
LINE
  5
2B5
330
1F
100
AcDbEntity
  8
LAYER0048
  6
CONTINUOUS
 62
     3
100
AcDbLine
 10
-1683.220001598291
 20
-1592.219323184112
 30
0.0
 11
-1644.758206066133
 21
-1553.757527651953
 31
0.0
  0
LINE
  5
2B6
330
1F
100
AcDbEntity
  8
LAYER0048
  6
CONTINUOUS
 62
     3
100
AcDbLine
 10
-1683.752835820814
 20
-1595.241173276412
 30
0.0
 11
-1645.291040288656
 21
-1556.779377744253
 31
0.0
  0
LINE
  5
2B7
330
1F
100
AcDbEntity
  8
LAYER0048
  6
CONTINUOUS
 62
     3
100
AcDbLine
 10
-1684.285670043338
 20
-1598.263023368712
 30
0.0
 11
-1645.82387451118
 21
-1559.801227836554
 31
0.0
  0
LINE
  5
2B8
330
1F
100
AcDbEntity
  8
LAYER0048
  6
CONTINUOUS
 62
     3
100
AcDbLine
 10
-1684.818504265862
 20
-1601.284873461012
 30
0.0
 11
-1646.356708733703
 21
-1562.823077928854
 31
0.0
  0
LINE
  5
2B9
330
1F
100
AcDbEntity
  8
LAYER0048
  6
CONTINUOUS
 62
     3
100
AcDbLine
 10
-1685.351338488385
 20
-1604.306723553312
 30
0.0
 11
-1646.889542956227
 21
-1565.844928021154
 31
0.0
  0
LINE
  5
2BA
330
1F
100
AcDbEntity
  8
LAYER0048
  6
CONTINUOUS
 62
     3
100
AcDbLine
 10
-1685.884172710909
 20
-1607.328573645613
 30
0.0
 11
-1647.422377178751
 21
-1568.866778113454
 31
0.0
  0
LINE
  5
2BB
330
1F
100
AcDbEntity
  8
LAYER0048
  6
CONTINUOUS
 62
     3
100
AcDbLine
 10
-1686.150646691766
 20
-1610.084063496246
 30
0.0
 11
-1647.955211401274
 21
-1571.888628205754
 31
0.0
  0
LINE
  5
2BC
330
1F
100
AcDbEntity
  8
LAYER0048
  6
CONTINUOUS
 62
     3
100
AcDbLine
 10
-1683.661630821989
 20
-1610.084063496246
 30
0.0
 11
-1648.488045623798
 21
-1574.910478298055
 31
0.0
  0
LINE
  5
2BD
330
1F
100
AcDbEntity
  8
LAYER0048
  6
CONTINUOUS
 62
     3
100
AcDbLine
 10
-1681.172614952213
 20
-1610.084063496246
 30
0.0
 11
-1646.324684648212
 21
-1575.236133192245
 31
0.0
  0
LINE
  5
2BE
330
1F
100
AcDbEntity
  8
LAYER0048
  6
CONTINUOUS
 62
     3
100
AcDbLine
 10
-1678.683599082436
 20
-1610.084063496246
 30
0.0
 11
-1643.835668778435
 21
-1575.236133192245
 31
0.0
  0
LINE
  5
2BF
330
1F
100
AcDbEntity
  8
LAYER0048
  6
CONTINUOUS
 62
     3
100
AcDbLine
 10
-1676.194583212659
 20
-1610.084063496246
 30
0.0
 11
-1641.346652908659
 21
-1575.236133192245
 31
0.0
  0
LINE
  5
2C0
330
1F
100
AcDbEntity
  8
LAYER0048
  6
CONTINUOUS
 62
     3
100
AcDbLine
 10
-1673.705567342882
 20
-1610.084063496246
 30
0.0
 11
-1638.857637038882
 21
-1575.236133192245
 31
0.0
  0
LINE
  5
2C1
330
1F
100
AcDbEntity
  8
LAYER0048
  6
CONTINUOUS
 62
     3
100
AcDbLine
 10
-1616.536600757472
 20
-1555.404112780613
 30
0.0
 11
-1614.192665521105
 21
-1553.060177544246
 31
0.0
  0
LINE
  5
2C2
330
1F
100
AcDbEntity
  8
LAYER0048
  6
CONTINUOUS
 62
     3
100
AcDbLine
 10
-1649.040595825106
 20
-1587.908107848246
 30
0.0
 11
-1636.368621169105
 21
-1575.236133192245
 31
0.0
  0
LINE
  5
2C3
330
1F
100
AcDbEntity
  8
LAYER0048
  6
CONTINUOUS
 62
     3
100
AcDbLine
 10
-1671.216551473106
 20
-1610.084063496246
 30
0.0
 11
-1651.152216736414
 21
-1590.019728759555
 31
0.0
  0
LINE
  5
2C4
330
1F
100
AcDbEntity
  8
LAYER0048
  6
CONTINUOUS
 62
     3
100
AcDbLine
 10
-1617.069434979996
 20
-1558.425962872913
 30
0.0
 11
-1611.703649651328
 21
-1553.060177544246
 31
0.0
  0
LINE
  5
2C5
330
1F
100
AcDbEntity
  8
LAYER0048
  6
CONTINUOUS
 62
     3
100
AcDbLine
 10
-1646.551579955329
 20
-1587.908107848246
 30
0.0
 11
-1633.879605299328
 21
-1575.236133192245
 31
0.0
  0
LINE
  5
2C6
330
1F
100
AcDbEntity
  8
LAYER0048
  6
CONTINUOUS
 62
     3
100
AcDbLine
 10
-1668.727535603329
 20
-1610.084063496246
 30
0.0
 11
-1651.685050958938
 21
-1593.041578851855
 31
0.0
  0
LINE
  5
2C7
330
1F
100
AcDbEntity
  8
LAYER0048
  6
CONTINUOUS
 62
     3
100
AcDbLine
 10
-1696.724526687135
 20
-1638.081054580051
 30
0.0
 11
-1694.07148491533
 21
-1635.428012808245
 31
0.0
  0
LINE
  5
2C8
330
1F
100
AcDbEntity
  8
LAYER0048
  6
CONTINUOUS
 62
     3
100
AcDbLine
 10
-1617.60226920252
 20
-1561.447812965214
 30
0.0
 11
-1609.214633781552
 21
-1553.060177544246
 31
0.0
  0
LINE
  5
2C9
330
1F
100
AcDbEntity
  8
LAYER0048
  6
CONTINUOUS
 62
     3
100
AcDbLine
 10
-1644.062564085553
 20
-1587.908107848246
 30
0.0
 11
-1631.390589429551
 21
-1575.236133192245
 31
0.0
  0
LINE
  5
2CA
330
1F
100
AcDbEntity
  8
LAYER0048
  6
CONTINUOUS
 62
     3
100
AcDbLine
 10
-1666.238519733552
 20
-1610.084063496246
 30
0.0
 11
-1652.217885181461
 21
-1596.063428944155
 31
0.0
  0
LINE
  5
2CB
330
1F
100
AcDbEntity
  8
LAYER0048
  6
CONTINUOUS
 62
     3
100
AcDbLine
 10
-1697.257360909658
 20
-1641.102904672351
 30
0.0
 11
-1691.582469045553
 21
-1635.428012808245
 31
0.0
  0
LINE
  5
2CC
330
1F
100
AcDbEntity
  8
LAYER0048
  6
CONTINUOUS
 62
     3
100
AcDbLine
 10
-1618.135103425043
 20
-1564.469663057514
 30
0.0
 11
-1606.725617911775
 21
-1553.060177544246
 31
0.0
  0
LINE
  5
2CD
330
1F
100
AcDbEntity
  8
LAYER0048
  6
CONTINUOUS
 62
     3
100
AcDbLine
 10
-1641.573548215776
 20
-1587.908107848246
 30
0.0
 11
-1628.901573559775
 21
-1575.236133192245
 31
0.0
  0
LINE
  5
2CE
330
1F
100
AcDbEntity
  8
LAYER0048
  6
CONTINUOUS
 62
     3
100
AcDbLine
 10
-1663.749503863776
 20
-1610.084063496246
 30
0.0
 11
-1652.750719403985
 21
-1599.085279036455
 31
0.0
  0
LINE
  5
2CF
330
1F
100
AcDbEntity
  8
LAYER0048
  6
CONTINUOUS
 62
     3
100
AcDbLine
 10
-1697.790195132181
 20
-1644.124754764651
 30
0.0
 11
-1689.093453175776
 21
-1635.428012808245
 31
0.0
  0
LINE
  5
2D0
330
1F
100
AcDbEntity
  8
LAYER0048
  6
CONTINUOUS
 62
     3
100
AcDbLine
 10
-1618.667937647567
 20
-1567.491513149814
 30
0.0
 11
-1604.236602041999
 21
-1553.060177544246
 31
0.0
  0
LINE
  5
2D1
330
1F
100
AcDbEntity
  8
LAYER0048
  6
CONTINUOUS
 62
     3
100
AcDbLine
 10
-1639.084532345999
 20
-1587.908107848246
 30
0.0
 11
-1626.412557689998
 21
-1575.236133192245
 31
0.0
  0
LINE
  5
2D2
330
1F
100
AcDbEntity
  8
LAYER0048
  6
CONTINUOUS
 62
     3
100
AcDbLine
 10
-1661.260487993999
 20
-1610.084063496246
 30
0.0
 11
-1653.283553626509
 21
-1602.107129128756
 31
0.0
  0
LINE
  5
2D3
330
1F
100
AcDbEntity
  8
LAYER0048
  6
CONTINUOUS
 62
     3
100
AcDbLine
 10
-1698.323029354704
 20
-1647.146604856951
 30
0.0
 11
-1686.604437306
 21
-1635.428012808245
 31
0.0
  0
LINE
  5
2D4
330
1F
100
AcDbEntity
  8
LAYER0048
  6
CONTINUOUS
 62
     3
100
AcDbLine
 10
-1619.20077187009
 20
-1570.513363242114
 30
0.0
 11
-1601.747586172222
 21
-1553.060177544246
 31
0.0
  0
LINE
  5
2D5
330
1F
100
AcDbEntity
  8
LAYER0048
  6
CONTINUOUS
 62
     3
100
AcDbLine
 10
-1636.595516476222
 20
-1587.908107848246
 30
0.0
 11
-1623.923541820222
 21
-1575.236133192245
 31
0.0
  0
LINE
  5
2D6
330
1F
100
AcDbEntity
  8
LAYER0048
  6
CONTINUOUS
 62
     3
100
AcDbLine
 10
-1658.771472124222
 20
-1610.084063496246
 30
0.0
 11
-1653.816387849033
 21
-1605.128979221056
 31
0.0
  0
LINE
  5
2D7
330
1F
100
AcDbEntity
  8
LAYER0048
  6
CONTINUOUS
 62
     3
100
AcDbLine
 10
-1696.787396092224
 20
-1648.099987464245
 30
0.0
 11
-1684.115421436223
 21
-1635.428012808245
 31
0.0
  0
LINE
  5
2D8
330
1F
100
AcDbEntity
  8
LAYER0048
  6
CONTINUOUS
 62
     3
100
AcDbLine
 10
-1619.733606092614
 20
-1573.535213334414
 30
0.0
 11
-1599.258570302445
 21
-1553.060177544246
 31
0.0
  0
LINE
  5
2D9
330
1F
100
AcDbEntity
  8
LAYER0048
  6
CONTINUOUS
 62
     3
100
AcDbLine
 10
-1634.106500606445
 20
-1587.908107848246
 30
0.0
 11
-1621.434525950446
 21
-1575.236133192245
 31
0.0
  0
LINE
  5
2DA
330
1F
100
AcDbEntity
  8
LAYER0048
  6
CONTINUOUS
 62
     3
100
AcDbLine
 10
-1656.282456254446
 20
-1610.084063496246
 30
0.0
 11
-1654.349222071556
 21
-1608.150829313356
 31
0.0
  0
LINE
  5
2DB
330
1F
100
AcDbEntity
  8
LAYER0048
  6
CONTINUOUS
 62
     3
100
AcDbLine
 10
-1694.298380222448
 20
-1648.099987464245
 30
0.0
 11
-1681.626405566446
 21
-1635.428012808245
 31
0.0
  0
LINE
  5
2DC
330
1F
100
AcDbEntity
  8
LAYER0048
  6
CONTINUOUS
 62
     3
100
AcDbLine
 10
-1631.617484736669
 20
-1587.908107848246
 30
0.0
 11
-1596.769554432669
 21
-1553.060177544246
 31
0.0
  0
LINE
  5
2DD
330
1F
100
AcDbEntity
  8
LAYER0048
  6
CONTINUOUS
 62
     3
100
AcDbLine
 10
-1691.809364352671
 20
-1648.099987464245
 30
0.0
 11
-1679.13738969667
 21
-1635.428012808245
 31
0.0
  0
LINE
  5
2DE
330
1F
100
AcDbEntity
  8
LAYER0048
  6
CONTINUOUS
 62
     3
100
AcDbLine
 10
-1629.128468866893
 20
-1587.908107848246
 30
0.0
 11
-1594.280538562892
 21
-1553.060177544246
 31
0.0
  0
LINE
  5
2DF
330
1F
100
AcDbEntity
  8
LAYER0048
  6
CONTINUOUS
 62
     3
100
AcDbLine
 10
-1689.320348482894
 20
-1648.099987464245
 30
0.0
 11
-1676.648373826893
 21
-1635.428012808245
 31
0.0
  0
LINE
  5
2E0
330
1F
100
AcDbEntity
  8
LAYER0048
  6
CONTINUOUS
 62
     3
100
AcDbLine
 10
-1626.639452997115
 20
-1587.908107848246
 30
0.0
 11
-1591.791522693116
 21
-1553.060177544246
 31
0.0
  0
LINE
  5
2E1
330
1F
100
AcDbEntity
  8
LAYER0048
  6
CONTINUOUS
 62
     3
100
AcDbLine
 10
-1686.831332613117
 20
-1648.099987464245
 30
0.0
 11
-1674.159357957116
 21
-1635.428012808245
 31
0.0
  0
LINE
  5
2E2
330
1F
100
AcDbEntity
  8
LAYER0048
  6
CONTINUOUS
 62
     3
100
AcDbLine
 10
-1624.150437127339
 20
-1587.908107848246
 30
0.0
 11
-1589.302506823339
 21
-1553.060177544246
 31
0.0
  0
LINE
  5
2E3
330
1F
100
AcDbEntity
  8
LAYER0048
  6
CONTINUOUS
 62
     3
100
AcDbLine
 10
-1684.34231674334
 20
-1648.099987464245
 30
0.0
 11
-1671.670342087339
 21
-1635.428012808245
 31
0.0
  0
LINE
  5
2E4
330
1F
100
AcDbEntity
  8
LAYER0048
  6
CONTINUOUS
 62
     3
100
AcDbLine
 10
-1622.397775352105
 20
-1588.644461942788
 30
0.0
 11
-1586.813490953562
 21
-1553.060177544246
 31
0.0
  0
LINE
  5
2E5
330
1F
100
AcDbEntity
  8
LAYER0048
  6
CONTINUOUS
 62
     3
100
AcDbLine
 10
-1681.853300873564
 20
-1648.099987464245
 30
0.0
 11
-1669.181326217562
 21
-1635.428012808245
 31
0.0
  0
LINE
  5
2E6
330
1F
100
AcDbEntity
  8
LAYER0048
  6
CONTINUOUS
 62
     3
100
AcDbLine
 10
-1622.93060196979
 20
-1591.66630443025
 30
0.0
 11
-1584.468815895596
 21
-1553.204518356056
 31
0.0
  0
LINE
  5
2E7
330
1F
100
AcDbEntity
  8
LAYER0048
  6
CONTINUOUS
 62
     3
100
AcDbLine
 10
-1679.364285003787
 20
-1648.099987464245
 30
0.0
 11
-1666.692310347786
 21
-1635.428012808245
 31
0.0
  0
LINE
  5
2E8
330
1F
100
AcDbEntity
  8
LAYER0048
  6
CONTINUOUS
 62
     3
100
AcDbLine
 10
-1623.463428587475
 20
-1594.688146917712
 30
0.0
 11
-1585.00165011812
 21
-1556.226368448357
 31
0.0
  0
LINE
  5
2E9
330
1F
100
AcDbEntity
  8
LAYER0048
  6
CONTINUOUS
 62
     3
100
AcDbLine
 10
-1676.87526913401
 20
-1648.099987464245
 30
0.0
 11
-1664.203294478009
 21
-1635.428012808245
 31
0.0
  0
LINE
  5
2EA
330
1F
100
AcDbEntity
  8
LAYER0048
  6
CONTINUOUS
 62
     3
100
AcDbLine
 10
-1623.996255205161
 20
-1597.709989405174
 30
0.0
 11
-1585.534484340643
 21
-1559.248218540657
 31
0.0
  0
LINE
  5
2EB
330
1F
100
AcDbEntity
  8
LAYER0048
  6
CONTINUOUS
 62
     3
100
AcDbLine
 10
-1674.386253264234
 20
-1648.099987464245
 30
0.0
 11
-1661.714278608232
 21
-1635.428012808245
 31
0.0
  0
LINE
  5
2EC
330
1F
100
AcDbEntity
  8
LAYER0048
  6
CONTINUOUS
 62
     3
100
AcDbLine
 10
-1624.529081822846
 20
-1600.731831892636
 30
0.0
 11
-1586.067318563167
 21
-1562.270068632957
 31
0.0
  0
LINE
  5
2ED
330
1F
100
AcDbEntity
  8
LAYER0048
  6
CONTINUOUS
 62
     3
100
AcDbLine
 10
-1671.897237394457
 20
-1648.099987464245
 30
0.0
 11
-1659.225262738455
 21
-1635.428012808245
 31
0.0
  0
LINE
  5
2EE
330
1F
100
AcDbEntity
  8
LAYER0048
  6
CONTINUOUS
 62
     3
100
AcDbLine
 10
-1625.061908440532
 20
-1603.753674380098
 30
0.0
 11
-1586.60015278569
 21
-1565.291918725258
 31
0.0
  0
LINE
  5
2EF
330
1F
100
AcDbEntity
  8
LAYER0048
  6
CONTINUOUS
 62
     3
100
AcDbLine
 10
-1669.40822152468
 20
-1648.099987464245
 30
0.0
 11
-1656.736246868679
 21
-1635.428012808245
 31
0.0
  0
LINE
  5
2F0
330
1F
100
AcDbEntity
  8
LAYER0048
  6
CONTINUOUS
 62
     3
100
AcDbLine
 10
-1625.594735058216
 20
-1606.77551686756
 30
0.0
 11
-1587.132987008214
 21
-1568.313768817558
 31
0.0
  0
LINE
  5
2F1
330
1F
100
AcDbEntity
  8
LAYER0048
  6
CONTINUOUS
 62
     3
100
AcDbLine
 10
-1666.919205654903
 20
-1648.099987464245
 30
0.0
 11
-1654.247230998902
 21
-1635.428012808245
 31
0.0
  0
LINE
  5
2F2
330
1F
100
AcDbEntity
  8
LAYER0048
  6
CONTINUOUS
 62
     3
100
AcDbLine
 10
-1626.127561675902
 20
-1609.797359355022
 30
0.0
 11
-1587.665821230738
 21
-1571.335618909858
 31
0.0
  0
LINE
  5
2F3
330
1F
100
AcDbEntity
  8
LAYER0048
  6
CONTINUOUS
 62
     3
100
AcDbLine
 10
-1664.430189785127
 20
-1648.099987464245
 30
0.0
 11
-1651.756852276281
 21
-1635.426649955401
 31
0.0
  0
LINE
  5
2F4
330
1F
100
AcDbEntity
  8
LAYER0048
  6
CONTINUOUS
 62
     3
100
AcDbLine
 10
-1626.660388293587
 20
-1612.819201842484
 30
0.0
 11
-1588.198655453261
 21
-1574.357469002158
 31
0.0
  0
LINE
  5
2F5
330
1F
100
AcDbEntity
  8
LAYER0048
  6
CONTINUOUS
 62
     3
100
AcDbLine
 10
-1661.94117391535
 20
-1648.099987464245
 30
0.0
 11
-1649.113197074601
 21
-1635.272010623498
 31
0.0
  0
LINE
  5
2F6
330
1F
100
AcDbEntity
  8
LAYER0048
  6
CONTINUOUS
 62
     3
100
AcDbLine
 10
-1627.244303822197
 20
-1615.89213324087
 30
0.0
 11
-1586.588303773572
 21
-1575.236133192245
 31
0.0
  0
LINE
  5
2F7
330
1F
100
AcDbEntity
  8
LAYER0048
  6
CONTINUOUS
 62
     3
100
AcDbLine
 10
-1659.452158045573
 20
-1648.099987464245
 30
0.0
 11
-1646.104949999413
 21
-1634.752779418086
 31
0.0
  0
LINE
  5
2F8
330
1F
100
AcDbEntity
  8
LAYER0048
  6
CONTINUOUS
 62
     3
100
AcDbLine
 10
-1628.397159998762
 20
-1619.534005287212
 30
0.0
 11
-1584.099287903795
 21
-1575.236133192245
 31
0.0
  0
LINE
  5
2F9
330
1F
100
AcDbEntity
  8
LAYER0048
  6
CONTINUOUS
 62
     3
100
AcDbLine
 10
-1656.963142175796
 20
-1648.099987464245
 30
0.0
 11
-1642.463077953071
 21
-1633.599923241521
 31
0.0
  0
LINE
  5
2FA
330
1F
100
AcDbEntity
  8
LAYER0048
  6
CONTINUOUS
 62
     3
100
AcDbLine
 10
-1631.563940188762
 20
-1625.189801346989
 30
0.0
 11
-1581.610272034019
 21
-1575.236133192245
 31
0.0
  0
LINE
  5
2FB
330
1F
100
AcDbEntity
  8
LAYER0048
  6
CONTINUOUS
 62
     3
100
AcDbLine
 10
-1654.47412630602
 20
-1648.099987464245
 30
0.0
 11
-1636.807281893294
 21
-1630.43314305152
 31
0.0
  0
LINE
  5
2FC
330
1F
100
AcDbEntity
  8
LAYER0048
  6
CONTINUOUS
 62
     3
100
AcDbLine
 10
-1651.985110436243
 20
-1648.099987464245
 30
0.0
 11
-1579.121256164242
 21
-1575.236133192245
 31
0.0
  0
LINE
  5
2FD
330
1F
100
AcDbEntity
  8
LAYER0048
  6
CONTINUOUS
 62
     3
100
AcDbLine
 10
-1589.304214950466
 20
-1587.908107848246
 30
0.0
 11
-1576.632240294465
 21
-1575.236133192245
 31
0.0
  0
LINE
  5
2FE
330
1F
100
AcDbEntity
  8
LAYER0048
  6
CONTINUOUS
 62
     3
100
AcDbLine
 10
-1649.496094566466
 20
-1648.099987464245
 30
0.0
 11
-1590.862826588798
 21
-1589.466719486577
 31
0.0
  0
LINE
  5
2FF
330
1F
100
AcDbEntity
  8
LAYER0048
  6
CONTINUOUS
 62
     3
100
AcDbLine
 10
-1586.815199080689
 20
-1587.908107848246
 30
0.0
 11
-1574.143224424688
 21
-1575.236133192245
 31
0.0
  0
LINE
  5
300
330
1F
100
AcDbEntity
  8
LAYER0048
  6
CONTINUOUS
 62
     3
100
AcDbLine
 10
-1647.007078696689
 20
-1648.099987464245
 30
0.0
 11
-1591.395660855759
 21
-1592.488569623315
 31
0.0
  0
LINE
  5
301
330
1F
100
AcDbEntity
  8
LAYER0048
  6
CONTINUOUS
 62
     3
100
AcDbLine
 10
-1584.326183210912
 20
-1587.908107848246
 30
0.0
 11
-1571.654208554912
 21
-1575.236133192245
 31
0.0
  0
LINE
  5
302
330
1F
100
AcDbEntity
  8
LAYER0048
  6
CONTINUOUS
 62
     3
100
AcDbLine
 10
-1644.518062826912
 20
-1648.099987464245
 30
0.0
 11
-1591.92849512272
 21
-1595.510419760054
 31
0.0
  0
LINE
  5
303
330
1F
100
AcDbEntity
  8
LAYER0048
  6
CONTINUOUS
 62
     3
100
AcDbLine
 10
-1581.837167341136
 20
-1587.908107848246
 30
0.0
 11
-1569.616566239212
 21
-1575.687506746321
 31
0.0
  0
LINE
  5
304
330
1F
100
AcDbEntity
  8
LAYER0048
  6
CONTINUOUS
 62
     3
100
AcDbLine
 10
-1642.029046957136
 20
-1648.099987464245
 30
0.0
 11
-1592.461329389682
 21
-1598.532269896791
 31
0.0
  0
LINE
  5
305
330
1F
100
AcDbEntity
  8
LAYER0048
  6
CONTINUOUS
 62
     3
100
AcDbLine
 10
-1579.348151471359
 20
-1587.908107848246
 30
0.0
 11
-1570.149400461735
 21
-1578.709356838621
 31
0.0
  0
LINE
  5
306
330
1F
100
AcDbEntity
  8
LAYER0048
  6
CONTINUOUS
 62
     3
100
AcDbLine
 10
-1639.513614370024
 20
-1648.07357074691
 30
0.0
 11
-1592.994163656643
 21
-1601.554120033529
 31
0.0
  0
LINE
  5
307
330
1F
100
AcDbEntity
  8
LAYER0048
  6
CONTINUOUS
 62
     3
100
AcDbLine
 10
-1576.859135601583
 20
-1587.908107848246
 30
0.0
 11
-1570.682234684259
 21
-1581.731206930921
 31
0.0
  0
LINE
  5
308
330
1F
100
AcDbEntity
  8
LAYER0048
  6
CONTINUOUS
 62
     3
100
AcDbLine
 10
-1636.86341592817
 20
-1647.912388174833
 30
0.0
 11
-1593.526997923604
 21
-1604.575970170267
 31
0.0
  0
LINE
  5
309
330
1F
100
AcDbEntity
  8
LAYER0048
  6
CONTINUOUS
 62
     3
100
AcDbLine
 10
-1574.370119731806
 20
-1587.908107848246
 30
0.0
 11
-1571.215068906782
 21
-1584.753057023221
 31
0.0
  0
LINE
  5
30A
330
1F
100
AcDbEntity
  8
LAYER0048
  6
CONTINUOUS
 62
     3
100
AcDbLine
 10
-1634.035871002309
 20
-1647.573859118748
 30
0.0
 11
-1594.059832190566
 21
-1607.597820307005
 31
0.0
  0
LINE
  5
30B
330
1F
100
AcDbEntity
  8
LAYER0048
  6
CONTINUOUS
 62
     3
100
AcDbLine
 10
-1571.88110386203
 20
-1587.908107848246
 30
0.0
 11
-1571.747903129305
 21
-1587.774907115521
 31
0.0
  0
LINE
  5
30C
330
1F
100
AcDbEntity
  8
LAYER0048
  6
CONTINUOUS
 62
     3
100
AcDbLine
 10
-1630.988736298498
 20
-1647.015740284715
 30
0.0
 11
-1594.639717598769
 21
-1610.666721584985
 31
0.0
  0
LINE
  5
30D
330
1F
100
AcDbEntity
  8
LAYER0048
  6
CONTINUOUS
 62
     3
100
AcDbLine
 10
-1627.644645212955
 20
-1646.160665068948
 30
0.0
 11
-1595.494792814536
 21
-1614.010812670529
 31
0.0
  0
LINE
  5
30E
330
1F
100
AcDbEntity
  8
LAYER0048
  6
CONTINUOUS
 62
     3
100
AcDbLine
 10
-1623.869116384246
 20
-1644.874152110016
 30
0.0
 11
-1596.781305773468
 21
-1617.786341499237
 31
0.0
  0
LINE
  5
30F
330
1F
100
AcDbEntity
  8
LAYER0048
  6
CONTINUOUS
 62
     3
100
AcDbLine
 10
-1619.344909392987
 20
-1642.838960988533
 30
0.0
 11
-1598.81649689495
 21
-1622.310548490496
 31
0.0
  0
LINE
  5
310
330
1F
100
AcDbEntity
  8
LAYER0048
  6
CONTINUOUS
 62
     3
100
AcDbLine
 10
-1612.749895303118
 20
-1638.732962768441
 30
0.0
 11
-1602.922495115043
 21
-1628.905562580366
 31
0.0
  0
LINE
  5
311
330
1F
100
AcDbEntity
  8
LAYER0048
  6
CONTINUOUS
 62
     3
100
AcDbLine
 10
-1435.523441856037
 20
-1594.062802574645
 30
0.0
 11
-1434.128301542437
 21
-1586.111033870645
 31
0.0
  0
LINE
  5
312
330
1F
100
AcDbEntity
  8
LAYER0048
  6
CONTINUOUS
 62
     3
100
AcDbLine
 10
-1445.051643475239
 20
-1648.099987464245
 30
0.0
 11
-1442.258626963237
 21
-1632.260019144245
 31
0.0
  0
LINE
  5
313
330
1F
100
AcDbEntity
  8
LAYER0048
  6
CONTINUOUS
 62
     3
100
AcDbLine
 10
-1454.885700921639
 20
-1608.831832929845
 30
0.0
 11
-1445.051643475239
 21
-1553.060177544246
 31
0.0
  0
LINE
  5
314
330
1F
100
AcDbEntity
  8
LAYER0048
  6
CONTINUOUS
 62
     3
100
AcDbLine
 10
-1571.771390035238
 20
-1648.099987464245
 30
0.0
 11
-1501.683654163237
 21
-1648.099987464245
 31
0.0
  0
LINE
  5
315
330
1F
100
AcDbEntity
  8
LAYER0048
  6
CONTINUOUS
 62
     3
100
AcDbLine
 10
-1567.302563616039
 20
-1622.756038152245
 30
0.0
 11
-1571.771390035238
 21
-1648.099987464245
 31
0.0
  0
LINE
  5
316
330
1F
100
AcDbEntity
  8
LAYER0048
  6
CONTINUOUS
 62
     3
100
AcDbLine
 10
-1492.033061932839
 20
-1622.756038152245
 30
0.0
 11
-1567.302563616039
 21
-1622.756038152245
 31
0.0
  0
LINE
  5
317
330
1F
100
AcDbEntity
  8
LAYER0048
  6
CONTINUOUS
 62
     3
100
AcDbLine
 10
-1461.135910214438
 20
-1553.060177544246
 30
0.0
 11
-1470.194022451238
 21
-1604.430920827446
 31
0.0
  0
LINE
  5
318
330
1F
100
AcDbEntity
  8
LAYER0048
  6
CONTINUOUS
 62
     3
100
AcDbLine
 10
-1445.051643475239
 20
-1553.060177544246
 30
0.0
 11
-1461.135910214438
 21
-1553.060177544246
 31
0.0
  0
LINE
  5
319
330
1F
100
AcDbEntity
  8
LAYER0048
  6
CONTINUOUS
 62
     3
100
AcDbLine
 10
-1493.860391577638
 20
-1553.060177544246
 30
0.0
 11
-1561.414537190439
 21
-1553.060177544246
 31
0.0
  0
LINE
  5
31A
330
1F
100
AcDbEntity
  8
LAYER0048
  6
CONTINUOUS
 62
     3
100
AcDbLine
 10
-1496.653408089638
 20
-1568.900145864246
 30
0.0
 11
-1493.860391577638
 21
-1553.060177544246
 31
0.0
  0
LINE
  5
31B
330
1F
100
AcDbEntity
  8
LAYER0048
  6
CONTINUOUS
 62
     3
100
AcDbLine
 10
-1564.207553702438
 20
-1568.900145864246
 30
0.0
 11
-1496.653408089638
 21
-1568.900145864246
 31
0.0
  0
LINE
  5
31C
330
1F
100
AcDbEntity
  8
LAYER0048
  6
CONTINUOUS
 62
     3
100
AcDbLine
 10
-1561.414537190439
 20
-1553.060177544246
 30
0.0
 11
-1564.207553702438
 21
-1568.900145864246
 31
0.0
  0
LINE
  5
31D
330
1F
100
AcDbEntity
  8
LAYER0048
  6
CONTINUOUS
 62
     3
100
AcDbLine
 10
-1588.353587808039
 20
-1575.236133192245
 30
0.0
 11
-1584.443364691238
 21
-1553.060177544246
 31
0.0
  0
LINE
  5
31E
330
1F
100
AcDbEntity
  8
LAYER0048
  6
CONTINUOUS
 62
     3
100
AcDbLine
 10
-1594.277422137638
 20
-1608.831832929845
 30
0.0
 11
-1590.588001017638
 21
-1587.908107848246
 31
0.0
  0
LINE
  5
31F
330
1F
100
AcDbEntity
  8
LAYER0048
  6
CONTINUOUS
 62
     3
100
AcDbLine
 10
-1622.267937657638
 20
-1587.908107848246
 30
0.0
 11
-1626.954105984039
 21
-1614.484975598645
 31
0.0
  0
LINE
  5
320
330
1F
100
AcDbEntity
  8
LAYER0048
  6
CONTINUOUS
 62
     3
100
AcDbLine
 10
-1616.123301331238
 20
-1553.060177544246
 30
0.0
 11
-1620.033524448039
 21
-1575.236133192245
 31
0.0
  0
LINE
  5
321
330
1F
100
AcDbEntity
  8
LAYER0048
  6
CONTINUOUS
 62
     3
100
AcDbLine
 10
-1620.033524448039
 20
-1575.236133192245
 30
0.0
 11
-1648.545467424038
 21
-1575.236133192245
 31
0.0
  0
LINE
  5
322
330
1F
100
AcDbEntity
  8
LAYER0048
  6
CONTINUOUS
 62
     3
100
AcDbLine
 10
-1569.536976825638
 20
-1575.236133192245
 30
0.0
 11
-1588.353587808039
 21
-1575.236133192245
 31
0.0
  0
LINE
  5
323
330
1F
100
AcDbEntity
  8
LAYER0048
  6
CONTINUOUS
 62
     3
100
AcDbLine
 10
-1590.588001017638
 20
-1587.908107848246
 30
0.0
 11
-1571.771390035238
 21
-1587.908107848246
 31
0.0
  0
LINE
  5
324
330
1F
100
AcDbEntity
  8
LAYER0048
  6
CONTINUOUS
 62
     3
100
AcDbLine
 10
-1650.779880633638
 20
-1587.908107848246
 30
0.0
 11
-1622.267937657638
 21
-1587.908107848246
 31
0.0
  0
LINE
  5
325
330
1F
100
AcDbEntity
  8
LAYER0048
  6
CONTINUOUS
 62
     3
100
AcDbLine
 10
-1648.545467424038
 20
-1575.236133192245
 30
0.0
 11
-1644.635244307237
 21
-1553.060177544246
 31
0.0
  0
LINE
  5
326
330
1F
100
AcDbEntity
  8
LAYER0048
  6
CONTINUOUS
 62
     3
100
AcDbLine
 10
-1654.690103750439
 20
-1610.084063496246
 30
0.0
 11
-1650.779880633638
 21
-1587.908107848246
 31
0.0
  0
LINE
  5
327
330
1F
100
AcDbEntity
  8
LAYER0048
  6
CONTINUOUS
 62
     3
100
AcDbLine
 10
-1682.459817273638
 20
-1587.908107848246
 30
0.0
 11
-1686.370040390439
 21
-1610.084063496246
 31
0.0
  0
LINE
  5
328
330
1F
100
AcDbEntity
  8
LAYER0048
  6
CONTINUOUS
 62
     3
100
AcDbLine
 10
-1676.315180947238
 20
-1553.060177544246
 30
0.0
 11
-1680.225404064039
 21
-1575.236133192245
 31
0.0
  0
LINE
  5
329
330
1F
100
AcDbEntity
  8
LAYER0048
  6
CONTINUOUS
 62
     3
100
AcDbLine
 10
-1698.491136595238
 20
-1587.908107848246
 30
0.0
 11
-1682.459817273638
 21
-1587.908107848246
 31
0.0
  0
LINE
  5
32A
330
1F
100
AcDbEntity
  8
LAYER0048
  6
CONTINUOUS
 62
     3
100
AcDbLine
 10
-1680.225404064039
 20
-1575.236133192245
 30
0.0
 11
-1696.256723385639
 21
-1575.236133192245
 31
0.0
  0
LINE
  5
32B
330
1F
100
AcDbEntity
  8
LAYER0048
  6
CONTINUOUS
 62
     3
100
AcDbLine
 10
-1584.443364691238
 20
-1553.060177544246
 30
0.0
 11
-1616.123301331238
 21
-1553.060177544246
 31
0.0
  0
LINE
  5
32C
330
1F
100
AcDbEntity
  8
LAYER0048
  6
CONTINUOUS
 62
     3
100
AcDbLine
 10
-1698.491136595238
 20
-1648.099987464245
 30
0.0
 11
-1641.075375379239
 21
-1648.099987464245
 31
0.0
  0
LINE
  5
32D
330
1F
100
AcDbEntity
  8
LAYER0048
  6
CONTINUOUS
 62
     3
100
AcDbLine
 10
-1696.256723385639
 20
-1635.428012808245
 30
0.0
 11
-1698.491136595238
 21
-1648.099987464245
 31
0.0
  0
LINE
  5
32E
330
1F
100
AcDbEntity
  8
LAYER0048
  6
CONTINUOUS
 62
     3
100
AcDbLine
 10
-1651.913019744038
 20
-1635.428012808245
 30
0.0
 11
-1696.256723385639
 21
-1635.428012808245
 31
0.0
  0
LINE
  5
32F
330
1F
100
AcDbEntity
  8
LAYER0048
  6
CONTINUOUS
 62
     3
100
AcDbLine
 10
-1644.635244307237
 20
-1553.060177544246
 30
0.0
 11
-1676.315180947238
 21
-1553.060177544246
 31
0.0
  0
LINE
  5
330
330
1F
100
AcDbEntity
  8
LAYER0048
  6
CONTINUOUS
 62
     3
100
AcDbLine
 10
-1686.370040390439
 20
-1610.084063496246
 30
0.0
 11
-1654.690103750439
 21
-1610.084063496246
 31
0.0
  0
LINE
  5
331
330
1F
100
AcDbEntity
  8
LAYER0048
  6
CONTINUOUS
 62
     3
100
AcDbLine
 10
-1571.771390035238
 20
-1587.908107848246
 30
0.0
 11
-1569.536976825638
 21
-1575.236133192245
 31
0.0
  0
LINE
  5
332
330
1F
100
AcDbEntity
  8
LAYER0048
  6
CONTINUOUS
 62
     3
100
AcDbLine
 10
-1696.256723385639
 20
-1575.236133192245
 30
0.0
 11
-1698.491136595238
 21
-1587.908107848246
 31
0.0
  0
ARC
  5
333
330
1F
100
AcDbEntity
  8
LAYER0048
  6
CONTINUOUS
 62
     3
100
AcDbCircle
 10
-1492.033061932839
 20
-1600.580082504245
 30
0.0
 40
22.17595564799971
100
AcDbArc
 50
270.0000000000006
 51
349.999932750911
  0
ARC
  5
334
330
1F
100
AcDbEntity
  8
LAYER0048
  6
CONTINUOUS
 62
     3
100
AcDbCircle
 10
-1501.683654163237
 20
-1600.580082504245
 30
0.0
 40
47.51990496000001
100
AcDbArc
 50
270.0000000000006
 51
349.9999897560571
  0
ARC
  5
335
330
1F
100
AcDbEntity
  8
LAYER0048
  6
CONTINUOUS
 62
     3
100
AcDbCircle
 10
-1651.913019744038
 20
-1610.084063496246
 30
0.0
 40
25.34394931199965
100
AcDbArc
 50
270.0000000000006
 51
350.0000396355528
  0
ARC
  5
336
330
1F
100
AcDbEntity
  8
LAYER0048
  6
CONTINUOUS
 62
     3
100
AcDbCircle
 10
-1641.075375379239
 20
-1600.580082504245
 30
0.0
 40
47.51990496000001
100
AcDbArc
 50
270.0000000000006
 51
349.9999897560575
  0
LINE
  5
337
330
1F
100
AcDbEntity
  8
LAYER0048
  6
CONTINUOUS
 62
     3
100
AcDbLine
 10
-1193.663127973633
 20
-1570.597433077464
 30
0.0
 11
-1191.238819608414
 21
-1568.173124712245
 31
0.0
  0
LINE
  5
338
330
1F
100
AcDbEntity
  8
LAYER0048
  6
CONTINUOUS
 62
     3
100
AcDbLine
 10
-1175.114622443157
 20
-1554.537943416765
 30
0.0
 11
-1173.636856570638
 21
-1553.060177544246
 31
0.0
  0
LINE
  5
339
330
1F
100
AcDbEntity
  8
LAYER0048
  6
CONTINUOUS
 62
     3
100
AcDbLine
 10
-1194.195962196157
 20
-1573.619283169764
 30
0.0
 11
-1188.749803738638
 21
-1568.173124712245
 31
0.0
  0
LINE
  5
33A
330
1F
100
AcDbEntity
  8
LAYER0048
  6
CONTINUOUS
 62
     3
100
AcDbLine
 10
-1175.647458928176
 20
-1557.55979577156
 30
0.0
 11
-1171.147840700861
 21
-1553.060177544246
 31
0.0
  0
LINE
  5
33B
330
1F
100
AcDbEntity
  8
LAYER0048
  6
CONTINUOUS
 62
     3
100
AcDbLine
 10
-1194.72879641868
 20
-1576.641133262064
 30
0.0
 11
-1186.260787868861
 21
-1568.173124712245
 31
0.0
  0
LINE
  5
33C
330
1F
100
AcDbEntity
  8
LAYER0048
  6
CONTINUOUS
 62
     3
100
AcDbLine
 10
-1176.180295413194
 20
-1560.581648126355
 30
0.0
 11
-1168.658824831085
 21
-1553.060177544246
 31
0.0
  0
LINE
  5
33D
330
1F
100
AcDbEntity
  8
LAYER0048
  6
CONTINUOUS
 62
     3
100
AcDbLine
 10
-1195.261630641204
 20
-1579.662983354364
 30
0.0
 11
-1183.771771999084
 21
-1568.173124712245
 31
0.0
  0
LINE
  5
33E
330
1F
100
AcDbEntity
  8
LAYER0048
  6
CONTINUOUS
 62
     3
100
AcDbLine
 10
-1176.713131898212
 20
-1563.60350048115
 30
0.0
 11
-1166.169808961308
 21
-1553.060177544246
 31
0.0
  0
LINE
  5
33F
330
1F
100
AcDbEntity
  8
LAYER0048
  6
CONTINUOUS
 62
     3
100
AcDbLine
 10
-1195.794464863726
 20
-1582.684833446664
 30
0.0
 11
-1181.282756129308
 21
-1568.173124712245
 31
0.0
  0
LINE
  5
340
330
1F
100
AcDbEntity
  8
LAYER0048
  6
CONTINUOUS
 62
     3
100
AcDbLine
 10
-1177.245968383231
 20
-1566.625352835945
 30
0.0
 11
-1163.680793091532
 21
-1553.060177544246
 31
0.0
  0
LINE
  5
341
330
1F
100
AcDbEntity
  8
LAYER0048
  6
CONTINUOUS
 62
     3
100
AcDbLine
 10
-1194.633708579531
 20
-1584.013093032245
 30
0.0
 11
-1178.793740259531
 21
-1568.173124712245
 31
0.0
  0
LINE
  5
342
330
1F
100
AcDbEntity
  8
LAYER0048
  6
CONTINUOUS
 62
     3
100
AcDbLine
 10
-1192.144692709755
 20
-1584.013093032245
 30
0.0
 11
-1161.191777221755
 21
-1553.060177544246
 31
0.0
  0
LINE
  5
343
330
1F
100
AcDbEntity
  8
LAYER0048
  6
CONTINUOUS
 62
     3
100
AcDbLine
 10
-1189.655676839978
 20
-1584.013093032245
 30
0.0
 11
-1158.702761351978
 21
-1553.060177544246
 31
0.0
  0
LINE
  5
344
330
1F
100
AcDbEntity
  8
LAYER0048
  6
CONTINUOUS
 62
     3
100
AcDbLine
 10
-1187.166660970202
 20
-1584.013093032245
 30
0.0
 11
-1156.213745482202
 21
-1553.060177544246
 31
0.0
  0
LINE
  5
345
330
1F
100
AcDbEntity
  8
LAYER0048
  6
CONTINUOUS
 62
     3
100
AcDbLine
 10
-1184.677645100425
 20
-1584.013093032245
 30
0.0
 11
-1153.724729612425
 21
-1553.060177544246
 31
0.0
  0
LINE
  5
346
330
1F
100
AcDbEntity
  8
LAYER0048
  6
CONTINUOUS
 62
     3
100
AcDbLine
 10
-1182.188629230649
 20
-1584.013093032245
 30
0.0
 11
-1151.235713742649
 21
-1553.060177544246
 31
0.0
  0
LINE
  5
347
330
1F
100
AcDbEntity
  8
LAYER0048
  6
CONTINUOUS
 62
     3
100
AcDbLine
 10
-1180.442974745958
 20
-1584.756454417332
 30
0.0
 11
-1148.746697872872
 21
-1553.060177544246
 31
0.0
  0
LINE
  5
348
330
1F
100
AcDbEntity
  8
LAYER0048
  6
CONTINUOUS
 62
     3
100
AcDbLine
 10
-1180.975808434941
 20
-1587.778303976093
 30
0.0
 11
-1146.257682003096
 21
-1553.060177544246
 31
0.0
  0
LINE
  5
349
330
1F
100
AcDbEntity
  8
LAYER0048
  6
CONTINUOUS
 62
     3
100
AcDbLine
 10
-1181.508642123924
 20
-1590.800153534852
 30
0.0
 11
-1143.768666133319
 21
-1553.060177544246
 31
0.0
  0
LINE
  5
34A
330
1F
100
AcDbEntity
  8
LAYER0048
  6
CONTINUOUS
 62
     3
100
AcDbLine
 10
-1182.041475812907
 20
-1593.822003093612
 30
0.0
 11
-1142.986283745385
 21
-1554.766811026088
 31
0.0
  0
LINE
  5
34B
330
1F
100
AcDbEntity
  8
LAYER0048
  6
CONTINUOUS
 62
     3
100
AcDbLine
 10
-1182.57430950189
 20
-1596.843852652371
 30
0.0
 11
-1143.519120230403
 21
-1557.788663380883
 31
0.0
  0
LINE
  5
34C
330
1F
100
AcDbEntity
  8
LAYER0048
  6
CONTINUOUS
 62
     3
100
AcDbLine
 10
-1183.107143190874
 20
-1599.865702211132
 30
0.0
 11
-1144.051956715422
 21
-1560.810515735679
 31
0.0
  0
LINE
  5
34D
330
1F
100
AcDbEntity
  8
LAYER0048
  6
CONTINUOUS
 62
     3
100
AcDbLine
 10
-1183.639976879856
 20
-1602.887551769891
 30
0.0
 11
-1144.584793200441
 21
-1563.832368090474
 31
0.0
  0
LINE
  5
34E
330
1F
100
AcDbEntity
  8
LAYER0048
  6
CONTINUOUS
 62
     3
100
AcDbLine
 10
-1184.17281056884
 20
-1605.909401328651
 30
0.0
 11
-1145.117629685459
 21
-1566.854220445269
 31
0.0
  0
LINE
  5
34F
330
1F
100
AcDbEntity
  8
LAYER0048
  6
CONTINUOUS
 62
     3
100
AcDbLine
 10
-1184.705644257823
 20
-1608.931250887411
 30
0.0
 11
-1143.947518082656
 21
-1568.173124712245
 31
0.0
  0
LINE
  5
350
330
1F
100
AcDbEntity
  8
LAYER0048
  6
CONTINUOUS
 62
     3
100
AcDbLine
 10
-1185.238477946806
 20
-1611.95310044617
 30
0.0
 11
-1141.45850221288
 21
-1568.173124712245
 31
0.0
  0
LINE
  5
351
330
1F
100
AcDbEntity
  8
LAYER0048
  6
CONTINUOUS
 62
     3
100
AcDbLine
 10
-1185.77131163579
 20
-1614.97495000493
 30
0.0
 11
-1138.969486343103
 21
-1568.173124712245
 31
0.0
  0
LINE
  5
352
330
1F
100
AcDbEntity
  8
LAYER0048
  6
CONTINUOUS
 62
     3
100
AcDbLine
 10
-1186.304145324773
 20
-1617.99679956369
 30
0.0
 11
-1136.480470473327
 21
-1568.173124712245
 31
0.0
  0
LINE
  5
353
330
1F
100
AcDbEntity
  8
LAYER0048
  6
CONTINUOUS
 62
     3
100
AcDbLine
 10
-1186.836979013756
 20
-1621.01864912245
 30
0.0
 11
-1133.99145460355
 21
-1568.173124712245
 31
0.0
  0
LINE
  5
354
330
1F
100
AcDbEntity
  8
LAYER0048
  6
CONTINUOUS
 62
     3
100
AcDbLine
 10
-1147.342407053774
 20
-1584.013093032245
 30
0.0
 11
-1131.502438733773
 21
-1568.173124712245
 31
0.0
  0
LINE
  5
355
330
1F
100
AcDbEntity
  8
LAYER0048
  6
CONTINUOUS
 62
     3
100
AcDbLine
 10
-1187.369812702739
 20
-1624.04049868121
 30
0.0
 11
-1148.314635836419
 21
-1584.985321814891
 31
0.0
  0
LINE
  5
356
330
1F
100
AcDbEntity
  8
LAYER0048
  6
CONTINUOUS
 62
     3
100
AcDbLine
 10
-1144.853391183998
 20
-1584.013093032245
 30
0.0
 11
-1129.013422863997
 21
-1568.173124712245
 31
0.0
  0
LINE
  5
357
330
1F
100
AcDbEntity
  8
LAYER0048
  6
CONTINUOUS
 62
     3
100
AcDbLine
 10
-1187.902646391722
 20
-1627.06234823997
 30
0.0
 11
-1148.847469525402
 21
-1588.00717137365
 31
0.0
  0
LINE
  5
358
330
1F
100
AcDbEntity
  8
LAYER0048
  6
CONTINUOUS
 62
     3
100
AcDbLine
 10
-1142.364375314221
 20
-1584.013093032245
 30
0.0
 11
-1126.52440699422
 21
-1568.173124712245
 31
0.0
  0
LINE
  5
359
330
1F
100
AcDbEntity
  8
LAYER0048
  6
CONTINUOUS
 62
     3
100
AcDbLine
 10
-1188.435480080705
 20
-1630.08419779873
 30
0.0
 11
-1149.380303214386
 21
-1591.02902093241
 31
0.0
  0
LINE
  5
35A
330
1F
100
AcDbEntity
  8
LAYER0048
  6
CONTINUOUS
 62
     3
100
AcDbLine
 10
-1139.875359444445
 20
-1584.013093032245
 30
0.0
 11
-1124.035391124444
 21
-1568.173124712245
 31
0.0
  0
LINE
  5
35B
330
1F
100
AcDbEntity
  8
LAYER0048
  6
CONTINUOUS
 62
     3
100
AcDbLine
 10
-1188.968313769689
 20
-1633.106047357489
 30
0.0
 11
-1149.913136903369
 21
-1594.05087049117
 31
0.0
  0
LINE
  5
35C
330
1F
100
AcDbEntity
  8
LAYER0048
  6
CONTINUOUS
 62
     3
100
AcDbLine
 10
-1137.386343574668
 20
-1584.013093032245
 30
0.0
 11
-1121.546375254667
 21
-1568.173124712245
 31
0.0
  0
LINE
  5
35D
330
1F
100
AcDbEntity
  8
LAYER0048
  6
CONTINUOUS
 62
     3
100
AcDbLine
 10
-1189.501147458672
 20
-1636.127896916249
 30
0.0
 11
-1150.445970592352
 21
-1597.07272004993
 31
0.0
  0
LINE
  5
35E
330
1F
100
AcDbEntity
  8
LAYER0048
  6
CONTINUOUS
 62
     3
100
AcDbLine
 10
-1134.897327704891
 20
-1584.013093032245
 30
0.0
 11
-1119.057359384891
 21
-1568.173124712245
 31
0.0
  0
LINE
  5
35F
330
1F
100
AcDbEntity
  8
LAYER0048
  6
CONTINUOUS
 62
     3
100
AcDbLine
 10
-1190.033981147656
 20
-1639.149746475009
 30
0.0
 11
-1150.978804281336
 21
-1600.09456960869
 31
0.0
  0
LINE
  5
360
330
1F
100
AcDbEntity
  8
LAYER0048
  6
CONTINUOUS
 62
     3
100
AcDbLine
 10
-1132.408311835115
 20
-1584.013093032245
 30
0.0
 11
-1116.568343515114
 21
-1568.173124712245
 31
0.0
  0
LINE
  5
361
330
1F
100
AcDbEntity
  8
LAYER0048
  6
CONTINUOUS
 62
     3
100
AcDbLine
 10
-1190.566814836639
 20
-1642.171596033768
 30
0.0
 11
-1151.511637970319
 21
-1603.11641916745
 31
0.0
  0
LINE
  5
362
330
1F
100
AcDbEntity
  8
LAYER0048
  6
CONTINUOUS
 62
     3
100
AcDbLine
 10
-1129.919295965338
 20
-1584.013093032245
 30
0.0
 11
-1114.079327645337
 21
-1568.173124712245
 31
0.0
  0
LINE
  5
363
330
1F
100
AcDbEntity
  8
LAYER0048
  6
CONTINUOUS
 62
     3
100
AcDbLine
 10
-1191.099648525622
 20
-1645.193445592528
 30
0.0
 11
-1152.044471659302
 21
-1606.138268726209
 31
0.0
  0
LINE
  5
364
330
1F
100
AcDbEntity
  8
LAYER0048
  6
CONTINUOUS
 62
     3
100
AcDbLine
 10
-1127.430280095561
 20
-1584.013093032245
 30
0.0
 11
-1111.590311775561
 21
-1568.173124712245
 31
0.0
  0
LINE
  5
365
330
1F
100
AcDbEntity
  8
LAYER0048
  6
CONTINUOUS
 62
     3
100
AcDbLine
 10
-1191.517174527562
 20
-1648.099987464245
 30
0.0
 11
-1152.577305348285
 21
-1609.160118284969
 31
0.0
  0
LINE
  5
366
330
1F
100
AcDbEntity
  8
LAYER0048
  6
CONTINUOUS
 62
     3
100
AcDbLine
 10
-1124.941264225785
 20
-1584.013093032245
 30
0.0
 11
-1109.101295905784
 21
-1568.173124712245
 31
0.0
  0
LINE
  5
367
330
1F
100
AcDbEntity
  8
LAYER0048
  6
CONTINUOUS
 62
     3
100
AcDbLine
 10
-1189.028158657785
 20
-1648.099987464245
 30
0.0
 11
-1153.110139037268
 21
-1612.181967843729
 31
0.0
  0
LINE
  5
368
330
1F
100
AcDbEntity
  8
LAYER0048
  6
CONTINUOUS
 62
     3
100
AcDbLine
 10
-1122.452248356008
 20
-1584.013093032245
 30
0.0
 11
-1106.612280036008
 21
-1568.173124712245
 31
0.0
  0
LINE
  5
369
330
1F
100
AcDbEntity
  8
LAYER0048
  6
CONTINUOUS
 62
     3
100
AcDbLine
 10
-1186.539142788008
 20
-1648.099987464245
 30
0.0
 11
-1153.642972726251
 21
-1615.203817402489
 31
0.0
  0
LINE
  5
36A
330
1F
100
AcDbEntity
  8
LAYER0048
  6
CONTINUOUS
 62
     3
100
AcDbLine
 10
-1119.963232486232
 20
-1584.013093032245
 30
0.0
 11
-1104.123264166231
 21
-1568.173124712245
 31
0.0
  0
LINE
  5
36B
330
1F
100
AcDbEntity
  8
LAYER0048
  6
CONTINUOUS
 62
     3
100
AcDbLine
 10
-1184.050126918232
 20
-1648.099987464245
 30
0.0
 11
-1154.175806415235
 21
-1618.225666961248
 31
0.0
  0
LINE
  5
36C
330
1F
100
AcDbEntity
  8
LAYER0048
  6
CONTINUOUS
 62
     3
100
AcDbLine
 10
-1117.474216616455
 20
-1584.013093032245
 30
0.0
 11
-1101.634248296455
 21
-1568.173124712245
 31
0.0
  0
LINE
  5
36D
330
1F
100
AcDbEntity
  8
LAYER0048
  6
CONTINUOUS
 62
     3
100
AcDbLine
 10
-1181.561111048455
 20
-1648.099987464245
 30
0.0
 11
-1154.708640104218
 21
-1621.247516520008
 31
0.0
  0
LINE
  5
36E
330
1F
100
AcDbEntity
  8
LAYER0048
  6
CONTINUOUS
 62
     3
100
AcDbLine
 10
-1114.985200746679
 20
-1584.013093032245
 30
0.0
 11
-1099.145232426678
 21
-1568.173124712245
 31
0.0
  0
LINE
  5
36F
330
1F
100
AcDbEntity
  8
LAYER0048
  6
CONTINUOUS
 62
     3
100
AcDbLine
 10
-1179.072095178679
 20
-1648.099987464245
 30
0.0
 11
-1155.241473793201
 21
-1624.269366078768
 31
0.0
  0
LINE
  5
370
330
1F
100
AcDbEntity
  8
LAYER0048
  6
CONTINUOUS
 62
     3
100
AcDbLine
 10
-1112.496184876902
 20
-1584.013093032245
 30
0.0
 11
-1096.656216556901
 21
-1568.173124712245
 31
0.0
  0
LINE
  5
371
330
1F
100
AcDbEntity
  8
LAYER0048
  6
CONTINUOUS
 62
     3
100
AcDbLine
 10
-1176.583079308902
 20
-1648.099987464245
 30
0.0
 11
-1155.774307482184
 21
-1627.291215637528
 31
0.0
  0
LINE
  5
372
330
1F
100
AcDbEntity
  8
LAYER0048
  6
CONTINUOUS
 62
     3
100
AcDbLine
 10
-1110.007169007126
 20
-1584.013093032245
 30
0.0
 11
-1094.167200687125
 21
-1568.173124712245
 31
0.0
  0
LINE
  5
373
330
1F
100
AcDbEntity
  8
LAYER0048
  6
CONTINUOUS
 62
     3
100
AcDbLine
 10
-1174.094063439125
 20
-1648.099987464245
 30
0.0
 11
-1156.307141171168
 21
-1630.313065196287
 31
0.0
  0
LINE
  5
374
330
1F
100
AcDbEntity
  8
LAYER0048
  6
CONTINUOUS
 62
     3
100
AcDbLine
 10
-1107.518153137349
 20
-1584.013093032245
 30
0.0
 11
-1091.678184817348
 21
-1568.173124712245
 31
0.0
  0
LINE
  5
375
330
1F
100
AcDbEntity
  8
LAYER0048
  6
CONTINUOUS
 62
     3
100
AcDbLine
 10
-1138.504737510536
 20
-1614.999677405432
 30
0.0
 11
-1138.278993418949
 21
-1614.773933313846
 31
0.0
  0
LINE
  5
376
330
1F
100
AcDbEntity
  8
LAYER0048
  6
CONTINUOUS
 62
     3
100
AcDbLine
 10
-1171.605047569349
 20
-1648.099987464245
 30
0.0
 11
-1156.839974860151
 21
-1633.334914755047
 31
0.0
  0
LINE
  5
377
330
1F
100
AcDbEntity
  8
LAYER0048
  6
CONTINUOUS
 62
     3
100
AcDbLine
 10
-1105.029137267572
 20
-1584.013093032245
 30
0.0
 11
-1089.189168947571
 21
-1568.173124712245
 31
0.0
  0
LINE
  5
378
330
1F
100
AcDbEntity
  8
LAYER0048
  6
CONTINUOUS
 62
     3
100
AcDbLine
 10
-1139.037571733059
 20
-1618.021527497733
 30
0.0
 11
-1135.789977549173
 21
-1614.773933313846
 31
0.0
  0
LINE
  5
379
330
1F
100
AcDbEntity
  8
LAYER0048
  6
CONTINUOUS
 62
     3
100
AcDbLine
 10
-1169.116031699572
 20
-1648.099987464245
 30
0.0
 11
-1157.372808549134
 21
-1636.356764313807
 31
0.0
  0
LINE
  5
37A
330
1F
100
AcDbEntity
  8
LAYER0048
  6
CONTINUOUS
 62
     3
100
AcDbLine
 10
-1102.540121397796
 20
-1584.013093032245
 30
0.0
 11
-1086.700153077795
 21
-1568.173124712245
 31
0.0
  0
LINE
  5
37B
330
1F
100
AcDbEntity
  8
LAYER0048
  6
CONTINUOUS
 62
     3
100
AcDbLine
 10
-1139.570405955583
 20
-1621.043377590032
 30
0.0
 11
-1133.300961679396
 21
-1614.773933313846
 31
0.0
  0
LINE
  5
37C
330
1F
100
AcDbEntity
  8
LAYER0048
  6
CONTINUOUS
 62
     3
100
AcDbLine
 10
-1166.627015829795
 20
-1648.099987464245
 30
0.0
 11
-1157.905642238117
 21
-1639.378613872567
 31
0.0
  0
LINE
  5
37D
330
1F
100
AcDbEntity
  8
LAYER0048
  6
CONTINUOUS
 62
     3
100
AcDbLine
 10
-1100.051105528019
 20
-1584.013093032245
 30
0.0
 11
-1084.211137208018
 21
-1568.173124712245
 31
0.0
  0
LINE
  5
37E
330
1F
100
AcDbEntity
  8
LAYER0048
  6
CONTINUOUS
 62
     3
100
AcDbLine
 10
-1140.103240178106
 20
-1624.065227682332
 30
0.0
 11
-1130.811945809619
 21
-1614.773933313846
 31
0.0
  0
LINE
  5
37F
330
1F
100
AcDbEntity
  8
LAYER0048
  6
CONTINUOUS
 62
     3
100
AcDbLine
 10
-1164.137999960019
 20
-1648.099987464245
 30
0.0
 11
-1158.4384759271
 21
-1642.400463431327
 31
0.0
  0
LINE
  5
380
330
1F
100
AcDbEntity
  8
LAYER0048
  6
CONTINUOUS
 62
     3
100
AcDbLine
 10
-1097.562089658243
 20
-1584.013093032245
 30
0.0
 11
-1081.722121338242
 21
-1568.173124712245
 31
0.0
  0
LINE
  5
381
330
1F
100
AcDbEntity
  8
LAYER0048
  6
CONTINUOUS
 62
     3
100
AcDbLine
 10
-1140.636074400629
 20
-1627.087077774632
 30
0.0
 11
-1128.320676514875
 21
-1614.771679888879
 31
0.0
  0
LINE
  5
382
330
1F
100
AcDbEntity
  8
LAYER0048
  6
CONTINUOUS
 62
     3
100
AcDbLine
 10
-1161.648984090242
 20
-1648.099987464245
 30
0.0
 11
-1158.971309616084
 21
-1645.422312990087
 31
0.0
  0
LINE
  5
383
330
1F
100
AcDbEntity
  8
LAYER0048
  6
CONTINUOUS
 62
     3
100
AcDbLine
 10
-1096.893271657838
 20
-1585.833290901617
 30
0.0
 11
-1079.233105468465
 21
-1568.173124712245
 31
0.0
  0
LINE
  5
384
330
1F
100
AcDbEntity
  8
LAYER0048
  6
CONTINUOUS
 62
     3
100
AcDbLine
 10
-1141.168908623152
 20
-1630.108927866932
 30
0.0
 11
-1125.702234135052
 21
-1614.642253378831
 31
0.0
  0
LINE
  5
385
330
1F
100
AcDbEntity
  8
LAYER0048
  6
CONTINUOUS
 62
     3
100
AcDbLine
 10
-1097.428959806145
 20
-1588.857994919702
 30
0.0
 11
-1076.744089598689
 21
-1568.173124712245
 31
0.0
  0
LINE
  5
386
330
1F
100
AcDbEntity
  8
LAYER0048
  6
CONTINUOUS
 62
     3
100
AcDbLine
 10
-1139.184866520289
 20
-1630.613901633846
 30
0.0
 11
-1122.814895194182
 21
-1614.243930307738
 31
0.0
  0
LINE
  5
387
330
1F
100
AcDbEntity
  8
LAYER0048
  6
CONTINUOUS
 62
     3
100
AcDbLine
 10
-1098.217963848774
 20
-1592.136014832107
 30
0.0
 11
-1074.255073728912
 21
-1568.173124712245
 31
0.0
  0
LINE
  5
388
330
1F
100
AcDbEntity
  8
LAYER0048
  6
CONTINUOUS
 62
     3
100
AcDbLine
 10
-1136.695850650512
 20
-1630.613901633846
 30
0.0
 11
-1119.536875281777
 21
-1613.45492626511
 31
0.0
  0
LINE
  5
389
330
1F
100
AcDbEntity
  8
LAYER0048
  6
CONTINUOUS
 62
     3
100
AcDbLine
 10
-1099.692683720487
 20
-1596.099750573597
 30
0.0
 11
-1071.766057859135
 21
-1568.173124712245
 31
0.0
  0
LINE
  5
38A
330
1F
100
AcDbEntity
  8
LAYER0048
  6
CONTINUOUS
 62
     3
100
AcDbLine
 10
-1134.206834780736
 20
-1630.613901633846
 30
0.0
 11
-1115.573139540287
 21
-1611.980206393396
 31
0.0
  0
LINE
  5
38B
330
1F
100
AcDbEntity
  8
LAYER0048
  6
CONTINUOUS
 62
     3
100
AcDbLine
 10
-1103.326964262203
 20
-1602.223046985089
 30
0.0
 11
-1069.277041989359
 21
-1568.173124712245
 31
0.0
  0
LINE
  5
38C
330
1F
100
AcDbEntity
  8
LAYER0048
  6
CONTINUOUS
 62
     3
100
AcDbLine
 10
-1131.717818910959
 20
-1630.613901633846
 30
0.0
 11
-1109.449843128795
 21
-1608.345925851681
 31
0.0
  0
LINE
  5
38D
330
1F
100
AcDbEntity
  8
LAYER0048
  6
CONTINUOUS
 62
     3
100
AcDbLine
 10
-1129.228803041182
 20
-1630.613901633846
 30
0.0
 11
-1066.788026119582
 21
-1568.173124712245
 31
0.0
  0
LINE
  5
38E
330
1F
100
AcDbEntity
  8
LAYER0048
  6
CONTINUOUS
 62
     3
100
AcDbLine
 10
-1126.739787171406
 20
-1630.613901633846
 30
0.0
 11
-1065.019432901954
 21
-1568.893547364395
 31
0.0
  0
LINE
  5
38F
330
1F
100
AcDbEntity
  8
LAYER0048
  6
CONTINUOUS
 62
     3
100
AcDbLine
 10
-1124.250771301629
 20
-1630.613901633846
 30
0.0
 11
-1065.552262193708
 21
-1571.915392525925
 31
0.0
  0
LINE
  5
390
330
1F
100
AcDbEntity
  8
LAYER0048
  6
CONTINUOUS
 62
     3
100
AcDbLine
 10
-1121.761755431853
 20
-1630.613901633846
 30
0.0
 11
-1066.08509148546
 21
-1574.937237687453
 31
0.0
  0
LINE
  5
391
330
1F
100
AcDbEntity
  8
LAYER0048
  6
CONTINUOUS
 62
     3
100
AcDbLine
 10
-1119.272739562076
 20
-1630.613901633846
 30
0.0
 11
-1066.617920777213
 21
-1577.959082848983
 31
0.0
  0
LINE
  5
392
330
1F
100
AcDbEntity
  8
LAYER0048
  6
CONTINUOUS
 62
     3
100
AcDbLine
 10
-1116.7837236923
 20
-1630.613901633846
 30
0.0
 11
-1067.150750068966
 21
-1580.980928010513
 31
0.0
  0
LINE
  5
393
330
1F
100
AcDbEntity
  8
LAYER0048
  6
CONTINUOUS
 62
     3
100
AcDbLine
 10
-1114.294707822523
 20
-1630.613901633846
 30
0.0
 11
-1067.683579360719
 21
-1584.002773172042
 31
0.0
  0
LINE
  5
394
330
1F
100
AcDbEntity
  8
LAYER0048
  6
CONTINUOUS
 62
     3
100
AcDbLine
 10
-1111.805691952746
 20
-1630.613901633846
 30
0.0
 11
-1068.216408652472
 21
-1587.024618333571
 31
0.0
  0
LINE
  5
395
330
1F
100
AcDbEntity
  8
LAYER0048
  6
CONTINUOUS
 62
     3
100
AcDbLine
 10
-1109.31667608297
 20
-1630.613901633846
 30
0.0
 11
-1068.749237944225
 21
-1590.046463495101
 31
0.0
  0
LINE
  5
396
330
1F
100
AcDbEntity
  8
LAYER0048
  6
CONTINUOUS
 62
     3
100
AcDbLine
 10
-1106.81336760273
 20
-1630.599609023383
 30
0.0
 11
-1069.282067235978
 21
-1593.068308656631
 31
0.0
  0
LINE
  5
397
330
1F
100
AcDbEntity
  8
LAYER0048
  6
CONTINUOUS
 62
     3
100
AcDbLine
 10
-1104.162630396765
 20
-1630.437887687194
 30
0.0
 11
-1069.81489652773
 21
-1596.09015381816
 31
0.0
  0
LINE
  5
398
330
1F
100
AcDbEntity
  8
LAYER0048
  6
CONTINUOUS
 62
     3
100
AcDbLine
 10
-1101.286539024597
 20
-1630.050812184803
 30
0.0
 11
-1070.347725819483
 21
-1599.111998979689
 31
0.0
  0
LINE
  5
399
330
1F
100
AcDbEntity
  8
LAYER0048
  6
CONTINUOUS
 62
     3
100
AcDbLine
 10
-1098.101166529181
 20
-1629.354455559163
 30
0.0
 11
-1071.04506030192
 21
-1602.298349331903
 31
0.0
  0
LINE
  5
39A
330
1F
100
AcDbEntity
  8
LAYER0048
  6
CONTINUOUS
 62
     3
100
AcDbLine
 10
-1094.447361812627
 20
-1628.189666712386
 30
0.0
 11
-1072.209849148697
 21
-1605.952154048457
 31
0.0
  0
LINE
  5
39B
330
1F
100
AcDbEntity
  8
LAYER0048
  6
CONTINUOUS
 62
     3
100
AcDbLine
 10
-1089.907282064017
 20
-1626.138602833553
 30
0.0
 11
-1074.260913027531
 21
-1610.492233797067
 31
0.0
  0
LINE
  5
39C
330
1F
100
AcDbEntity
  8
LAYER0048
  6
CONTINUOUS
 62
     3
100
AcDbLine
 10
-1315.600391910898
 20
-1592.974062223663
 30
0.0
 11
-1315.28642803148
 21
-1592.660098344245
 31
0.0
  0
LINE
  5
39D
330
1F
100
AcDbEntity
  8
LAYER0048
  6
CONTINUOUS
 62
     3
100
AcDbLine
 10
-1316.206855291194
 20
-1596.069541473734
 30
0.0
 11
-1312.797412161703
 21
-1592.660098344245
 31
0.0
  0
LINE
  5
39E
330
1F
100
AcDbEntity
  8
LAYER0048
  6
CONTINUOUS
 62
     3
100
AcDbLine
 10
-1316.813318671488
 20
-1599.165020723806
 30
0.0
 11
-1310.308396291927
 21
-1592.660098344245
 31
0.0
  0
LINE
  5
39F
330
1F
100
AcDbEntity
  8
LAYER0048
  6
CONTINUOUS
 62
     3
100
AcDbLine
 10
-1317.419782051784
 20
-1602.260499973878
 30
0.0
 11
-1307.81938042215
 21
-1592.660098344245
 31
0.0
  0
LINE
  5
3A0
330
1F
100
AcDbEntity
  8
LAYER0048
  6
CONTINUOUS
 62
     3
100
AcDbLine
 10
-1318.026245432078
 20
-1605.355979223949
 30
0.0
 11
-1305.330364552374
 21
-1592.660098344245
 31
0.0
  0
LINE
  5
3A1
330
1F
100
AcDbEntity
  8
LAYER0048
  6
CONTINUOUS
 62
     3
100
AcDbLine
 10
-1317.097320170597
 20
-1606.916069832246
 30
0.0
 11
-1302.841348682597
 21
-1592.660098344245
 31
0.0
  0
LINE
  5
3A2
330
1F
100
AcDbEntity
  8
LAYER0048
  6
CONTINUOUS
 62
     3
100
AcDbLine
 10
-1314.608304300821
 20
-1606.916069832246
 30
0.0
 11
-1300.35233281282
 21
-1592.660098344245
 31
0.0
  0
LINE
  5
3A3
330
1F
100
AcDbEntity
  8
LAYER0048
  6
CONTINUOUS
 62
     3
100
AcDbLine
 10
-1312.119288431044
 20
-1606.916069832246
 30
0.0
 11
-1297.863316943044
 21
-1592.660098344245
 31
0.0
  0
LINE
  5
3A4
330
1F
100
AcDbEntity
  8
LAYER0048
  6
CONTINUOUS
 62
     3
100
AcDbLine
 10
-1309.630272561268
 20
-1606.916069832246
 30
0.0
 11
-1295.374301073267
 21
-1592.660098344245
 31
0.0
  0
LINE
  5
3A5
330
1F
100
AcDbEntity
  8
LAYER0048
  6
CONTINUOUS
 62
     3
100
AcDbLine
 10
-1307.141256691491
 20
-1606.916069832246
 30
0.0
 11
-1292.88528520349
 21
-1592.660098344245
 31
0.0
  0
LINE
  5
3A6
330
1F
100
AcDbEntity
  8
LAYER0048
  6
CONTINUOUS
 62
     3
100
AcDbLine
 10
-1304.652240821714
 20
-1606.916069832246
 30
0.0
 11
-1290.396269333714
 21
-1592.660098344245
 31
0.0
  0
LINE
  5
3A7
330
1F
100
AcDbEntity
  8
LAYER0048
  6
CONTINUOUS
 62
     3
100
AcDbLine
 10
-1302.163224951938
 20
-1606.916069832246
 30
0.0
 11
-1287.907253463937
 21
-1592.660098344245
 31
0.0
  0
LINE
  5
3A8
330
1F
100
AcDbEntity
  8
LAYER0048
  6
CONTINUOUS
 62
     3
100
AcDbLine
 10
-1299.674209082161
 20
-1606.916069832246
 30
0.0
 11
-1285.418237594161
 21
-1592.660098344245
 31
0.0
  0
LINE
  5
3A9
330
1F
100
AcDbEntity
  8
LAYER0048
  6
CONTINUOUS
 62
     3
100
AcDbLine
 10
-1297.185193212385
 20
-1606.916069832246
 30
0.0
 11
-1282.929221724384
 21
-1592.660098344245
 31
0.0
  0
LINE
  5
3AA
330
1F
100
AcDbEntity
  8
LAYER0048
  6
CONTINUOUS
 62
     3
100
AcDbLine
 10
-1294.696177342608
 20
-1606.916069832246
 30
0.0
 11
-1280.43928130673
 21
-1592.659173796367
 31
0.0
  0
LINE
  5
3AB
330
1F
100
AcDbEntity
  8
LAYER0048
  6
CONTINUOUS
 62
     3
100
AcDbLine
 10
-1292.207161472831
 20
-1606.916069832246
 30
0.0
 11
-1277.855613851954
 21
-1592.564522211368
 31
0.0
  0
LINE
  5
3AC
330
1F
100
AcDbEntity
  8
LAYER0048
  6
CONTINUOUS
 62
     3
100
AcDbLine
 10
-1237.545151210736
 20
-1554.743075439926
 30
0.0
 11
-1235.862253315054
 21
-1553.060177544246
 31
0.0
  0
LINE
  5
3AD
330
1F
100
AcDbEntity
  8
LAYER0048
  6
CONTINUOUS
 62
     3
100
AcDbLine
 10
-1289.718145603055
 20
-1606.916069832246
 30
0.0
 11
-1275.063701140956
 21
-1592.261625370147
 31
0.0
  0
LINE
  5
3AE
330
1F
100
AcDbEntity
  8
LAYER0048
  6
CONTINUOUS
 62
     3
100
AcDbLine
 10
-1240.385204031391
 20
-1560.072144130359
 30
0.0
 11
-1233.373237445277
 21
-1553.060177544246
 31
0.0
  0
LINE
  5
3AF
330
1F
100
AcDbEntity
  8
LAYER0048
  6
CONTINUOUS
 62
     3
100
AcDbLine
 10
-1287.229129733278
 20
-1606.916069832246
 30
0.0
 11
-1272.000325307188
 21
-1591.687265406156
 31
0.0
  0
LINE
  5
3B0
330
1F
100
AcDbEntity
  8
LAYER0048
  6
CONTINUOUS
 62
     3
100
AcDbLine
 10
-1243.225256852046
 20
-1565.401212820791
 30
0.0
 11
-1230.884221575501
 21
-1553.060177544246
 31
0.0
  0
LINE
  5
3B1
330
1F
100
AcDbEntity
  8
LAYER0048
  6
CONTINUOUS
 62
     3
100
AcDbLine
 10
-1284.740113863501
 20
-1606.916069832246
 30
0.0
 11
-1268.535941789552
 21
-1590.711897758296
 31
0.0
  0
LINE
  5
3B2
330
1F
100
AcDbEntity
  8
LAYER0048
  6
CONTINUOUS
 62
     3
100
AcDbLine
 10
-1246.065309672702
 20
-1570.730281511223
 30
0.0
 11
-1228.395205705724
 21
-1553.060177544246
 31
0.0
  0
LINE
  5
3B3
330
1F
100
AcDbEntity
  8
LAYER0048
  6
CONTINUOUS
 62
     3
100
AcDbLine
 10
-1282.251097993725
 20
-1606.916069832246
 30
0.0
 11
-1264.391681562961
 21
-1589.056653401482
 31
0.0
  0
LINE
  5
3B4
330
1F
100
AcDbEntity
  8
LAYER0048
  6
CONTINUOUS
 62
     3
100
AcDbLine
 10
-1249.676022435465
 20
-1576.830010143763
 30
0.0
 11
-1225.906189835947
 21
-1553.060177544246
 31
0.0
  0
LINE
  5
3B5
330
1F
100
AcDbEntity
  8
LAYER0048
  6
CONTINUOUS
 62
     3
100
AcDbLine
 10
-1279.762082123948
 20
-1606.916069832246
 30
0.0
 11
-1258.35938823252
 21
-1585.513375940818
 31
0.0
  0
LINE
  5
3B6
330
1F
100
AcDbEntity
  8
LAYER0048
  6
CONTINUOUS
 62
     3
100
AcDbLine
 10
-1279.84332348274
 20
-1609.486327060815
 30
0.0
 11
-1223.417173966171
 21
-1553.060177544246
 31
0.0
  0
LINE
  5
3B7
330
1F
100
AcDbEntity
  8
LAYER0048
  6
CONTINUOUS
 62
     3
100
AcDbLine
 10
-1280.376157705263
 20
-1612.508177153114
 30
0.0
 11
-1220.928158096394
 21
-1553.060177544246
 31
0.0
  0
LINE
  5
3B8
330
1F
100
AcDbEntity
  8
LAYER0048
  6
CONTINUOUS
 62
     3
100
AcDbLine
 10
-1280.908991927787
 20
-1615.530027245414
 30
0.0
 11
-1218.439142226618
 21
-1553.060177544246
 31
0.0
  0
LINE
  5
3B9
330
1F
100
AcDbEntity
  8
LAYER0048
  6
CONTINUOUS
 62
     3
100
AcDbLine
 10
-1281.44182615031
 20
-1618.551877337715
 30
0.0
 11
-1215.950126356841
 21
-1553.060177544246
 31
0.0
  0
LINE
  5
3BA
330
1F
100
AcDbEntity
  8
LAYER0048
  6
CONTINUOUS
 62
     3
100
AcDbLine
 10
-1281.974660372834
 20
-1621.573727430015
 30
0.0
 11
-1213.461110487064
 21
-1553.060177544246
 31
0.0
  0
LINE
  5
3BB
330
1F
100
AcDbEntity
  8
LAYER0048
  6
CONTINUOUS
 62
     3
100
AcDbLine
 10
-1282.507494595357
 20
-1624.595577522315
 30
0.0
 11
-1210.972094617288
 21
-1553.060177544246
 31
0.0
  0
LINE
  5
3BC
330
1F
100
AcDbEntity
  8
LAYER0048
  6
CONTINUOUS
 62
     3
100
AcDbLine
 10
-1283.04032881788
 20
-1627.617427614615
 30
0.0
 11
-1208.483078747511
 21
-1553.060177544246
 31
0.0
  0
LINE
  5
3BD
330
1F
100
AcDbEntity
  8
LAYER0048
  6
CONTINUOUS
 62
     3
100
AcDbLine
 10
-1283.573163040404
 20
-1630.639277706915
 30
0.0
 11
-1205.994062877735
 21
-1553.060177544246
 31
0.0
  0
LINE
  5
3BE
330
1F
100
AcDbEntity
  8
LAYER0048
  6
CONTINUOUS
 62
     3
100
AcDbLine
 10
-1284.105997262927
 20
-1633.661127799215
 30
0.0
 11
-1203.505047007958
 21
-1553.060177544246
 31
0.0
  0
LINE
  5
3BF
330
1F
100
AcDbEntity
  8
LAYER0048
  6
CONTINUOUS
 62
     3
100
AcDbLine
 10
-1284.638831485451
 20
-1636.682977891515
 30
0.0
 11
-1201.016031138181
 21
-1553.060177544246
 31
0.0
  0
LINE
  5
3C0
330
1F
100
AcDbEntity
  8
LAYER0048
  6
CONTINUOUS
 62
     3
100
AcDbLine
 10
-1285.171665707975
 20
-1639.704827983815
 30
0.0
 11
-1198.527015268405
 21
-1553.060177544246
 31
0.0
  0
LINE
  5
3C1
330
1F
100
AcDbEntity
  8
LAYER0048
  6
CONTINUOUS
 62
     3
100
AcDbLine
 10
-1285.704499930498
 20
-1642.726678076115
 30
0.0
 11
-1196.037999398628
 21
-1553.060177544246
 31
0.0
  0
LINE
  5
3C2
330
1F
100
AcDbEntity
  8
LAYER0048
  6
CONTINUOUS
 62
     3
100
AcDbLine
 10
-1247.404875816852
 20
-1606.916069832246
 30
0.0
 11
-1193.548983528852
 21
-1553.060177544246
 31
0.0
  0
LINE
  5
3C3
330
1F
100
AcDbEntity
  8
LAYER0048
  6
CONTINUOUS
 62
     3
100
AcDbLine
 10
-1286.237334153021
 20
-1645.748528168415
 30
0.0
 11
-1247.775538620866
 21
-1607.286732636259
 31
0.0
  0
LINE
  5
3C4
330
1F
100
AcDbEntity
  8
LAYER0048
  6
CONTINUOUS
 62
     3
100
AcDbLine
 10
-1244.844229612839
 20
-1606.844439498009
 30
0.0
 11
-1193.093998997043
 21
-1555.094208882213
 31
0.0
  0
LINE
  5
3C5
330
1F
100
AcDbEntity
  8
LAYER0048
  6
CONTINUOUS
 62
     3
100
AcDbLine
 10
-1286.099777579074
 20
-1648.099987464245
 30
0.0
 11
-1248.308372843389
 21
-1610.308582728559
 31
0.0
  0
LINE
  5
3C6
330
1F
100
AcDbEntity
  8
LAYER0048
  6
CONTINUOUS
 62
     3
100
AcDbLine
 10
-1242.041928175795
 20
-1606.531153930742
 30
0.0
 11
-1199.773572282632
 21
-1564.26279803758
 31
0.0
  0
LINE
  5
3C7
330
1F
100
AcDbEntity
  8
LAYER0048
  6
CONTINUOUS
 62
     3
100
AcDbLine
 10
-1283.610761709298
 20
-1648.099987464245
 30
0.0
 11
-1248.841207065912
 21
-1613.330432820859
 31
0.0
  0
LINE
  5
3C8
330
1F
100
AcDbEntity
  8
LAYER0048
  6
CONTINUOUS
 62
     3
100
AcDbLine
 10
-1238.891222547628
 20
-1605.869464172352
 30
0.0
 11
-1206.453145568222
 21
-1573.431387192946
 31
0.0
  0
LINE
  5
3C9
330
1F
100
AcDbEntity
  8
LAYER0048
  6
CONTINUOUS
 62
     3
100
AcDbLine
 10
-1281.121745839521
 20
-1648.099987464245
 30
0.0
 11
-1249.374041288435
 21
-1616.352282913159
 31
0.0
  0
LINE
  5
3CA
330
1F
100
AcDbEntity
  8
LAYER0048
  6
CONTINUOUS
 62
     3
100
AcDbLine
 10
-1235.171890728052
 20
-1604.639148222552
 30
0.0
 11
-1213.132718853811
 21
-1582.599976348312
 31
0.0
  0
LINE
  5
3CB
330
1F
100
AcDbEntity
  8
LAYER0048
  6
CONTINUOUS
 62
     3
100
AcDbLine
 10
-1278.632729969744
 20
-1648.099987464245
 30
0.0
 11
-1249.906875510958
 21
-1619.374133005459
 31
0.0
  0
LINE
  5
3CC
330
1F
100
AcDbEntity
  8
LAYER0048
  6
CONTINUOUS
 62
     3
100
AcDbLine
 10
-1230.093753156894
 20
-1602.050026521172
 30
0.0
 11
-1219.812292139401
 21
-1591.768565503678
 31
0.0
  0
LINE
  5
3CD
330
1F
100
AcDbEntity
  8
LAYER0048
  6
CONTINUOUS
 62
     3
100
AcDbLine
 10
-1276.143714099968
 20
-1648.099987464245
 30
0.0
 11
-1250.439709733482
 21
-1622.395983097759
 31
0.0
  0
LINE
  5
3CE
330
1F
100
AcDbEntity
  8
LAYER0048
  6
CONTINUOUS
 62
     3
100
AcDbLine
 10
-1273.654698230191
 20
-1648.099987464245
 30
0.0
 11
-1250.972543956005
 21
-1625.417833190059
 31
0.0
  0
LINE
  5
3CF
330
1F
100
AcDbEntity
  8
LAYER0048
  6
CONTINUOUS
 62
     3
100
AcDbLine
 10
-1271.165682360415
 20
-1648.099987464245
 30
0.0
 11
-1251.505378178528
 21
-1628.439683282359
 31
0.0
  0
LINE
  5
3D0
330
1F
100
AcDbEntity
  8
LAYER0048
  6
CONTINUOUS
 62
     3
100
AcDbLine
 10
-1268.676666490638
 20
-1648.099987464245
 30
0.0
 11
-1252.038212401052
 21
-1631.461533374659
 31
0.0
  0
LINE
  5
3D1
330
1F
100
AcDbEntity
  8
LAYER0048
  6
CONTINUOUS
 62
     3
100
AcDbLine
 10
-1266.187650620862
 20
-1648.099987464245
 30
0.0
 11
-1252.571046623575
 21
-1634.483383466959
 31
0.0
  0
LINE
  5
3D2
330
1F
100
AcDbEntity
  8
LAYER0048
  6
CONTINUOUS
 62
     3
100
AcDbLine
 10
-1263.698634751085
 20
-1648.099987464245
 30
0.0
 11
-1253.103880846098
 21
-1637.505233559259
 31
0.0
  0
LINE
  5
3D3
330
1F
100
AcDbEntity
  8
LAYER0048
  6
CONTINUOUS
 62
     3
100
AcDbLine
 10
-1261.209618881308
 20
-1648.099987464245
 30
0.0
 11
-1253.636715068621
 21
-1640.527083651559
 31
0.0
  0
LINE
  5
3D4
330
1F
100
AcDbEntity
  8
LAYER0048
  6
CONTINUOUS
 62
     3
100
AcDbLine
 10
-1258.720603011531
 20
-1648.099987464245
 30
0.0
 11
-1254.169549291145
 21
-1643.548933743859
 31
0.0
  0
LINE
  5
3D5
330
1F
100
AcDbEntity
  8
LAYER0048
  6
CONTINUOUS
 62
     3
100
AcDbLine
 10
-1256.231587141755
 20
-1648.099987464245
 30
0.0
 11
-1254.702383513668
 21
-1646.570783836159
 31
0.0
  0
LINE
  5
3D6
330
1F
100
AcDbEntity
  8
LAYER0048
  6
CONTINUOUS
 62
     3
100
AcDbLine
 10
-1292.422762911398
 20
-1554.435290396173
 30
0.0
 11
-1291.047650059471
 21
-1553.060177544246
 31
0.0
  0
LINE
  5
3D7
330
1F
100
AcDbEntity
  8
LAYER0048
  6
CONTINUOUS
 62
     3
100
AcDbLine
 10
-1292.955597133921
 20
-1557.457140488472
 30
0.0
 11
-1288.558634189695
 21
-1553.060177544246
 31
0.0
  0
LINE
  5
3D8
330
1F
100
AcDbEntity
  8
LAYER0048
  6
CONTINUOUS
 62
     3
100
AcDbLine
 10
-1293.488431356444
 20
-1560.478990580772
 30
0.0
 11
-1286.069618319918
 21
-1553.060177544246
 31
0.0
  0
LINE
  5
3D9
330
1F
100
AcDbEntity
  8
LAYER0048
  6
CONTINUOUS
 62
     3
100
AcDbLine
 10
-1294.021265578968
 20
-1563.500840673072
 30
0.0
 11
-1286.210209287951
 21
-1555.689784382056
 31
0.0
  0
LINE
  5
3DA
330
1F
100
AcDbEntity
  8
LAYER0048
  6
CONTINUOUS
 62
     3
100
AcDbLine
 10
-1294.554099801491
 20
-1566.522690765372
 30
0.0
 11
-1286.743043510475
 21
-1558.711634474356
 31
0.0
  0
LINE
  5
3DB
330
1F
100
AcDbEntity
  8
LAYER0048
  6
CONTINUOUS
 62
     3
100
AcDbLine
 10
-1294.442539030588
 20
-1568.900145864246
 30
0.0
 11
-1287.275877732998
 21
-1561.733484566656
 31
0.0
  0
LINE
  5
3DC
330
1F
100
AcDbEntity
  8
LAYER0048
  6
CONTINUOUS
 62
     3
100
AcDbLine
 10
-1291.953523160811
 20
-1568.900145864246
 30
0.0
 11
-1287.808711955521
 21
-1564.755334658956
 31
0.0
  0
LINE
  5
3DD
330
1F
100
AcDbEntity
  8
LAYER0048
  6
CONTINUOUS
 62
     3
100
AcDbLine
 10
-1289.464507291034
 20
-1568.900145864246
 30
0.0
 11
-1288.341546178044
 21
-1567.777184751255
 31
0.0
  0
LINE
  5
3DE
330
1F
100
AcDbEntity
  8
LAYER0048
  6
CONTINUOUS
 62
     3
100
AcDbLine
 10
-1308.82391756017
 20
-1554.871365696062
 30
0.0
 11
-1307.012729408355
 21
-1553.060177544246
 31
0.0
  0
LINE
  5
3DF
330
1F
100
AcDbEntity
  8
LAYER0048
  6
CONTINUOUS
 62
     3
100
AcDbLine
 10
-1309.356751782693
 20
-1557.893215788361
 30
0.0
 11
-1304.523713538578
 21
-1553.060177544246
 31
0.0
  0
LINE
  5
3E0
330
1F
100
AcDbEntity
  8
LAYER0048
  6
CONTINUOUS
 62
     3
100
AcDbLine
 10
-1309.889586005216
 20
-1560.915065880661
 30
0.0
 11
-1302.078529714199
 21
-1553.104009589644
 31
0.0
  0
LINE
  5
3E1
330
1F
100
AcDbEntity
  8
LAYER0048
  6
CONTINUOUS
 62
     3
100
AcDbLine
 10
-1310.42242022774
 20
-1563.936915972961
 30
0.0
 11
-1302.611363936722
 21
-1556.125859681944
 31
0.0
  0
LINE
  5
3E2
330
1F
100
AcDbEntity
  8
LAYER0048
  6
CONTINUOUS
 62
     3
100
AcDbLine
 10
-1310.955254450263
 20
-1566.958766065261
 30
0.0
 11
-1303.144198159246
 21
-1559.147709774243
 31
0.0
  0
LINE
  5
3E3
330
1F
100
AcDbEntity
  8
LAYER0048
  6
CONTINUOUS
 62
     3
100
AcDbLine
 10
-1310.407618379471
 20
-1568.900145864246
 30
0.0
 11
-1303.677032381769
 21
-1562.169559866543
 31
0.0
  0
LINE
  5
3E4
330
1F
100
AcDbEntity
  8
LAYER0048
  6
CONTINUOUS
 62
     3
100
AcDbLine
 10
-1307.918602509694
 20
-1568.900145864246
 30
0.0
 11
-1304.209866604292
 21
-1565.191409958843
 31
0.0
  0
LINE
  5
3E5
330
1F
100
AcDbEntity
  8
LAYER0048
  6
CONTINUOUS
 62
     3
100
AcDbLine
 10
-1305.429586639918
 20
-1568.900145864246
 30
0.0
 11
-1304.742700826815
 21
-1568.213260051143
 31
0.0
  0
LINE
  5
3E6
330
1F
100
AcDbEntity
  8
LAYER0048
  6
CONTINUOUS
 62
     3
100
AcDbLine
 10
-1403.867725843238
 20
-1554.301586797393
 30
0.0
 11
-1402.626316590088
 21
-1553.060177544246
 31
0.0
  0
LINE
  5
3E7
330
1F
100
AcDbEntity
  8
LAYER0048
  6
CONTINUOUS
 62
     3
100
AcDbLine
 10
-1403.96152559992
 20
-1556.884402423852
 30
0.0
 11
-1400.137300720312
 21
-1553.060177544246
 31
0.0
  0
LINE
  5
3E8
330
1F
100
AcDbEntity
  8
LAYER0048
  6
CONTINUOUS
 62
     3
100
AcDbLine
 10
-1404.308156696604
 20
-1559.720049390312
 30
0.0
 11
-1397.648284850535
 21
-1553.060177544246
 31
0.0
  0
LINE
  5
3E9
330
1F
100
AcDbEntity
  8
LAYER0048
  6
CONTINUOUS
 62
     3
100
AcDbLine
 10
-1405.018473407285
 20
-1562.91938197077
 30
0.0
 11
-1395.159268980758
 21
-1553.060177544246
 31
0.0
  0
LINE
  5
3EA
330
1F
100
AcDbEntity
  8
LAYER0048
  6
CONTINUOUS
 62
     3
100
AcDbLine
 10
-1406.339996055514
 20
-1566.729920488776
 30
0.0
 11
-1392.670253110982
 21
-1553.060177544246
 31
0.0
  0
LINE
  5
3EB
330
1F
100
AcDbEntity
  8
LAYER0048
  6
CONTINUOUS
 62
     3
100
AcDbLine
 10
-1409.25369322225
 20
-1572.132633525289
 30
0.0
 11
-1390.181237241205
 21
-1553.060177544246
 31
0.0
  0
LINE
  5
3EC
330
1F
100
AcDbEntity
  8
LAYER0048
  6
CONTINUOUS
 62
     3
100
AcDbLine
 10
-1423.716814662276
 20
-1594.062802574645
 30
0.0
 11
-1382.714189631876
 21
-1553.060177544246
 31
0.0
  0
LINE
  5
3ED
330
1F
100
AcDbEntity
  8
LAYER0048
  6
CONTINUOUS
 62
     3
100
AcDbLine
 10
-1421.2277987925
 20
-1594.062802574645
 30
0.0
 11
-1380.225173762099
 21
-1553.060177544246
 31
0.0
  0
LINE
  5
3EE
330
1F
100
AcDbEntity
  8
LAYER0048
  6
CONTINUOUS
 62
     3
100
AcDbLine
 10
-1418.738782922723
 20
-1594.062802574645
 30
0.0
 11
-1377.736157892322
 21
-1553.060177544246
 31
0.0
  0
LINE
  5
3EF
330
1F
100
AcDbEntity
  8
LAYER0048
  6
CONTINUOUS
 62
     3
100
AcDbLine
 10
-1416.249767052947
 20
-1594.062802574645
 30
0.0
 11
-1375.247142022546
 21
-1553.060177544246
 31
0.0
  0
LINE
  5
3F0
330
1F
100
AcDbEntity
  8
LAYER0048
  6
CONTINUOUS
 62
     3
100
AcDbLine
 10
-1413.760751183171
 20
-1594.062802574645
 30
0.0
 11
-1372.758126152769
 21
-1553.060177544246
 31
0.0
  0
LINE
  5
3F1
330
1F
100
AcDbEntity
  8
LAYER0048
  6
CONTINUOUS
 62
     3
100
AcDbLine
 10
-1411.202874328965
 20
-1593.993941590217
 30
0.0
 11
-1370.269110282993
 21
-1553.060177544246
 31
0.0
  0
LINE
  5
3F2
330
1F
100
AcDbEntity
  8
LAYER0048
  6
CONTINUOUS
 62
     3
100
AcDbLine
 10
-1408.429835799368
 20
-1593.709918930397
 30
0.0
 11
-1367.780094413216
 21
-1553.060177544246
 31
0.0
  0
LINE
  5
3F3
330
1F
100
AcDbEntity
  8
LAYER0048
  6
CONTINUOUS
 62
     3
100
AcDbLine
 10
-1405.358827537113
 20
-1593.127926537918
 30
0.0
 11
-1365.291078543439
 21
-1553.060177544246
 31
0.0
  0
LINE
  5
3F4
330
1F
100
AcDbEntity
  8
LAYER0048
  6
CONTINUOUS
 62
     3
100
AcDbLine
 10
-1378.642030993663
 20
-1568.900145864246
 30
0.0
 11
-1362.802062673662
 21
-1553.060177544246
 31
0.0
  0
LINE
  5
3F5
330
1F
100
AcDbEntity
  8
LAYER0048
  6
CONTINUOUS
 62
     3
100
AcDbLine
 10
-1401.840216355907
 20
-1592.098331226488
 30
0.0
 11
-1380.488247879395
 21
-1570.746362749977
 31
0.0
  0
LINE
  5
3F6
330
1F
100
AcDbEntity
  8
LAYER0048
  6
CONTINUOUS
 62
     3
100
AcDbLine
 10
-1376.153015123887
 20
-1568.900145864246
 30
0.0
 11
-1360.313046803886
 21
-1553.060177544246
 31
0.0
  0
LINE
  5
3F7
330
1F
100
AcDbEntity
  8
LAYER0048
  6
CONTINUOUS
 62
     3
100
AcDbLine
 10
-1397.480989000449
 20
-1590.228119740807
 30
0.0
 11
-1382.358459365076
 21
-1575.105590105434
 31
0.0
  0
LINE
  5
3F8
330
1F
100
AcDbEntity
  8
LAYER0048
  6
CONTINUOUS
 62
     3
100
AcDbLine
 10
-1373.66399925411
 20
-1568.900145864246
 30
0.0
 11
-1357.82403093411
 21
-1553.060177544246
 31
0.0
  0
LINE
  5
3F9
330
1F
100
AcDbEntity
  8
LAYER0048
  6
CONTINUOUS
 62
     3
100
AcDbLine
 10
-1371.174983384334
 20
-1568.900145864246
 30
0.0
 11
-1355.335015064333
 21
-1553.060177544246
 31
0.0
  0
LINE
  5
3FA
330
1F
100
AcDbEntity
  8
LAYER0048
  6
CONTINUOUS
 62
     3
100
AcDbLine
 10
-1368.685967514557
 20
-1568.900145864246
 30
0.0
 11
-1352.845999194556
 21
-1553.060177544246
 31
0.0
  0
LINE
  5
3FB
330
1F
100
AcDbEntity
  8
LAYER0048
  6
CONTINUOUS
 62
     3
100
AcDbLine
 10
-1366.19695164478
 20
-1568.900145864246
 30
0.0
 11
-1350.35698332478
 21
-1553.060177544246
 31
0.0
  0
LINE
  5
3FC
330
1F
100
AcDbEntity
  8
LAYER0048
  6
CONTINUOUS
 62
     3
100
AcDbLine
 10
-1363.707935775004
 20
-1568.900145864246
 30
0.0
 11
-1347.867967455004
 21
-1553.060177544246
 31
0.0
  0
LINE
  5
3FD
330
1F
100
AcDbEntity
  8
LAYER0048
  6
CONTINUOUS
 62
     3
100
AcDbLine
 10
-1383.04421834248
 20
-1588.236428431722
 30
0.0
 11
-1382.715897759004
 21
-1587.908107848246
 31
0.0
  0
LINE
  5
3FE
330
1F
100
AcDbEntity
  8
LAYER0048
  6
CONTINUOUS
 62
     3
100
AcDbLine
 10
-1361.218919905227
 20
-1568.900145864246
 30
0.0
 11
-1345.378951585226
 21
-1553.060177544246
 31
0.0
  0
LINE
  5
3FF
330
1F
100
AcDbEntity
  8
LAYER0048
  6
CONTINUOUS
 62
     3
100
AcDbLine
 10
-1383.577052565003
 20
-1591.258278524022
 30
0.0
 11
-1380.226881889227
 21
-1587.908107848246
 31
0.0
  0
LINE
  5
400
330
1F
100
AcDbEntity
  8
LAYER0048
  6
CONTINUOUS
 62
     3
100
AcDbLine
 10
-1358.72990403545
 20
-1568.900145864246
 30
0.0
 11
-1342.88993571545
 21
-1553.060177544246
 31
0.0
  0
LINE
  5
401
330
1F
100
AcDbEntity
  8
LAYER0048
  6
CONTINUOUS
 62
     3
100
AcDbLine
 10
-1384.109886787527
 20
-1594.280128616322
 30
0.0
 11
-1377.737866019451
 21
-1587.908107848246
 31
0.0
  0
LINE
  5
402
330
1F
100
AcDbEntity
  8
LAYER0048
  6
CONTINUOUS
 62
     3
100
AcDbLine
 10
-1356.240888165674
 20
-1568.900145864246
 30
0.0
 11
-1340.400919845674
 21
-1553.060177544246
 31
0.0
  0
LINE
  5
403
330
1F
100
AcDbEntity
  8
LAYER0048
  6
CONTINUOUS
 62
     3
100
AcDbLine
 10
-1384.64272101005
 20
-1597.301978708622
 30
0.0
 11
-1375.248850149674
 21
-1587.908107848246
 31
0.0
  0
LINE
  5
404
330
1F
100
AcDbEntity
  8
LAYER0048
  6
CONTINUOUS
 62
     3
100
AcDbLine
 10
-1353.751872295898
 20
-1568.900145864246
 30
0.0
 11
-1337.911903975897
 21
-1553.060177544246
 31
0.0
  0
LINE
  5
405
330
1F
100
AcDbEntity
  8
LAYER0048
  6
CONTINUOUS
 62
     3
100
AcDbLine
 10
-1385.175555232573
 20
-1600.323828800922
 30
0.0
 11
-1372.759834279897
 21
-1587.908107848246
 31
0.0
  0
LINE
  5
406
330
1F
100
AcDbEntity
  8
LAYER0048
  6
CONTINUOUS
 62
     3
100
AcDbLine
 10
-1353.728241746593
 20
-1571.365531184717
 30
0.0
 11
-1335.42288810612
 21
-1553.060177544246
 31
0.0
  0
LINE
  5
407
330
1F
100
AcDbEntity
  8
LAYER0048
  6
CONTINUOUS
 62
     3
100
AcDbLine
 10
-1382.94279306612
 20
-1600.580082504245
 30
0.0
 11
-1370.27081841012
 21
-1587.908107848246
 31
0.0
  0
LINE
  5
408
330
1F
100
AcDbEntity
  8
LAYER0048
  6
CONTINUOUS
 62
     3
100
AcDbLine
 10
-1354.261075969116
 20
-1574.387381277017
 30
0.0
 11
-1332.933872236344
 21
-1553.060177544246
 31
0.0
  0
LINE
  5
409
330
1F
100
AcDbEntity
  8
LAYER0048
  6
CONTINUOUS
 62
     3
100
AcDbLine
 10
-1380.453777196343
 20
-1600.580082504245
 30
0.0
 11
-1367.781802540344
 21
-1587.908107848246
 31
0.0
  0
LINE
  5
40A
330
1F
100
AcDbEntity
  8
LAYER0048
  6
CONTINUOUS
 62
     3
100
AcDbLine
 10
-1354.793910191639
 20
-1577.409231369317
 30
0.0
 11
-1330.444856366567
 21
-1553.060177544246
 31
0.0
  0
LINE
  5
40B
330
1F
100
AcDbEntity
  8
LAYER0048
  6
CONTINUOUS
 62
     3
100
AcDbLine
 10
-1377.964761326567
 20
-1600.580082504245
 30
0.0
 11
-1365.292786670568
 21
-1587.908107848246
 31
0.0
  0
LINE
  5
40C
330
1F
100
AcDbEntity
  8
LAYER0048
  6
CONTINUOUS
 62
     3
100
AcDbLine
 10
-1425.484666286566
 20
-1648.099987464245
 30
0.0
 11
-1409.644697966566
 21
-1632.260019144245
 31
0.0
  0
LINE
  5
40D
330
1F
100
AcDbEntity
  8
LAYER0048
  6
CONTINUOUS
 62
     3
100
AcDbLine
 10
-1355.326744414163
 20
-1580.431081461617
 30
0.0
 11
-1327.955840496791
 21
-1553.060177544246
 31
0.0
  0
LINE
  5
40E
330
1F
100
AcDbEntity
  8
LAYER0048
  6
CONTINUOUS
 62
     3
100
AcDbLine
 10
-1375.47574545679
 20
-1600.580082504245
 30
0.0
 11
-1362.803770800791
 21
-1587.908107848246
 31
0.0
  0
LINE
  5
40F
330
1F
100
AcDbEntity
  8
LAYER0048
  6
CONTINUOUS
 62
     3
100
AcDbLine
 10
-1422.995650416789
 20
-1648.099987464245
 30
0.0
 11
-1407.15568209679
 21
-1632.260019144245
 31
0.0
  0
LINE
  5
410
330
1F
100
AcDbEntity
  8
LAYER0048
  6
CONTINUOUS
 62
     3
100
AcDbLine
 10
-1355.859578636686
 20
-1583.452931553918
 30
0.0
 11
-1325.466824627014
 21
-1553.060177544246
 31
0.0
  0
LINE
  5
411
330
1F
100
AcDbEntity
  8
LAYER0048
  6
CONTINUOUS
 62
     3
100
AcDbLine
 10
-1372.986729587014
 20
-1600.580082504245
 30
0.0
 11
-1360.314754931014
 21
-1587.908107848246
 31
0.0
  0
LINE
  5
412
330
1F
100
AcDbEntity
  8
LAYER0048
  6
CONTINUOUS
 62
     3
100
AcDbLine
 10
-1420.506634547013
 20
-1648.099987464245
 30
0.0
 11
-1404.666666227013
 21
-1632.260019144245
 31
0.0
  0
LINE
  5
413
330
1F
100
AcDbEntity
  8
LAYER0048
  6
CONTINUOUS
 62
     3
100
AcDbLine
 10
-1356.392412859209
 20
-1586.474781646217
 30
0.0
 11
-1322.977808757238
 21
-1553.060177544246
 31
0.0
  0
LINE
  5
414
330
1F
100
AcDbEntity
  8
LAYER0048
  6
CONTINUOUS
 62
     3
100
AcDbLine
 10
-1370.497713717237
 20
-1600.580082504245
 30
0.0
 11
-1357.825739061238
 21
-1587.908107848246
 31
0.0
  0
LINE
  5
415
330
1F
100
AcDbEntity
  8
LAYER0048
  6
CONTINUOUS
 62
     3
100
AcDbLine
 10
-1418.017618677236
 20
-1648.099987464245
 30
0.0
 11
-1402.177650357236
 21
-1632.260019144245
 31
0.0
  0
LINE
  5
416
330
1F
100
AcDbEntity
  8
LAYER0048
  6
CONTINUOUS
 62
     3
100
AcDbLine
 10
-1368.00869784746
 20
-1600.580082504245
 30
0.0
 11
-1320.488792887461
 21
-1553.060177544246
 31
0.0
  0
LINE
  5
417
330
1F
100
AcDbEntity
  8
LAYER0048
  6
CONTINUOUS
 62
     3
100
AcDbLine
 10
-1415.52860280746
 20
-1648.099987464245
 30
0.0
 11
-1399.68863448746
 21
-1632.260019144245
 31
0.0
  0
LINE
  5
418
330
1F
100
AcDbEntity
  8
LAYER0048
  6
CONTINUOUS
 62
     3
100
AcDbLine
 10
-1365.519681977684
 20
-1600.580082504245
 30
0.0
 11
-1318.402995237704
 21
-1553.463395764267
 31
0.0
  0
LINE
  5
419
330
1F
100
AcDbEntity
  8
LAYER0048
  6
CONTINUOUS
 62
     3
100
AcDbLine
 10
-1413.039586937683
 20
-1648.099987464245
 30
0.0
 11
-1397.199618617683
 21
-1632.260019144245
 31
0.0
  0
LINE
  5
41A
330
1F
100
AcDbEntity
  8
LAYER0048
  6
CONTINUOUS
 62
     3
100
AcDbLine
 10
-1363.030666107907
 20
-1600.580082504245
 30
0.0
 11
-1318.935829476899
 21
-1556.485245873238
 31
0.0
  0
LINE
  5
41B
330
1F
100
AcDbEntity
  8
LAYER0048
  6
CONTINUOUS
 62
     3
100
AcDbLine
 10
-1410.550571067907
 20
-1648.099987464245
 30
0.0
 11
-1394.710602747907
 21
-1632.260019144245
 31
0.0
  0
LINE
  5
41C
330
1F
100
AcDbEntity
  8
LAYER0048
  6
CONTINUOUS
 62
     3
100
AcDbLine
 10
-1360.54165023813
 20
-1600.580082504245
 30
0.0
 11
-1319.468663716095
 21
-1559.50709598221
 31
0.0
  0
LINE
  5
41D
330
1F
100
AcDbEntity
  8
LAYER0048
  6
CONTINUOUS
 62
     3
100
AcDbLine
 10
-1408.06155519813
 20
-1648.099987464245
 30
0.0
 11
-1392.22158687813
 21
-1632.260019144245
 31
0.0
  0
LINE
  5
41E
330
1F
100
AcDbEntity
  8
LAYER0048
  6
CONTINUOUS
 62
     3
100
AcDbLine
 10
-1359.05658167888
 20
-1601.584029814771
 30
0.0
 11
-1320.00149795529
 21
-1562.528946091182
 31
0.0
  0
LINE
  5
41F
330
1F
100
AcDbEntity
  8
LAYER0048
  6
CONTINUOUS
 62
     3
100
AcDbLine
 10
-1405.572539328353
 20
-1648.099987464245
 30
0.0
 11
-1389.732571008353
 21
-1632.260019144245
 31
0.0
  0
LINE
  5
420
330
1F
100
AcDbEntity
  8
LAYER0048
  6
CONTINUOUS
 62
     3
100
AcDbLine
 10
-1359.589408999717
 20
-1604.605873005385
 30
0.0
 11
-1320.534332194485
 21
-1565.550796200154
 31
0.0
  0
LINE
  5
421
330
1F
100
AcDbEntity
  8
LAYER0048
  6
CONTINUOUS
 62
     3
100
AcDbLine
 10
-1403.083523458577
 20
-1648.099987464245
 30
0.0
 11
-1387.243555138577
 21
-1632.260019144245
 31
0.0
  0
LINE
  5
422
330
1F
100
AcDbEntity
  8
LAYER0048
  6
CONTINUOUS
 62
     3
100
AcDbLine
 10
-1360.122236320555
 20
-1607.627716195999
 30
0.0
 11
-1321.06716643368
 21
-1568.572646309126
 31
0.0
  0
LINE
  5
423
330
1F
100
AcDbEntity
  8
LAYER0048
  6
CONTINUOUS
 62
     3
100
AcDbLine
 10
-1400.5945075888
 20
-1648.099987464245
 30
0.0
 11
-1384.7545392688
 21
-1632.260019144245
 31
0.0
  0
LINE
  5
424
330
1F
100
AcDbEntity
  8
LAYER0048
  6
CONTINUOUS
 62
     3
100
AcDbLine
 10
-1360.655063641393
 20
-1610.649559386614
 30
0.0
 11
-1321.600000672875
 21
-1571.594496418097
 31
0.0
  0
LINE
  5
425
330
1F
100
AcDbEntity
  8
LAYER0048
  6
CONTINUOUS
 62
     3
100
AcDbLine
 10
-1398.105491719024
 20
-1648.099987464245
 30
0.0
 11
-1382.249848206689
 21
-1632.244343951911
 31
0.0
  0
LINE
  5
426
330
1F
100
AcDbEntity
  8
LAYER0048
  6
CONTINUOUS
 62
     3
100
AcDbLine
 10
-1361.18789096223
 20
-1613.671402577228
 30
0.0
 11
-1322.13283491207
 21
-1574.616346527069
 31
0.0
  0
LINE
  5
427
330
1F
100
AcDbEntity
  8
LAYER0048
  6
CONTINUOUS
 62
     3
100
AcDbLine
 10
-1395.616475849247
 20
-1648.099987464245
 30
0.0
 11
-1379.483221790483
 21
-1631.966733405481
 31
0.0
  0
LINE
  5
428
330
1F
100
AcDbEntity
  8
LAYER0048
  6
CONTINUOUS
 62
     3
100
AcDbLine
 10
-1361.992118447698
 20
-1616.964645932473
 30
0.0
 11
-1322.665669151265
 21
-1577.638196636041
 31
0.0
  0
LINE
  5
429
330
1F
100
AcDbEntity
  8
LAYER0048
  6
CONTINUOUS
 62
     3
100
AcDbLine
 10
-1393.12745997947
 20
-1648.099987464245
 30
0.0
 11
-1376.192809583012
 21
-1631.165337067787
 31
0.0
  0
LINE
  5
42A
330
1F
100
AcDbEntity
  8
LAYER0048
  6
CONTINUOUS
 62
     3
100
AcDbLine
 10
-1364.097975373594
 20
-1621.559518728145
 30
0.0
 11
-1323.198503390461
 21
-1580.660046745013
 31
0.0
  0
LINE
  5
42B
330
1F
100
AcDbEntity
  8
LAYER0048
  6
CONTINUOUS
 62
     3
100
AcDbLine
 10
-1390.638444109694
 20
-1648.099987464245
 30
0.0
 11
-1371.597936787339
 21
-1629.05948014189
 31
0.0
  0
LINE
  5
42C
330
1F
100
AcDbEntity
  8
LAYER0048
  6
CONTINUOUS
 62
     3
100
AcDbLine
 10
-1388.149428239917
 20
-1648.099987464245
 30
0.0
 11
-1323.731337629656
 21
-1583.681896853984
 31
0.0
  0
LINE
  5
42D
330
1F
100
AcDbEntity
  8
LAYER0048
  6
CONTINUOUS
 62
     3
100
AcDbLine
 10
-1385.660412370141
 20
-1648.099987464245
 30
0.0
 11
-1324.264171868851
 21
-1586.703746962956
 31
0.0
  0
LINE
  5
42E
330
1F
100
AcDbEntity
  8
LAYER0048
  6
CONTINUOUS
 62
     3
100
AcDbLine
 10
-1383.171396500364
 20
-1648.099987464245
 30
0.0
 11
-1324.797006108047
 21
-1589.725597071928
 31
0.0
  0
LINE
  5
42F
330
1F
100
AcDbEntity
  8
LAYER0048
  6
CONTINUOUS
 62
     3
100
AcDbLine
 10
-1380.682380630587
 20
-1648.099987464245
 30
0.0
 11
-1325.329840347241
 21
-1592.7474471809
 31
0.0
  0
LINE
  5
430
330
1F
100
AcDbEntity
  8
LAYER0048
  6
CONTINUOUS
 62
     3
100
AcDbLine
 10
-1378.193364760811
 20
-1648.099987464245
 30
0.0
 11
-1325.862674586436
 21
-1595.769297289871
 31
0.0
  0
LINE
  5
431
330
1F
100
AcDbEntity
  8
LAYER0048
  6
CONTINUOUS
 62
     3
100
AcDbLine
 10
-1375.704348891034
 20
-1648.099987464245
 30
0.0
 11
-1326.395508825632
 21
-1598.791147398843
 31
0.0
  0
LINE
  5
432
330
1F
100
AcDbEntity
  8
LAYER0048
  6
CONTINUOUS
 62
     3
100
AcDbLine
 10
-1373.180947682182
 20
-1648.06560212517
 30
0.0
 11
-1326.928343064826
 21
-1601.812997507815
 31
0.0
  0
LINE
  5
433
330
1F
100
AcDbEntity
  8
LAYER0048
  6
CONTINUOUS
 62
     3
100
AcDbLine
 10
-1370.515998494067
 20
-1647.889668806831
 30
0.0
 11
-1327.461177304022
 21
-1604.834847616787
 31
0.0
  0
LINE
  5
434
330
1F
100
AcDbEntity
  8
LAYER0048
  6
CONTINUOUS
 62
     3
100
AcDbLine
 10
-1367.673705982012
 20
-1647.536392164553
 30
0.0
 11
-1327.994011543217
 21
-1607.856697725758
 31
0.0
  0
LINE
  5
435
330
1F
100
AcDbEntity
  8
LAYER0048
  6
CONTINUOUS
 62
     3
100
AcDbLine
 10
-1364.60330112196
 20
-1646.955003174277
 30
0.0
 11
-1328.588986933207
 21
-1610.940688985525
 31
0.0
  0
LINE
  5
436
330
1F
100
AcDbEntity
  8
LAYER0048
  6
CONTINUOUS
 62
     3
100
AcDbLine
 10
-1361.23020162174
 20
-1646.070919543834
 30
0.0
 11
-1329.47307056365
 21
-1614.313788485744
 31
0.0
  0
LINE
  5
437
330
1F
100
AcDbEntity
  8
LAYER0048
  6
CONTINUOUS
 62
     3
100
AcDbLine
 10
-1357.405835416428
 20
-1644.735569208299
 30
0.0
 11
-1330.808420899184
 21
-1618.138154691056
 31
0.0
  0
LINE
  5
438
330
1F
100
AcDbEntity
  8
LAYER0048
  6
CONTINUOUS
 62
     3
100
AcDbLine
 10
-1352.788686432041
 20
-1642.607436093688
 30
0.0
 11
-1332.936554013796
 21
-1622.755303675443
 31
0.0
  0
LINE
  5
439
330
1F
100
AcDbEntity
  8
LAYER0048
  6
CONTINUOUS
 62
     3
100
AcDbLine
 10
-1345.754065141091
 20
-1638.061830672515
 30
0.0
 11
-1337.482159434969
 21
-1629.789924966393
 31
0.0
  0
LINE
  5
43A
330
1F
100
AcDbEntity
  8
LAYER0048
  6
CONTINUOUS
 62
     3
100
AcDbLine
 10
-1247.710180704038
 20
-1606.916069832246
 30
0.0
 11
-1246.963525555239
 21
-1606.916069832246
 31
0.0
  0
LINE
  5
43B
330
1F
100
AcDbEntity
  8
LAYER0048
  6
CONTINUOUS
 62
     3
100
AcDbLine
 10
-1356.645147187237
 20
-1587.908107848246
 30
0.0
 11
-1353.293527372839
 21
-1568.900145864246
 31
0.0
  0
LINE
  5
43C
330
1F
100
AcDbEntity
  8
LAYER0048
  6
CONTINUOUS
 62
     3
100
AcDbLine
 10
-1361.234352537639
 20
-1613.934901819446
 30
0.0
 11
-1358.879560396839
 21
-1600.580082504245
 31
0.0
  0
LINE
  5
43D
330
1F
100
AcDbEntity
  8
LAYER0048
  6
CONTINUOUS
 62
     3
100
AcDbLine
 10
-1318.331896915238
 20
-1606.916069832246
 30
0.0
 11
-1279.390117344037
 21
-1606.916069832246
 31
0.0
  0
LINE
  5
43E
330
1F
100
AcDbEntity
  8
LAYER0048
  6
CONTINUOUS
 62
     3
100
AcDbLine
 10
-1145.350189132838
 20
-1568.173124712245
 30
0.0
 11
-1142.685356870438
 21
-1553.060177544246
 31
0.0
  0
LINE
  5
43F
330
1F
100
AcDbEntity
  8
LAYER0048
  6
CONTINUOUS
 62
     3
100
AcDbLine
 10
-1159.443455942437
 20
-1648.099987464245
 30
0.0
 11
-1148.143205644838
 21
-1584.013093032245
 31
0.0
  0
LINE
  5
440
330
1F
100
AcDbEntity
  8
LAYER0048
  6
CONTINUOUS
 62
     3
100
AcDbLine
 10
-1180.311900057639
 20
-1584.013093032245
 30
0.0
 11
-1191.612150355238
 21
-1648.099987464245
 31
0.0
  0
LINE
  5
441
330
1F
100
AcDbEntity
  8
LAYER0048
  6
CONTINUOUS
 62
     3
100
AcDbLine
 10
-1174.854051283239
 20
-1553.060177544246
 30
0.0
 11
-1177.518883545638
 21
-1568.173124712245
 31
0.0
  0
LINE
  5
442
330
1F
100
AcDbEntity
  8
LAYER0048
  6
CONTINUOUS
 62
     3
100
AcDbLine
 10
-1148.143205644838
 20
-1584.013093032245
 30
0.0
 11
-1096.572340435238
 21
-1584.013093032245
 31
0.0
  0
LINE
  5
443
330
1F
100
AcDbEntity
  8
LAYER0048
  6
CONTINUOUS
 62
     3
100
AcDbLine
 10
-1196.028673094438
 20
-1584.013093032245
 30
0.0
 11
-1180.311900057639
 21
-1584.013093032245
 31
0.0
  0
LINE
  5
444
330
1F
100
AcDbEntity
  8
LAYER0048
  6
CONTINUOUS
 62
     3
100
AcDbLine
 10
-1177.518883545638
 20
-1568.173124712245
 30
0.0
 11
-1193.235656582438
 21
-1568.173124712245
 31
0.0
  0
LINE
  5
445
330
1F
100
AcDbEntity
  8
LAYER0048
  6
CONTINUOUS
 62
     3
100
AcDbLine
 10
-1064.892403795238
 20
-1568.173124712245
 30
0.0
 11
-1145.350189132838
 21
-1568.173124712245
 31
0.0
  0
LINE
  5
446
330
1F
100
AcDbEntity
  8
LAYER0048
  6
CONTINUOUS
 62
     3
100
AcDbLine
 10
-1070.363127321637
 20
-1599.199345819446
 30
0.0
 11
-1064.892403795238
 21
-1568.173124712245
 31
0.0
  0
LINE
  5
447
330
1F
100
AcDbEntity
  8
LAYER0048
  6
CONTINUOUS
 62
     3
100
AcDbLine
 10
-1141.257949209637
 20
-1630.613901633846
 30
0.0
 11
-1107.801538195238
 21
-1630.613901633846
 31
0.0
  0
LINE
  5
448
330
1F
100
AcDbEntity
  8
LAYER0048
  6
CONTINUOUS
 62
     3
100
AcDbLine
 10
-1138.464932697638
 20
-1614.773933313846
 30
0.0
 11
-1141.257949209637
 21
-1630.613901633846
 31
0.0
  0
LINE
  5
449
330
1F
100
AcDbEntity
  8
LAYER0048
  6
CONTINUOUS
 62
     3
100
AcDbLine
 10
-1128.578893440038
 20
-1614.773933313846
 30
0.0
 11
-1138.464932697638
 21
-1614.773933313846
 31
0.0
  0
LINE
  5
44A
330
1F
100
AcDbEntity
  8
LAYER0048
  6
CONTINUOUS
 62
     3
100
AcDbLine
 10
-1096.572340435238
 20
-1584.013093032245
 30
0.0
 11
-1097.380231123238
 21
-1588.595136801846
 31
0.0
  0
LINE
  5
44B
330
1F
100
AcDbEntity
  8
LAYER0048
  6
CONTINUOUS
 62
     3
100
AcDbLine
 10
-1193.235656582438
 20
-1568.173124712245
 30
0.0
 11
-1196.028673094438
 21
-1584.013093032245
 31
0.0
  0
LINE
  5
44C
330
1F
100
AcDbEntity
  8
LAYER0048
  6
CONTINUOUS
 62
     3
100
AcDbLine
 10
-1142.685356870438
 20
-1553.060177544246
 30
0.0
 11
-1174.854051283239
 21
-1553.060177544246
 31
0.0
  0
LINE
  5
44D
330
1F
100
AcDbEntity
  8
LAYER0048
  6
CONTINUOUS
 62
     3
100
AcDbLine
 10
-1191.612150355238
 20
-1648.099987464245
 30
0.0
 11
-1159.443455942437
 21
-1648.099987464245
 31
0.0
  0
LINE
  5
44E
330
1F
100
AcDbEntity
  8
LAYER0048
  6
CONTINUOUS
 62
     3
100
AcDbLine
 10
-1221.358138310437
 20
-1593.890441832246
 30
0.0
 11
-1191.612150355238
 21
-1553.060177544246
 31
0.0
  0
LINE
  5
44F
330
1F
100
AcDbEntity
  8
LAYER0048
  6
CONTINUOUS
 62
     3
100
AcDbLine
 10
-1254.972023635237
 20
-1648.099987464245
 30
0.0
 11
-1247.710180704038
 21
-1606.916069832246
 31
0.0
  0
LINE
  5
450
330
1F
100
AcDbEntity
  8
LAYER0048
  6
CONTINUOUS
 62
     3
100
AcDbLine
 10
-1279.390117344037
 20
-1606.916069832246
 30
0.0
 11
-1286.651960275238
 21
-1648.099987464245
 31
0.0
  0
LINE
  5
451
330
1F
100
AcDbEntity
  8
LAYER0048
  6
CONTINUOUS
 62
     3
100
AcDbLine
 10
-1236.648274252838
 20
-1553.060177544246
 30
0.0
 11
-1247.622471456037
 21
-1573.652136360245
 31
0.0
  0
LINE
  5
452
330
1F
100
AcDbEntity
  8
LAYER0048
  6
CONTINUOUS
 62
     3
100
AcDbLine
 10
-1280.545224000038
 20
-1592.660098344245
 30
0.0
 11
-1315.538880403238
 21
-1592.660098344245
 31
0.0
  0
LINE
  5
453
330
1F
100
AcDbEntity
  8
LAYER0048
  6
CONTINUOUS
 62
     3
100
AcDbLine
 10
-1254.972023635237
 20
-1648.099987464245
 30
0.0
 11
-1286.651960275238
 21
-1648.099987464245
 31
0.0
  0
LINE
  5
454
330
1F
100
AcDbEntity
  8
LAYER0048
  6
CONTINUOUS
 62
     3
100
AcDbLine
 10
-1191.612150355238
 20
-1553.060177544246
 30
0.0
 11
-1236.648274252838
 21
-1553.060177544246
 31
0.0
  0
LINE
  5
455
330
1F
100
AcDbEntity
  8
LAYER0048
  6
CONTINUOUS
 62
     3
100
AcDbLine
 10
-1315.538880403238
 20
-1592.660098344245
 30
0.0
 11
-1318.331896915238
 21
-1606.916069832246
 31
0.0
  0
LINE
  5
456
330
1F
100
AcDbEntity
  8
LAYER0048
  6
CONTINUOUS
 62
     3
100
AcDbLine
 10
-1285.74653820164
 20
-1553.060177544246
 30
0.0
 11
-1292.180293177639
 21
-1553.060177544246
 31
0.0
  0
LINE
  5
457
330
1F
100
AcDbEntity
  8
LAYER0048
  6
CONTINUOUS
 62
     3
100
AcDbLine
 10
-1288.53955471364
 20
-1568.900145864246
 30
0.0
 11
-1285.74653820164
 21
-1553.060177544246
 31
0.0
  0
LINE
  5
458
330
1F
100
AcDbEntity
  8
LAYER0048
  6
CONTINUOUS
 62
     3
100
AcDbLine
 10
-1294.973309689639
 20
-1568.900145864246
 30
0.0
 11
-1288.53955471364
 21
-1568.900145864246
 31
0.0
  0
LINE
  5
459
330
1F
100
AcDbEntity
  8
LAYER0048
  6
CONTINUOUS
 62
     3
100
AcDbLine
 10
-1292.180293177639
 20
-1553.060177544246
 30
0.0
 11
-1294.973309689639
 21
-1568.900145864246
 31
0.0
  0
LINE
  5
45A
330
1F
100
AcDbEntity
  8
LAYER0048
  6
CONTINUOUS
 62
     3
100
AcDbLine
 10
-1302.070800934439
 20
-1553.060177544246
 30
0.0
 11
-1308.504555910439
 21
-1553.060177544246
 31
0.0
  0
LINE
  5
45B
330
1F
100
AcDbEntity
  8
LAYER0048
  6
CONTINUOUS
 62
     3
100
AcDbLine
 10
-1304.863817446438
 20
-1568.900145864246
 30
0.0
 11
-1302.070800934439
 21
-1553.060177544246
 31
0.0
  0
LINE
  5
45C
330
1F
100
AcDbEntity
  8
LAYER0048
  6
CONTINUOUS
 62
     3
100
AcDbLine
 10
-1311.297572422439
 20
-1568.900145864246
 30
0.0
 11
-1304.863817446438
 21
-1568.900145864246
 31
0.0
  0
LINE
  5
45D
330
1F
100
AcDbEntity
  8
LAYER0048
  6
CONTINUOUS
 62
     3
100
AcDbLine
 10
-1308.504555910439
 20
-1553.060177544246
 30
0.0
 11
-1311.297572422439
 21
-1568.900145864246
 31
0.0
  0
LINE
  5
45E
330
1F
100
AcDbEntity
  8
LAYER0048
  6
CONTINUOUS
 62
     3
100
AcDbLine
 10
-1403.867725843238
 20
-1554.462881774646
 30
0.0
 11
-1403.867725843238
 21
-1553.060177544246
 31
0.0
  0
LINE
  5
45F
330
1F
100
AcDbEntity
  8
LAYER0048
  6
CONTINUOUS
 62
     3
100
AcDbLine
 10
-1385.220739718437
 20
-1600.580082504245
 30
0.0
 11
-1358.879560396839
 21
-1600.580082504245
 31
0.0
  0
LINE
  5
460
330
1F
100
AcDbEntity
  8
LAYER0048
  6
CONTINUOUS
 62
     3
100
AcDbLine
 10
-1382.986326508838
 20
-1587.908107848246
 30
0.0
 11
-1385.220739718437
 21
-1600.580082504245
 31
0.0
  0
LINE
  5
461
330
1F
100
AcDbEntity
  8
LAYER0048
  6
CONTINUOUS
 62
     3
100
AcDbLine
 10
-1356.645147187237
 20
-1587.908107848246
 30
0.0
 11
-1382.986326508838
 21
-1587.908107848246
 31
0.0
  0
LINE
  5
462
330
1F
100
AcDbEntity
  8
LAYER0048
  6
CONTINUOUS
 62
     3
100
AcDbLine
 10
-1353.293527372839
 20
-1568.900145864246
 30
0.0
 11
-1379.896707897638
 21
-1568.900145864246
 31
0.0
  0
LINE
  5
463
330
1F
100
AcDbEntity
  8
LAYER0048
  6
CONTINUOUS
 62
     3
100
AcDbLine
 10
-1318.331896915238
 20
-1553.060177544246
 30
0.0
 11
-1328.165954361638
 21
-1608.831832929845
 31
0.0
  0
LINE
  5
464
330
1F
100
AcDbEntity
  8
LAYER0048
  6
CONTINUOUS
 62
     3
100
AcDbLine
 10
-1403.867725843238
 20
-1553.060177544246
 30
0.0
 11
-1318.331896915238
 21
-1553.060177544246
 31
0.0
  0
ARC
  5
465
330
1F
100
AcDbEntity
  8
LAYER0048
  6
CONTINUOUS
 62
     3
100
AcDbCircle
 10
-1107.801538195238
 20
-1592.597977665846
 30
0.0
 40
38.01592396800036
100
AcDbArc
 50
270.0000000000006
 51
350.0000501652083
  0
ARC
  5
466
330
1F
100
AcDbEntity
  8
LAYER0048
  6
CONTINUOUS
 62
     3
100
AcDbCircle
 10
-1128.578893440038
 20
-1583.093996673845
 30
0.0
 40
31.67993664000041
100
AcDbArc
 50
270.0000000000006
 51
350.0000459533484
  0
ARC
  5
467
330
1F
100
AcDbEntity
  8
LAYER0048
  6
CONTINUOUS
 62
     3
100
AcDbCircle
 10
-1246.963525555239
 20
-1575.236133192245
 30
0.0
 40
31.67993664000032
100
AcDbArc
 50
270.0000000000006
 51
323.9255158738096
  0
ARC
  5
468
330
1F
100
AcDbEntity
  8
LAYER0048
  6
CONTINUOUS
 62
     3
100
AcDbCircle
 10
-1280.545224000038
 20
-1554.644174376245
 30
0.0
 40
38.01592396800005
100
AcDbArc
 50
270.0000000000006
 51
329.9999974675138
  0
ARC
  5
469
330
1F
100
AcDbEntity
  8
LAYER0048
  6
CONTINUOUS
 62
     3
100
AcDbCircle
 10
-1413.371706835238
 20
-1559.214872270645
 30
0.0
 40
34.84793030400002
100
AcDbArc
 50
270.0000000000006
 51
343.8633330758265
  0
ARC
  5
46A
330
1F
100
AcDbEntity
  8
LAYER0048
  6
CONTINUOUS
 62
     3
100
AcDbCircle
 10
-1374.963907603238
 20
-1600.580082504245
 30
0.0
 40
47.51990496000001
100
AcDbArc
 50
270.0000000000006
 51
349.9999897560574
  0
ARC
  5
46B
330
1F
100
AcDbEntity
  8
LAYER0048
  6
CONTINUOUS
 62
     3
100
AcDbCircle
 10
-1383.073392019238
 20
-1610.084063496246
 30
0.0
 40
22.17595564799892
100
AcDbArc
 50
270.0000000000006
 51
349.9999327509129
  0
LINE
  5
46C
330
1F
100
AcDbEntity
  8
LAYER0048
  6
CONTINUOUS
 62
     3
100
AcDbLine
 10
-1433.672878141383
 20
-1594.062802574645
 30
0.0
 11
-1423.280623769107
 21
-1583.670548202369
 31
0.0
  0
LINE
  5
46D
330
1F
100
AcDbEntity
  8
LAYER0048
  6
CONTINUOUS
 62
     3
100
AcDbLine
 10
-1431.183862271606
 20
-1594.062802574645
 30
0.0
 11
-1417.877910732594
 21
-1580.756851035633
 31
0.0
  0
LINE
  5
46E
330
1F
100
AcDbEntity
  8
LAYER0048
  6
CONTINUOUS
 62
     3
100
AcDbLine
 10
-1428.69484640183
 20
-1594.062802574645
 30
0.0
 11
-1387.692221371429
 21
-1553.060177544246
 31
0.0
  0
LINE
  5
46F
330
1F
100
AcDbEntity
  8
LAYER0048
  6
CONTINUOUS
 62
     3
100
AcDbLine
 10
-1426.205830532053
 20
-1594.062802574645
 30
0.0
 11
-1385.203205501652
 21
-1553.060177544246
 31
0.0
  0
LINE
  5
470
330
1F
100
AcDbEntity
  8
LAYER0048
  6
CONTINUOUS
 62
     3
100
AcDbLine
 10
-1440.418761505226
 20
-1648.099987464245
 30
0.0
 11
-1424.578793185226
 21
-1632.260019144245
 31
0.0
  0
LINE
  5
471
330
1F
100
AcDbEntity
  8
LAYER0048
  6
CONTINUOUS
 62
     3
100
AcDbLine
 10
-1437.929745635449
 20
-1648.099987464245
 30
0.0
 11
-1422.089777315449
 21
-1632.260019144245
 31
0.0
  0
LINE
  5
472
330
1F
100
AcDbEntity
  8
LAYER0048
  6
CONTINUOUS
 62
     3
100
AcDbLine
 10
-1435.440729765673
 20
-1648.099987464245
 30
0.0
 11
-1419.600761445673
 21
-1632.260019144245
 31
0.0
  0
LINE
  5
473
330
1F
100
AcDbEntity
  8
LAYER0048
  6
CONTINUOUS
 62
     3
100
AcDbLine
 10
-1432.951713895896
 20
-1648.099987464245
 30
0.0
 11
-1417.111745575896
 21
-1632.260019144245
 31
0.0
  0
LINE
  5
474
330
1F
100
AcDbEntity
  8
LAYER0048
  6
CONTINUOUS
 62
     3
100
AcDbLine
 10
-1430.462698026119
 20
-1648.099987464245
 30
0.0
 11
-1414.622729706119
 21
-1632.260019144245
 31
0.0
  0
LINE
  5
475
330
1F
100
AcDbEntity
  8
LAYER0048
  6
CONTINUOUS
 62
     3
100
AcDbLine
 10
-1427.973682156343
 20
-1648.099987464245
 30
0.0
 11
-1412.133713836343
 21
-1632.260019144245
 31
0.0
  0
LINE
  5
476
330
1F
100
AcDbEntity
  8
LAYER0048
  6
CONTINUOUS
 62
     3
100
AcDbLine
 10
-1435.523441856037
 20
-1594.062802574645
 30
0.0
 11
-1413.371706835238
 21
-1594.062802574645
 31
0.0
  0
LINE
  5
477
330
1F
100
AcDbEntity
  8
LAYER0048
  6
CONTINUOUS
 62
     3
100
AcDbLine
 10
-1442.258626963237
 20
-1632.260019144245
 30
0.0
 11
-1383.073392019238
 21
-1632.260019144245
 31
0.0
  0
LINE
  5
478
330
1F
100
AcDbEntity
  8
LAYER0048
  6
CONTINUOUS
 62
     3
100
AcDbLine
 10
-1374.963907603238
 20
-1648.099987464245
 30
0.0
 11
-1445.051643475239
 21
-1648.099987464245
 31
0.0
  0
ARC
  5
479
330
1F
100
AcDbEntity
  8
LAYER0048
  6
CONTINUOUS
 62
     3
100
AcDbCircle
 10
-1435.547662483237
 20
-1554.462881774646
 30
0.0
 40
31.67996396102462
100
AcDbArc
 50
272.5678887518231
 51
0.0
  0
LINE
  5
47A
330
1F
100
AcDbEntity
  8
LAYER0032
  6
CENTER
 62
     6
100
AcDbLine
 10
1138.542458808616
 20
769.4599742881851
 30
0.0
 11
1138.542458808616
 21
-216.0065123442755
 31
0.0
  0
LINE
  5
47B
330
1F
100
AcDbEntity
  8
LAYER0032
  6
CENTER
 62
     6
100
AcDbLine
 10
500.1041381430821
 20
-91.5842839036768
 30
0.0
 11
438.6634561405065
 21
-91.5842839036768
 31
0.0
  0
LINE
  5
47C
330
1F
100
AcDbEntity
  8
LAYER0032
  6
CENTER
 62
     6
100
AcDbLine
 10
468.542458808616
 20
-59.79437428032043
 30
0.0
 11
468.542458808616
 21
-121.5842839036768
 31
0.0
  0
LINE
  5
47D
330
1F
100
AcDbEntity
  8
LAYER0032
  6
CENTER
 62
     6
100
AcDbLine
 10
500.1041381430821
 20
648.4157160963236
 30
0.0
 11
438.6634561405065
 21
648.4157160963236
 31
0.0
  0
LINE
  5
47E
330
1F
100
AcDbEntity
  8
LAYER0032
  6
CENTER
 62
     6
100
AcDbLine
 10
468.542458808616
 20
616.6258064729677
 30
0.0
 11
468.542458808616
 21
678.4157160963236
 31
0.0
  0
LINE
  5
47F
330
1F
100
AcDbEntity
  8
LAYER0032
  6
CENTER
 62
     6
100
AcDbLine
 10
1776.98077947415
 20
648.4157160963236
 30
0.0
 11
1838.421461476725
 21
648.4157160963236
 31
0.0
  0
LINE
  5
480
330
1F
100
AcDbEntity
  8
LAYER0032
  6
CENTER
 62
     6
100
AcDbLine
 10
1808.542458808616
 20
616.6258064729677
 30
0.0
 11
1808.542458808616
 21
678.4157160963236
 31
0.0
  0
LINE
  5
481
330
1F
100
AcDbEntity
  8
LAYER0032
  6
CENTER
 62
     6
100
AcDbLine
 10
1776.98077947415
 20
-91.5842839036768
 30
0.0
 11
1838.421461476725
 21
-91.5842839036768
 31
0.0
  0
LINE
  5
482
330
1F
100
AcDbEntity
  8
LAYER0032
  6
CENTER
 62
     6
100
AcDbLine
 10
1808.542458808616
 20
-59.79437428032043
 30
0.0
 11
1808.542458808616
 21
-121.5842839036768
 31
0.0
  0
LINE
  5
483
330
1F
100
AcDbEntity
  8
LAYER0032
  6
CENTER
 62
     6
100
AcDbLine
 10
1928.542458808616
 20
-8.58428390367635
 30
0.0
 11
1928.542458808616
 21
-68.58428390367635
 31
0.0
  0
LINE
  5
484
330
1F
100
AcDbEntity
  8
LAYER0032
  6
CENTER
 62
     6
100
AcDbLine
 10
348.542458808616
 20
-8.58428390367635
 30
0.0
 11
348.542458808616
 21
-68.58428390367635
 31
0.0
  0
LINE
  5
485
330
1F
100
AcDbEntity
  8
LAYER0032
  6
CENTER
 62
     6
100
AcDbLine
 10
1928.542458808616
 20
565.4157160963236
 30
0.0
 11
1928.542458808616
 21
625.4157160963236
 31
0.0
  0
LINE
  5
486
330
1F
100
AcDbEntity
  8
LAYER0032
  6
CENTER
 62
     6
100
AcDbLine
 10
348.542458808616
 20
565.4157160963236
 30
0.0
 11
348.542458808616
 21
625.4157160963236
 31
0.0
  0
LINE
  5
487
330
1F
100
AcDbEntity
  8
LAYER0032
  6
CENTER
 62
     6
100
AcDbLine
 10
1872.842458808616
 20
298.4157160963236
 30
0.0
 11
1872.842458808616
 21
258.4157160963236
 31
0.0
  0
LINE
  5
488
330
1F
100
AcDbEntity
  8
LAYER0032
  6
CENTER
 62
     6
100
AcDbLine
 10
348.542458808616
 20
-1056.770433292681
 30
0.0
 11
348.542458808616
 21
-1083.115935080396
 31
0.0
  0
LINE
  5
489
330
1F
100
AcDbEntity
  8
LAYER0032
  6
CENTER
 62
     6
100
AcDbLine
 10
1870.642458808616
 20
-998.4046856404502
 30
0.0
 11
1870.642458808616
 21
-1050.327278747072
 31
0.0
  0
LINE
  5
48A
330
1F
100
AcDbEntity
  8
LAYER0032
  6
CENTER
 62
     6
100
AcDbLine
 10
1138.542458808616
 20
-590.2883563018668
 30
0.0
 11
1138.542458808616
 21
-1127.251252229468
 31
0.0
  0
LINE
  5
48B
330
1F
100
AcDbEntity
  8
LAYER0032
  6
CENTER
 62
     6
100
AcDbLine
 10
468.542458808616
 20
-979.1334904701189
 30
0.0
 11
468.542458808616
 21
-1021.66786800185
 31
0.0
  0
LINE
  5
48C
330
1F
100
AcDbEntity
  8
LAYER0032
  6
CENTER
 62
     6
100
AcDbLine
 10
323.542458808616
 20
595.4157160963236
 30
0.0
 11
374.2424588086159
 21
595.4157160963236
 31
0.0
  0
LINE
  5
48D
330
1F
100
AcDbEntity
  8
LAYER0032
  6
CENTER
 62
     6
100
AcDbLine
 10
323.542458808616
 20
-38.58428390367635
 30
0.0
 11
374.2424588086159
 21
-38.58428390367635
 31
0.0
  0
LINE
  5
48E
330
1F
100
AcDbEntity
  8
LAYER0032
  6
CENTER
 62
     6
100
AcDbLine
 10
1953.542458808616
 20
-38.58428390367635
 30
0.0
 11
1902.842458808615
 21
-38.58428390367635
 31
0.0
  0
LINE
  5
48F
330
1F
100
AcDbEntity
  8
LAYER0032
  6
CENTER
 62
     6
100
AcDbLine
 10
1953.542458808616
 20
595.4157160963236
 30
0.0
 11
1902.842458808615
 21
595.4157160963236
 31
0.0
  0
LINE
  5
490
330
1F
100
AcDbEntity
  8
LAYER0032
  6
CENTER
 62
     6
100
AcDbLine
 10
500.1041381430821
 20
466.4157160963236
 30
0.0
 11
438.6634561405065
 21
466.4157160963236
 31
0.0
  0
LINE
  5
491
330
1F
100
AcDbEntity
  8
LAYER0032
  6
CENTER
 62
     6
100
AcDbLine
 10
468.542458808616
 20
434.6258064729677
 30
0.0
 11
468.542458808616
 21
496.4157160963236
 31
0.0
  0
LINE
  5
492
330
1F
100
AcDbEntity
  8
LAYER0032
  6
CENTER
 62
     6
100
AcDbLine
 10
500.1041381430821
 20
90.41571609632376
 30
0.0
 11
438.6634561405065
 21
90.41571609632376
 31
0.0
  0
LINE
  5
493
330
1F
100
AcDbEntity
  8
LAYER0032
  6
CENTER
 62
     6
100
AcDbLine
 10
468.542458808616
 20
58.62580647296784
 30
0.0
 11
468.542458808616
 21
120.4157160963238
 31
0.0
  0
LINE
  5
494
330
1F
100
AcDbEntity
  8
LAYER0032
  6
CENTER
 62
     6
100
AcDbLine
 10
1776.980779474149
 20
466.4157160963236
 30
0.0
 11
1838.421461476725
 21
466.4157160963236
 31
0.0
  0
LINE
  5
495
330
1F
100
AcDbEntity
  8
LAYER0032
  6
CENTER
 62
     6
100
AcDbLine
 10
1808.542458808615
 20
434.6258064729677
 30
0.0
 11
1808.542458808615
 21
496.4157160963236
 31
0.0
  0
LINE
  5
496
330
1F
100
AcDbEntity
  8
LAYER0032
  6
CENTER
 62
     6
100
AcDbLine
 10
1776.980779474149
 20
90.41571609632376
 30
0.0
 11
1838.421461476725
 21
90.41571609632376
 31
0.0
  0
LINE
  5
497
330
1F
100
AcDbEntity
  8
LAYER0032
  6
CENTER
 62
     6
100
AcDbLine
 10
1808.542458808615
 20
58.62580647296784
 30
0.0
 11
1808.542458808615
 21
120.4157160963238
 31
0.0
  0
LINE
  5
498
330
1F
100
AcDbEntity
  8
LAYER0032
  6
CENTER
 62
     6
100
AcDbLine
 10
349.3872418743709
 20
278.4157160963236
 30
0.0
 11
541.4121151936426
 21
278.4157160963236
 31
0.0
  0
LINE
  5
499
330
1F
100
AcDbEntity
  8
LAYER0032
  6
CENTER
 62
     6
100
AcDbLine
 10
1003.342601787486
 20
278.4157160963236
 30
0.0
 11
2008.324461343472
 21
278.4157160963236
 31
0.0
  0
LINE
  5
49A
330
1F
100
AcDbEntity
  8
LAYER0032
  6
CONTINUOUS
 62
     3
100
AcDbLine
 10
323.542458808616
 20
555.4157160963236
 30
0.0
 11
323.542458808616
 21
635.4157160963236
 31
0.0
  0
LINE
  5
49B
330
1F
100
AcDbEntity
  8
LAYER0032
  6
CONTINUOUS
 62
     3
100
AcDbLine
 10
1953.542458808616
 20
555.4157160963236
 30
0.0
 11
1953.542458808616
 21
635.4157160963236
 31
0.0
  0
LINE
  5
49C
330
1F
100
AcDbEntity
  8
LAYER0032
  6
CONTINUOUS
 62
     3
100
AcDbLine
 10
348.542458808616
 20
-1012.00576263898
 30
0.0
 11
1900.642458808616
 21
-1012.00576263898
 31
0.0
  0
LINE
  5
49D
330
1F
100
AcDbEntity
  8
LAYER0032
  6
CONTINUOUS
 62
     3
100
AcDbLine
 10
323.542458808616
 20
-1036.805762638979
 30
0.0
 11
323.542458808616
 21
-1071.805762638979
 31
0.0
  0
LINE
  5
49E
330
1F
100
AcDbEntity
  8
LAYER0032
  6
CONTINUOUS
 62
     3
100
AcDbLine
 10
323.542458808616
 20
-1072.00576263898
 30
0.0
 11
1787.294883908951
 21
-1072.00576263898
 31
0.0
  0
LINE
  5
49F
330
1F
100
AcDbEntity
  8
LAYER0032
  6
CONTINUOUS
 62
     3
100
AcDbLine
 10
348.542458808616
 20
-1012.00576263898
 30
0.0
 11
323.542458808616
 21
-1037.00576263898
 31
0.0
  0
LINE
  5
4A0
330
1F
100
AcDbEntity
  8
LAYER0032
  6
CONTINUOUS
 62
     3
100
AcDbLine
 10
1902.842458808616
 20
635.4157160963236
 30
0.0
 11
1953.542458808616
 21
635.4157160963236
 31
0.0
  0
LINE
  5
4A1
330
1F
100
AcDbEntity
  8
LAYER0032
  6
CONTINUOUS
 62
     3
100
AcDbLine
 10
1902.842458808616
 20
555.4157160963236
 30
0.0
 11
1953.542458808616
 21
555.4157160963236
 31
0.0
  0
LINE
  5
4A2
330
1F
100
AcDbEntity
  8
LAYER0032
  6
CONTINUOUS
 62
     3
100
AcDbLine
 10
323.542458808616
 20
1.415716096323649
 30
0.0
 11
323.542458808616
 21
-78.5842839036768
 31
0.0
  0
LINE
  5
4A3
330
1F
100
AcDbEntity
  8
LAYER0032
  6
CONTINUOUS
 62
     3
100
AcDbLine
 10
323.542458808616
 20
1.415716096323649
 30
0.0
 11
374.2424588086158
 21
1.415716096323649
 31
0.0
  0
LINE
  5
4A4
330
1F
100
AcDbEntity
  8
LAYER0032
  6
CONTINUOUS
 62
     3
100
AcDbLine
 10
323.542458808616
 20
-78.5842839036768
 30
0.0
 11
374.2424588086158
 21
-78.5842839036768
 31
0.0
  0
LINE
  5
4A5
330
1F
100
AcDbEntity
  8
LAYER0032
  6
CONTINUOUS
 62
     3
100
AcDbLine
 10
1953.542458808616
 20
1.415716096323649
 30
0.0
 11
1953.542458808616
 21
-78.5842839036768
 31
0.0
  0
LINE
  5
4A6
330
1F
100
AcDbEntity
  8
LAYER0032
  6
CONTINUOUS
 62
     3
100
AcDbLine
 10
1902.842458808616
 20
632.2157160963229
 30
0.0
 11
1953.542458808616
 21
632.2157160963229
 31
0.0
  0
LINE
  5
4A7
330
1F
100
AcDbEntity
  8
LAYER0032
  6
CONTINUOUS
 62
     3
100
AcDbLine
 10
1902.842458808616
 20
558.6157160963226
 30
0.0
 11
1953.542458808616
 21
558.6157160963226
 31
0.0
  0
LINE
  5
4A8
330
1F
100
AcDbEntity
  8
LAYER0032
  6
CONTINUOUS
 62
     3
100
AcDbLine
 10
1902.842458808616
 20
-1.784283903677078
 30
0.0
 11
1953.542458808616
 21
-1.784283903677078
 31
0.0
  0
LINE
  5
4A9
330
1F
100
AcDbEntity
  8
LAYER0032
  6
CONTINUOUS
 62
     3
100
AcDbLine
 10
1902.842458808616
 20
-75.38428390367699
 30
0.0
 11
1953.542458808616
 21
-75.38428390367699
 31
0.0
  0
LINE
  5
4AA
330
1F
100
AcDbEntity
  8
LAYER0032
  6
CONTINUOUS
 62
     3
100
AcDbLine
 10
374.2424588086158
 20
632.2157160963229
 30
0.0
 11
323.542458808616
 21
632.2157160963229
 31
0.0
  0
LINE
  5
4AB
330
1F
100
AcDbEntity
  8
LAYER0032
  6
CONTINUOUS
 62
     3
100
AcDbLine
 10
374.2424588086158
 20
558.6157160963226
 30
0.0
 11
323.542458808616
 21
558.6157160963226
 31
0.0
  0
LINE
  5
4AC
330
1F
100
AcDbEntity
  8
LAYER0032
  6
CONTINUOUS
 62
     3
100
AcDbLine
 10
374.2424588086158
 20
-1.784283903677078
 30
0.0
 11
323.542458808616
 21
-1.784283903677078
 31
0.0
  0
LINE
  5
4AD
330
1F
100
AcDbEntity
  8
LAYER0032
  6
CONTINUOUS
 62
     3
100
AcDbLine
 10
374.2424588086158
 20
-75.38428390367608
 30
0.0
 11
323.542458808616
 21
-75.38428390367608
 31
0.0
  0
LINE
  5
4AE
330
1F
100
AcDbEntity
  8
LAYER0032
  6
CONTINUOUS
 62
     3
100
AcDbLine
 10
1898.342458808616
 20
-1009.70576263898
 30
0.0
 11
1689.92677726888
 21
-1009.70576263898
 31
0.0
  0
LINE
  5
4AF
330
1F
100
AcDbEntity
  8
LAYER0032
  6
CONTINUOUS
 62
     3
100
AcDbLine
 10
376.5424588086158
 20
706.4157160963236
 30
0.0
 11
1900.542458808616
 21
706.4157160963236
 31
0.0
  0
LINE
  5
4B0
330
1F
100
AcDbEntity
  8
LAYER0032
  6
CONTINUOUS
 62
     3
100
AcDbLine
 10
404.2424588086158
 20
706.4157160963236
 30
0.0
 11
404.2424588086158
 21
-149.5842839036768
 31
0.0
  0
LINE
  5
4B1
330
1F
100
AcDbEntity
  8
LAYER0032
  6
CONTINUOUS
 62
     3
100
AcDbLine
 10
376.5424588086158
 20
-149.5842839036768
 30
0.0
 11
1900.542458808616
 21
-149.5842839036768
 31
0.0
  0
LINE
  5
4B2
330
1F
100
AcDbEntity
  8
LAYER0032
  6
CONTINUOUS
 62
     3
100
AcDbLine
 10
1872.842458808616
 20
706.4157160963236
 30
0.0
 11
1872.842458808616
 21
-149.5842839036768
 31
0.0
  0
LINE
  5
4B3
330
1F
100
AcDbEntity
  8
LAYER0032
  6
CONTINUOUS
 62
     3
100
AcDbLine
 10
1872.942458808615
 20
-646.8057626389791
 30
0.0
 11
1872.942458808615
 21
-657.0057626389789
 31
0.0
  0
LINE
  5
4B4
330
1F
100
AcDbEntity
  8
LAYER0032
  6
CONTINUOUS
 62
     3
100
AcDbLine
 10
1785.286152989867
 20
-657.0057626389789
 30
0.0
 11
1898.342458808615
 21
-657.0057626389789
 31
0.0
  0
LINE
  5
4B5
330
1F
100
AcDbEntity
  8
LAYER0032
  6
CONTINUOUS
 62
     3
100
AcDbLine
 10
1898.342458808615
 20
-646.8057626389791
 30
0.0
 11
1898.342458808615
 21
-1012.00576263898
 31
0.0
  0
LINE
  5
4B6
330
1F
100
AcDbEntity
  8
LAYER0032
  6
CONTINUOUS
 62
     3
100
AcDbLine
 10
1895.842458808615
 20
-644.3057626389791
 30
0.0
 11
1875.442458808615
 21
-644.3057626389791
 31
0.0
  0
LINE
  5
4B7
330
1F
100
AcDbEntity
  8
LAYER0032
  6
CONTINUOUS
 62
     3
100
AcDbLine
 10
374.2424588086158
 20
736.4157160963236
 30
0.0
 11
1902.842458808616
 21
736.4157160963236
 31
0.0
  0
LINE
  5
4B8
330
1F
100
AcDbEntity
  8
LAYER0032
  6
CONTINUOUS
 62
     3
100
AcDbLine
 10
1902.842458808616
 20
736.4157160963236
 30
0.0
 11
1902.842458808616
 21
-179.5842839036768
 31
0.0
  0
LINE
  5
4B9
330
1F
100
AcDbEntity
  8
LAYER0032
  6
CONTINUOUS
 62
     3
100
AcDbLine
 10
1902.842458808616
 20
-179.5842839036768
 30
0.0
 11
374.2424588086158
 21
-179.5842839036768
 31
0.0
  0
LINE
  5
4BA
330
1F
100
AcDbEntity
  8
LAYER0032
  6
CONTINUOUS
 62
     3
100
AcDbLine
 10
374.2424588086158
 20
-179.5842839036768
 30
0.0
 11
374.2424588086158
 21
736.4157160963236
 31
0.0
  0
LINE
  5
4BB
330
1F
100
AcDbEntity
  8
LAYER0032
  6
CONTINUOUS
 62
     3
100
AcDbLine
 10
1953.542458808616
 20
1.415716096323649
 30
0.0
 11
1902.842458808616
 21
1.415716096323649
 31
0.0
  0
LINE
  5
4BC
330
1F
100
AcDbEntity
  8
LAYER0032
  6
CONTINUOUS
 62
     3
100
AcDbLine
 10
1902.842458808616
 20
-78.58428390367635
 30
0.0
 11
1953.542458808616
 21
-78.58428390367635
 31
0.0
  0
LINE
  5
4BD
330
1F
100
AcDbEntity
  8
LAYER0032
  6
CONTINUOUS
 62
     3
100
AcDbLine
 10
323.542458808616
 20
635.4157160963236
 30
0.0
 11
374.2424588086158
 21
635.4157160963236
 31
0.0
  0
LINE
  5
4BE
330
1F
100
AcDbEntity
  8
LAYER0032
  6
CONTINUOUS
 62
     3
100
AcDbLine
 10
323.542458808616
 20
555.4157160963236
 30
0.0
 11
374.2424588086158
 21
555.4157160963236
 31
0.0
  0
LINE
  5
4BF
330
1F
100
AcDbEntity
  8
LAYER0032
  6
CONTINUOUS
 62
     3
100
AcDbLine
 10
1870.642458808616
 20
-657.0057626389789
 30
0.0
 11
1870.642458808616
 21
-646.8057626389791
 31
0.0
  0
LINE
  5
4C0
330
1F
100
AcDbEntity
  8
LAYER0032
  6
CONTINUOUS
 62
     3
100
AcDbLine
 10
1900.642458808616
 20
-642.0057626389789
 30
0.0
 11
1900.642458808616
 21
-1012.00576263898
 31
0.0
  0
ARC
  5
4C1
330
1F
100
AcDbEntity
  8
LAYER0032
  6
CONTINUOUS
 62
     3
100
AcDbCircle
 10
1895.842458808615
 20
-646.8057626389791
 30
0.0
 40
4.8
100
AcDbArc
 50
0.0
 51
90.0
  0
LINE
  5
4C2
330
1F
100
AcDbEntity
  8
LAYER0032
  6
CONTINUOUS
 62
     3
100
AcDbLine
 10
1900.642458808616
 20
-642.0057626389789
 30
0.0
 11
374.2424588086158
 21
-642.0057626389789
 31
0.0
  0
ARC
  5
4C3
330
1F
100
AcDbEntity
  8
LAYER0032
  6
CONTINUOUS
 62
     3
100
AcDbCircle
 10
1875.442458808615
 20
-646.8057626389791
 30
0.0
 40
4.8
100
AcDbArc
 50
90.0
 51
180.0
  0
ARC
  5
4C4
330
1F
100
AcDbEntity
  8
LAYER0032
  6
CONTINUOUS
 62
     3
100
AcDbCircle
 10
1875.442458808615
 20
-646.8057626389791
 30
0.0
 40
2.5
100
AcDbArc
 50
90.0
 51
180.0
  0
ARC
  5
4C5
330
1F
100
AcDbEntity
  8
LAYER0032
  6
CONTINUOUS
 62
     3
100
AcDbCircle
 10
1895.842458808615
 20
-646.8057626389791
 30
0.0
 40
2.5
100
AcDbArc
 50
0.0
 51
90.0
  0
LINE
  5
4C6
330
1F
100
AcDbEntity
  8
LAYER0032
  6
CONTINUOUS
 62
     3
100
AcDbLine
 10
1881.492458808616
 20
-1012.00576263898
 30
0.0
 11
1881.492458808616
 21
-1017.84576263898
 31
0.0
  0
LINE
  5
4C7
330
1F
100
AcDbEntity
  8
LAYER0032
  6
CONTINUOUS
 62
     3
100
AcDbLine
 10
1859.792458808616
 20
-1012.00576263898
 30
0.0
 11
1859.792458808616
 21
-1017.84576263898
 31
0.0
  0
LINE
  5
4C8
330
1F
100
AcDbEntity
  8
LAYER0032
  6
CONTINUOUS
 62
     3
100
AcDbLine
 10
1861.146775076651
 20
-1018.84576263898
 30
0.0
 11
1870.642458808617
 21
-1018.84576263898
 31
0.0
  0
LINE
  5
4C9
330
1F
100
AcDbEntity
  8
LAYER0032
  6
CONTINUOUS
 62
     3
100
AcDbLine
 10
1860.132835396353
 20
-1023.537813446549
 30
0.0
 11
1859.954958808617
 21
-1017.84576263898
 31
0.0
  0
LINE
  5
4CA
330
1F
100
AcDbEntity
  8
LAYER0032
  6
CONTINUOUS
 62
     3
100
AcDbLine
 10
1861.146775076651
 20
-1018.84576263898
 30
0.0
 11
1861.293401664388
 21
-1023.537813446549
 31
0.0
  0
LINE
  5
4CB
330
1F
100
AcDbEntity
  8
LAYER0032
  6
CONTINUOUS
 62
     3
100
AcDbLine
 10
1870.642458808617
 20
-1017.84576263898
 30
0.0
 11
1859.792458808616
 21
-1017.84576263898
 31
0.0
  0
LINE
  5
4CC
330
1F
100
AcDbEntity
  8
LAYER0032
  6
CONTINUOUS
 62
     3
100
AcDbLine
 10
1861.146775076651
 20
-1018.84576263898
 30
0.0
 11
1859.954958808617
 21
-1017.84576263898
 31
0.0
  0
LINE
  5
4CD
330
1F
100
AcDbEntity
  8
LAYER0032
  6
CONTINUOUS
 62
     3
100
AcDbLine
 10
1881.15208222088
 20
-1023.537813446549
 30
0.0
 11
1881.329958808617
 21
-1017.845762638979
 31
0.0
  0
LINE
  5
4CE
330
1F
100
AcDbEntity
  8
LAYER0032
  6
CONTINUOUS
 62
     3
100
AcDbLine
 10
1880.138142540582
 20
-1018.84576263898
 30
0.0
 11
1870.642458808616
 21
-1018.84576263898
 31
0.0
  0
LINE
  5
4CF
330
1F
100
AcDbEntity
  8
LAYER0032
  6
CONTINUOUS
 62
     3
100
AcDbLine
 10
1870.642458808616
 20
-1017.84576263898
 30
0.0
 11
1881.492458808616
 21
-1017.84576263898
 31
0.0
  0
LINE
  5
4D0
330
1F
100
AcDbEntity
  8
LAYER0032
  6
CONTINUOUS
 62
     3
100
AcDbLine
 10
1880.138142540582
 20
-1018.84576263898
 30
0.0
 11
1879.991515952845
 21
-1023.537813446549
 31
0.0
  0
LINE
  5
4D1
330
1F
100
AcDbEntity
  8
LAYER0032
  6
CONTINUOUS
 62
     3
100
AcDbLine
 10
1880.138142540582
 20
-1018.84576263898
 30
0.0
 11
1881.329958808616
 21
-1017.84576263898
 31
0.0
  0
LINE
  5
4D2
330
1F
100
AcDbEntity
  8
LAYER0032
  6
CONTINUOUS
 62
     3
100
AcDbLine
 10
458.742458808616
 20
-1012.00576263898
 30
0.0
 11
458.742458808616
 21
-1018.110869721736
 31
0.0
  0
LINE
  5
4D3
330
1F
100
AcDbEntity
  8
LAYER0032
  6
CONTINUOUS
 62
     3
100
AcDbLine
 10
463.6499360967278
 20
-1012.00576263898
 30
0.0
 11
463.6499360967278
 21
-1018.110869721736
 31
0.0
  0
LINE
  5
4D4
330
1F
100
AcDbEntity
  8
LAYER0032
  6
CONTINUOUS
 62
     3
100
AcDbLine
 10
461.1961974526719
 20
-1019.00576263898
 30
0.0
 11
475.8887201645601
 21
-1019.00576263898
 31
0.0
  0
LINE
  5
4D5
330
1F
100
AcDbEntity
  8
LAYER0032
  6
CONTINUOUS
 62
     3
100
AcDbLine
 10
478.342458808616
 20
-1012.00576263898
 30
0.0
 11
478.342458808616
 21
-1018.110869721736
 31
0.0
  0
LINE
  5
4D6
330
1F
100
AcDbEntity
  8
LAYER0032
  6
CONTINUOUS
 62
     3
100
AcDbLine
 10
473.4349815205042
 20
-1012.00576263898
 30
0.0
 11
473.4349815205042
 21
-1018.110869721736
 31
0.0
  0
ARC
  5
4D7
330
1F
100
AcDbEntity
  8
LAYER0032
  6
CONTINUOUS
 62
     3
100
AcDbCircle
 10
461.1961974526719
 20
-1015.194319652216
 30
0.0
 40
3.811442986763128
100
AcDbArc
 50
229.9255796616137
 51
310.0744203383861
  0
ARC
  5
4D8
330
1F
100
AcDbEntity
  8
LAYER0032
  6
CONTINUOUS
 62
     3
100
AcDbCircle
 10
475.8887201645601
 20
-1015.194319652216
 30
0.0
 40
3.811442986763109
100
AcDbArc
 50
229.925579661614
 51
310.0744203383863
  0
ARC
  5
4D9
330
1F
100
AcDbEntity
  8
LAYER0032
  6
CONTINUOUS
 62
     3
100
AcDbCircle
 10
468.542458808616
 20
-1005.184214081046
 30
0.0
 40
13.82154855793335
100
AcDbArc
 50
249.2691848585842
 51
290.7308151414159
  0
ARC
  5
4DA
330
1F
100
AcDbEntity
  8
LAYER0032
  6
CONTINUOUS
 62
     3
100
AcDbCircle
 10
463.1424588086159
 20
-1011.605762638979
 30
0.0
 40
0.3999999999999773
100
AcDbArc
 50
270.0
 51
0.0
  0
ARC
  5
4DB
330
1F
100
AcDbEntity
  8
LAYER0032
  6
CONTINUOUS
 62
     3
100
AcDbCircle
 10
473.9424588086161
 20
-1011.605762638979
 30
0.0
 40
0.4000000000000057
100
AcDbArc
 50
180.0
 51
270.0
  0
ARC
  5
4DC
330
1F
100
AcDbEntity
  8
LAYER0032
  6
CONTINUOUS
 62
     3
100
AcDbCircle
 10
1803.142458808616
 20
-1011.605762638979
 30
0.0
 40
0.3999999999999773
100
AcDbArc
 50
270.0
 51
0.0
  0
ARC
  5
4DD
330
1F
100
AcDbEntity
  8
LAYER0032
  6
CONTINUOUS
 62
     3
100
AcDbCircle
 10
1813.942458808616
 20
-1011.605762638979
 30
0.0
 40
0.4000000000000057
100
AcDbArc
 50
180.0
 51
270.0
  0
ARC
  5
4DE
330
1F
100
AcDbEntity
  8
LAYER0032
  6
CONTINUOUS
 62
     3
100
AcDbCircle
 10
1872.842458808616
 20
278.4157160963236
 30
0.0
 40
7.5
100
AcDbArc
 50
90.0
 51
270.0
  0
LINE
  5
4DF
330
1F
100
AcDbEntity
  8
LAYER0032
  6
CONTINUOUS
 62
     3
100
AcDbLine
 10
1900.542458808616
 20
736.4157160963236
 30
0.0
 11
1900.542458808616
 21
706.4157160963236
 31
0.0
  0
LINE
  5
4E0
330
1F
100
AcDbEntity
  8
LAYER0032
  6
CONTINUOUS
 62
     3
100
AcDbLine
 10
1900.542458808616
 20
-149.5842839036768
 30
0.0
 11
1900.542458808616
 21
-179.5842839036768
 31
0.0
  0
LINE
  5
4E1
330
1F
100
AcDbEntity
  8
LAYER0032
  6
CONTINUOUS
 62
     3
100
AcDbLine
 10
376.5424588086158
 20
734.1157160963244
 30
0.0
 11
376.5424588086158
 21
706.4157160963236
 31
0.0
  0
LINE
  5
4E2
330
1F
100
AcDbEntity
  8
LAYER0032
  6
CONTINUOUS
 62
     3
100
AcDbLine
 10
376.5424588086158
 20
-149.5842839036768
 30
0.0
 11
376.5424588086158
 21
-179.5842839036768
 31
0.0
  0
LINE
  5
4E3
330
1F
100
AcDbEntity
  8
LAYER0032
  6
CONTINUOUS
 62
     3
100
AcDbLine
 10
1898.342458808615
 20
-642.708202389269
 30
0.0
 11
1898.342458808615
 21
-642.0057626389789
 31
0.0
  0
LINE
  5
4E4
330
1F
100
AcDbEntity
  8
LAYER0032
  6
CONTINUOUS
 62
     3
100
AcDbLine
 10
374.2424588086158
 20
-642.0057626389798
 30
0.0
 11
374.2424588086158
 21
-1012.00576263898
 31
0.0
  0
LINE
  5
4E5
330
1F
100
AcDbEntity
  8
LAYER0032
  6
CONTINUOUS
 62
     3
100
AcDbLine
 10
1882.142458808617
 20
-1064.037813446547
 30
0.0
 11
1897.642458808616
 21
-1064.037813446547
 31
0.0
  0
LINE
  5
4E6
330
1F
100
AcDbEntity
  8
LAYER0032
  6
CONTINUOUS
 62
     3
100
AcDbLine
 10
1889.142458808615
 20
-1037.037813446547
 30
0.0
 11
1897.642458808616
 21
-1037.037813446547
 31
0.0
  0
LINE
  5
4E7
330
1F
100
AcDbEntity
  8
LAYER0032
  6
CONTINUOUS
 62
     3
100
AcDbLine
 10
1906.142458808617
 20
-1037.037813446547
 30
0.0
 11
1914.642458808617
 21
-1038.537813446547
 31
0.0
  0
LINE
  5
4E8
330
1F
100
AcDbEntity
  8
LAYER0032
  6
CONTINUOUS
 62
     3
100
AcDbLine
 10
1906.142458808616
 20
-1037.037813446547
 30
0.0
 11
1897.642458808616
 21
-1038.537813446547
 31
0.0
  0
LINE
  5
4E9
330
1F
100
AcDbEntity
  8
LAYER0032
  6
CONTINUOUS
 62
     3
100
AcDbLine
 10
1897.642458808616
 20
-1064.037813446547
 30
0.0
 11
1897.642458808616
 21
-1037.037813446547
 31
0.0
  0
LINE
  5
4EA
330
1F
100
AcDbEntity
  8
LAYER0032
  6
CONTINUOUS
 62
     3
100
AcDbLine
 10
1906.142458808616
 20
-1037.037813446547
 30
0.0
 11
1906.142458808616
 21
-1064.037813446547
 31
0.0
  0
LINE
  5
4EB
330
1F
100
AcDbEntity
  8
LAYER0032
  6
CONTINUOUS
 62
     3
100
AcDbLine
 10
1906.142458808617
 20
-1064.037813446548
 30
0.0
 11
1914.642458808617
 21
-1062.537813446548
 31
0.0
  0
LINE
  5
4EC
330
1F
100
AcDbEntity
  8
LAYER0032
  6
CONTINUOUS
 62
     3
100
AcDbLine
 10
1906.142458808616
 20
-1064.037813446548
 30
0.0
 11
1897.642458808616
 21
-1062.537813446548
 31
0.0
  0
ARC
  5
4ED
330
1F
100
AcDbEntity
  8
LAYER0032
  6
CONTINUOUS
 62
     3
100
AcDbCircle
 10
1889.142458808615
 20
-1032.037813446547
 30
0.0
 40
5.0
100
AcDbArc
 50
180.0
 51
270.0
  0
ARC
  5
4EE
330
1F
100
AcDbEntity
  8
LAYER0032
  6
CONTINUOUS
 62
     3
100
AcDbCircle
 10
1882.142458808617
 20
-1039.037813446547
 30
0.0
 40
25.0
100
AcDbArc
 50
180.0
 51
270.0
  0
LINE
  5
4EF
330
1F
100
AcDbEntity
  8
LAYER0032
  6
CONTINUOUS
 62
     3
100
AcDbLine
 10
1857.142458808617
 20
-1023.537813446547
 30
0.0
 11
1884.142458808615
 21
-1023.537813446547
 31
0.0
  0
LINE
  5
4F0
330
1F
100
AcDbEntity
  8
LAYER0032
  6
CONTINUOUS
 62
     3
100
AcDbLine
 10
1857.142458808617
 20
-1023.537813446547
 30
0.0
 11
1857.142458808617
 21
-1039.037813446547
 31
0.0
  0
LINE
  5
4F1
330
1F
100
AcDbEntity
  8
LAYER0032
  6
CONTINUOUS
 62
     3
100
AcDbLine
 10
1884.142458808615
 20
-1023.537813446547
 30
0.0
 11
1884.142458808615
 21
-1032.037813446547
 31
0.0
  0
LINE
  5
4F2
330
1F
100
AcDbEntity
  8
LAYER0032
  6
CONTINUOUS
 62
     3
100
AcDbLine
 10
1979.642458808616
 20
-1038.037813446547
 30
0.0
 11
1979.642458808616
 21
-1050.537813446547
 31
0.0
  0
LINE
  5
4F3
330
1F
100
AcDbEntity
  8
LAYER0032
  6
CONTINUOUS
 62
     3
100
AcDbLine
 10
1914.642458808616
 20
-1038.037813446547
 30
0.0
 11
1914.642458808616
 21
-1050.537813446547
 31
0.0
  0
LINE
  5
4F4
330
1F
100
AcDbEntity
  8
LAYER0032
  6
CONTINUOUS
 62
     3
100
AcDbLine
 10
1915.450835808616
 20
-1064.437813446547
 30
0.0
 11
1929.142458808616
 21
-1064.437813446547
 31
0.0
  0
LINE
  5
4F5
330
1F
100
AcDbEntity
  8
LAYER0032
  6
CONTINUOUS
 62
     3
100
AcDbLine
 10
1914.642458808616
 20
-1063.037813446547
 30
0.0
 11
1914.642458808616
 21
-1050.537813446547
 31
0.0
  0
LINE
  5
4F6
330
1F
100
AcDbEntity
  8
LAYER0032
  6
CONTINUOUS
 62
     3
100
AcDbLine
 10
1914.642458808616
 20
-1063.037813446547
 30
0.0
 11
1915.447760808615
 21
-1064.432638446548
 31
0.0
  0
ARC
  5
4F7
330
1F
100
AcDbEntity
  8
LAYER0032
  6
CONTINUOUS
 62
     3
100
AcDbCircle
 10
1936.674212808615
 20
-1065.037813446547
 30
0.0
 40
2.0
100
AcDbArc
 50
270.0
 51
298.9550240000002
  0
LINE
  5
4F8
330
1F
100
AcDbEntity
  8
LAYER0032
  6
CONTINUOUS
 62
     3
100
AcDbLine
 10
1933.642458808616
 20
-1066.737813446547
 30
0.0
 11
1933.342458808615
 21
-1067.037813446547
 31
0.0
  0
ARC
  5
4F9
330
1F
100
AcDbEntity
  8
LAYER0032
  6
CONTINUOUS
 62
     3
100
AcDbCircle
 10
1931.642458808616
 20
-1066.037813446547
 30
0.0
 40
1.0
100
AcDbArc
 50
180.0
 51
270.0
  0
ARC
  5
4FA
330
1F
100
AcDbEntity
  8
LAYER0032
  6
CONTINUOUS
 62
     3
100
AcDbCircle
 10
1929.142458808616
 20
-1065.937813446547
 30
0.0
 40
1.5
100
AcDbArc
 50
0.0
 51
90.0
  0
ARC
  5
4FB
330
1F
100
AcDbEntity
  8
LAYER0032
  6
CONTINUOUS
 62
     3
100
AcDbCircle
 10
1941.476535808616
 20
-1064.537813446547
 30
0.0
 40
2.0
100
AcDbArc
 50
270.0
 51
305.6590880000001
  0
ARC
  5
4FC
330
1F
100
AcDbEntity
  8
LAYER0032
  6
CONTINUOUS
 62
     3
100
AcDbCircle
 10
1943.808380808616
 20
-1067.787813446547
 30
0.0
 40
2.0
100
AcDbArc
 50
90.0
 51
125.6590880000001
  0
ARC
  5
4FD
330
1F
100
AcDbEntity
  8
LAYER0032
  6
CONTINUOUS
 62
     3
100
AcDbCircle
 10
1938.610703808616
 20
-1068.537813446547
 30
0.0
 40
2.0
100
AcDbArc
 50
90.0
 51
118.9550240000002
  0
LINE
  5
4FE
330
1F
100
AcDbEntity
  8
LAYER0032
  6
CONTINUOUS
 62
     3
100
AcDbLine
 10
1967.792458808616
 20
-1064.437813446547
 30
0.0
 11
1978.834167808615
 21
-1064.437813446547
 31
0.0
  0
ARC
  5
4FF
330
1F
100
AcDbEntity
  8
LAYER0032
  6
CONTINUOUS
 62
     3
100
AcDbCircle
 10
1961.970885808616
 20
-1065.287813446547
 30
0.0
 40
2.0
100
AcDbArc
 50
90.0
 51
135.0000000000003
  0
LINE
  5
500
330
1F
100
AcDbEntity
  8
LAYER0032
  6
CONTINUOUS
 62
     3
100
AcDbLine
 10
1960.556671808616
 20
-1063.873600446547
 30
0.0
 11
1960.478244808616
 21
-1063.952027446547
 31
0.0
  0
ARC
  5
501
330
1F
100
AcDbEntity
  8
LAYER0032
  6
CONTINUOUS
 62
     3
100
AcDbCircle
 10
1953.564030808616
 20
-1063.787813446547
 30
0.0
 40
2.0
100
AcDbArc
 50
270.0
 51
315.0000000000003
  0
LINE
  5
502
330
1F
100
AcDbEntity
  8
LAYER0032
  6
CONTINUOUS
 62
     3
100
AcDbLine
 10
1955.349564808615
 20
-1064.830707446547
 30
0.0
 11
1954.978244808615
 21
-1065.202027446547
 31
0.0
  0
ARC
  5
503
330
1F
100
AcDbEntity
  8
LAYER0032
  6
CONTINUOUS
 62
     3
100
AcDbCircle
 10
1956.056671808616
 20
-1065.537813446547
 30
0.0
 40
1.0
100
AcDbArc
 50
90.0
 51
135.0
  0
ARC
  5
504
330
1F
100
AcDbEntity
  8
LAYER0032
  6
CONTINUOUS
 62
     3
100
AcDbCircle
 10
1959.064030808616
 20
-1062.537813446547
 30
0.0
 40
2.0
100
AcDbArc
 50
270.0
 51
315.0000000000003
  0
LINE
  5
505
330
1F
100
AcDbEntity
  8
LAYER0032
  6
CONTINUOUS
 62
     3
100
AcDbLine
 10
1967.792458808616
 20
-1064.437813446547
 30
0.0
 11
1967.228244808616
 21
-1063.873600446547
 31
0.0
  0
ARC
  5
506
330
1F
100
AcDbEntity
  8
LAYER0032
  6
CONTINUOUS
 62
     3
100
AcDbCircle
 10
1965.814030808616
 20
-1065.287813446547
 30
0.0
 40
2.0
100
AcDbArc
 50
44.99999999999972
 51
90.0
  0
LINE
  5
507
330
1F
100
AcDbEntity
  8
LAYER0032
  6
CONTINUOUS
 62
     3
100
AcDbLine
 10
1979.642458808616
 20
-1063.037813446547
 30
0.0
 11
1979.642458808616
 21
-1050.537813446547
 31
0.0
  0
LINE
  5
508
330
1F
100
AcDbEntity
  8
LAYER0032
  6
CONTINUOUS
 62
     3
100
AcDbLine
 10
1978.834167808615
 20
-1064.437813446547
 30
0.0
 11
1979.642458808616
 21
-1063.037813446547
 31
0.0
  0
LINE
  5
509
330
1F
100
AcDbEntity
  8
LAYER0032
  6
CONTINUOUS
 62
     3
100
AcDbLine
 10
1953.242458808616
 20
-1020.737813446547
 30
0.0
 11
1941.042458808615
 21
-1020.737813446547
 31
0.0
  0
LINE
  5
50A
330
1F
100
AcDbEntity
  8
LAYER0032
  6
CONTINUOUS
 62
     3
100
AcDbLine
 10
1936.142458808616
 20
-1022.237813446547
 30
0.0
 11
1959.987757808616
 21
-1022.237813446547
 31
0.0
  0
LINE
  5
50B
330
1F
100
AcDbEntity
  8
LAYER0032
  6
CONTINUOUS
 62
     3
100
AcDbLine
 10
1952.592458808615
 20
-1025.737813446547
 30
0.0
 11
1955.142458808616
 21
-1025.737813446547
 31
0.0
  0
LINE
  5
50C
330
1F
100
AcDbEntity
  8
LAYER0032
  6
CONTINUOUS
 62
     3
100
AcDbLine
 10
1936.142458808616
 20
-1025.237813446547
 30
0.0
 11
1959.987757808616
 21
-1025.237813446547
 31
0.0
  0
LINE
  5
50D
330
1F
100
AcDbEntity
  8
LAYER0032
  6
CONTINUOUS
 62
     3
100
AcDbLine
 10
1915.450835808616
 20
-1036.637813446547
 30
0.0
 11
1929.142458808616
 21
-1036.637813446547
 31
0.0
  0
LINE
  5
50E
330
1F
100
AcDbEntity
  8
LAYER0032
  6
CONTINUOUS
 62
     3
100
AcDbLine
 10
1914.642458808616
 20
-1038.037813446547
 30
0.0
 11
1915.447760808615
 21
-1036.642988446547
 31
0.0
  0
LINE
  5
50F
330
1F
100
AcDbEntity
  8
LAYER0032
  6
CONTINUOUS
 62
     3
100
AcDbLine
 10
1936.142458808616
 20
-1025.237813446547
 30
0.0
 11
1936.142458808616
 21
-1022.237813446547
 31
0.0
  0
ARC
  5
510
330
1F
100
AcDbEntity
  8
LAYER0032
  6
CONTINUOUS
 62
     3
100
AcDbCircle
 10
1936.674212808615
 20
-1036.037813446547
 30
0.0
 40
2.0
100
AcDbArc
 50
83.27745900000012
 51
90.0
  0
ARC
  5
511
330
1F
100
AcDbEntity
  8
LAYER0032
  6
CONTINUOUS
 62
     3
100
AcDbCircle
 10
1931.642458808616
 20
-1035.037813446547
 30
0.0
 40
1.0
100
AcDbArc
 50
90.0
 51
180.0
  0
LINE
  5
512
330
1F
100
AcDbEntity
  8
LAYER0032
  6
CONTINUOUS
 62
     3
100
AcDbLine
 10
1933.642458808616
 20
-1034.337813446547
 30
0.0
 11
1933.342458808615
 21
-1034.037813446547
 31
0.0
  0
LINE
  5
513
330
1F
100
AcDbEntity
  8
LAYER0032
  6
CONTINUOUS
 62
     3
100
AcDbLine
 10
1930.642458808616
 20
-1035.037813446547
 30
0.0
 11
1930.642458808616
 21
-1035.137813446547
 31
0.0
  0
ARC
  5
514
330
1F
100
AcDbEntity
  8
LAYER0032
  6
CONTINUOUS
 62
     3
100
AcDbCircle
 10
1929.142458808616
 20
-1035.137813446547
 30
0.0
 40
1.5
100
AcDbArc
 50
270.0
 51
0.0
  0
LINE
  5
515
330
1F
100
AcDbEntity
  8
LAYER0032
  6
CONTINUOUS
 62
     3
100
AcDbLine
 10
1933.642458808616
 20
-1034.037813446547
 30
0.0
 11
1933.642458808616
 21
-1035.837813446547
 31
0.0
  0
ARC
  5
516
330
1F
100
AcDbEntity
  8
LAYER0032
  6
CONTINUOUS
 62
     3
100
AcDbCircle
 10
1937.142458808616
 20
-1032.065315446547
 30
0.0
 40
2.0
100
AcDbArc
 50
263.2774590000001
 51
0.0
  0
LINE
  5
517
330
1F
100
AcDbEntity
  8
LAYER0032
  6
CONTINUOUS
 62
     3
100
AcDbLine
 10
1941.692458808616
 20
-1025.487813446547
 30
0.0
 11
1947.142458808616
 21
-1025.487813446547
 31
0.0
  0
LINE
  5
518
330
1F
100
AcDbEntity
  8
LAYER0032
  6
CONTINUOUS
 62
     3
100
AcDbLine
 10
1941.692458808616
 20
-1025.487813446547
 30
0.0
 11
1941.942458808616
 21
-1025.237813446547
 31
0.0
  0
LINE
  5
519
330
1F
100
AcDbEntity
  8
LAYER0032
  6
CONTINUOUS
 62
     3
100
AcDbLine
 10
1941.642458808616
 20
-1025.737813446547
 30
0.0
 11
1941.642458808616
 21
-1025.237813446547
 31
0.0
  0
LINE
  5
51A
330
1F
100
AcDbEntity
  8
LAYER0032
  6
CONTINUOUS
 62
     3
100
AcDbLine
 10
1939.142458808616
 20
-1025.737813446547
 30
0.0
 11
1939.142458808616
 21
-1025.237813446547
 31
0.0
  0
LINE
  5
51B
330
1F
100
AcDbEntity
  8
LAYER0032
  6
CONTINUOUS
 62
     3
100
AcDbLine
 10
1939.142458808616
 20
-1032.065315446547
 30
0.0
 11
1939.142458808616
 21
-1025.737813446547
 31
0.0
  0
LINE
  5
51C
330
1F
100
AcDbEntity
  8
LAYER0032
  6
CONTINUOUS
 62
     3
100
AcDbLine
 10
1952.592458808615
 20
-1025.487813446547
 30
0.0
 11
1952.342458808615
 21
-1025.237813446547
 31
0.0
  0
LINE
  5
51D
330
1F
100
AcDbEntity
  8
LAYER0032
  6
CONTINUOUS
 62
     3
100
AcDbLine
 10
1952.642458808616
 20
-1025.737813446547
 30
0.0
 11
1952.642458808616
 21
-1025.237813446547
 31
0.0
  0
LINE
  5
51E
330
1F
100
AcDbEntity
  8
LAYER0032
  6
CONTINUOUS
 62
     3
100
AcDbLine
 10
1952.592458808615
 20
-1025.487813446547
 30
0.0
 11
1947.142458808616
 21
-1025.487813446547
 31
0.0
  0
LINE
  5
51F
330
1F
100
AcDbEntity
  8
LAYER0032
  6
CONTINUOUS
 62
     3
100
AcDbLine
 10
1944.142458808616
 20
-1015.937813446547
 30
0.0
 11
1947.142458808616
 21
-1015.937813446547
 31
0.0
  0
LINE
  5
520
330
1F
100
AcDbEntity
  8
LAYER0032
  6
CONTINUOUS
 62
     3
100
AcDbLine
 10
1944.742938808616
 20
-1020.737813446547
 30
0.0
 11
1947.341015808615
 21
-1022.237813446547
 31
0.0
  0
ARC
  5
521
330
1F
100
AcDbEntity
  8
LAYER0032
  6
CONTINUOUS
 62
     3
100
AcDbCircle
 10
1947.142458808616
 20
-1026.691231446547
 30
0.0
 40
9.553418
100
AcDbArc
 50
72.41204599999999
 51
107.587954
  0
ARC
  5
522
330
1F
100
AcDbEntity
  8
LAYER0032
  6
CONTINUOUS
 62
     3
100
AcDbCircle
 10
1947.142458808616
 20
-1011.184395446548
 30
0.0
 40
9.553418
100
AcDbArc
 50
252.412046
 51
287.587954
  0
LINE
  5
523
330
1F
100
AcDbEntity
  8
LAYER0032
  6
CONTINUOUS
 62
     3
100
AcDbLine
 10
1942.142458808616
 20
-1017.137813446547
 30
0.0
 11
1952.142458808616
 21
-1017.137813446547
 31
0.0
  0
LINE
  5
524
330
1F
100
AcDbEntity
  8
LAYER0032
  6
CONTINUOUS
 62
     3
100
AcDbLine
 10
1944.255706808615
 20
-1020.291231446547
 30
0.0
 11
1944.255706808615
 21
-1017.584395446547
 31
0.0
  0
LINE
  5
525
330
1F
100
AcDbEntity
  8
LAYER0032
  6
CONTINUOUS
 62
     3
100
AcDbLine
 10
1944.142458808616
 20
-1017.137813446547
 30
0.0
 11
1944.142458808616
 21
-1015.937813446547
 31
0.0
  0
LINE
  5
526
330
1F
100
AcDbEntity
  8
LAYER0032
  6
CONTINUOUS
 62
     3
100
AcDbLine
 10
1941.368955808615
 20
-1017.584395446547
 30
0.0
 11
1942.142458808616
 21
-1017.137813446547
 31
0.0
  0
LINE
  5
527
330
1F
100
AcDbEntity
  8
LAYER0032
  6
CONTINUOUS
 62
     3
100
AcDbLine
 10
1941.368955808615
 20
-1020.291231446547
 30
0.0
 11
1942.142458808616
 21
-1020.737813446547
 31
0.0
  0
LINE
  5
528
330
1F
100
AcDbEntity
  8
LAYER0032
  6
CONTINUOUS
 62
     3
100
AcDbLine
 10
1941.042458808615
 20
-1020.737813446547
 30
0.0
 11
1941.042458808615
 21
-1022.237813446547
 31
0.0
  0
LINE
  5
529
330
1F
100
AcDbEntity
  8
LAYER0032
  6
CONTINUOUS
 62
     3
100
AcDbLine
 10
1941.368955808615
 20
-1020.291231446547
 30
0.0
 11
1941.368955808615
 21
-1017.584395446547
 31
0.0
  0
ARC
  5
52A
330
1F
100
AcDbEntity
  8
LAYER0032
  6
CONTINUOUS
 62
     3
100
AcDbCircle
 10
1942.812331808615
 20
-1019.693636446547
 30
0.0
 40
2.555823
100
AcDbArc
 50
55.61575300000003
 51
115.615753
  0
ARC
  5
52B
330
1F
100
AcDbEntity
  8
LAYER0032
  6
CONTINUOUS
 62
     3
100
AcDbCircle
 10
1942.812331808615
 20
-1018.181991446547
 30
0.0
 40
2.555823
100
AcDbArc
 50
244.384247
 51
304.384247
  0
LINE
  5
52C
330
1F
100
AcDbEntity
  8
LAYER0032
  6
CONTINUOUS
 62
     3
100
AcDbLine
 10
1952.915960808616
 20
-1017.584395446547
 30
0.0
 11
1952.142458808616
 21
-1017.137813446547
 31
0.0
  0
LINE
  5
52D
330
1F
100
AcDbEntity
  8
LAYER0032
  6
CONTINUOUS
 62
     3
100
AcDbLine
 10
1952.915960808616
 20
-1020.291231446547
 30
0.0
 11
1952.142458808616
 21
-1020.737813446547
 31
0.0
  0
LINE
  5
52E
330
1F
100
AcDbEntity
  8
LAYER0032
  6
CONTINUOUS
 62
     3
100
AcDbLine
 10
1952.915960808616
 20
-1020.291231446547
 30
0.0
 11
1952.915960808616
 21
-1017.584395446547
 31
0.0
  0
LINE
  5
52F
330
1F
100
AcDbEntity
  8
LAYER0032
  6
CONTINUOUS
 62
     3
100
AcDbLine
 10
1950.142458808616
 20
-1015.937813446547
 30
0.0
 11
1947.142458808616
 21
-1015.937813446547
 31
0.0
  0
LINE
  5
530
330
1F
100
AcDbEntity
  8
LAYER0032
  6
CONTINUOUS
 62
     3
100
AcDbLine
 10
1950.029209808616
 20
-1020.291231446547
 30
0.0
 11
1950.029209808616
 21
-1017.584395446547
 31
0.0
  0
LINE
  5
531
330
1F
100
AcDbEntity
  8
LAYER0032
  6
CONTINUOUS
 62
     3
100
AcDbLine
 10
1946.742938808616
 20
-1020.737813446547
 30
0.0
 11
1949.341015808615
 21
-1022.237813446547
 31
0.0
  0
LINE
  5
532
330
1F
100
AcDbEntity
  8
LAYER0032
  6
CONTINUOUS
 62
     3
100
AcDbLine
 10
1950.142458808616
 20
-1017.137813446547
 30
0.0
 11
1950.142458808616
 21
-1015.937813446547
 31
0.0
  0
ARC
  5
533
330
1F
100
AcDbEntity
  8
LAYER0032
  6
CONTINUOUS
 62
     3
100
AcDbCircle
 10
1951.472585808616
 20
-1019.693636446547
 30
0.0
 40
2.555823
100
AcDbArc
 50
64.38424699999996
 51
124.384247
  0
ARC
  5
534
330
1F
100
AcDbEntity
  8
LAYER0032
  6
CONTINUOUS
 62
     3
100
AcDbCircle
 10
1951.472585808616
 20
-1018.181991446547
 30
0.0
 40
2.555823
100
AcDbArc
 50
235.615753
 51
295.615753
  0
ARC
  5
535
330
1F
100
AcDbEntity
  8
LAYER0032
  6
CONTINUOUS
 62
     3
100
AcDbCircle
 10
1959.987757808616
 20
-1020.237813446547
 30
0.0
 40
5.0
100
AcDbArc
 50
270.0
 51
329.9999999999999
  0
LINE
  5
536
330
1F
100
AcDbEntity
  8
LAYER0032
  6
CONTINUOUS
 62
     3
100
AcDbLine
 10
1967.792458808616
 20
-1036.637813446547
 30
0.0
 11
1978.834167808615
 21
-1036.637813446547
 31
0.0
  0
ARC
  5
537
330
1F
100
AcDbEntity
  8
LAYER0032
  6
CONTINUOUS
 62
     3
100
AcDbCircle
 10
1954.892458808616
 20
-1034.299063446547
 30
0.0
 40
1.0
100
AcDbArc
 50
0.0
 51
51.31781300000039
  0
ARC
  5
538
330
1F
100
AcDbEntity
  8
LAYER0032
  6
CONTINUOUS
 62
     3
100
AcDbCircle
 10
1961.970885808616
 20
-1035.787813446547
 30
0.0
 40
2.0
100
AcDbArc
 50
224.9999999999997
 51
270.0
  0
LINE
  5
539
330
1F
100
AcDbEntity
  8
LAYER0032
  6
CONTINUOUS
 62
     3
100
AcDbLine
 10
1960.556671808616
 20
-1037.202027446547
 30
0.0
 11
1960.478244808616
 21
-1037.123600446547
 31
0.0
  0
ARC
  5
53A
330
1F
100
AcDbEntity
  8
LAYER0032
  6
CONTINUOUS
 62
     3
100
AcDbCircle
 10
1957.892458808616
 20
-1034.537813446547
 30
0.0
 40
2.0
100
AcDbArc
 50
180.0
 51
270.0
  0
ARC
  5
53B
330
1F
100
AcDbEntity
  8
LAYER0032
  6
CONTINUOUS
 62
     3
100
AcDbCircle
 10
1959.064030808616
 20
-1038.537813446547
 30
0.0
 40
2.0
100
AcDbArc
 50
44.99999999999972
 51
90.0
  0
LINE
  5
53C
330
1F
100
AcDbEntity
  8
LAYER0032
  6
CONTINUOUS
 62
     3
100
AcDbLine
 10
1955.892458808616
 20
-1034.299063446547
 30
0.0
 11
1955.892458808616
 21
-1034.537813446547
 31
0.0
  0
ARC
  5
53D
330
1F
100
AcDbEntity
  8
LAYER0032
  6
CONTINUOUS
 62
     3
100
AcDbCircle
 10
1965.814030808616
 20
-1035.787813446547
 30
0.0
 40
2.0
100
AcDbArc
 50
270.0
 51
315.0000000000003
  0
LINE
  5
53E
330
1F
100
AcDbEntity
  8
LAYER0032
  6
CONTINUOUS
 62
     3
100
AcDbLine
 10
1967.792458808616
 20
-1036.637813446547
 30
0.0
 11
1967.228244808616
 21
-1037.202027446547
 31
0.0
  0
LINE
  5
53F
330
1F
100
AcDbEntity
  8
LAYER0032
  6
CONTINUOUS
 62
     3
100
AcDbLine
 10
1955.142458808616
 20
-1025.737813446547
 30
0.0
 11
1955.142458808616
 21
-1025.237813446547
 31
0.0
  0
ARC
  5
540
330
1F
100
AcDbEntity
  8
LAYER0032
  6
CONTINUOUS
 62
     3
100
AcDbCircle
 10
1956.142458808616
 20
-1032.737813446547
 30
0.0
 40
1.0
100
AcDbArc
 50
180.0
 51
231.3178130000004
  0
LINE
  5
541
330
1F
100
AcDbEntity
  8
LAYER0032
  6
CONTINUOUS
 62
     3
100
AcDbLine
 10
1955.142458808616
 20
-1025.737813446547
 30
0.0
 11
1955.142458808616
 21
-1032.737813446547
 31
0.0
  0
LINE
  5
542
330
1F
100
AcDbEntity
  8
LAYER0032
  6
CONTINUOUS
 62
     3
100
AcDbLine
 10
1978.834167808615
 20
-1036.637813446547
 30
0.0
 11
1979.642458808616
 21
-1038.037813446547
 31
0.0
  0
ARC
  5
543
330
1F
100
AcDbEntity
  8
LAYER0032
  6
CONTINUOUS
 62
     3
100
AcDbCircle
 10
1959.987757808616
 20
-1020.237813446547
 30
0.0
 40
2.0
100
AcDbArc
 50
270.0
 51
329.9999999999999
  0
LINE
  5
544
330
1F
100
AcDbEntity
  8
LAYER0032
  6
CONTINUOUS
 62
     3
100
AcDbLine
 10
1953.242458808616
 20
-1020.737813446547
 30
0.0
 11
1953.242458808616
 21
-1022.237813446547
 31
0.0
  0
LINE
  5
545
330
1F
100
AcDbEntity
  8
LAYER0032
  6
CONTINUOUS
 62
     3
100
AcDbLine
 10
1943.808380808616
 20
-1065.787813446547
 30
0.0
 11
1953.564030808616
 21
-1065.787813446547
 31
0.0
  0
LINE
  5
546
330
1F
100
AcDbEntity
  8
LAYER0032
  6
CONTINUOUS
 62
     3
100
AcDbLine
 10
1933.342458808615
 20
-1067.037813446547
 30
0.0
 11
1931.642458808616
 21
-1067.037813446547
 31
0.0
  0
LINE
  5
547
330
1F
100
AcDbEntity
  8
LAYER0032
  6
CONTINUOUS
 62
     3
100
AcDbLine
 10
1933.642458808616
 20
-1067.037813446547
 30
0.0
 11
1936.674212808615
 21
-1067.037813446547
 31
0.0
  0
LINE
  5
548
330
1F
100
AcDbEntity
  8
LAYER0032
  6
CONTINUOUS
 62
     3
100
AcDbLine
 10
1938.610703808616
 20
-1066.537813446547
 30
0.0
 11
1941.476535808616
 21
-1066.537813446547
 31
0.0
  0
LINE
  5
549
330
1F
100
AcDbEntity
  8
LAYER0032
  6
CONTINUOUS
 62
     3
100
AcDbLine
 10
1956.056671808616
 20
-1064.537813446547
 30
0.0
 11
1959.064030808616
 21
-1064.537813446547
 31
0.0
  0
LINE
  5
54A
330
1F
100
AcDbEntity
  8
LAYER0032
  6
CONTINUOUS
 62
     3
100
AcDbLine
 10
1933.342458808615
 20
-1034.037813446547
 30
0.0
 11
1931.642458808616
 21
-1034.037813446547
 31
0.0
  0
LINE
  5
54B
330
1F
100
AcDbEntity
  8
LAYER0032
  6
CONTINUOUS
 62
     3
100
AcDbLine
 10
1933.642458808616
 20
-1034.037813446547
 30
0.0
 11
1936.674212808615
 21
-1034.037813446547
 31
0.0
  0
LINE
  5
54C
330
1F
100
AcDbEntity
  8
LAYER0032
  6
CONTINUOUS
 62
     3
100
AcDbLine
 10
1941.692458808616
 20
-1025.737813446547
 30
0.0
 11
1939.142458808616
 21
-1025.737813446547
 31
0.0
  0
LINE
  5
54D
330
1F
100
AcDbEntity
  8
LAYER0032
  6
CONTINUOUS
 62
     3
100
AcDbLine
 10
1957.892458808616
 20
-1036.537813446547
 30
0.0
 11
1959.064030808616
 21
-1036.537813446547
 31
0.0
  0
LINE
  5
54E
330
1F
100
AcDbEntity
  8
LAYER0032
  6
CONTINUOUS
 62
     3
100
AcDbLine
 10
1961.970885808616
 20
-1063.287813446547
 30
0.0
 11
1965.814030808616
 21
-1063.287813446547
 31
0.0
  0
LINE
  5
54F
330
1F
100
AcDbEntity
  8
LAYER0032
  6
CONTINUOUS
 62
     3
100
AcDbLine
 10
1961.970885808616
 20
-1037.787813446547
 30
0.0
 11
1965.814030808616
 21
-1037.787813446547
 31
0.0
  0
LINE
  5
550
330
1F
100
AcDbEntity
  8
LAYER0032
  6
CONTINUOUS
 62
     3
100
AcDbLine
 10
1915.447760808615
 20
-1040.410322446547
 30
0.0
 11
1915.447760808615
 21
-1041.017103446547
 31
0.0
  0
LINE
  5
551
330
1F
100
AcDbEntity
  8
LAYER0032
  6
CONTINUOUS
 62
     3
100
AcDbLine
 10
1915.447760808615
 20
-1050.966872446547
 30
0.0
 11
1929.142458808616
 21
-1050.966872446547
 31
0.0
  0
LINE
  5
552
330
1F
100
AcDbEntity
  8
LAYER0032
  6
CONTINUOUS
 62
     3
100
AcDbLine
 10
1915.447760808615
 20
-1050.108754446547
 30
0.0
 11
1929.142458808616
 21
-1050.108754446547
 31
0.0
  0
ARC
  5
553
330
1F
100
AcDbEntity
  8
LAYER0032
  6
CONTINUOUS
 62
     3
100
AcDbCircle
 10
1935.188895808616
 20
-1045.562928446547
 30
0.0
 40
20.257762
100
AcDbArc
 50
167.032449
 51
192.9675509999999
  0
LINE
  5
554
330
1F
100
AcDbEntity
  8
LAYER0032
  6
CONTINUOUS
 62
     3
100
AcDbLine
 10
1915.447760808615
 20
-1040.410322446547
 30
0.0
 11
1929.142458808616
 21
-1040.410322446547
 31
0.0
  0
LINE
  5
555
330
1F
100
AcDbEntity
  8
LAYER0032
  6
CONTINUOUS
 62
     3
100
AcDbLine
 10
1915.447760808615
 20
-1041.017103446547
 30
0.0
 11
1929.142458808616
 21
-1041.017103446547
 31
0.0
  0
ARC
  5
556
330
1F
100
AcDbEntity
  8
LAYER0032
  6
CONTINUOUS
 62
     3
100
AcDbCircle
 10
1918.623449808616
 20
-1038.526655446547
 30
0.0
 40
3.692316
100
AcDbArc
 50
149.232196
 51
210.6743909999998
  0
LINE
  5
557
330
1F
100
AcDbEntity
  8
LAYER0032
  6
CONTINUOUS
 62
     3
100
AcDbLine
 10
1915.447760808615
 20
-1060.058523446547
 30
0.0
 11
1929.142458808616
 21
-1060.058523446547
 31
0.0
  0
LINE
  5
558
330
1F
100
AcDbEntity
  8
LAYER0032
  6
CONTINUOUS
 62
     3
100
AcDbLine
 10
1915.447760808615
 20
-1060.665305446547
 30
0.0
 11
1929.142458808616
 21
-1060.665305446547
 31
0.0
  0
ARC
  5
559
330
1F
100
AcDbEntity
  8
LAYER0032
  6
CONTINUOUS
 62
     3
100
AcDbCircle
 10
1935.188895808616
 20
-1055.512698446547
 30
0.0
 40
20.257762
100
AcDbArc
 50
167.032449
 51
192.9675509999999
  0
LINE
  5
55A
330
1F
100
AcDbEntity
  8
LAYER0032
  6
CONTINUOUS
 62
     3
100
AcDbLine
 10
1915.447760808615
 20
-1060.665305446547
 30
0.0
 11
1915.447760808615
 21
-1060.058523446547
 31
0.0
  0
ARC
  5
55B
330
1F
100
AcDbEntity
  8
LAYER0032
  6
CONTINUOUS
 62
     3
100
AcDbCircle
 10
1918.623449808616
 20
-1062.548971446548
 30
0.0
 40
3.692316
100
AcDbArc
 50
149.3256090000002
 51
210.7678040000001
  0
LINE
  5
55C
330
1F
100
AcDbEntity
  8
LAYER0032
  6
CONTINUOUS
 62
     3
100
AcDbLine
 10
1915.447760808615
 20
-1050.108754446547
 30
0.0
 11
1915.447760808615
 21
-1050.537813446547
 31
0.0
  0
LINE
  5
55D
330
1F
100
AcDbEntity
  8
LAYER0032
  6
CONTINUOUS
 62
     3
100
AcDbLine
 10
1915.447760808615
 20
-1050.966872446547
 30
0.0
 11
1915.447760808615
 21
-1050.537813446547
 31
0.0
  0
LINE
  5
55E
330
1F
100
AcDbEntity
  8
LAYER0032
  6
CONTINUOUS
 62
     3
100
AcDbLine
 10
1933.642458808616
 20
-1067.037813446547
 30
0.0
 11
1933.642458808616
 21
-1035.837813446547
 31
0.0
  0
LINE
  5
55F
330
1F
100
AcDbEntity
  8
LAYER0032
  6
CONTINUOUS
 62
     3
100
AcDbLine
 10
1930.642458808616
 20
-1066.037813446547
 30
0.0
 11
1930.642458808616
 21
-1035.137813446547
 31
0.0
  0
LINE
  5
560
330
1F
100
AcDbEntity
  8
LAYER0032
  6
CONTINUOUS
 62
     3
100
AcDbLine
 10
1942.642458808616
 20
-1066.162813440364
 30
0.0
 11
1942.642458808616
 21
-1034.037813446547
 31
0.0
  0
LINE
  5
561
330
1F
100
AcDbEntity
  8
LAYER0032
  6
CONTINUOUS
 62
     3
100
AcDbLine
 10
1937.642458808616
 20
-1066.787813452831
 30
0.0
 11
1937.642458808616
 21
-1034.037813446547
 31
0.0
  0
ARC
  5
562
330
1F
100
AcDbEntity
  8
LAYER0032
  6
CONTINUOUS
 62
     3
100
AcDbCircle
 10
1975.670341808615
 20
-1062.551559446547
 30
0.0
 40
3.683443
100
AcDbArc
 50
329.1968529999999
 51
30.80314700000012
  0
ARC
  5
563
330
1F
100
AcDbEntity
  8
LAYER0032
  6
CONTINUOUS
 62
     3
100
AcDbCircle
 10
1969.319099808616
 20
-1062.551559446547
 30
0.0
 40
2.426642
100
AcDbArc
 50
128.9850120000001
 51
218.9850120000001
  0
ARC
  5
564
330
1F
100
AcDbEntity
  8
LAYER0032
  6
CONTINUOUS
 62
     3
100
AcDbCircle
 10
1959.209524808616
 20
-1055.512698446547
 30
0.0
 40
20.144259
100
AcDbArc
 50
346.9580990000001
 51
14.2978658563414
  0
LINE
  5
565
330
1F
100
AcDbEntity
  8
LAYER0032
  6
CONTINUOUS
 62
     3
100
AcDbLine
 10
1978.834167808615
 20
-1060.665305446547
 30
0.0
 11
1967.792458808616
 21
-1060.665305446547
 31
0.0
  0
LINE
  5
566
330
1F
100
AcDbEntity
  8
LAYER0032
  6
CONTINUOUS
 62
     3
100
AcDbLine
 10
1978.834167808615
 20
-1060.058523446547
 30
0.0
 11
1967.792458808616
 21
-1060.058523446547
 31
0.0
  0
LINE
  5
567
330
1F
100
AcDbEntity
  8
LAYER0032
  6
CONTINUOUS
 62
     3
100
AcDbLine
 10
1978.834167808615
 20
-1060.665305446547
 30
0.0
 11
1978.834167808615
 21
-1060.058523446547
 31
0.0
  0
ARC
  5
568
330
1F
100
AcDbEntity
  8
LAYER0032
  6
CONTINUOUS
 62
     3
100
AcDbCircle
 10
1978.822751808616
 20
-1055.512698446547
 30
0.0
 40
11.930293
100
AcDbArc
 50
155.3549199977387
 51
202.397631
  0
LINE
  5
569
330
1F
100
AcDbEntity
  8
LAYER0032
  6
CONTINUOUS
 62
     3
100
AcDbLine
 10
1967.792458808616
 20
-1060.665305446547
 30
0.0
 11
1967.792458808616
 21
-1060.058523446547
 31
0.0
  0
ARC
  5
56A
330
1F
100
AcDbEntity
  8
LAYER0032
  6
CONTINUOUS
 62
     3
100
AcDbCircle
 10
1975.670341808615
 20
-1038.524067446548
 30
0.0
 40
3.683443
100
AcDbArc
 50
329.1968529999999
 51
30.80314700000012
  0
ARC
  5
56B
330
1F
100
AcDbEntity
  8
LAYER0032
  6
CONTINUOUS
 62
     3
100
AcDbCircle
 10
1959.209524808616
 20
-1045.562928446547
 30
0.0
 40
20.144259
100
AcDbArc
 50
345.7021341436586
 51
13.04190099999996
  0
LINE
  5
56C
330
1F
100
AcDbEntity
  8
LAYER0032
  6
CONTINUOUS
 62
     3
100
AcDbLine
 10
1978.834167808615
 20
-1040.410321446547
 30
0.0
 11
1967.792458808616
 21
-1040.410321446547
 31
0.0
  0
LINE
  5
56D
330
1F
100
AcDbEntity
  8
LAYER0032
  6
CONTINUOUS
 62
     3
100
AcDbLine
 10
1978.834167808615
 20
-1041.017103446547
 30
0.0
 11
1967.792458808616
 21
-1041.017103446547
 31
0.0
  0
LINE
  5
56E
330
1F
100
AcDbEntity
  8
LAYER0032
  6
CONTINUOUS
 62
     3
100
AcDbLine
 10
1978.834167808615
 20
-1040.410321446547
 30
0.0
 11
1978.834167808615
 21
-1041.017103446547
 31
0.0
  0
ARC
  5
56F
330
1F
100
AcDbEntity
  8
LAYER0032
  6
CONTINUOUS
 62
     3
100
AcDbCircle
 10
1978.822751808616
 20
-1045.562928446547
 30
0.0
 40
11.930293
100
AcDbArc
 50
157.602369
 51
204.6450800022612
  0
LINE
  5
570
330
1F
100
AcDbEntity
  8
LAYER0032
  6
CONTINUOUS
 62
     3
100
AcDbLine
 10
1967.792458808616
 20
-1040.410321446547
 30
0.0
 11
1967.792458808616
 21
-1041.017103446547
 31
0.0
  0
ARC
  5
571
330
1F
100
AcDbEntity
  8
LAYER0032
  6
CONTINUOUS
 62
     3
100
AcDbCircle
 10
1969.319099808616
 20
-1038.524067446548
 30
0.0
 40
2.426642
100
AcDbArc
 50
141.0149879999999
 51
231.0149879999999
  0
LINE
  5
572
330
1F
100
AcDbEntity
  8
LAYER0032
  6
CONTINUOUS
 62
     3
100
AcDbLine
 10
1967.979209476766
 20
-1050.537813446547
 30
0.0
 11
1978.729813994379
 21
-1050.537813446547
 31
0.0
  0
LINE
  5
573
330
1F
100
AcDbEntity
  8
LAYER0032
  6
CONTINUOUS
 62
     3
100
AcDbLine
 10
1961.142458808616
 20
-1037.608172945566
 30
0.0
 11
1961.142458808616
 21
-1063.467453947525
 31
0.0
  0
LINE
  5
574
330
1F
100
AcDbEntity
  8
LAYER0032
  6
CONTINUOUS
 62
     3
100
AcDbLine
 10
1959.892458808616
 20
-1036.717454402617
 30
0.0
 11
1959.892458808616
 21
-1064.358172490474
 31
0.0
  0
LINE
  5
575
330
1F
100
AcDbEntity
  8
LAYER0032
  6
CONTINUOUS
 62
     3
100
AcDbLine
 10
1955.642458808616
 20
-1034.037813446547
 30
0.0
 11
1955.642458808616
 21
-1064.537813446547
 31
0.0
  0
LINE
  5
576
330
1F
100
AcDbEntity
  8
LAYER0032
  6
CONTINUOUS
 62
     3
100
AcDbLine
 10
1954.542458808615
 20
-1034.037813446547
 30
0.0
 11
1954.542458808615
 21
-1065.532141010053
 31
0.0
  0
LINE
  5
577
330
1F
100
AcDbEntity
  8
LAYER0032
  6
CONTINUOUS
 62
     3
100
AcDbLine
 10
1937.642458808616
 20
-1034.037813446547
 30
0.0
 11
1955.892458808616
 21
-1034.037813446547
 31
0.0
  0
LINE
  5
578
330
1F
100
AcDbEntity
  8
LAYER0032
  6
CONTINUOUS
 62
     3
100
AcDbLine
 10
1975.576214808616
 20
-1002.237813446547
 30
0.0
 11
2032.142458808616
 21
-1002.237813446547
 31
0.0
  0
LINE
  5
579
330
1F
100
AcDbEntity
  8
LAYER0032
  6
CONTINUOUS
 62
     3
100
AcDbLine
 10
1975.576214808616
 20
-1005.237813446547
 30
0.0
 11
2032.142458808616
 21
-1005.237813446547
 31
0.0
  0
LINE
  5
57A
330
1F
100
AcDbEntity
  8
LAYER0032
  6
CONTINUOUS
 62
     3
100
AcDbLine
 10
1945.142458808616
 20
-1014.937813446547
 30
0.0
 11
1947.142458808616
 21
-1014.937813446547
 31
0.0
  0
LINE
  5
57B
330
1F
100
AcDbEntity
  8
LAYER0032
  6
CONTINUOUS
 62
     3
100
AcDbLine
 10
1949.142458808616
 20
-1014.937813446547
 30
0.0
 11
1947.142458808616
 21
-1014.937813446547
 31
0.0
  0
ARC
  5
57C
330
1F
100
AcDbEntity
  8
LAYER0032
  6
CONTINUOUS
 62
     3
100
AcDbCircle
 10
1975.576214808616
 20
-1007.237813446547
 30
0.0
 40
5.0
100
AcDbArc
 50
90.0
 51
150.0
  0
ARC
  5
57D
330
1F
100
AcDbEntity
  8
LAYER0032
  6
CONTINUOUS
 62
     3
100
AcDbCircle
 10
1975.576214808616
 20
-1007.237813446547
 30
0.0
 40
2.0
100
AcDbArc
 50
90.0
 51
149.9999999999999
  0
LINE
  5
57E
330
1F
100
AcDbEntity
  8
LAYER0032
  6
CONTINUOUS
 62
     3
100
AcDbLine
 10
2002.142458808616
 20
-1005.237813446547
 30
0.0
 11
2002.142458808616
 21
-1002.237813446547
 31
0.0
  0
LINE
  5
57F
330
1F
100
AcDbEntity
  8
LAYER0032
  6
CONTINUOUS
 62
     3
100
AcDbLine
 10
2032.142458808616
 20
-1005.237813446547
 30
0.0
 11
2032.142458808616
 21
-1002.237813446547
 31
0.0
  0
LINE
  5
580
330
1F
100
AcDbEntity
  8
LAYER0032
  6
CONTINUOUS
 62
     3
100
AcDbLine
 10
1944.142458808616
 20
-1015.937813446547
 30
0.0
 11
1945.142458808616
 21
-1014.937813446547
 31
0.0
  0
LINE
  5
581
330
1F
100
AcDbEntity
  8
LAYER0032
  6
CONTINUOUS
 62
     3
100
AcDbLine
 10
1950.142458808616
 20
-1015.937813446547
 30
0.0
 11
1949.142458808616
 21
-1014.937813446547
 31
0.0
  0
LINE
  5
582
330
1F
100
AcDbEntity
  8
LAYER0032
  6
CONTINUOUS
 62
     3
100
AcDbLine
 10
1964.317884808615
 20
-1022.737813446547
 30
0.0
 11
1973.844163808616
 21
-1006.237813446547
 31
0.0
  0
LINE
  5
583
330
1F
100
AcDbEntity
  8
LAYER0032
  6
CONTINUOUS
 62
     3
100
AcDbLine
 10
1961.719808808616
 20
-1021.237813446547
 30
0.0
 11
1971.246087808616
 21
-1004.737813446547
 31
0.0
  0
LINE
  5
584
330
1F
100
AcDbEntity
  8
LAYER0032
  6
CONTINUOUS
 62
     3
100
AcDbLine
 10
1944.682458808616
 20
-1017.137813446547
 30
0.0
 11
1944.682458808616
 21
-1015.397813446547
 31
0.0
  0
LINE
  5
585
330
1F
100
AcDbEntity
  8
LAYER0032
  6
CONTINUOUS
 62
     3
100
AcDbLine
 10
1949.602458808616
 20
-1017.137813446547
 30
0.0
 11
1949.602458808616
 21
-1015.397813446547
 31
0.0
  0
ARC
  5
586
330
1F
100
AcDbEntity
  8
LAYER0032
  6
CONTINUOUS
 62
     3
100
AcDbCircle
 10
1935.188895808616
 20
283.3906010963242
 30
0.0
 40
20.257762
100
AcDbArc
 50
167.032449
 51
192.9675509999999
  0
LINE
  5
587
330
1F
100
AcDbEntity
  8
LAYER0032
  6
CONTINUOUS
 62
     3
100
AcDbLine
 10
1914.642458808616
 20
290.9157160963236
 30
0.0
 11
1914.642458808616
 21
278.4157160963236
 31
0.0
  0
LINE
  5
588
330
1F
100
AcDbEntity
  8
LAYER0032
  6
CONTINUOUS
 62
     3
100
AcDbLine
 10
1915.450835808616
 20
292.3157160963242
 30
0.0
 11
1929.142458808616
 21
292.3157160963242
 31
0.0
  0
LINE
  5
589
330
1F
100
AcDbEntity
  8
LAYER0032
  6
CONTINUOUS
 62
     3
100
AcDbLine
 10
1915.447760808616
 20
288.5432070963238
 30
0.0
 11
1929.142458808616
 21
288.5432070963238
 31
0.0
  0
LINE
  5
58A
330
1F
100
AcDbEntity
  8
LAYER0032
  6
CONTINUOUS
 62
     3
100
AcDbLine
 10
1915.447760808616
 20
287.9364260963234
 30
0.0
 11
1929.142458808616
 21
287.9364260963234
 31
0.0
  0
LINE
  5
58B
330
1F
100
AcDbEntity
  8
LAYER0032
  6
CONTINUOUS
 62
     3
100
AcDbLine
 10
1914.642458808616
 20
290.9157160963236
 30
0.0
 11
1915.447760808616
 21
292.310541096324
 31
0.0
  0
LINE
  5
58C
330
1F
100
AcDbEntity
  8
LAYER0032
  6
CONTINUOUS
 62
     3
100
AcDbLine
 10
1915.447760808616
 20
288.5432070963238
 30
0.0
 11
1915.447760808616
 21
287.9364260963234
 31
0.0
  0
ARC
  5
58D
330
1F
100
AcDbEntity
  8
LAYER0032
  6
CONTINUOUS
 62
     3
100
AcDbCircle
 10
1918.623449808616
 20
290.4268740963239
 30
0.0
 40
3.692316
100
AcDbArc
 50
149.232196
 51
210.6743909999998
  0
LINE
  5
58E
330
1F
100
AcDbEntity
  8
LAYER0032
  6
CONTINUOUS
 62
     3
100
AcDbLine
 10
1906.142458808617
 20
291.9157160963233
 30
0.0
 11
1914.642458808617
 21
290.4157160963236
 31
0.0
  0
LINE
  5
58F
330
1F
100
AcDbEntity
  8
LAYER0032
  6
CONTINUOUS
 62
     3
100
AcDbLine
 10
2002.142458808616
 20
288.4157160963236
 30
0.0
 11
2030.281970808616
 21
286.4480090963239
 31
0.0
  0
CIRCLE
  5
590
330
1F
100
AcDbEntity
  8
LAYER0032
  6
CONTINUOUS
 62
     3
100
AcDbCircle
 10
1947.142458808616
 20
278.4157160963236
 30
0.0
 40
6.1
  0
LINE
  5
591
330
1F
100
AcDbEntity
  8
LAYER0032
  6
CONTINUOUS
 62
     3
100
AcDbLine
 10
1950.642458808616
 20
289.4157160963236
 30
0.0
 11
1961.142458808616
 21
289.4157160963236
 31
0.0
  0
ARC
  5
592
330
1F
100
AcDbEntity
  8
LAYER0032
  6
CONTINUOUS
 62
     3
100
AcDbCircle
 10
1947.142458808616
 20
278.4157160963236
 30
0.0
 40
8.75
100
AcDbArc
 50
109.4276419999999
 51
199.9156889999999
  0
ARC
  5
593
330
1F
100
AcDbEntity
  8
LAYER0032
  6
CONTINUOUS
 62
     3
100
AcDbCircle
 10
1947.142458808616
 20
278.4157160963236
 30
0.0
 40
8.0
100
AcDbArc
 50
74.67060800000003
 51
195.329392
  0
LINE
  5
594
330
1F
100
AcDbEntity
  8
LAYER0032
  6
CONTINUOUS
 62
     3
100
AcDbLine
 10
1937.642458808616
 20
294.0950920963237
 30
0.0
 11
1937.642458808616
 21
278.4157160963236
 31
0.0
  0
LINE
  5
595
330
1F
100
AcDbEntity
  8
LAYER0032
  6
CONTINUOUS
 62
     3
100
AcDbLine
 10
1933.642458808616
 20
294.9157160963236
 30
0.0
 11
1933.642458808616
 21
278.4157160963236
 31
0.0
  0
LINE
  5
596
330
1F
100
AcDbEntity
  8
LAYER0032
  6
CONTINUOUS
 62
     3
100
AcDbLine
 10
1930.642458808616
 20
293.9157160963236
 30
0.0
 11
1930.642458808616
 21
278.4157160963236
 31
0.0
  0
CIRCLE
  5
597
330
1F
100
AcDbEntity
  8
LAYER0032
  6
CONTINUOUS
 62
     3
100
AcDbCircle
 10
1947.142458808616
 20
278.4157160963236
 30
0.0
 40
3.0
  0
CIRCLE
  5
598
330
1F
100
AcDbEntity
  8
LAYER0032
  6
CONTINUOUS
 62
     3
100
AcDbCircle
 10
1947.142458808616
 20
278.4157160963236
 30
0.0
 40
5.0
  0
ARC
  5
599
330
1F
100
AcDbEntity
  8
LAYER0032
  6
CONTINUOUS
 62
     3
100
AcDbCircle
 10
1936.674212808616
 20
292.9157160963236
 30
0.0
 40
2.0
100
AcDbArc
 50
61.044976
 51
90.0
  0
ARC
  5
59A
330
1F
100
AcDbEntity
  8
LAYER0032
  6
CONTINUOUS
 62
     3
100
AcDbCircle
 10
1931.642458808616
 20
293.9157160963236
 30
0.0
 40
1.0
100
AcDbArc
 50
90.0
 51
180.0
  0
LINE
  5
59B
330
1F
100
AcDbEntity
  8
LAYER0032
  6
CONTINUOUS
 62
     3
100
AcDbLine
 10
1933.642458808616
 20
294.6157160963235
 30
0.0
 11
1933.342458808616
 21
294.9157160963236
 31
0.0
  0
ARC
  5
59C
330
1F
100
AcDbEntity
  8
LAYER0032
  6
CONTINUOUS
 62
     3
100
AcDbCircle
 10
1929.142458808616
 20
293.8157160963242
 30
0.0
 40
1.5
100
AcDbArc
 50
270.0
 51
0.0
  0
ARC
  5
59D
330
1F
100
AcDbEntity
  8
LAYER0032
  6
CONTINUOUS
 62
     3
100
AcDbCircle
 10
1947.142458808616
 20
278.4157160963236
 30
0.0
 40
8.7
100
AcDbArc
 50
70.87766699999996
 51
109.1223330000001
  0
ARC
  5
59E
330
1F
100
AcDbEntity
  8
LAYER0032
  6
CONTINUOUS
 62
     3
100
AcDbCircle
 10
1945.292458808616
 20
289.4157160963236
 30
0.0
 40
1.0
100
AcDbArc
 50
90.0
 51
180.0
  0
ARC
  5
59F
330
1F
100
AcDbEntity
  8
LAYER0032
  6
CONTINUOUS
 62
     3
100
AcDbCircle
 10
1941.476535808616
 20
292.4157160963236
 30
0.0
 40
2.0
100
AcDbArc
 50
54.3409119999997
 51
90.0
  0
ARC
  5
5A0
330
1F
100
AcDbEntity
  8
LAYER0032
  6
CONTINUOUS
 62
     3
100
AcDbCircle
 10
1943.808380808616
 20
295.6657160963236
 30
0.0
 40
2.0
100
AcDbArc
 50
234.3409119999997
 51
270.0
  0
ARC
  5
5A1
330
1F
100
AcDbEntity
  8
LAYER0032
  6
CONTINUOUS
 62
     3
100
AcDbCircle
 10
1938.610703808616
 20
296.4157160963236
 30
0.0
 40
2.0
100
AcDbArc
 50
241.044976
 51
270.0
  0
LINE
  5
5A2
330
1F
100
AcDbEntity
  8
LAYER0032
  6
CONTINUOUS
 62
     3
100
AcDbLine
 10
1944.292458808616
 20
286.2277260963242
 30
0.0
 11
1944.292458808616
 21
289.4157160963236
 31
0.0
  0
ARC
  5
5A3
330
1F
100
AcDbEntity
  8
LAYER0032
  6
CONTINUOUS
 62
     3
100
AcDbCircle
 10
1942.292458808616
 20
287.1552790963237
 30
0.0
 40
2.0
100
AcDbArc
 50
302.6080329999999
 51
0.0
  0
LINE
  5
5A4
330
1F
100
AcDbEntity
  8
LAYER0032
  6
CONTINUOUS
 62
     3
100
AcDbLine
 10
1942.642458808616
 20
293.1415130963237
 30
0.0
 11
1942.642458808616
 21
286.4077360963233
 31
0.0
  0
LINE
  5
5A5
330
1F
100
AcDbEntity
  8
LAYER0032
  6
CONTINUOUS
 62
     3
100
AcDbLine
 10
1945.292458808616
 20
290.4157160963236
 30
0.0
 11
1948.992458808616
 21
290.4157160963236
 31
0.0
  0
ARC
  5
5A6
330
1F
100
AcDbEntity
  8
LAYER0032
  6
CONTINUOUS
 62
     3
100
AcDbCircle
 10
1947.142458808616
 20
278.4157160963236
 30
0.0
 40
8.75
100
AcDbArc
 50
70.08431100000004
 51
70.57235800000005
  0
ARC
  5
5A7
330
1F
100
AcDbEntity
  8
LAYER0032
  6
CONTINUOUS
 62
     3
100
AcDbCircle
 10
1951.992458808616
 20
287.1552790963237
 30
0.0
 40
2.0
100
AcDbArc
 50
180.0
 51
197.934231
  0
LINE
  5
5A8
330
1F
100
AcDbEntity
  8
LAYER0032
  6
CONTINUOUS
 62
     3
100
AcDbLine
 10
1950.142458808616
 20
288.9157160963236
 30
0.0
 11
1950.142458808616
 21
286.8061870963234
 31
0.0
  0
ARC
  5
5A9
330
1F
100
AcDbEntity
  8
LAYER0032
  6
CONTINUOUS
 62
     3
100
AcDbCircle
 10
1949.442458808616
 20
286.8061870963234
 30
0.0
 40
0.7
100
AcDbArc
 50
254.670608
 51
0.0
  0
ARC
  5
5AA
330
1F
100
AcDbEntity
  8
LAYER0032
  6
CONTINUOUS
 62
     3
100
AcDbCircle
 10
1950.642458808616
 20
288.9157160963236
 30
0.0
 40
0.5
100
AcDbArc
 50
90.0
 51
180.0
  0
LINE
  5
5AB
330
1F
100
AcDbEntity
  8
LAYER0032
  6
CONTINUOUS
 62
     3
100
AcDbLine
 10
1949.992458808616
 20
286.6356610963235
 30
0.0
 11
1949.992458808616
 21
289.4157160963236
 31
0.0
  0
ARC
  5
5AC
330
1F
100
AcDbEntity
  8
LAYER0032
  6
CONTINUOUS
 62
     3
100
AcDbCircle
 10
1948.992458808616
 20
289.4157160963236
 30
0.0
 40
1.0
100
AcDbArc
 50
0.0
 51
90.0
  0
LINE
  5
5AD
330
1F
100
AcDbEntity
  8
LAYER0032
  6
CONTINUOUS
 62
     3
100
AcDbLine
 10
1972.689463808616
 20
272.4157160963236
 30
0.0
 11
1972.689463808616
 21
288.4157160963236
 31
0.0
  0
LINE
  5
5AE
330
1F
100
AcDbEntity
  8
LAYER0032
  6
CONTINUOUS
 62
     3
100
AcDbLine
 10
1961.142458808616
 20
289.4157160963236
 30
0.0
 11
1961.142458808616
 21
271.4157160963236
 31
0.0
  0
LINE
  5
5AF
330
1F
100
AcDbEntity
  8
LAYER0032
  6
CONTINUOUS
 62
     3
100
AcDbLine
 10
1961.142458808616
 20
290.8922180963241
 30
0.0
 11
1961.142458808616
 21
278.4157160963236
 31
0.0
  0
LINE
  5
5B0
330
1F
100
AcDbEntity
  8
LAYER0032
  6
CONTINUOUS
 62
     3
100
AcDbLine
 10
1972.689463808616
 20
288.4157160963236
 30
0.0
 11
2002.142458808616
 21
288.4157160963236
 31
0.0
  0
LINE
  5
5B1
330
1F
100
AcDbEntity
  8
LAYER0032
  6
CONTINUOUS
 62
     3
100
AcDbLine
 10
1978.834167808616
 20
292.3157160963242
 30
0.0
 11
1967.792458808616
 21
292.3157160963242
 31
0.0
  0
LINE
  5
5B2
330
1F
100
AcDbEntity
  8
LAYER0032
  6
CONTINUOUS
 62
     3
100
AcDbLine
 10
1961.142458808616
 20
289.4157160963236
 30
0.0
 11
1972.689463808616
 21
288.4157160963236
 31
0.0
  0
ARC
  5
5B3
330
1F
100
AcDbEntity
  8
LAYER0032
  6
CONTINUOUS
 62
     3
100
AcDbCircle
 10
1961.970885808616
 20
293.1657160963236
 30
0.0
 40
2.0
100
AcDbArc
 50
225.0
 51
270.0
  0
LINE
  5
5B4
330
1F
100
AcDbEntity
  8
LAYER0032
  6
CONTINUOUS
 62
     3
100
AcDbLine
 10
1960.556671808616
 20
291.7515020963242
 30
0.0
 11
1960.478244808616
 21
291.8299290963237
 31
0.0
  0
ARC
  5
5B5
330
1F
100
AcDbEntity
  8
LAYER0032
  6
CONTINUOUS
 62
     3
100
AcDbCircle
 10
1956.056671808616
 20
293.4157160963236
 30
0.0
 40
1.0
100
AcDbArc
 50
225.0
 51
270.0
  0
LINE
  5
5B6
330
1F
100
AcDbEntity
  8
LAYER0032
  6
CONTINUOUS
 62
     3
100
AcDbLine
 10
1955.349564808616
 20
292.7086090963235
 30
0.0
 11
1954.978244808616
 21
293.0799290963237
 31
0.0
  0
ARC
  5
5B7
330
1F
100
AcDbEntity
  8
LAYER0032
  6
CONTINUOUS
 62
     3
100
AcDbCircle
 10
1953.564030808616
 20
291.6657160963236
 30
0.0
 40
2.0
100
AcDbArc
 50
45.0
 51
90.0
  0
ARC
  5
5B8
330
1F
100
AcDbEntity
  8
LAYER0032
  6
CONTINUOUS
 62
     3
100
AcDbCircle
 10
1959.064030808616
 20
290.4157160963236
 30
0.0
 40
2.0
100
AcDbArc
 50
45.0
 51
90.0
  0
LINE
  5
5B9
330
1F
100
AcDbEntity
  8
LAYER0032
  6
CONTINUOUS
 62
     3
100
AcDbLine
 10
1959.892458808616
 20
291.258986096324
 30
0.0
 11
1959.892458808616
 21
289.4157160963236
 31
0.0
  0
LINE
  5
5BA
330
1F
100
AcDbEntity
  8
LAYER0032
  6
CONTINUOUS
 62
     3
100
AcDbLine
 10
1955.642458808616
 20
291.8982940963238
 30
0.0
 11
1955.642458808616
 21
289.4157160963236
 31
0.0
  0
LINE
  5
5BB
330
1F
100
AcDbEntity
  8
LAYER0032
  6
CONTINUOUS
 62
     3
100
AcDbLine
 10
1954.542458808616
 20
292.6387290963235
 30
0.0
 11
1954.542458808616
 21
289.4157160963236
 31
0.0
  0
ARC
  5
5BC
330
1F
100
AcDbEntity
  8
LAYER0032
  6
CONTINUOUS
 62
     3
100
AcDbCircle
 10
1965.814030808616
 20
293.1657160963236
 30
0.0
 40
2.0
100
AcDbArc
 50
270.0
 51
315.0
  0
LINE
  5
5BD
330
1F
100
AcDbEntity
  8
LAYER0032
  6
CONTINUOUS
 62
     3
100
AcDbLine
 10
1967.792458808616
 20
292.3157160963242
 30
0.0
 11
1967.228244808616
 21
291.7515020963242
 31
0.0
  0
ARC
  5
5BE
330
1F
100
AcDbEntity
  8
LAYER0032
  6
CONTINUOUS
 62
     3
100
AcDbCircle
 10
1969.319099808616
 20
290.4294620963242
 30
0.0
 40
2.426642
100
AcDbArc
 50
141.0149879999999
 51
220.0352950000002
  0
LINE
  5
5BF
330
1F
100
AcDbEntity
  8
LAYER0032
  6
CONTINUOUS
 62
     3
100
AcDbLine
 10
1966.642458808616
 20
290.7211120963234
 30
0.0
 11
1966.642458808616
 21
288.9394020963241
 31
0.0
  0
LINE
  5
5C0
330
1F
100
AcDbEntity
  8
LAYER0032
  6
CONTINUOUS
 62
     3
100
AcDbLine
 10
1978.834167808616
 20
288.5432070963238
 30
0.0
 11
1971.217319808616
 21
288.5432070963238
 31
0.0
  0
LINE
  5
5C1
330
1F
100
AcDbEntity
  8
LAYER0032
  6
CONTINUOUS
 62
     3
100
AcDbLine
 10
1978.834167808616
 20
292.3157160963242
 30
0.0
 11
1979.642458808616
 21
290.9157160963236
 31
0.0
  0
ARC
  5
5C2
330
1F
100
AcDbEntity
  8
LAYER0032
  6
CONTINUOUS
 62
     3
100
AcDbCircle
 10
1975.670341808616
 20
290.4294620963242
 30
0.0
 40
3.683443
100
AcDbArc
 50
329.1968529999999
 51
30.80314700000012
  0
LINE
  5
5C3
330
1F
100
AcDbEntity
  8
LAYER0032
  6
CONTINUOUS
 62
     3
100
AcDbLine
 10
2032.142458808616
 20
284.4528810963234
 30
0.0
 11
2032.142458808616
 21
276.3785500963236
 31
0.0
  0
ARC
  5
5C4
330
1F
100
AcDbEntity
  8
LAYER0032
  6
CONTINUOUS
 62
     3
100
AcDbCircle
 10
2030.142458808616
 20
284.4528810963234
 30
0.0
 40
2.0
100
AcDbArc
 50
0.0
 51
86.00000000000023
  0
ARC
  5
5C5
330
1F
100
AcDbEntity
  8
LAYER0032
  6
CONTINUOUS
 62
     3
100
AcDbCircle
 10
1943.792458808616
 20
286.2277260963242
 30
0.0
 40
0.5
100
AcDbArc
 50
293.210955
 51
0.0
  0
LINE
  5
5C6
330
1F
100
AcDbEntity
  8
LAYER0032
  6
CONTINUOUS
 62
     3
100
AcDbLine
 10
1943.808380808616
 20
293.6657160963236
 30
0.0
 11
1953.564030808616
 21
293.6657160963236
 31
0.0
  0
LINE
  5
5C7
330
1F
100
AcDbEntity
  8
LAYER0032
  6
CONTINUOUS
 62
     3
100
AcDbLine
 10
1933.342458808616
 20
294.9157160963236
 30
0.0
 11
1931.642458808616
 21
294.9157160963236
 31
0.0
  0
LINE
  5
5C8
330
1F
100
AcDbEntity
  8
LAYER0032
  6
CONTINUOUS
 62
     3
100
AcDbLine
 10
1933.642458808616
 20
294.9157160963236
 30
0.0
 11
1936.674212808616
 21
294.9157160963236
 31
0.0
  0
LINE
  5
5C9
330
1F
100
AcDbEntity
  8
LAYER0032
  6
CONTINUOUS
 62
     3
100
AcDbLine
 10
1938.610703808616
 20
294.4157160963236
 30
0.0
 11
1941.476535808616
 21
294.4157160963236
 31
0.0
  0
LINE
  5
5CA
330
1F
100
AcDbEntity
  8
LAYER0032
  6
CONTINUOUS
 62
     3
100
AcDbLine
 10
1956.056671808616
 20
292.4157160963236
 30
0.0
 11
1959.064030808616
 21
292.4157160963236
 31
0.0
  0
LINE
  5
5CB
330
1F
100
AcDbEntity
  8
LAYER0032
  6
CONTINUOUS
 62
     3
100
AcDbLine
 10
1961.970885808616
 20
291.1657160963236
 30
0.0
 11
1965.814030808616
 21
291.1657160963236
 31
0.0
  0
CIRCLE
  5
5CC
330
1F
100
AcDbEntity
  8
LAYER0032
  6
CONTINUOUS
 62
     3
100
AcDbCircle
 10
1947.142458808616
 20
278.4157160963236
 30
0.0
 40
2.0
  0
LINE
  5
5CD
330
1F
100
AcDbEntity
  8
LAYER0032
  6
CONTINUOUS
 62
     3
100
AcDbLine
 10
2002.142458808616
 20
272.4157160963236
 30
0.0
 11
2030.281970808616
 21
274.383422096324
 31
0.0
  0
LINE
  5
5CE
330
1F
100
AcDbEntity
  8
LAYER0032
  6
CONTINUOUS
 62
     3
100
AcDbLine
 10
1938.142458808616
 20
271.4157160963236
 30
0.0
 11
1961.142458808616
 21
271.4157160963236
 31
0.0
  0
LINE
  5
5CF
330
1F
100
AcDbEntity
  8
LAYER0032
  6
CONTINUOUS
 62
     3
100
AcDbLine
 10
1915.447760808616
 20
268.8950060963239
 30
0.0
 11
1929.142458808616
 21
268.8950060963239
 31
0.0
  0
LINE
  5
5D0
330
1F
100
AcDbEntity
  8
LAYER0032
  6
CONTINUOUS
 62
     3
100
AcDbLine
 10
1915.447760808616
 20
268.288224096324
 30
0.0
 11
1929.142458808616
 21
268.288224096324
 31
0.0
  0
LINE
  5
5D1
330
1F
100
AcDbEntity
  8
LAYER0032
  6
CONTINUOUS
 62
     3
100
AcDbLine
 10
1915.450835808616
 20
264.515716096324
 30
0.0
 11
1929.142458808616
 21
264.515716096324
 31
0.0
  0
ARC
  5
5D2
330
1F
100
AcDbEntity
  8
LAYER0032
  6
CONTINUOUS
 62
     3
100
AcDbCircle
 10
1935.188895808616
 20
273.440831096324
 30
0.0
 40
20.257762
100
AcDbArc
 50
167.032449
 51
192.9675509999999
  0
LINE
  5
5D3
330
1F
100
AcDbEntity
  8
LAYER0032
  6
CONTINUOUS
 62
     3
100
AcDbLine
 10
1914.642458808616
 20
265.9157160963236
 30
0.0
 11
1914.642458808616
 21
278.4157160963236
 31
0.0
  0
LINE
  5
5D4
330
1F
100
AcDbEntity
  8
LAYER0032
  6
CONTINUOUS
 62
     3
100
AcDbLine
 10
1915.447760808616
 20
268.288224096324
 30
0.0
 11
1915.447760808616
 21
268.8950060963239
 31
0.0
  0
LINE
  5
5D5
330
1F
100
AcDbEntity
  8
LAYER0032
  6
CONTINUOUS
 62
     3
100
AcDbLine
 10
1914.642458808616
 20
265.9157160963236
 30
0.0
 11
1915.447760808616
 21
264.5208910963233
 31
0.0
  0
ARC
  5
5D6
330
1F
100
AcDbEntity
  8
LAYER0032
  6
CONTINUOUS
 62
     3
100
AcDbCircle
 10
1918.623449808616
 20
266.4045580963234
 30
0.0
 40
3.692316
100
AcDbArc
 50
149.3256090000002
 51
210.7678040000001
  0
ARC
  5
5D7
330
1F
100
AcDbEntity
  8
LAYER0032
  6
CONTINUOUS
 62
     3
100
AcDbCircle
 10
1936.674212808616
 20
263.9157160963236
 30
0.0
 40
2.0
100
AcDbArc
 50
270.0
 51
298.955024
  0
LINE
  5
5D8
330
1F
100
AcDbEntity
  8
LAYER0032
  6
CONTINUOUS
 62
     3
100
AcDbLine
 10
1933.642458808616
 20
262.2157160963238
 30
0.0
 11
1933.342458808616
 21
261.9157160963236
 31
0.0
  0
ARC
  5
5D9
330
1F
100
AcDbEntity
  8
LAYER0032
  6
CONTINUOUS
 62
     3
100
AcDbCircle
 10
1931.642458808616
 20
262.9157160963236
 30
0.0
 40
1.0
100
AcDbArc
 50
180.0
 51
270.0
  0
LINE
  5
5DA
330
1F
100
AcDbEntity
  8
LAYER0032
  6
CONTINUOUS
 62
     3
100
AcDbLine
 10
1933.642458808616
 20
261.9157160963236
 30
0.0
 11
1933.642458808616
 21
278.4157160963236
 31
0.0
  0
LINE
  5
5DB
330
1F
100
AcDbEntity
  8
LAYER0032
  6
CONTINUOUS
 62
     3
100
AcDbLine
 10
1938.751987808616
 20
275.4157160963236
 30
0.0
 11
1936.642458808616
 21
275.4157160963236
 31
0.0
  0
ARC
  5
5DC
330
1F
100
AcDbEntity
  8
LAYER0032
  6
CONTINUOUS
 62
     3
100
AcDbCircle
 10
1938.142458808616
 20
273.4157160963236
 30
0.0
 40
2.0
100
AcDbArc
 50
180.0
 51
270.0
  0
LINE
  5
5DD
330
1F
100
AcDbEntity
  8
LAYER0032
  6
CONTINUOUS
 62
     3
100
AcDbLine
 10
1930.642458808616
 20
262.9157160963236
 30
0.0
 11
1930.642458808616
 21
278.4157160963236
 31
0.0
  0
ARC
  5
5DE
330
1F
100
AcDbEntity
  8
LAYER0032
  6
CONTINUOUS
 62
     3
100
AcDbCircle
 10
1929.142458808616
 20
263.015716096324
 30
0.0
 40
1.5
100
AcDbArc
 50
0.0
 51
90.0
  0
LINE
  5
5DF
330
1F
100
AcDbEntity
  8
LAYER0032
  6
CONTINUOUS
 62
     3
100
AcDbLine
 10
1936.142458808616
 20
274.9157160963236
 30
0.0
 11
1936.142458808616
 21
273.4157160963236
 31
0.0
  0
ARC
  5
5E0
330
1F
100
AcDbEntity
  8
LAYER0032
  6
CONTINUOUS
 62
     3
100
AcDbCircle
 10
1936.642458808616
 20
274.9157160963236
 30
0.0
 40
0.5
100
AcDbArc
 50
90.0
 51
180.0
  0
ARC
  5
5E1
330
1F
100
AcDbEntity
  8
LAYER0032
  6
CONTINUOUS
 62
     3
100
AcDbCircle
 10
1947.142458808616
 20
278.4157160963236
 30
0.0
 40
8.0
100
AcDbArc
 50
241.044976
 51
298.955024
  0
ARC
  5
5E2
330
1F
100
AcDbEntity
  8
LAYER0032
  6
CONTINUOUS
 62
     3
100
AcDbCircle
 10
1947.142458808616
 20
278.4157160963236
 30
0.0
 40
8.75
100
AcDbArc
 50
233.1301020000001
 51
306.8698979999999
  0
ARC
  5
5E3
330
1F
100
AcDbEntity
  8
LAYER0032
  6
CONTINUOUS
 62
     3
100
AcDbCircle
 10
1943.808380808616
 20
261.1657160963236
 30
0.0
 40
2.0
100
AcDbArc
 50
90.0
 51
125.6590880000003
  0
ARC
  5
5E4
330
1F
100
AcDbEntity
  8
LAYER0032
  6
CONTINUOUS
 62
     3
100
AcDbCircle
 10
1941.476535808616
 20
264.4157160963236
 30
0.0
 40
2.0
100
AcDbArc
 50
270.0
 51
305.6590880000003
  0
ARC
  5
5E5
330
1F
100
AcDbEntity
  8
LAYER0032
  6
CONTINUOUS
 62
     3
100
AcDbCircle
 10
1938.610703808616
 20
260.4157160963236
 30
0.0
 40
2.0
100
AcDbArc
 50
90.0
 51
118.955024
  0
LINE
  5
5E6
330
1F
100
AcDbEntity
  8
LAYER0032
  6
CONTINUOUS
 62
     3
100
AcDbLine
 10
1937.642458808616
 20
262.7363390963242
 30
0.0
 11
1937.642458808616
 21
271.4792240963238
 31
0.0
  0
LINE
  5
5E7
330
1F
100
AcDbEntity
  8
LAYER0032
  6
CONTINUOUS
 62
     3
100
AcDbLine
 10
1942.642458808616
 20
263.6899190963236
 30
0.0
 11
1942.642458808616
 21
270.423696096324
 31
0.0
  0
ARC
  5
5E8
330
1F
100
AcDbEntity
  8
LAYER0032
  6
CONTINUOUS
 62
     3
100
AcDbCircle
 10
1938.751987808616
 20
276.1157160963235
 30
0.0
 40
0.7
100
AcDbArc
 50
270.0
 51
15.3293919999997
  0
LINE
  5
5E9
330
1F
100
AcDbEntity
  8
LAYER0032
  6
CONTINUOUS
 62
     3
100
AcDbLine
 10
1937.642458808616
 20
275.4157160963236
 30
0.0
 11
1937.642458808616
 21
278.4157160963236
 31
0.0
  0
LINE
  5
5EA
330
1F
100
AcDbEntity
  8
LAYER0032
  6
CONTINUOUS
 62
     3
100
AcDbLine
 10
1972.689463808616
 20
272.4157160963236
 30
0.0
 11
2002.142458808616
 21
272.4157160963236
 31
0.0
  0
LINE
  5
5EB
330
1F
100
AcDbEntity
  8
LAYER0032
  6
CONTINUOUS
 62
     3
100
AcDbLine
 10
1978.834167808616
 20
264.515716096324
 30
0.0
 11
1967.792458808616
 21
264.515716096324
 31
0.0
  0
LINE
  5
5EC
330
1F
100
AcDbEntity
  8
LAYER0032
  6
CONTINUOUS
 62
     3
100
AcDbLine
 10
1978.834167808616
 20
268.288224096324
 30
0.0
 11
1967.792458808616
 21
268.288224096324
 31
0.0
  0
LINE
  5
5ED
330
1F
100
AcDbEntity
  8
LAYER0032
  6
CONTINUOUS
 62
     3
100
AcDbLine
 10
1978.834167808616
 20
268.8950060963239
 30
0.0
 11
1967.792458808616
 21
268.8950060963239
 31
0.0
  0
LINE
  5
5EE
330
1F
100
AcDbEntity
  8
LAYER0032
  6
CONTINUOUS
 62
     3
100
AcDbLine
 10
1961.142458808616
 20
271.4157160963236
 30
0.0
 11
1972.689463808616
 21
272.4157160963236
 31
0.0
  0
ARC
  5
5EF
330
1F
100
AcDbEntity
  8
LAYER0032
  6
CONTINUOUS
 62
     3
100
AcDbCircle
 10
1961.970885808616
 20
263.6657160963236
 30
0.0
 40
2.0
100
AcDbArc
 50
90.0
 51
135.0
  0
LINE
  5
5F0
330
1F
100
AcDbEntity
  8
LAYER0032
  6
CONTINUOUS
 62
     3
100
AcDbLine
 10
1960.556671808616
 20
265.0799290963237
 30
0.0
 11
1960.478244808616
 21
265.0015020963242
 31
0.0
  0
LINE
  5
5F1
330
1F
100
AcDbEntity
  8
LAYER0032
  6
CONTINUOUS
 62
     3
100
AcDbLine
 10
1955.349564808616
 20
264.1228230963238
 30
0.0
 11
1954.978244808616
 21
263.7515020963242
 31
0.0
  0
ARC
  5
5F2
330
1F
100
AcDbEntity
  8
LAYER0032
  6
CONTINUOUS
 62
     3
100
AcDbCircle
 10
1953.564030808616
 20
265.1657160963236
 30
0.0
 40
2.0
100
AcDbArc
 50
270.0
 51
315.0
  0
ARC
  5
5F3
330
1F
100
AcDbEntity
  8
LAYER0032
  6
CONTINUOUS
 62
     3
100
AcDbCircle
 10
1956.056671808616
 20
263.4157160963236
 30
0.0
 40
1.0
100
AcDbArc
 50
90.0
 51
135.0
  0
ARC
  5
5F4
330
1F
100
AcDbEntity
  8
LAYER0032
  6
CONTINUOUS
 62
     3
100
AcDbCircle
 10
1959.064030808616
 20
266.4157160963236
 30
0.0
 40
2.0
100
AcDbArc
 50
270.0
 51
315.0
  0
LINE
  5
5F5
330
1F
100
AcDbEntity
  8
LAYER0032
  6
CONTINUOUS
 62
     3
100
AcDbLine
 10
1961.142458808616
 20
266.1677550963236
 30
0.0
 11
1961.142458808616
 21
271.4157160963236
 31
0.0
  0
LINE
  5
5F6
330
1F
100
AcDbEntity
  8
LAYER0032
  6
CONTINUOUS
 62
     3
100
AcDbLine
 10
1959.892458808616
 20
265.5724460963233
 30
0.0
 11
1959.892458808616
 21
271.4157160963236
 31
0.0
  0
LINE
  5
5F7
330
1F
100
AcDbEntity
  8
LAYER0032
  6
CONTINUOUS
 62
     3
100
AcDbLine
 10
1954.542458808616
 20
264.1927030963238
 30
0.0
 11
1954.542458808616
 21
271.4157160963236
 31
0.0
  0
LINE
  5
5F8
330
1F
100
AcDbEntity
  8
LAYER0032
  6
CONTINUOUS
 62
     3
100
AcDbLine
 10
1955.642458808616
 20
264.9331380963235
 30
0.0
 11
1955.642458808616
 21
271.4157160963236
 31
0.0
  0
ARC
  5
5F9
330
1F
100
AcDbEntity
  8
LAYER0032
  6
CONTINUOUS
 62
     3
100
AcDbCircle
 10
1978.822751808616
 20
273.440831096324
 30
0.0
 40
11.930293
100
AcDbArc
 50
187.313687
 51
202.397631
  0
LINE
  5
5FA
330
1F
100
AcDbEntity
  8
LAYER0032
  6
CONTINUOUS
 62
     3
100
AcDbLine
 10
1967.792458808616
 20
268.288224096324
 30
0.0
 11
1967.792458808616
 21
268.8950060963239
 31
0.0
  0
ARC
  5
5FB
330
1F
100
AcDbEntity
  8
LAYER0032
  6
CONTINUOUS
 62
     3
100
AcDbCircle
 10
1965.814030808616
 20
263.6657160963236
 30
0.0
 40
2.0
100
AcDbArc
 50
45.0
 51
90.0
  0
LINE
  5
5FC
330
1F
100
AcDbEntity
  8
LAYER0032
  6
CONTINUOUS
 62
     3
100
AcDbLine
 10
1967.792458808616
 20
264.515716096324
 30
0.0
 11
1967.228244808616
 21
265.0799290963237
 31
0.0
  0
LINE
  5
5FD
330
1F
100
AcDbEntity
  8
LAYER0032
  6
CONTINUOUS
 62
     3
100
AcDbLine
 10
1966.642458808616
 20
265.9157160963236
 30
0.0
 11
1966.642458808616
 21
271.8920300963241
 31
0.0
  0
ARC
  5
5FE
330
1F
100
AcDbEntity
  8
LAYER0032
  6
CONTINUOUS
 62
     3
100
AcDbCircle
 10
1969.319099808616
 20
266.401970096324
 30
0.0
 40
2.426642
100
AcDbArc
 50
128.9850120000001
 51
218.9850120000001
  0
ARC
  5
5FF
330
1F
100
AcDbEntity
  8
LAYER0032
  6
CONTINUOUS
 62
     3
100
AcDbCircle
 10
1959.209524808616
 20
273.440831096324
 30
0.0
 40
20.144259
100
AcDbArc
 50
346.9580990000001
 51
357.083032
  0
LINE
  5
600
330
1F
100
AcDbEntity
  8
LAYER0032
  6
CONTINUOUS
 62
     3
100
AcDbLine
 10
1978.834167808616
 20
268.288224096324
 30
0.0
 11
1978.834167808616
 21
268.8950060963239
 31
0.0
  0
LINE
  5
601
330
1F
100
AcDbEntity
  8
LAYER0032
  6
CONTINUOUS
 62
     3
100
AcDbLine
 10
1978.834167808616
 20
264.515716096324
 30
0.0
 11
1979.642458808616
 21
265.9157160963236
 31
0.0
  0
LINE
  5
602
330
1F
100
AcDbEntity
  8
LAYER0032
  6
CONTINUOUS
 62
     3
100
AcDbLine
 10
1979.642458808616
 20
265.9157160963236
 30
0.0
 11
1979.642458808616
 21
272.4157160963236
 31
0.0
  0
ARC
  5
603
330
1F
100
AcDbEntity
  8
LAYER0032
  6
CONTINUOUS
 62
     3
100
AcDbCircle
 10
1975.670341808616
 20
266.401970096324
 30
0.0
 40
3.683443
100
AcDbArc
 50
329.1968529999999
 51
30.80314700000012
  0
ARC
  5
604
330
1F
100
AcDbEntity
  8
LAYER0032
  6
CONTINUOUS
 62
     3
100
AcDbCircle
 10
2030.142458808616
 20
276.3785500963236
 30
0.0
 40
2.0
100
AcDbArc
 50
273.9999999999998
 51
0.0
  0
LINE
  5
605
330
1F
100
AcDbEntity
  8
LAYER0032
  6
CONTINUOUS
 62
     3
100
AcDbLine
 10
1943.808380808616
 20
263.1657160963236
 30
0.0
 11
1953.564030808616
 21
263.1657160963236
 31
0.0
  0
LINE
  5
606
330
1F
100
AcDbEntity
  8
LAYER0032
  6
CONTINUOUS
 62
     3
100
AcDbLine
 10
1933.342458808616
 20
261.9157160963236
 30
0.0
 11
1931.642458808616
 21
261.9157160963236
 31
0.0
  0
LINE
  5
607
330
1F
100
AcDbEntity
  8
LAYER0032
  6
CONTINUOUS
 62
     3
100
AcDbLine
 10
1933.642458808616
 20
261.9157160963236
 30
0.0
 11
1936.674212808616
 21
261.9157160963236
 31
0.0
  0
LINE
  5
608
330
1F
100
AcDbEntity
  8
LAYER0032
  6
CONTINUOUS
 62
     3
100
AcDbLine
 10
1938.610703808616
 20
262.4157160963236
 30
0.0
 11
1941.476535808616
 21
262.4157160963236
 31
0.0
  0
LINE
  5
609
330
1F
100
AcDbEntity
  8
LAYER0032
  6
CONTINUOUS
 62
     3
100
AcDbLine
 10
1956.056671808616
 20
264.4157160963236
 30
0.0
 11
1959.064030808616
 21
264.4157160963236
 31
0.0
  0
LINE
  5
60A
330
1F
100
AcDbEntity
  8
LAYER0032
  6
CONTINUOUS
 62
     3
100
AcDbLine
 10
1961.970885808616
 20
265.6657160963236
 30
0.0
 11
1965.814030808616
 21
265.6657160963236
 31
0.0
  0
LINE
  5
60B
330
1F
100
AcDbEntity
  8
LAYER0032
  6
CONTINUOUS
 62
     3
100
AcDbLine
 10
1906.142458808617
 20
264.9157160963232
 30
0.0
 11
1914.642458808617
 21
266.4157160963227
 31
0.0
  0
LINE
  5
60C
330
1F
100
AcDbEntity
  8
LAYER0032
  6
CONTINUOUS
 62
     3
100
AcDbLine
 10
1915.447760808616
 20
277.9866570963236
 30
0.0
 11
1929.142458808616
 21
277.9866570963236
 31
0.0
  0
LINE
  5
60D
330
1F
100
AcDbEntity
  8
LAYER0032
  6
CONTINUOUS
 62
     3
100
AcDbLine
 10
1915.447760808616
 20
278.8447750963237
 30
0.0
 11
1929.142458808616
 21
278.8447750963237
 31
0.0
  0
LINE
  5
60E
330
1F
100
AcDbEntity
  8
LAYER0032
  6
CONTINUOUS
 62
     3
100
AcDbLine
 10
1906.142458808617
 20
291.8877747648482
 30
0.0
 11
1906.142458808617
 21
264.9157160963232
 31
0.0
  0
LINE
  5
60F
330
1F
100
AcDbEntity
  8
LAYER0032
  6
CONTINUOUS
 62
     3
100
AcDbLine
 10
1906.142458808617
 20
291.9157160963233
 30
0.0
 11
1902.842458808616
 21
291.333363155147
 31
0.0
  0
LINE
  5
610
330
1F
100
AcDbEntity
  8
LAYER0032
  6
CONTINUOUS
 62
     3
100
AcDbLine
 10
1906.142458808617
 20
264.9157160963232
 30
0.0
 11
1902.842458808616
 21
265.4980690374996
 31
0.0
  0
LINE
  5
611
330
1F
100
AcDbEntity
  8
LAYER0032
  6
DASHED2
 62
     3
100
AcDbLine
 10
1860.492458808616
 20
-1012.00576263898
 30
0.0
 11
1882.192458808615
 21
-1012.00576263898
 31
0.0
  0
INSERT
  5
612
330
1F
100
AcDbEntity
  8
LAYER0032
  6
CONTINUOUS
100
AcDbBlockReference
  2
DC_GROUP_2
 10
0.0
 20
0.0
 30
0.0
  0
INSERT
  5
613
330
1F
100
AcDbEntity
  8
LAYER0032
  6
CONTINUOUS
100
AcDbBlockReference
  2
DC_GROUP_3
 10
0.0
 20
0.0
 30
0.0
  0
INSERT
  5
614
330
1F
100
AcDbEntity
  8
LAYER0032
  6
CONTINUOUS
100
AcDbBlockReference
  2
DC_GROUP_4
 10
0.0
 20
0.0
 30
0.0
  0
INSERT
  5
615
330
1F
100
AcDbEntity
  8
LAYER0032
  6
CONTINUOUS
100
AcDbBlockReference
  2
DC_GROUP_5
 10
0.0
 20
0.0
 30
0.0
  0
INSERT
  5
616
330
1F
100
AcDbEntity
  8
LAYER0032
  6
CONTINUOUS
100
AcDbBlockReference
  2
DC_GROUP_6
 10
0.0
 20
0.0
 30
0.0
  0
INSERT
  5
617
330
1F
100
AcDbEntity
  8
LAYER0032
  6
CONTINUOUS
100
AcDbBlockReference
  2
DC_GROUP_7
 10
0.0
 20
0.0
 30
0.0
  0
INSERT
  5
618
330
1F
100
AcDbEntity
  8
LAYER0032
  6
CONTINUOUS
100
AcDbBlockReference
  2
DC_GROUP_8
 10
0.0
 20
0.0
 30
0.0
  0
INSERT
  5
619
330
1F
100
AcDbEntity
  8
LAYER0032
  6
CONTINUOUS
100
AcDbBlockReference
  2
DC_GROUP_9
 10
0.0
 20
0.0
 30
0.0
  0
INSERT
  5
61A
330
1F
100
AcDbEntity
  8
LAYER0032
  6
CONTINUOUS
100
AcDbBlockReference
  2
DC_GROUP_10
 10
0.0
 20
0.0
 30
0.0
  0
INSERT
  5
61B
330
1F
100
AcDbEntity
  8
LAYER0032
  6
CONTINUOUS
100
AcDbBlockReference
  2
DC_GROUP_11
 10
0.0
 20
0.0
 30
0.0
  0
DIMENSION
  5
61C
330
1F
100
AcDbEntity
  8
LAYER0032
  6
CONTINUOUS
100
AcDbDimension
  2
*D12
 10
227.3059319198799
 20
-1012.00576263898
 30
0.0
 11
227.3059319198799
 21
-1197.961362638981
 31
0.0
 70
   160
  3
DC_ROTATED
100
AcDbAlignedDimension
 13
323.542458808616
 23
-1072.00576263898
 33
0.0
 14
348.542458808616
 24
-1012.00576263898
 34
0.0
 50
90.0
100
AcDbRotatedDimension
1001
ACAD
1000
DSTYLE
1002
{
1070
     7
1000
OPEN30
1070
     6
1000
OPEN30
1070
   144
1040
1.0
1070
   274
1070
     4
1070
    41
1040
60.00003814697266
1070
    79
1070
     2
1070
   176
1070
     4
1070
   177
1070
     4
1070
   178
1070
     4
1070
   271
1070
     1
1070
    44
1040
20.0
1070
    42
1040
20.0
1070
   147
1040
20.0
1070
   173
1070
     1
1070
    77
1070
     3
1070
    73
1070
     0
1070
   172
1070
     1
1070
    74
1070
     0
1070
   283
1070
     0
1070
   340
1005
111
1070
   140
1040
60.0
1070
   284
1070
     8
1070
   288
1070
     1
1070
    78
1070
     8
1070
    90
1070
     1
1002
}
  0
DIMENSION
  5
61E
330
1F
100
AcDbEntity
  8
LAYER0032
  6
CONTINUOUS
100
AcDbDimension
  2
*D13
 10
227.3059319198799
 20
-642.0057626389785
 30
0.0
 11
227.3059319198799
 21
-827.0057626389794
 31
0.0
 70
   160
  3
DC_ROTATED
100
AcDbAlignedDimension
 13
348.542458808616
 23
-1012.00576263898
 33
0.0
 14
374.2424588086159
 24
-642.0057626389785
 34
0.0
 50
90.0
100
AcDbRotatedDimension
1001
ACAD
1000
DSTYLE
1002
{
1070
     7
1000
OPEN30
1070
     6
1000
OPEN30
1070
   144
1040
1.0
1070
   274
1070
     4
1070
    41
1040
60.00003814697266
1070
    79
1070
     2
1070
   176
1070
     4
1070
   177
1070
     4
1070
   178
1070
     4
1070
   271
1070
     1
1070
    44
1040
20.0
1070
    42
1040
20.0
1070
   147
1040
20.0
1070
   173
1070
     1
1070
    77
1070
     3
1070
    73
1070
     0
1070
   172
1070
     1
1070
    74
1070
     0
1070
   283
1070
     0
1070
   340
1005
111
1070
   140
1040
60.0
1070
   284
1070
     8
1070
   288
1070
     1
1070
    78
1070
     8
1070
    90
1070
     1
1002
}
  0
DIMENSION
  5
61F
330
1F
100
AcDbEntity
  8
LAYER0032
  6
CONTINUOUS
100
AcDbDimension
  2
*D14
 10
93.93901176778854
 20
-642.0057626389785
 30
0.0
 11
93.93901176778854
 21
-857.0057626389794
 31
0.0
 70
   160
  3
DC_ROTATED
100
AcDbAlignedDimension
 13
323.542458808616
 23
-1072.00576263898
 33
0.0
 14
374.2424588086159
 24
-642.0057626389785
 34
0.0
 50
90.0
100
AcDbRotatedDimension
1001
ACAD
1000
DSTYLE
1002
{
1070
     7
1000
OPEN30
1070
     6
1000
OPEN30
1070
   144
1040
1.0
1070
   274
1070
     4
1070
    41
1040
60.00003814697266
1070
    79
1070
     2
1070
   176
1070
     4
1070
   177
1070
     4
1070
   178
1070
     4
1070
   271
1070
     1
1070
    44
1040
20.0
1070
    42
1040
20.0
1070
   147
1040
20.0
1070
   173
1070
     1
1070
    77
1070
     3
1070
    73
1070
     0
1070
   172
1070
     1
1070
    74
1070
     0
1070
   283
1070
     0
1070
   340
1005
111
1070
   140
1040
60.0
1070
   284
1070
     8
1070
   288
1070
     1
1070
    78
1070
     8
1070
    90
1070
     1
1002
}
  0
DIMENSION
  5
620
330
1F
100
AcDbEntity
  8
LAYER0032
  6
CONTINUOUS
100
AcDbDimension
  2
*D15
 10
245.7013691822372
 20
595.4157160963236
 30
0.0
 11
245.7013691822372
 21
278.4157160963236
 31
0.0
 70
   160
  3
DC_ROTATED
100
AcDbAlignedDimension
 13
323.542458808616
 23
-38.58428390367635
 33
0.0
 14
323.542458808616
 24
595.4157160963236
 34
0.0
 50
90.0
100
AcDbRotatedDimension
1001
ACAD
1000
DSTYLE
1002
{
1070
     7
1000
OPEN30
1070
     6
1000
OPEN30
1070
   144
1040
1.0
1070
   274
1070
     4
1070
    41
1040
60.00003814697266
1070
    79
1070
     2
1070
   176
1070
     4
1070
   177
1070
     4
1070
   178
1070
     4
1070
   271
1070
     1
1070
    44
1040
20.0
1070
    42
1040
20.0
1070
   147
1040
20.0
1070
   173
1070
     1
1070
    77
1070
     3
1070
    73
1070
     0
1070
   172
1070
     1
1070
    74
1070
     0
1070
   283
1070
     0
1070
   340
1005
111
1070
   140
1040
60.0
1070
   284
1070
     8
1070
   288
1070
     1
1070
    78
1070
     8
1070
    90
1070
     1
1002
}
  0
DIMENSION
  5
621
330
1F
100
AcDbEntity
  8
LAYER0032
  6
CONTINUOUS
100
AcDbDimension
  2
*D16
 10
116.9683770113598
 20
736.4157160963236
 30
0.0
 11
116.9683770113598
 21
278.4157160963227
 31
0.0
 70
   160
  3
DC_ROTATED
100
AcDbAlignedDimension
 13
374.2424588086158
 23
-179.5842839036768
 33
0.0
 14
374.2424588086158
 24
736.4157160963236
 34
0.0
 50
90.0
100
AcDbRotatedDimension
1001
ACAD
1000
DSTYLE
1002
{
1070
     7
1000
OPEN30
1070
     6
1000
OPEN30
1070
   144
1040
1.0
1070
   274
1070
     4
1070
    41
1040
60.00003814697266
1070
    79
1070
     2
1070
   176
1070
     4
1070
   177
1070
     4
1070
   178
1070
     4
1070
   271
1070
     1
1070
    44
1040
20.0
1070
    42
1040
20.0
1070
   147
1040
20.0
1070
   173
1070
     1
1070
    77
1070
     3
1070
    73
1070
     0
1070
   172
1070
     1
1070
    74
1070
     0
1070
   283
1070
     0
1070
   340
1005
111
1070
   140
1040
60.0
1070
   284
1070
     8
1070
   288
1070
     1
1070
    78
1070
     8
1070
    90
1070
     1
1002
}
  0
DIMENSION
  5
622
330
1F
100
AcDbEntity
  8
LAYER0032
  6
CONTINUOUS
100
AcDbDimension
  2
*D17
 10
1808.542458808616
 20
827.2204767582812
 30
0.0
 11
1138.542458808616
 21
827.2204767582812
 31
0.0
 70
   160
  3
DC_ROTATED
100
AcDbAlignedDimension
 13
468.5424588086161
 23
678.4157160963236
 33
0.0
 14
1808.542458808616
 24
678.4157160963236
 34
0.0
100
AcDbRotatedDimension
1001
ACAD
1000
DSTYLE
1002
{
1070
     7
1000
OPEN30
1070
     6
1000
OPEN30
1070
   144
1040
1.0
1070
   274
1070
     4
1070
    41
1040
60.00003814697266
1070
    79
1070
     2
1070
   176
1070
     4
1070
   177
1070
     4
1070
   178
1070
     4
1070
   271
1070
     1
1070
    44
1040
20.0
1070
    42
1040
20.0
1070
   147
1040
19.99999999999909
1070
   173
1070
     1
1070
    77
1070
     3
1070
    73
1070
     0
1070
   172
1070
     1
1070
    74
1070
     0
1070
   283
1070
     0
1070
   340
1005
111
1070
   140
1040
60.0
1070
   284
1070
     8
1070
   288
1070
     1
1070
    78
1070
     8
1070
    90
1070
     1
1002
}
  0
DIMENSION
  5
623
330
1F
100
AcDbEntity
  8
LAYER0032
  6
CONTINUOUS
100
AcDbDimension
  2
*D18
 10
1902.842458808616
 20
955.9885375947829
 30
0.0
 11
1138.542458808616
 21
955.9885375947829
 31
0.0
 70
   160
  1
1528
  3
DC_ROTATED
100
AcDbAlignedDimension
 13
374.242458808616
 23
736.4157160963236
 33
0.0
 14
1902.842458808616
 24
736.4157160963236
 34
0.0
100
AcDbRotatedDimension
1001
ACAD
1000
DSTYLE
1002
{
1070
     7
1000
OPEN30
1070
     6
1000
OPEN30
1070
   144
1040
1.0
1070
   274
1070
     4
1070
    41
1040
60.00003814697266
1070
    79
1070
     2
1070
   176
1070
     4
1070
   177
1070
     4
1070
   178
1070
     4
1070
   271
1070
     1
1070
    44
1040
20.0
1070
    42
1040
20.0
1070
   147
1040
20.0
1070
   173
1070
     1
1070
    77
1070
     3
1070
    73
1070
     0
1070
   172
1070
     1
1070
    74
1070
     0
1070
   283
1070
     0
1070
   340
1005
111
1070
   140
1040
60.0
1070
   284
1070
     8
1070
   288
1070
     1
1070
    78
1070
     8
1070
    90
1070
     1
1002
}
  0
DIMENSION
  5
624
330
1F
100
AcDbEntity
  8
LAYER0032
  6
CONTINUOUS
100
AcDbDimension
  2
*D19
 10
1928.542458808616
 20
1093.954317062463
 30
0.0
 11
1138.542458808616
 21
1093.954317062463
 31
0.0
 70
   160
  3
DC_ROTATED
100
AcDbAlignedDimension
 13
348.542458808616
 23
625.4157160963236
 33
0.0
 14
1928.542458808616
 24
625.4157160963236
 34
0.0
100
AcDbRotatedDimension
1001
ACAD
1000
DSTYLE
1002
{
1070
     7
1000
OPEN30
1070
     6
1000
OPEN30
1070
   144
1040
1.0
1070
   274
1070
     4
1070
    41
1040
60.00003814697266
1070
    79
1070
     2
1070
   176
1070
     4
1070
   177
1070
     4
1070
   178
1070
     4
1070
   271
1070
     1
1070
    44
1040
20.0
1070
    42
1040
20.0
1070
   147
1040
19.99999999999909
1070
   173
1070
     1
1070
    77
1070
     3
1070
    73
1070
     0
1070
   172
1070
     1
1070
    74
1070
     0
1070
   283
1070
     0
1070
   340
1005
111
1070
   140
1040
60.0
1070
   284
1070
     8
1070
   288
1070
     1
1070
    78
1070
     8
1070
    90
1070
     1
1002
}
  0
DIMENSION
  5
625
330
1F
100
AcDbEntity
  8
LAYER0032
  6
CONTINUOUS
100
AcDbDimension
  2
*D20
 10
1953.542458808616
 20
1227.321237214555
 30
0.0
 11
1138.542458808616
 21
1227.321237214555
 31
0.0
 70
   160
  3
DC_ROTATED
100
AcDbAlignedDimension
 13
323.542458808616
 23
635.4157160963236
 33
0.0
 14
1953.542458808616
 24
635.4157160963236
 34
0.0
100
AcDbRotatedDimension
1001
ACAD
1000
DSTYLE
1002
{
1070
     7
1000
OPEN30
1070
     6
1000
OPEN30
1070
   144
1040
1.0
1070
   274
1070
     4
1070
    41
1040
60.00003814697266
1070
    79
1070
     2
1070
   176
1070
     4
1070
   177
1070
     4
1070
   178
1070
     4
1070
   271
1070
     1
1070
    44
1040
20.0
1070
    42
1040
20.0
1070
   147
1040
20.0
1070
   173
1070
     1
1070
    77
1070
     3
1070
    73
1070
     0
1070
   172
1070
     1
1070
    74
1070
     0
1070
   283
1070
     0
1070
   340
1005
111
1070
   140
1040
60.0
1070
   284
1070
     8
1070
   288
1070
     1
1070
    78
1070
     8
1070
    90
1070
     1
1002
}
  0
INSERT
  5
626
330
1F
100
AcDbEntity
  8
LAYER0032
  6
CONTINUOUS
100
AcDbBlockReference
  2
DC_GROUP_12
 10
0.0
 20
0.0
 30
0.0
  0
INSERT
  5
627
330
1F
100
AcDbEntity
  8
LAYER0032
  6
CONTINUOUS
100
AcDbBlockReference
  2
DC_GROUP_13
 10
0.0
 20
0.0
 30
0.0
  0
INSERT
  5
628
330
1F
100
AcDbEntity
  8
LAYER0032
  6
CONTINUOUS
100
AcDbBlockReference
  2
DC_GROUP_14
 10
0.0
 20
0.0
 30
0.0
  0
INSERT
  5
629
330
1F
100
AcDbEntity
  8
LAYER0032
  6
CONTINUOUS
100
AcDbBlockReference
  2
DC_GROUP_15
 10
0.0
 20
0.0
 30
0.0
  0
DIMENSION
  5
62A
330
1F
100
AcDbEntity
  8
LAYER0032
  6
CONTINUOUS
100
AcDbDimension
  2
*D25
 10
644.5654269789158
 20
466.4157160963236
 30
0.0
 11
644.5654269789158
 21
278.4157160963236
 31
0.0
 70
   160
  1
<>（スリム脚）
  3
DC_ROTATED
100
AcDbAlignedDimension
 13
500.1041381430822
 23
90.41571609632376
 33
0.0
 14
500.1041381430822
 24
466.4157160963236
 34
0.0
 50
90.0
100
AcDbRotatedDimension
1001
ACAD
1000
DSTYLE
1002
{
1070
     7
1000
OPEN30
1070
     6
1000
OPEN30
1070
   144
1040
1.0
1070
   274
1070
     4
1070
    41
1040
60.00003814697266
1070
    79
1070
     2
1070
   176
1070
     4
1070
   177
1070
     4
1070
   178
1070
     4
1070
   271
1070
     1
1070
    44
1040
20.0
1070
    42
1040
20.0
1070
   147
1040
20.00000000000011
1070
   173
1070
     1
1070
    77
1070
     3
1070
    73
1070
     0
1070
   172
1070
     1
1070
    74
1070
     0
1070
   283
1070
     0
1070
   340
1005
111
1070
   140
1040
60.0
1070
   284
1070
     8
1070
   288
1070
     1
1070
    78
1070
     8
1070
    90
1070
     1
1002
}
  0
DIMENSION
  5
62B
330
1F
100
AcDbEntity
  8
LAYER0032
  6
CONTINUOUS
100
AcDbDimension
  2
*D26
 10
803.265218396966
 20
466.4157160963236
 30
0.0
 11
803.265218396966
 21
187.4157160963234
 31
0.0
 70
   160
  1
<>（壁寄り脚）
  3
DC_ROTATED
100
AcDbAlignedDimension
 13
500.1041381430822
 23
-91.5842839036768
 33
0.0
 14
500.1041381430822
 24
466.4157160963236
 34
0.0
 50
90.0
100
AcDbRotatedDimension
1001
ACAD
1000
DSTYLE
1002
{
1070
     7
1000
OPEN30
1070
     6
1000
OPEN30
1070
   144
1040
1.0
1070
   274
1070
     4
1070
    41
1040
60.00003814697266
1070
    79
1070
     2
1070
   176
1070
     4
1070
   177
1070
     4
1070
   178
1070
     4
1070
   271
1070
     1
1070
    44
1040
20.0
1070
    42
1040
20.0
1070
   147
1040
20.0
1070
   173
1070
     1
1070
    77
1070
     3
1070
    73
1070
     0
1070
   172
1070
     1
1070
    74
1070
     0
1070
   283
1070
     0
1070
   340
1005
111
1070
   140
1040
60.0
1070
   284
1070
     8
1070
   288
1070
     1
1070
    78
1070
     8
1070
    90
1070
     1
1002
}
  0
DIMENSION
  5
62C
330
1F
100
AcDbEntity
  8
LAYER0032
  6
CONTINUOUS
100
AcDbDimension
  2
*D27
 10
970.0344907345782
 20
648.4157160963236
 30
0.0
 11
970.0344907345782
 21
278.4157160963234
 31
0.0
 70
   160
  1
<>（標準脚）
  3
DC_ROTATED
100
AcDbAlignedDimension
 13
500.1041381430822
 23
-91.5842839036768
 33
0.0
 14
500.1041381430822
 24
648.4157160963236
 34
0.0
 50
90.0
100
AcDbRotatedDimension
1001
ACAD
1000
DSTYLE
1002
{
1070
     7
1000
OPEN30
1070
     6
1000
OPEN30
1070
   144
1040
1.0
1070
   274
1070
     4
1070
    41
1040
60.00003814697266
1070
    79
1070
     2
1070
   176
1070
     4
1070
   177
1070
     4
1070
   178
1070
     4
1070
   271
1070
     1
1070
    44
1040
20.0
1070
    42
1040
20.0
1070
   147
1040
20.00000000000034
1070
   173
1070
     1
1070
    77
1070
     3
1070
    73
1070
     0
1070
   172
1070
     1
1070
    74
1070
     0
1070
   283
1070
     0
1070
   340
1005
111
1070
   140
1040
60.0
1070
   284
1070
     8
1070
   288
1070
     1
1070
    78
1070
     8
1070
    90
1070
     1
1002
}
  0
INSERT
  5
62D
330
1F
100
AcDbEntity
  8
LAYER0032
  6
CONTINUOUS
100
AcDbBlockReference
  2
DC_GROUP_16
 10
0.0
 20
0.0
 30
0.0
  0
INSERT
  5
62E
330
1F
100
AcDbEntity
  8
LAYER0032
  6
CONTINUOUS
100
AcDbBlockReference
  2
DC_GROUP_17
 10
0.0
 20
0.0
 30
0.0
  0
INSERT
  5
62F
330
1F
100
AcDbEntity
  8
LAYER0032
  6
CONTINUOUS
100
AcDbBlockReference
  2
DC_GROUP_18
 10
0.0
 20
0.0
 30
0.0
  0
INSERT
  5
630
330
1F
100
AcDbEntity
  8
LAYER0032
  6
CONTINUOUS
100
AcDbBlockReference
  2
DC_GROUP_19
 10
0.0
 20
0.0
 30
0.0
  0
LINE
  5
631
330
1F
100
AcDbEntity
  8
LAYER0048
  6
CONTINUOUS
 62
     2
100
AcDbLine
 10
-1662.089909083483
 20
1866.800609437159
 30
0.0
 11
-1662.089909083483
 21
1578.801185437159
 31
0.0
  0
LINE
  5
632
330
1F
100
AcDbEntity
  8
LAYER0048
  6
CONTINUOUS
 62
     2
100
AcDbLine
 10
1659.034338436518
 20
1866.800609437159
 30
0.0
 11
-1662.089909083484
 21
1866.800609437159
 31
0.0
  0
LINE
  5
633
330
1F
100
AcDbEntity
  8
LAYER0048
  6
CONTINUOUS
 62
     2
100
AcDbLine
 10
1659.034338436518
 20
1578.801185437159
 30
0.0
 11
1659.034338436518
 21
1866.800609437159
 31
0.0
  0
LINE
  5
634
330
1F
100
AcDbEntity
  8
LAYER0048
  6
CONTINUOUS
 62
     2
100
AcDbLine
 10
-1662.089909083484
 20
1578.801185437159
 30
0.0
 11
1659.034338436518
 21
1578.801185437159
 31
0.0
  0
CIRCLE
  5
635
330
1F
100
AcDbEntity
  8
LAYER0032
  6
CONTINUOUS
 62
     3
100
AcDbCircle
 10
348.5424588086159
 20
595.4157160963236
 30
0.0
 40
7.000000000000001
  0
LINE
  5
636
330
1F
100
AcDbEntity
  8
LAYER0032
  6
CONTINUOUS
 62
     3
100
AcDbLine
 10
332.5424588086159
 20
575.4157160963223
 30
0.0
 11
364.5424588086159
 21
575.4157160963223
 31
0.0
  0
LINE
  5
637
330
1F
100
AcDbEntity
  8
LAYER0032
  6
CONTINUOUS
 62
     3
100
AcDbLine
 10
364.5424588086159
 20
575.4157160963223
 30
0.0
 11
364.5424588086159
 21
615.4157160963225
 31
0.0
  0
LINE
  5
638
330
1F
100
AcDbEntity
  8
LAYER0032
  6
CONTINUOUS
 62
     3
100
AcDbLine
 10
364.5424588086159
 20
615.4157160963225
 30
0.0
 11
332.5424588086159
 21
615.4157160963225
 31
0.0
  0
LINE
  5
639
330
1F
100
AcDbEntity
  8
LAYER0032
  6
CONTINUOUS
 62
     3
100
AcDbLine
 10
332.5424588086159
 20
615.4157160963225
 30
0.0
 11
332.5424588086159
 21
575.4157160963223
 31
0.0
  0
CIRCLE
  5
63A
330
1F
100
AcDbEntity
  8
LAYER0032
  6
CONTINUOUS
 62
     3
100
AcDbCircle
 10
348.5424588086159
 20
-38.58428390367641
 30
0.0
 40
7.000000000000001
  0
LINE
  5
63B
330
1F
100
AcDbEntity
  8
LAYER0032
  6
CONTINUOUS
 62
     3
100
AcDbLine
 10
332.5424588086159
 20
-58.58428390367766
 30
0.0
 11
364.5424588086159
 21
-58.58428390367766
 31
0.0
  0
LINE
  5
63C
330
1F
100
AcDbEntity
  8
LAYER0032
  6
CONTINUOUS
 62
     3
100
AcDbLine
 10
364.5424588086159
 20
-58.58428390367766
 30
0.0
 11
364.5424588086159
 21
-18.58428390367754
 31
0.0
  0
LINE
  5
63D
330
1F
100
AcDbEntity
  8
LAYER0032
  6
CONTINUOUS
 62
     3
100
AcDbLine
 10
364.5424588086159
 20
-18.58428390367754
 30
0.0
 11
332.5424588086159
 21
-18.58428390367754
 31
0.0
  0
LINE
  5
63E
330
1F
100
AcDbEntity
  8
LAYER0032
  6
CONTINUOUS
 62
     3
100
AcDbLine
 10
332.5424588086159
 20
-18.58428390367754
 30
0.0
 11
332.5424588086159
 21
-58.58428390367766
 31
0.0
  0
CIRCLE
  5
63F
330
1F
100
AcDbEntity
  8
LAYER0032
  6
CONTINUOUS
 62
     3
100
AcDbCircle
 10
1928.192458808616
 20
595.4157160963236
 30
0.0
 40
7.000000000000001
  0
LINE
  5
640
330
1F
100
AcDbEntity
  8
LAYER0032
  6
CONTINUOUS
 62
     3
100
AcDbLine
 10
1912.192458808616
 20
575.4157160963223
 30
0.0
 11
1944.192458808616
 21
575.4157160963223
 31
0.0
  0
LINE
  5
641
330
1F
100
AcDbEntity
  8
LAYER0032
  6
CONTINUOUS
 62
     3
100
AcDbLine
 10
1944.192458808616
 20
575.4157160963223
 30
0.0
 11
1944.192458808616
 21
615.4157160963225
 31
0.0
  0
LINE
  5
642
330
1F
100
AcDbEntity
  8
LAYER0032
  6
CONTINUOUS
 62
     3
100
AcDbLine
 10
1944.192458808616
 20
615.4157160963225
 30
0.0
 11
1912.192458808616
 21
615.4157160963225
 31
0.0
  0
LINE
  5
643
330
1F
100
AcDbEntity
  8
LAYER0032
  6
CONTINUOUS
 62
     3
100
AcDbLine
 10
1912.192458808616
 20
615.4157160963225
 30
0.0
 11
1912.192458808616
 21
575.4157160963223
 31
0.0
  0
CIRCLE
  5
644
330
1F
100
AcDbEntity
  8
LAYER0032
  6
CONTINUOUS
 62
     3
100
AcDbCircle
 10
1928.542458808616
 20
-38.58428390367635
 30
0.0
 40
7.000000000000001
  0
LINE
  5
645
330
1F
100
AcDbEntity
  8
LAYER0032
  6
CONTINUOUS
 62
     3
100
AcDbLine
 10
1912.542458808616
 20
-58.58428390367771
 30
0.0
 11
1944.542458808616
 21
-58.58428390367771
 31
0.0
  0
LINE
  5
646
330
1F
100
AcDbEntity
  8
LAYER0032
  6
CONTINUOUS
 62
     3
100
AcDbLine
 10
1944.542458808616
 20
-58.58428390367771
 30
0.0
 11
1944.542458808616
 21
-18.58428390367749
 31
0.0
  0
LINE
  5
647
330
1F
100
AcDbEntity
  8
LAYER0032
  6
CONTINUOUS
 62
     3
100
AcDbLine
 10
1944.542458808616
 20
-18.58428390367749
 30
0.0
 11
1912.542458808616
 21
-18.58428390367749
 31
0.0
  0
LINE
  5
648
330
1F
100
AcDbEntity
  8
LAYER0032
  6
CONTINUOUS
 62
     3
100
AcDbLine
 10
1912.542458808616
 20
-18.58428390367749
 30
0.0
 11
1912.542458808616
 21
-58.58428390367771
 31
0.0
  0
VIEWPORT
  5
B3
330
1B
100
AcDbEntity
 67
     1
  8
0
100
AcDbViewport
 68
     1
 10
-0.0000000000027285
 20
1.999999999999545
 30
0.0
 40
15420.0
 41
11772.0
 68
     1
 69
     1
1001
ACAD
1000
MVIEW
1002
{
1070
    16
1010
0.0
1020
0.0
1030
0.0
1010
0.0
1020
0.0
1030
1.0
1040
0.0
1040
11772.0
1040
-0.0000000000027285
1040
1.999999999999545
1040
50.0
1040
0.0
1040
0.0
1070
     0
1070
   100
1070
     0
1070
     3
1070
     0
1070
     0
1070
     0
1070
     0
1040
0.0
1040
0.0
1040
0.0
1040
0.5
1040
0.5
1040
0.0
1040
0.0
1070
     0
1002
{
1002
}
1002
}
  0
ENDSEC
  0
SECTION
  2
OBJECTS
  0
DICTIONARY
  5
C
330
0
100
AcDbDictionary
  3
ACAD_GROUP
350
D
  3
ACAD_LAYOUT
350
1A
  3
ACAD_MATERIAL
350
43
  3
ACAD_MLEADERSTYLE
350
6B
  3
ACAD_MLINESTYLE
350
17
  3
ACAD_PLOTSETTINGS
350
19
  3
ACAD_SCALELIST
350
47
  3
ACAD_VISUALSTYLE
350
2A
  3
ACDBVARIABLEDICTIONARY
350
649
1001
ACAD
1000
TREAT_AS_HARD
1070
     0
  0
DICTIONARY
  5
D
102
{ACAD_REACTORS
330
C
102
}
330
C
100
AcDbDictionary
1001
ACAD
1000
TREAT_AS_HARD
1070
     0
  0
DICTIONARY
  5
1A
102
{ACAD_REACTORS
330
C
102
}
330
C
100
AcDbDictionary
1001
ACAD
1000
TREAT_AS_HARD
1070
     0
  0
DICTIONARY
  5
43
102
{ACAD_REACTORS
330
C
102
}
330
C
100
AcDbDictionary
  3
BYBLOCK
350
45
  3
BYLAYER
350
44
  3
GLOBAL
350
46
1001
ACAD
1000
TREAT_AS_HARD
1070
     0
  0
DICTIONARY
  5
6B
102
{ACAD_REACTORS
330
C
102
}
330
C
100
AcDbDictionary
  3
STANDARD
350
6C
1001
ACAD
1000
TREAT_AS_HARD
1070
     0
  0
DICTIONARY
  5
17
102
{ACAD_REACTORS
330
C
102
}
330
C
100
AcDbDictionary
  3
STANDARD
350
18
1001
ACAD
1000
TREAT_AS_HARD
1070
     0
  0
DICTIONARY
  5
19
102
{ACAD_REACTORS
330
C
102
}
330
C
100
AcDbDictionary
1001
ACAD
1000
TREAT_AS_HARD
1070
     0
  0
DICTIONARY
  5
47
102
{ACAD_REACTORS
330
C
102
}
330
C
100
AcDbDictionary
  3
A0
350
48
  3
A1
350
49
  3
A2
350
4A
  3
A3
350
4B
  3
A4
350
4C
  3
A5
350
4D
  3
A6
350
4E
  3
A7
350
4F
  3
A8
350
50
  3
A9
350
51
  3
B0
350
52
  3
B1
350
53
  3
B2
350
54
  3
B3
350
55
  3
B4
350
56
  3
B5
350
57
  3
B6
350
58
  3
B7
350
59
  3
B8
350
5A
  3
B9
350
5B
  3
C0
350
5C
  3
C1
350
5D
  3
C2
350
5E
  3
C3
350
5F
  3
C4
350
60
  3
C5
350
61
  3
C6
350
62
  3
C7
350
63
  3
C8
350
64
  3
C9
350
65
  3
D0
350
66
  3
D1
350
67
  3
D2
350
68
1001
ACAD
1000
TREAT_AS_HARD
1070
     0
  0
DICTIONARY
  5
2A
102
{ACAD_REACTORS
330
C
102
}
330
C
100
AcDbDictionary
  3
2DWIREFRAME
350
2F
  3
BASIC
350
32
  3
BRIGHTEN
350
36
  3
COLORCHANGE
350
3A
  3
CONCEPTUAL
350
34
  3
DIM
350
35
  3
EDGECOLOROFF
350
3D
  3
FACEPATTERN
350
39
  3
FLAT
350
2B
  3
FLATWITHEDGES
350
2C
  3
GOURAUD
350
2D
  3
GOURAUDWITHEDGES
350
2E
  3
HIDDEN
350
31
  3
JITTEROFF
350
3B
  3
LINEPATTERN
350
38
  3
OVERHANGOFF
350
3C
  3
REALISTIC
350
33
  3
SHADED
350
42
  3
SHADED_WITH_EDGES
350
41
  3
SHADES_OF_GRAY
350
3E
  3
SKETCHY
350
3F
  3
THICKEN
350
37
  3
WIREFRAME
350
30
  3
X-RAY
350
40
1001
ACAD
1000
TREAT_AS_HARD
1070
     0
  0
DICTIONARY
  5
649
102
{ACAD_REACTORS
330
C
102
}
330
C
100
AcDbDictionary
  3
CANNOSCALE
350
650
  3
CMLEADERSTYLE
350
64B
  3
CTABLESTYLE
350
64A
  3
DIMASSOC
350
64E
  3
HIDETEXT
350
64F
  3
MSLTSCALE
350
651
1001
ACAD
1000
TREAT_AS_HARD
1070
     0
  0
MATERIAL
  5
45
102
{ACAD_REACTORS
330
43
102
}
102
{ACAD_XDICTIONARY
360
654
102
}
330
43
100
AcDbMaterial
  1
BYBLOCK
  0
MATERIAL
  5
44
102
{ACAD_REACTORS
330
43
102
}
102
{ACAD_XDICTIONARY
360
652
102
}
330
43
100
AcDbMaterial
  1
BYLAYER
  0
MATERIAL
  5
46
102
{ACAD_REACTORS
330
43
102
}
102
{ACAD_XDICTIONARY
360
656
102
}
330
43
100
AcDbMaterial
  1
GLOBAL
  0
ACAD_PROXY_OBJECT
  5
6C
102
{ACAD_REACTORS
330
6B
102
}
330
6B
100
AcDbZombieObject
 90
      499
 91
      505
 93
      610
310
40901902A4063FBFFFFFE056BD1B81E855B9FC0AD7A3703D0AD73F4214DD185B99185C9900AD7A3703D0AC73F90141901A02B5E8DC0F42B1CFC02B5E8DC0F42B1CFE5764000000000000300FC0
340
14
340
0
340
11
340
0
 94
        0
1001
ACAD_MLEADERVER
1070
     2
  0
MLINESTYLE
  5
18
102
{ACAD_REACTORS
330
17
102
}
330
17
100
AcDbMlineStyle
  2
Standard
 70
     0
  3

 62
   256
 51
90.0
 52
90.0
 71
     2
 49
0.5
 62
   256
  6
BYLAYER
 49
-0.5
 62
   256
  6
BYLAYER
  0
ACAD_PROXY_OBJECT
  5
48
102
{ACAD_REACTORS
330
47
102
}
330
47
100
AcDbZombieObject
 90
      499
 91
      503
 93
       41
310
903313A31580
  0
ACAD_PROXY_OBJECT
  5
49
102
{ACAD_REACTORS
330
47
102
}
330
47
100
AcDbZombieObject
 90
      499
 91
      503
 93
      105
310
903313A324000000000000004000
  0
ACAD_PROXY_OBJECT
  5
4A
102
{ACAD_REACTORS
330
47
102
}
330
47
100
AcDbZombieObject
 90
      499
 91
      503
 93
      105
310
903313A344000000000000104000
  0
ACAD_PROXY_OBJECT
  5
4B
102
{ACAD_REACTORS
330
47
102
}
330
47
100
AcDbZombieObject
 90
      499
 91
      503
 93
      105
310
903313A354000000000000144000
  0
ACAD_PROXY_OBJECT
  5
4C
102
{ACAD_REACTORS
330
47
102
}
330
47
100
AcDbZombieObject
 90
      499
 91
      503
 93
      105
310
903313A384000000000000204000
  0
ACAD_PROXY_OBJECT
  5
4D
102
{ACAD_REACTORS
330
47
102
}
330
47
100
AcDbZombieObject
 90
      499
 91
      503
 93
      113
310
904313A31304000000000000244000
  0
ACAD_PROXY_OBJECT
  5
4E
102
{ACAD_REACTORS
330
47
102
}
330
47
100
AcDbZombieObject
 90
      499
 91
      503
 93
      113
310
904313A31364000000000000304000
  0
ACAD_PROXY_OBJECT
  5
4F
102
{ACAD_REACTORS
330
47
102
}
330
47
100
AcDbZombieObject
 90
      499
 91
      503
 93
      113
310
904313A32304000000000000344000
  0
ACAD_PROXY_OBJECT
  5
50
102
{ACAD_REACTORS
330
47
102
}
330
47
100
AcDbZombieObject
 90
      499
 91
      503
 93
      113
310
904313A333040000000000003E4000
  0
ACAD_PROXY_OBJECT
  5
51
102
{ACAD_REACTORS
330
47
102
}
330
47
100
AcDbZombieObject
 90
      499
 91
      503
 93
      113
310
904313A34304000000000000444000
  0
ACAD_PROXY_OBJECT
  5
52
102
{ACAD_REACTORS
330
47
102
}
330
47
100
AcDbZombieObject
 90
      499
 91
      503
 93
      113
310
904313A35304000000000000494000
  0
ACAD_PROXY_OBJECT
  5
53
102
{ACAD_REACTORS
330
47
102
}
330
47
100
AcDbZombieObject
 90
      499
 91
      503
 93
      121
310
905313A3130304000000000000594000
  0
ACAD_PROXY_OBJECT
  5
54
102
{ACAD_REACTORS
330
47
102
}
330
47
100
AcDbZombieObject
 90
      499
 91
      503
 93
      105
310
903323A310000000000000010100
  0
ACAD_PROXY_OBJECT
  5
55
102
{ACAD_REACTORS
330
47
102
}
330
47
100
AcDbZombieObject
 90
      499
 91
      503
 93
      105
310
903343A310000000000000410100
  0
ACAD_PROXY_OBJECT
  5
56
102
{ACAD_REACTORS
330
47
102
}
330
47
100
AcDbZombieObject
 90
      499
 91
      503
 93
      105
310
903383A310000000000000810100
  0
ACAD_PROXY_OBJECT
  5
57
102
{ACAD_REACTORS
330
47
102
}
330
47
100
AcDbZombieObject
 90
      499
 91
      503
 93
      113
310
90431303A310000000000000910100
  0
ACAD_PROXY_OBJECT
  5
58
102
{ACAD_REACTORS
330
47
102
}
330
47
100
AcDbZombieObject
 90
      499
 91
      503
 93
      121
310
9053130303A310000000000001650100
  0
ACAD_PROXY_OBJECT
  5
59
102
{ACAD_REACTORS
330
47
102
}
330
47
100
AcDbZombieObject
 90
      499
 91
      503
 93
      257
310
90E312F31323822203D2031272D3022000000000000200FC000000000000284000
  0
ACAD_PROXY_OBJECT
  5
5A
102
{ACAD_REACTORS
330
47
102
}
330
47
100
AcDbZombieObject
 90
      499
 91
      503
 93
      249
310
90D312F363422203D2031272D3022000000000000240FC000000000000284000
  0
ACAD_PROXY_OBJECT
  5
5B
102
{ACAD_REACTORS
330
47
102
}
330
47
100
AcDbZombieObject
 90
      499
 91
      503
 93
      249
310
90D312F333222203D2031272D3022000000000000280FC000000000000284000
  0
ACAD_PROXY_OBJECT
  5
5C
102
{ACAD_REACTORS
330
47
102
}
330
47
100
AcDbZombieObject
 90
      499
 91
      503
 93
      249
310
90D312F313622203D2031272D30220000000000002C0FC000000000000284000
  0
ACAD_PROXY_OBJECT
  5
5D
102
{ACAD_REACTORS
330
47
102
}
330
47
100
AcDbZombieObject
 90
      499
 91
      503
 93
      249
310
90D332F333222203D2031272D30220000000000002E0FC000000000000284000
  0
ACAD_PROXY_OBJECT
  5
5E
102
{ACAD_REACTORS
330
47
102
}
330
47
100
AcDbZombieObject
 90
      499
 91
      503
 93
      241
310
90C312F3822203D2031272D3022000000000000300FC000000000000284000
  0
ACAD_PROXY_OBJECT
  5
5F
102
{ACAD_REACTORS
330
47
102
}
330
47
100
AcDbZombieObject
 90
      499
 91
      503
 93
      249
310
90D332F313622203D2031272D3022000000000000320FC000000000000284000
  0
ACAD_PROXY_OBJECT
  5
60
102
{ACAD_REACTORS
330
47
102
}
330
47
100
AcDbZombieObject
 90
      499
 91
      503
 93
      241
310
90C312F3422203D2031272D3022000000000000340FC000000000000284000
  0
ACAD_PROXY_OBJECT
  5
61
102
{ACAD_REACTORS
330
47
102
}
330
47
100
AcDbZombieObject
 90
      499
 91
      503
 93
      241
310
90C332F3822203D2031272D3022000000000000360FC000000000000284000
  0
ACAD_PROXY_OBJECT
  5
62
102
{ACAD_REACTORS
330
47
102
}
330
47
100
AcDbZombieObject
 90
      499
 91
      503
 93
      241
310
90C312F3222203D2031272D3022000000000000380FC000000000000284000
  0
ACAD_PROXY_OBJECT
  5
63
102
{ACAD_REACTORS
330
47
102
}
330
47
100
AcDbZombieObject
 90
      499
 91
      503
 93
      241
310
90C332F3422203D2031272D30220000000000003A0FC000000000000284000
  0
ACAD_PROXY_OBJECT
  5
64
102
{ACAD_REACTORS
330
47
102
}
330
47
100
AcDbZombieObject
 90
      499
 91
      503
 93
      161
310
90A3122203D2031272D30224000000000000284000
  0
ACAD_PROXY_OBJECT
  5
65
102
{ACAD_REACTORS
330
47
102
}
330
47
100
AcDbZombieObject
 90
      499
 91
      503
 93
      257
310
90E312D312F3222203D2031272D30220000000000003E0FC000000000000284000
  0
ACAD_PROXY_OBJECT
  5
66
102
{ACAD_REACTORS
330
47
102
}
330
47
100
AcDbZombieObject
 90
      499
 91
      503
 93
      225
310
90A3322203D2031272D302200000000000002100000000000000284000
  0
ACAD_PROXY_OBJECT
  5
67
102
{ACAD_REACTORS
330
47
102
}
330
47
100
AcDbZombieObject
 90
      499
 91
      503
 93
      225
310
90A3622203D2031272D302200000000000006100000000000000284000
  0
ACAD_PROXY_OBJECT
  5
68
102
{ACAD_REACTORS
330
47
102
}
330
47
100
AcDbZombieObject
 90
      499
 91
      503
 93
      249
310
90D31272D3022203D2031272D30220000000000000A100000000000000284000
  0
ACAD_PROXY_OBJECT
  5
2F
102
{ACAD_REACTORS
330
2A
102
}
330
2A
100
AcDbZombieObject
 90
      499
 91
      501
 93
      436
310
42CC9915DA5C99599C985B595049028333333333333E33F0000000000000F90107901411070040501600405405064090741402480A0340
1001
ACAD
1000
AcDbSavedByObjectVersion
1070
     0
  0
ACAD_PROXY_OBJECT
  5
32
102
{ACAD_REACTORS
330
2A
102
}
330
2A
100
AcDbZombieObject
 90
      499
 91
      501
 93
      388
310
4150985CDA58D07406404333333333333E33F0000000000000F90107A41107004050150841D405064090741402480A0350
1001
ACAD
1000
AcDbSavedByObjectVersion
1070
     0
  0
ACAD_PROXY_OBJECT
  5
36
102
{ACAD_REACTORS
330
2A
102
}
330
2A
100
AcDbZombieObject
 90
      499
 91
      501
 93
      428
310
42109C9A59DA1D195B90C409028333333333333E33F0000000000000F9010790141107004050150841D405064090741402480A029950
1001
ACAD
1000
AcDbSavedByObjectVersion
1070
     0
  0
ACAD_PROXY_OBJECT
  5
3A
102
{ACAD_REACTORS
330
2A
102
}
330
2A
100
AcDbZombieObject
 90
      499
 91
      501
 93
      452
310
42D0DBDB1BDC90DA185B99D95104090240C333333333333E33F0000000000000F90108901411070040501508421405064090741402480A0350
1001
ACAD
1000
AcDbSavedByObjectVersion
1070
     0
  0
ACAD_PROXY_OBJECT
  5
34
102
{ACAD_REACTORS
330
2A
102
}
330
2A
100
AcDbZombieObject
 90
      499
 91
      501
 93
      500
310
4290DBDB98D95C1D1D585B10940D028333333333333E33F0000000000000F90107902409070040501000000000018199010841D405064090740C02480A0340
1001
ACAD
1000
AcDbSavedByObjectVersion
1070
     0
  0
ACAD_PROXY_OBJECT
  5
35
102
{ACAD_REACTORS
330
2A
102
}
330
2A
100
AcDbZombieObject
 90
      499
 91
      501
 93
      412
310
40D11A5B50B409028333333333333E33F0000000000000F9010790141107004050150841D405064090741402480A02677FFFFFD0
1001
ACAD
1000
AcDbSavedByObjectVersion
1070
     0
  0
ACAD_PROXY_OBJECT
  5
3D
102
{ACAD_REACTORS
330
2A
102
}
330
2A
100
AcDbZombieObject
 90
      499
 91
      501
 93
      452
310
43115919D950DBDB1BDC93D999916409028333333333333E33F0000000000000F9010790141107004050150841D405064090741402480A0350
1001
ACAD
1000
AcDbSavedByObjectVersion
1070
     0
  0
ACAD_PROXY_OBJECT
  5
39
102
{ACAD_REACTORS
330
2A
102
}
330
2A
100
AcDbZombieObject
 90
      499
 91
      501
 93
      444
310
42D19858D95C185D1D195C9B90F409028333333333333E33F0000000000000F9010790141107004050150841D405064090741402480A0350
1001
ACAD
1000
AcDbSavedByObjectVersion
1070
     0
  0
ACAD_PROXY_OBJECT
  5
2B
102
{ACAD_REACTORS
330
2A
102
}
330
2A
100
AcDbZombieObject
 90
      499
 91
      501
 93
      380
310
41119B185D240901404333333333333E33F0000000000000F9010740A907004050150841D405064090741402480A1B50
1001
ACAD
1000
AcDbSavedByObjectVersion
1070
     0
  0
ACAD_PROXY_OBJECT
  5
2C
102
{ACAD_REACTORS
330
2A
102
}
330
2A
100
AcDbZombieObject
 90
      499
 91
      501
 93
      468
310
43519B185D15DA5D1A115919D95CD0140901404333333333333E33F0000000000000F90107409019070040501600405405064090741402480A1B50
1001
ACAD
1000
AcDbSavedByObjectVersion
1070
     0
  0
ACAD_PROXY_OBJECT
  5
2D
102
{ACAD_REACTORS
330
2A
102
}
330
2A
100
AcDbZombieObject
 90
      499
 91
      501
 93
      404
310
41D1DBDD5C985D5910240902404333333333333E33F0000000000000F9010740A9070040501641D405064090741402480A1B50
1001
ACAD
1000
AcDbSavedByObjectVersion
1070
     0
  0
ACAD_PROXY_OBJECT
  5
2E
102
{ACAD_REACTORS
330
2A
102
}
330
2A
100
AcDbZombieObject
 90
      499
 91
      501
 93
      492
310
4411DBDD5C985D5915DA5D1A115919D95CD0340902404333333333333E33F0000000000000F90107409019070040501600405405064090741402480A1B50
1001
ACAD
1000
AcDbSavedByObjectVersion
1070
     0
  0
ACAD_PROXY_OBJECT
  5
31
102
{ACAD_REACTORS
330
2A
102
}
330
2A
100
AcDbZombieObject
 90
      499
 91
      501
 93
      476
310
41921A5919195B90640502408333333333333E33F0000000000000F901079024090700405020000000000001110200405405064090740C02480A0340
1001
ACAD
1000
AcDbSavedByObjectVersion
1070
     0
  0
ACAD_PROXY_OBJECT
  5
3B
102
{ACAD_REACTORS
330
2A
102
}
330
2A
100
AcDbZombieObject
 90
      499
 91
      501
 93
      428
310
42529A5D1D195C93D999914409028333333333333E33F0000000000000F9010790141107004050150A41D405064090741402480A0350
1001
ACAD
1000
AcDbSavedByObjectVersion
1070
     0
  0
ACAD_PROXY_OBJECT
  5
38
102
{ACAD_REACTORS
330
2A
102
}
330
2A
100
AcDbZombieObject
 90
      499
 91
      501
 93
      444
310
42D31A5B995C185D1D195C9B90E409028333333333333E33F0000000000000F9010790141107004050750841D405064090741402483A0350
1001
ACAD
1000
AcDbSavedByObjectVersion
1070
     0
  0
ACAD_PROXY_OBJECT
  5
3C
102
{ACAD_REACTORS
330
2A
102
}
330
2A
100
AcDbZombieObject
 90
      499
 91
      501
 93
      444
310
42D3DD995C9A185B99D3D999915409028333333333333E33F0000000000000F9010790141107004050150941D405064090741402480A0350
1001
ACAD
1000
AcDbSavedByObjectVersion
1070
     0
  0
ACAD_PROXY_OBJECT
  5
33
102
{ACAD_REACTORS
330
2A
102
}
330
2A
100
AcDbZombieObject
 90
      499
 91
      501
 93
      428
310
425499585B1A5CDD1A58D08409038333333333333E33F0000000000000F9010740A907004050150800405405064090740C02480A1B40
1001
ACAD
1000
AcDbSavedByObjectVersion
1070
     0
  0
ACAD_PROXY_OBJECT
  5
42
102
{ACAD_REACTORS
330
2A
102
}
330
2A
100
AcDbZombieObject
 90
      499
 91
      501
 93
      420
310
4194DA1859195911B40902404333333333333E33F0000000000000F9010740A41107004050150800405405064090840C02480A0B40
1001
ACAD
1000
AcDbSavedByObjectVersion
1070
     0
  0
ACAD_PROXY_OBJECT
  5
41
102
{ACAD_REACTORS
330
2A
102
}
330
2A
100
AcDbZombieObject
 90
      499
 91
      501
 93
      516
310
4454DA18591959081DDA5D1A08195919D95CD1A40902404333333333333E33F0000000000000F901074090142907004050250800405405064090740C02480A0B40
1001
ACAD
1000
AcDbSavedByObjectVersion
1070
     0
  0
ACAD_PROXY_OBJECT
  5
3E
102
{ACAD_REACTORS
330
2A
102
}
330
2A
100
AcDbZombieObject
 90
      499
 91
      501
 93
      532
310
4394DA1859195CC81BD98811DC985E5174090240C333333333333E33F0000000000000F901079024090741D01000000000000111010841D405064090740C02480A0340
1001
ACAD
1000
AcDbSavedByObjectVersion
1070
     0
  0
ACAD_PROXY_OBJECT
  5
3F
102
{ACAD_REACTORS
330
2A
102
}
330
2A
100
AcDbZombieObject
 90
      499
 91
      501
 93
      476
310
41D4DAD95D18DA1E51840502408333333333333E33F0000000000000F901079024090741D01000000000000111010B41D405064090741802480A0340
1001
ACAD
1000
AcDbSavedByObjectVersion
1070
     0
  0
ACAD_PROXY_OBJECT
  5
37
102
{ACAD_REACTORS
330
2A
102
}
330
2A
100
AcDbZombieObject
 90
      499
 91
      501
 93
      412
310
41D51A1A58DAD95B90D409028333333333333E33F0000000000000F9010790141107004050150C41D405064090741402480A0350
1001
ACAD
1000
AcDbSavedByObjectVersion
1070
     0
  0
ACAD_PROXY_OBJECT
  5
30
102
{ACAD_REACTORS
330
2A
102
}
330
2A
100
AcDbZombieObject
 90
      499
 91
      501
 93
      420
310
4255DA5C99599C985B595059028333333333333E33F0000000000000F90107901411070040501600405405064090740C02480A0340
1001
ACAD
1000
AcDbSavedByObjectVersion
1070
     0
  0
ACAD_PROXY_OBJECT
  5
40
102
{ACAD_REACTORS
330
2A
102
}
330
2A
100
AcDbZombieObject
 90
      499
 91
      501
 93
      404
310
41560B54985E51940902404000000000000E03F0000000000000F9010740501907004050150841D405064090740C02480A1B40
1001
ACAD
1000
AcDbSavedByObjectVersion
1070
     0
  0
DICTIONARYVAR
  5
650
102
{ACAD_REACTORS
330
649
102
}
330
649
100
DictionaryVariables
280
     0
  1
1:1
  0
DICTIONARYVAR
  5
64B
102
{ACAD_REACTORS
330
649
102
}
330
649
100
DictionaryVariables
280
     0
  1
Standard
  0
DICTIONARYVAR
  5
64A
102
{ACAD_REACTORS
330
649
102
}
330
649
100
DictionaryVariables
280
     0
  1
Standard
  0
DICTIONARYVAR
  5
64E
102
{ACAD_REACTORS
330
649
102
}
330
649
100
DictionaryVariables
280
     0
  1
2
  0
DICTIONARYVAR
  5
64F
102
{ACAD_REACTORS
330
649
102
}
330
649
100
DictionaryVariables
280
     0
  1
1
  0
DICTIONARYVAR
  5
651
102
{ACAD_REACTORS
330
649
102
}
330
649
100
DictionaryVariables
280
     0
  1
1
  0
DICTIONARY
  5
654
330
45
100
AcDbDictionary
  3
ACAD_XREC_ROUNDTRIP
360
655
1001
ACAD
1000
TREAT_AS_HARD
1070
     1
  0
DICTIONARY
  5
652
330
44
100
AcDbDictionary
  3
ACAD_XREC_ROUNDTRIP
360
653
1001
ACAD
1000
TREAT_AS_HARD
1070
     1
  0
DICTIONARY
  5
656
330
46
100
AcDbDictionary
  3
ACAD_XREC_ROUNDTRIP
360
657
1001
ACAD
1000
TREAT_AS_HARD
1070
     1
  0
XRECORD
  5
655
102
{ACAD_REACTORS
330
654
102
}
330
654
100
AcDbXrecord
102
MATERIAL
148
0.0
149
0.0
149
0.0
 93
        0
 94
      127
282
     0
 72
     1
 77
     1
171
     1
175
     1
179
     1
273
     0
  0
XRECORD
  5
653
102
{ACAD_REACTORS
330
652
102
}
330
652
100
AcDbXrecord
102
MATERIAL
148
0.0
149
0.0
149
0.0
 93
        0
 94
      127
282
     0
 72
     1
 77
     1
171
     1
175
     1
179
     1
273
     0
  0
XRECORD
  5
657
102
{ACAD_REACTORS
330
656
102
}
330
656
100
AcDbXrecord
102
MATERIAL
148
0.0
149
0.0
149
0.0
 93
        0
 94
      127
282
     0
 72
     1
 77
     1
171
     1
175
     1
179
     1
273
     0
  0
ENDSEC
  0
EOF
